Today is a free download without charge Download

Идиот (1958) DVDRip

Reply to topic
 
Author
Message

Region_13 ®

Gender:

Longevity: 5 years 4 months

Posts: 784

Location: Мальдивы

Торрент-статистика

Post 11-Feb-2016 22:50

[Quote]

Идиот - Производство: СССР
Жанр: Драма
Режиссер: Иван Пырьев
Актеры: Юлия Борисова, Юрий Яковлев, Николай Подгорный, Леонид Пархоменко, Вера Пашенная
Описание:
По первой части одноименного романа Ф. М. Достоевского ("Настасья Филипповна").
Фильм рассказывает о возвращении в Россию после лечения князя Льва Николаевича Мышкина, его появлении в доме Епанчиных и знакомстве с необыкновенной женщиной Настасьей Филипповной, чей облик с первой секунды поражает князя.


Продолжительность: 01:55:59
Качество видео: DVDRip
Видео кодек MPEG4
Формат avc
Видео: AVC/H.264, 720x520, ~1500 Kbps
Аудио: AC3, 2 ch, 256 kbps

Mediainfo:

Код:
General
Unique ID                      : 206455709415407454233303775392903709060 (0x9B51EC5D146A9F049A891878BA4BC184)
Complete name                  : Идиот.mkv
Format                         : Matroska
Format version                 : Version 4 / Version 2
File size                      : 1.43 GiB
Duration                       : 1h 55mn
Overall bit rate               : 1 762 Kbps
Movie name                     : Идиот 1958 (rip by smithland)
Encoded date                   : UTC 2016-02-02 16:04:56
Writing application            : mkvmerge v8.5.2 ('Crosses') 64bit
Writing library                : libebml v1.3.3 + libmatroska v1.4.4
Attachements                   : COVER.jpg
DURATION                       : 01:55:58.752000000
NUMBER_OF_FRAMES               : 217461
NUMBER_OF_BYTES                : 222680064
_STATISTICS_WRITING_APP        : mkvmerge v8.5.2 ('Crosses') 64bit
_STATISTICS_WRITING_DATE_UTC   : 2016-02-02 16:04:56
_STATISTICS_TAGS               : BPS DURATION NUMBER_OF_FRAMES NUMBER_OF_BYTES
Video
ID                             : 1
Format                         : AVC
Format/Info                    : Advanced Video Codec
Format profile                 : High@L4
Format settings, CABAC         : Yes
Format settings, ReFrames      : 10 frames
Codec ID                       : V_MPEG4/ISO/AVC
Duration                       : 1h 55mn
Bit rate                       : 1 500 Kbps
Width                          : 720 pixels
Height                         : 520 pixels
Display aspect ratio           : 1.385
Frame rate mode                : Constant
Frame rate                     : 25.000 fps
Color space                    : YUV
Chroma subsampling             : 4:2:0
Bit depth                      : 8 bits
Scan type                      : Progressive
Bits/(Pixel*Frame)             : 0.160
Stream size                    : 1.19 GiB (83%)
Writing library                : x264 core 146 r2538 121396c
Encoding settings              : cabac=1 / ref=10 / deblock=1:-1:-1 / analyse=0x3:0x133 / me=umh / subme=11 / psy=1 / psy_rd=1.25:0.30 / mixed_ref=1 / me_range=30 / chroma_me=1 / trellis=2 / 8x8dct=1 / cqm=0 / deadzone=21,11 / fast_pskip=1 / chroma_qp_offset=-4 / threads=12 / lookahead_threads=1 / sliced_threads=0 / nr=0 / decimate=0 / interlaced=0 / bluray_compat=0 / constrained_intra=0 / bframes=7 / b_pyramid=2 / b_adapt=1 / b_bias=0 / direct=1 / weightb=1 / open_gop=1 / weightp=2 / keyint=250 / keyint_min=25 / scenecut=40 / intra_refresh=0 / rc_lookahead=40 / rc=abr / mbtree=1 / bitrate=1500 / ratetol=1.0 / qcomp=0.60 / qpmin=0 / qpmax=69 / qpstep=4 / ip_ratio=1.40 / aq=1:1.20
Language                       : Russian
Default                        : Yes
Forced                         : Yes
Color range                    : Limited
Color primaries                : Generic film
Audio
ID                             : 2
Format                         : AC-3
Format/Info                    : Audio Coding 3
Mode extension                 : CM (complete main)
Format settings, Endianness    : Big
Codec ID                       : A_AC3
Duration                       : 1h 55mn
Bit rate mode                  : Constant
Bit rate                       : 256 Kbps
Channel(s)                     : 2 channels
Channel positions              : Front: L R
Sampling rate                  : 48.0 KHz
Compression mode               : Lossy
Stream size                    : 212 MiB (15%)
Language                       : Russian
Default                        : Yes
Forced                         : Yes
Скриншоты:
       

Дополнительные скриншоты:

       

_________________
Other forum [Profile] [PM]
Display posts from previous:    
Reply to topic

The time now is: Today 05:31

All times are GMT + 3 Hours



You cannot post new topics in this forum
You cannot reply to topics in this forum
You cannot edit your posts in this forum
You cannot delete your posts in this forum
You cannot vote in polls in this forum
You cannot attach files in this forum
You cannot download files in this forum