Today is a free download without charge Download

Как закалялась сталь (1942) SATRip [H.264]

Reply to topic
 
Author
Message

Region_13 ®

Gender:

Longevity: 5 years 7 months

Posts: 783

Location: Мальдивы

Торрент-статистика

Post 08-Feb-2016 15:27

[Quote]

Как закалялась сталь (1942) SATRip - Производство: СССР, Киевская и Ашхабадская киностудии
Жанр: Военный, экранизация
Режиссер: Марк Донской
Актеры: Виктор Перист-Петренко, Даниил Сагал, Ирина Федотова, Виктор Бубнов, Александр Хвыля, Борис Рунге, Владимир Балашов, В. Красновицкий, Антон Дунайский...
Описание:
По одноименному роману Н.Островского.
Время и место действия — железнодорожный поселок Шепетовка на Украине, годы гражданской войны. Сюжет фильм охватывает только начальные главы романа - борьбу с гайдамаками и немецкой оккупацией.


Продолжительность: 01:27:28
Качество видео: SATRip
Видео: AVC/H.264, 696x570@759x570, ~1770 Kbps
Аудио: MP2, 2 ch, 160 kbps, CBR

Mediainfo:

Код:
Общее
Уникальный идентификатор                 : 251820156095016985557544470565936226225 (0xBD72CC44A3E33217BF836D3C437CDFB1)
Полное имя                               : D:\00-Как закалялась сталь\Как закалялась сталь.mkv
Формат                                   : Matroska
Версия формата                           : Version 4 / Version 2
Размер файла                             : 1,18 Гбайт
Продолжительность                        : 1 ч. 27 м.
Общий поток                              : 1932 Кбит/сек
Дата кодирования                         : UTC 2016-01-10 19:18:08
Программа кодирования                    : mkvmerge v8.8.0 ('Wind at my back') 64bit
Библиотека кодирования                   : libebml v1.3.3 + libmatroska v1.4.4
Видео
Идентификатор                            : 1
Формат                                   : AVC
Формат/Информация                        : Advanced Video Codec
Профиль формата                          : [url=mailto:High@L4.1]High@L4.1[/url]
Параметр CABAC формата                   : Да
Параметр ReFrames формата                : 14 кадров
Идентификатор кодека                     : V_MPEG4/ISO/AVC
Продолжительность                        : 1 ч. 27 м.
Битрейт                                  : 1770 Кбит/сек
Ширина                                   : 696 пикселей
Высота                                   : 570 пикселей
Соотношение сторон                       : 4:3
Режим частоты кадров                     : Постоянный
Частота кадров                           : 25,000 кадров/сек
Цветовое пространство                    : YUV
Субдискретизация насыщенности            : 4:2:0
Битовая глубина                          : 8 бит
Тип развёртки                            : Прогрессивная
Бит/(Пиксели*Кадры)                      : 0.178
Размер потока                            : 1,08 Гбайт (92%)
Библиотека кодирования                   : x264 core 146 r2538 121396c
Настройки программы                      : cabac=1 / ref=14 / deblock=1:-1:-1 / analyse=0x3:0x133 / me=umh / subme=9 / psy=1 / psy_rd=1.00:0.15 / mixed_ref=1 / me_range=32 / chroma_me=1 / trellis=2 / 8x8dct=1 / cqm=0 / deadzone=21,11 / fast_pskip=1 / chroma_qp_offset=-3 / threads=6 / lookahead_threads=1 / sliced_threads=0 / nr=0 / decimate=0 / interlaced=0 / bluray_compat=0 / constrained_intra=0 / bframes=7 / b_pyramid=2 / b_adapt=2 / b_bias=0 / direct=3 / weightb=1 / open_gop=0 / weightp=2 / keyint=240 / keyint_min=23 / scenecut=40 / intra_refresh=0 / rc_lookahead=40 / rc=2pass / mbtree=0 / bitrate=1770 / ratetol=1.0 / qcomp=0.60 / qpmin=10 / qpmax=51 / qpstep=4 / cplxblur=20.0 / qblur=0.5 / vbv_maxrate=50000 / vbv_bufsize=62500 / nal_hrd=none / filler=0 / ip_ratio=1.40 / pb_ratio=1.30 / aq=1:1.00
Язык                                     : Russian
Default                                  : Да
Forced                                   : Нет
Аудио
Идентификатор                            : 2
Формат                                   : MPEG Audio
Версия формата                           : Version 1
Профиль формата                          : Layer 2
Идентификатор кодека                     : A_MPEG/L2
Идентификатор кодека/Подсказка           : MP2
Продолжительность                        : 1 ч. 27 м.
Вид битрейта                             : Постоянный
Битрейт                                  : 160 Кбит/сек
Каналы                                   : 2 канала
Частота                                  : 48,0 КГц
Частота кадров                           : 41,667 кадра/сек (1152 spf)
Метод сжатия                             : С потерями
Размер потока                            : 100 Мбайт (8%)
Заголовок                                : MP2-2 канала
Язык                                     : Russian
Default                                  : Да
Forced                                   : Нет

x264.log

--[Information] [10.01.2016 18:46:40] Standard error stream
---[Information] [10.01.2016 18:46:46] raw [info]: 696x570p 6327:5800 @ 25/1 fps (cfr)
---[Information] [10.01.2016 18:46:46] x264 [info]: using SAR=6327/5800
---[Information] [10.01.2016 18:46:46] x264 [info]: using cpu capabilities: MMX2 SSE2Fast SSSE3 SSE4.2
---[Information] [10.01.2016 18:46:46] x264 [info]: profile High, level 4.1
---[Information] [10.01.2016 21:55:46] x264 [info]: frame I:609 Avg QP:17.75 size: 29284
---[Information] [10.01.2016 21:55:46] x264 [info]: frame P:29223 Avg QP:20.05 size: 16056
---[Information] [10.01.2016 21:55:46] x264 [info]: frame B:101390 Avg QP:22.03 size: 6652
---[Information] [10.01.2016 21:55:46] x264 [info]: consecutive B-frames: 1.8% 2.8% 7.4% 25.2% 13.6% 45.3% 3.3% 0.6%
---[Information] [10.01.2016 21:55:46] x264 [info]: mb I I16..4: 6.2% 75.5% 18.3%
---[Information] [10.01.2016 21:55:46] x264 [info]: mb P I16..4: 2.9% 27.4% 3.1% P16..4: 39.7% 18.3% 6.7% 0.1% 0.0% skip: 1.9%
---[Information] [10.01.2016 21:55:46] x264 [info]: mb B I16..4: 0.4% 2.5% 0.3% B16..8: 41.3% 13.4% 2.4% direct:12.3% skip:27.4% L0:46.6% L1:41.9% BI:11.5%
---[Information] [10.01.2016 21:55:46] x264 [info]: 8x8 transform intra:81.0% inter:68.3%
---[Information] [10.01.2016 21:55:46] x264 [info]: direct mvs spatial:99.1% temporal:0.9%
---[Information] [10.01.2016 21:55:46] x264 [info]: coded y,uvDC,uvAC intra: 86.2% 0.0% 0.0% inter: 36.0% 0.0% 0.0%
---[Information] [10.01.2016 21:55:46] x264 [info]: i16 v,h,dc,p: 20% 27% 9% 43%
---[Information] [10.01.2016 21:55:46] x264 [info]: i8 v,h,dc,ddl,ddr,vr,hd,vl,hu: 20% 9% 11% 8% 9% 13% 9% 13% 9%
---[Information] [10.01.2016 21:55:46] x264 [info]: i4 v,h,dc,ddl,ddr,vr,hd,vl,hu: 20% 9% 4% 8% 12% 15% 10% 11% 10%
---[Information] [10.01.2016 21:55:46] x264 [info]: i8c dc,h,v,p: 100% 0% 0% 0%
---[Information] [10.01.2016 21:55:46] x264 [info]: Weighted P-Frames: Y:23.0% UV:0.0%
---[Information] [10.01.2016 21:55:46] x264 [info]: ref P L0: 37.3% 10.2% 15.4% 7.4% 5.6% 4.6% 4.0% 2.7% 2.4% 2.2% 2.0% 1.9% 1.8% 1.8% 0.6% 0.0%
---[Information] [10.01.2016 21:55:46] x264 [info]: ref B L0: 73.0% 10.7% 4.5% 2.5% 1.9% 1.6% 1.4% 1.0% 0.9% 0.8% 0.8% 0.5% 0.3%
---[Information] [10.01.2016 21:55:46] x264 [info]: ref B L1: 94.5% 5.5%
---[Information] [10.01.2016 21:55:46] x264 [info]: kb/s:1770.19
---[Information] [10.01.2016 21:55:46] encoded 131222 frames, 11.57 fps, 1770.19 kb/s
Скриншоты:
       

_________________
Other forum [Profile] [PM]
Display posts from previous:    
Reply to topic

The time now is: Today 04:41

All times are GMT + 3 Hours



You cannot post new topics in this forum
You cannot reply to topics in this forum
You cannot edit your posts in this forum
You cannot delete your posts in this forum
You cannot vote in polls in this forum
You cannot attach files in this forum
You cannot download files in this forum