Today is a free download without charge Download

Равнины Меркурия / Mercury Plains (2016) DVDRip | L1

Reply to topic
 
Author
Message

Region_13 ®

Gender:

Longevity: 5 years 8 months

Posts: 783

Location: Мальдивы

Торрент-статистика

Post 13-Jan-2016 16:39

[Quote]

Равнины Меркурия / Mercury Plains
Год выпуска: 2016
Страна:США
Жанр: боевик, драма, приключения
Продолжительность: 01:42:06
Перевод: Любительский (одноголосый закадровый)[datynet]

Режиссер: Чарльз Бурмейстер
Продюссер: Хьюстон Хилл, Эрик Уотсон, Tibaut Bowman
Сценарий: Чарльз Бурмейстер
Премьера в мире: 10 января 2016
рейтинг R лицам до 17 лет обязательно присутствие взрослого


В ролях: Скотт Иствуд, Анджела Сарафян, Ник Чинланд, Хорхе А. Хименес, Кэтерин Уиллис, Сью Рок, Майк Гассэвей, Кит Поулсон, Марк Хэнсон, Джастин Арнольд
Описание: Столкнувшись с мрачным будущим, молодой человек сбегает в Мексику. Там он оказывается вовлечен в военизированную группу подростков, которые борются с картелями.
Качество: DVDRip
Формат: AVI
Видео кодек: XviD
Аудио кодек: AC3
Видео: 1458 kb/s, 720x304
Аудио: Russian: MP3, 192 kb/s (2 ch) / English: AC3, 256 kb/s (6 ch)

Скриншоты

               

MEDIAINFO

General
Complete name : E:\Равнины_Меркурия.2016.L1.DVDRip.avi
Format : AVI
Format/Info : Audio Video Interleave
File size : 1.37 GiB
Duration : 1h 42mn
Overall bit rate : 1 920 Kbps
Writing application : VirtualDubMod 1.5.10.3 | www.virtualdub-fr.org || (build 2550/release)
Writing library : VirtualDubMod build 2550/release
Video
ID : 0
Format : MPEG-4 Visual
Format profile : Advanced Simple@L5
Format settings, BVOP : 2
Format settings, QPel : No
Format settings, GMC : No warppoints
Format settings, Matrix : Default (H.263)
Codec ID : XVID
Codec ID/Hint : XviD
Duration : 1h 42mn
Bit rate : 1 458 Kbps
Width : 720 pixels
Height : 304 pixels
Display aspect ratio : 2.35:1
Frame rate : 23.976 fps
Color space : YUV
Chroma subsampling : 4:2:0
Bit depth : 8 bits
Scan type : Progressive
Compression mode : Lossy
Bits/(Pixel*Frame) : 0.278
Stream size : 1.04 GiB (76%)
Writing library : XviD 65
Audio #1
ID : 1
Format : MPEG Audio
Format version : Version 1
Format profile : Layer 3
Mode : Joint stereo
Codec ID : 55
Codec ID/Hint : MP3
Duration : 1h 42mn
Bit rate mode : Constant
Bit rate : 192 Kbps
Channel count : 2 channels
Sampling rate : 48.0 KHz
Compression mode : Lossy
Stream size : 140 MiB (10%)
Alignment : Split accross interleaves
Interleave, duration : 42 ms (1.00 video frame)
Interleave, preload duration : 500 ms
Audio #2
ID : 2
Format : AC-3
Format/Info : Audio Coding 3
Mode extension : CM (complete main)
Format settings, Endianness : Big
Codec ID : 2000
Duration : 1h 42mn
Bit rate mode : Constant
Bit rate : 256 Kbps
Channel count : 6 channels
Channel positions : Front: L C R, Side: L R, LFE
Sampling rate : 48.0 KHz
Bit depth : 16 bits
Compression mode : Lossy
Stream size : 187 MiB (13%)
Alignment : Split accross interleaves
Interleave, duration : 42 ms (1.00 video frame)
Interleave, preload duration : 500 ms
 

_________________
Other forum [Profile] [PM]
Display posts from previous:    
Reply to topic

The time now is: Today 10:39

All times are GMT + 3 Hours



You cannot post new topics in this forum
You cannot reply to topics in this forum
You cannot edit your posts in this forum
You cannot delete your posts in this forum
You cannot vote in polls in this forum
You cannot attach files in this forum
You cannot download files in this forum