Today is a free download without charge Download

Горячая точка / Flash Point / Dou fo sin (Уилсон Ип) [2007 г., боевик, BDRip](L1)

Reply to topic
 
Author
Message

Region_13 ®

Gender:

Longevity: 5 years 7 months

Posts: 783

Location: Мальдивы

Торрент-статистика

Post 13-Jan-2016 11:49

[Quote]

Горячая точка / Flash Point / Dou fo sin
Год выпуска: 2007
Страна: Гонконг, Китай
Жанр: боевик
Продолжительность: 87 мин. / 01:27
Перевод: Авторский (одноголосый закадровый)С. Кузнецов
Режиссер: Уилсон Ип
Продюссер: Нансун Ши, Донни Ен, Ли-Чжуань Лью
Сценарий: Кам-Юэнь Зето, Лик-Кей Тан
Бюджет: $8 000 000
Премьера в мире: 26 июля 2007
рейтинг R лицам до 17 лет обязательно присутствие взрослого


В ролях: Донни Йен, Луис Ку, Коллин Чоу, Рэй Луи, Бингбинг Фан, Кент Ченг, Йю Ксинг
Описание: Детектив-сержант ОБОП Джан Ма, при очередных внутренних проверках, получает нагоняи за частое применение грубой силы при задержание преступников, но из-за успешной работы на это стараются прикрывать глаза. Основное действие разворачивается, после того, как его напарник Уилсон, внедрённый в банду вьетнамских отморозков, чуть не погиб при очередном преступлении вьетнамцев. В результате в руках полиции оказывается идейный предводитель банды Арчи Син. Банда собирается вызволить своего босса, уничтожив всех свидетелей, включая выжившего Уилсона, но в их планы вмешивается детектив Ма…
Качество: BDRip
Формат: AVI
Видео кодек: XviD
Аудио кодек: AC3
Видео: 720x304 (2.37:1), 23.976 fps, XviD build 50 ~2000 kbps avg, 0.38 bit/pixel
Аудио: 48 kHz, AC3 Dolby Digital, 3/2 (L,C,R,l,r) + LFE ch, ~384.00 kbps avg

Скриншоты

                 

MEDIAINFO

General
Complete name : F:\TORRENTS\ФИЛЬМЫ\Goryachaya.Tochka.2007.BDRip.Xvid.AC3\Goryachaya.Tochka.2007.BDRip.Xvid.AC3.avi
Format : AVI
Format/Info : Audio Video Interleave
File size : 1.46 GiB
Duration : 1h 27mn
Overall bit rate : 2 394 Kbps
Writing application : VirtualDubMod 1.5.10.2 (build 2542/release)
Writing library : VirtualDubMod build 2542/release
Video
ID : 0
Format : MPEG-4 Visual
Format profile : Advanced Simple@L5
Format settings, BVOP : 1
Format settings, QPel : No
Format settings, GMC : No warppoints
Format settings, Matrix : Default (MPEG)
Codec ID : XVID
Codec ID/Hint : XviD
Duration : 1h 27mn
Bit rate : 2 001 Kbps
Width : 720 pixels
Height : 304 pixels
Display aspect ratio : 16:9
Original display aspect ratio : 2.35:1
Frame rate : 23.976 fps
Color space : YUV
Chroma subsampling : 4:2:0
Bit depth : 8 bits
Scan type : Progressive
Compression mode : Lossy
Bits/(Pixel*Frame) : 0.381
Stream size : 1.22 GiB (84%)
Writing library : XviD 1.2.1 (UTC 2008-12-04)
Audio
ID : 1
Format : AC-3
Format/Info : Audio Coding 3
Mode extension : CM (complete main)
Format settings, Endianness : Big
Codec ID : 2000
Duration : 1h 27mn
Bit rate mode : Constant
Bit rate : 384 Kbps
Channel count : 6 channels
Channel positions : Front: L C R, Side: L R, LFE
Sampling rate : 48.0 KHz
Bit depth : 16 bits
Compression mode : Lossy
Stream size : 239 MiB (16%)
Alignment : Split accross interleaves
Interleave, duration : 42 ms (1.00 video frame)
Interleave, preload duration : 500 ms

_________________
Other forum [Profile] [PM]
Display posts from previous:    
Reply to topic

The time now is: Today 20:00

All times are GMT + 3 Hours



You cannot post new topics in this forum
You cannot reply to topics in this forum
You cannot edit your posts in this forum
You cannot delete your posts in this forum
You cannot vote in polls in this forum
You cannot attach files in this forum
You cannot download files in this forum