Today is a free download without charge Download

Upotte!! / Оружейная школа [2012, ONA, 10 ep + OVA] BDRip Hi10p 720p Raw+Rus (ext)

Reply to topic
 
Author
Message

Clavik ®

Gender:

Longevity: 5 years 7 months

Posts: 1276

Location: Украина

Торрент-статистика

Post 29-Dec-2015 01:04

[Quote]

うぽって!! / Upotte!! / Оружейная школа- Жанр: комедия, этти, школа
Тип: ONA
Продолжительность: 10 эпизодов и ова по 25 минут
Выпуск: c 07.04.2012 по 09.06.2012
Автор: Тэннодзи Кицунэ
Снято по манге: Upotte!!
Режиссер: Като Такао
Производство: Xebec-Информационные ссылки: AniDB || World Art || MAL || ANN-Перевод:
  • Русские субтитры от Uncle_Ho
-Описание:
Не думал, не гадал обычный учитель японского по имени Гэнкоку, что судьба пошлет его в академию Сэйсё, обитатели которой - настоящее одушевленное оружие! И это вовсе не оборот речи, а реальность, данная нам в ощущениях… ибо чистым разумом не поймешь, что у каждой ученицы цевье представляет грудь, приклад – то, что пониже спины, ударно-спусковой механизм – внутренние органы, а спусковой крючок… эй, там, взведите уже предохранитель! Классы сформированы по убойной силе: в старшей школе учатся автоматические винтовки, в средней – малокалиберные автоматы, а в младшей – пистолетики-пулеметики. Так что за вольности можно получить чем угодно – от пистолетной пули до классического натовского боеприпаса 7,62х51!
В центре сюжета – приключения симпатичной Функо и ее подружек из средней школы. Девчата прилежно учатся, занимаются боевой, огневой и общегражданской подготовкой, соперничают друг с другом, от души ссорятся и мирятся, а также снабжают зрителей морем разнообразной информации о мире стрелкового оружия. Впрочем, от нас никто не требует запоминать спецификации, плюсы и минусы каждой модели. Главное – понять: каждое оружие мечтает о «правильном» хозяине и хочет, чтобы его любили, а не ограничивались стрельбой и неполной разборкой!© Hollow, World Art-Качество: BDRip | Энкод: Winter
Формат: MKV
Видео: x264 (10 bit) 1280x720, ~4000 Kbps, 23.976 fps
Аудио: Vorbis, 256 Kbps, 48.0 kHz, 2 ch
Аудио: AC-3, 192 Kbps, 48.0 kHz, 2 ch (внешними файлами)
Субтитры: ASS, Полные | Надписи (внешними файлами) -

Список озвучек:

  • одноголосая (жен.) от Lizaveta (SHIZA) [ONA 1-10]

Список эпизодов:

01. Grip and Hold!
02. Go for It! Pass It!
03. Wash and Scrub!
04. Sing! Compete!
05. Graze It! Beat It!
06. Take It! Hurry!
07. Be Afraid! Visit!
08. Take a Look! Scold Someone!
09. Burn Up! Get Mad!
10. And Then, Upotte!!
OVA.

Тех. параметры:

Код:
General
Unique ID                   : 213187509332473486999923828870551952969 (0xA0626BB98051B919AEBFCB98027BDE49)
Complete name               : Upotte!! [BD] [720p]\[Winter] Upotte!! 01 [BDrip 1280x720 x264 Vorbis].mkv
Format                      : Matroska
Format version              : Version 2
File size                   : 728 MiB
Duration                    : 23mn 43s
Overall bit rate mode       : Variable
Overall bit rate            : 4 292 Kbps
Encoded date                : UTC 2012-09-11 15:34:59
Writing application         : mkvmerge v2.9.7 ('Tenderness') built on Jul  1 2009 18:43:35
Writing library             : libebml v0.7.7 + libmatroska v0.8.1
Video
ID                          : 1
Format                      : AVC
Format/Info                 : Advanced Video Codec
Format profile              : High [url=mailto:10@L4.1]10@L4.1[/url]
Format settings, CABAC      : Yes
Format settings, ReFrames   : 9 frames
Codec ID                    : V_MPEG4/ISO/AVC
Duration                    : 23mn 43s
Bit rate                    : 3 951 Kbps
Width                       : 1 280 pixels
Height                      : 720 pixels
Display aspect ratio        : 16:9
Frame rate mode             : Constant
Frame rate                  : 23.976 fps
Color space                 : YUV
Chroma subsampling          : 4:2:0
Bit depth                   : 10 bits
Scan type                   : Progressive
Bits/(Pixel*Frame)          : 0.179
Stream size                 : 670 MiB (92%)
Writing library             : x264 core 125 r2200 999b753
Encoding settings           : cabac=1 / ref=9 / deblock=1:-2:-2 / analyse=0x3:0x133 / me=umh / subme=9 / psy=1 / psy_rd=0.90:0.00 / mixed_ref=1 / me_range=24 / chroma_me=1 / trellis=2 / 8x8dct=1 / cqm=0 / deadzone=21,11 / fast_pskip=1 / chroma_qp_offset=-2 / threads=6 / lookahead_threads=1 / sliced_threads=0 / nr=0 / decimate=0 / interlaced=0 / bluray_compat=0 / constrained_intra=0 / bframes=8 / b_pyramid=2 / b_adapt=2 / b_bias=0 / direct=1 / weightb=1 / open_gop=0 / weightp=2 / keyint=250 / keyint_min=23 / scenecut=40 / intra_refresh=0 / rc=crf / mbtree=0 / crf=16.0 / qcomp=0.70 / qpmin=9 / qpmax=40 / qpstep=4 / ip_ratio=1.40 / pb_ratio=1.30 / aq=1:0.90
Default                     : Yes
Forced                      : No
Audio
ID                          : 2
Format                      : Vorbis
Format settings, Floor      : 1
Codec ID                    : A_VORBIS
Duration                    : 23mn 43s
Bit rate mode               : Variable
Bit rate                    : 256 Kbps
Channel(s)                  : 2 channels
Sampling rate               : 48.0 KHz
Compression mode            : Lossy
Stream size                 : 43.4 MiB (6%)
Writing library             : libVorbis (Schaufenugget) (20101101 (Schaufenugget))
Language                    : Japanese
Default                     : Yes
Forced                      : No

Информация о релизе:

  • Выбор видео, перевода, озвучки, а также типа сборки материала осуществляется релизером и не подлежит обсуждению. Если вы считаете, что раздаваемый материал противоречит правилам раздела "Аниме", сообщите об этом одному из модераторов раздела.
  • В случае появления нового материала или же лучшего по качеству материала релизер оставляет за собой право обновить раздачу. В этом случае вам необходимо ознакомиться с изменениями (добавлениями) и перекачать торрент.
  • Данный релиз предназначен для просмотра на ПК. Воспроизведение на иных проигрывателях не гарантируется. Для просмотра рекомендуется Media Player Classic с установленным пакетом кодеков K-Lite.
  • Данный релиз содержит 10-битное видео (Hi10p). Для корректного воспроизведения обязательно используйте кодеки, поддерживающие 10-битное видео.
  • Данный релиз предназначен для просмотра с внешними субтитрами и внешними звуковыми дорожками.
    • Для просмотра с внешней звуковой дорожкой нужно:
      перекинуть файлы .mka из папки "RUS Sound []" в одну папку с видео и переключить звуковую дорожку в плеере при просмотре.
    • Для просмотра с субтитрами нужно:
      перекинуть файлы .ass из папки "RUS Subtitles []" в одну папку с видео - плеер подгрузит их автоматически при открытии видео.
-            -

_________________


Other forum [Profile] [PM]
Display posts from previous:    
Reply to topic

The time now is: Today 05:03

All times are GMT + 3 Hours



You cannot post new topics in this forum
You cannot reply to topics in this forum
You cannot edit your posts in this forum
You cannot delete your posts in this forum
You cannot vote in polls in this forum
You cannot attach files in this forum
You cannot download files in this forum