Today is a free download without charge Download

Гиперболоид инженера Гарина (Александр Гинцбург) [1965, приключения, научная фантастика, DVDRip]

Reply to topic
 
Author
Message

O.S.A. ®

Gender:

Longevity: 5 years 7 months

Posts: 3548

Location: СССР

Торрент-статистика

Post 01-Mar-2014 11:53

[Quote]

--Гиперболоид инженера Гарина--
  • Год выпуска: 1965
  • Страна: СССР / «Студия Горького»
  • Жанр: приключения, научная фантастика
  • Продолжительность: ~01:31:00
  • Перевод: Не требуется-
  • Режиссёр: Александр Гинцбург-
  • В ролях: Евгений Евстигнеев, Всеволод Сафонов, Михаил Астангов, Наталья Климова, Владимир Дружников, Михаил Кузнецов, Юрий Саранцев, Николай Бубнов, Виктор Чекмарев, Павел Шпрингфельд...-
  • 1925 год. Профессор Манцев изобрел оружие небывалой разрушительной силы — гиперболоид, наносящий страшные удары лучом. Инженер Гарин крадет этот прототип лазерной пушки и решает использовать для безумной идеи - стать правителем мира. В своем маниакальном стремлении властвовать он совершает одно преступление за другим, не предполагая, сколь ужасными окажутся последствия для него самого. За Гариным и изобретением начинается настоящая охота...--
  • --
  • Качество видео: DVDRip
  • Формат видео: AVI
  • Видео кодек: XviD
  • Аудио кодек: AC3
  • Видео: 704x368 (1.91:1), 25.000 fps, XviD MPEG-4, ~1692 kbps avg, 0.261 bit/pixel
  • Аудио: 48.0 kHz, AC3 Dolby Digital, 3/2 (L,C,R,l,r) + LFE ch, ~448.00 kbps avg
  • Субтитры: нет
--

Media Info

General
Complete name : D:\O.S.A.\Мои видеозаписи\Сборник старых фильмов\Giperboloid_inzhenera_Garina_DVDRip.avi
Format : AVI
Format/Info : Audio Video Interleave
File size : 1.37 GiB
Duration : 1h 31mn
Overall bit rate : 2 150 Kbps
Writing application : VirtualDubModRus 1.5.10.2 (build 2542/release)
Writing library : VirtualDubMod build 2542/release
Video
ID : 0
Format : MPEG-4 Visual
Format profile : Advanced Simple@L5
Format settings, BVOP : 2
Format settings, QPel : No
Format settings, GMC : No warppoints
Format settings, Matrix : Default (MPEG)
Muxing mode : Packed bitstream
Codec ID : XVID
Codec ID/Hint : XviD
Duration : 1h 31mn
Bit rate : 1 692 Kbps
Width : 704 pixels
Height : 368 pixels
Display aspect ratio : 1.913
Frame rate : 25.000 fps
Color space : YUV
Chroma subsampling : 4:2:0
Bit depth : 8 bits
Scan type : Progressive
Compression mode : Lossy
Bits/(Pixel*Frame) : 0.261
Stream size : 1.08 GiB (79%)
Writing library : XviD 1.2.1 (UTC 2008-12-04)
Audio
ID : 1
Format : AC-3
Format/Info : Audio Coding 3
Mode extension : CM (complete main)
Codec ID : 2000
Duration : 1h 31mn
Bit rate mode : Constant
Bit rate : 448 Kbps
Channel(s) : 6 channels
Channel positions : Front: L C R, Side: L R, LFE
Sampling rate : 48.0 KHz
Bit depth : 16 bits
Compression mode : Lossy
Stream size : 292 MiB (21%)
Alignment : Aligned on interleaves
Interleave, duration : 40 ms (1.00 video frame)
Interleave, preload duration : 512 ms
--        -- --

_________________

===============================
IGNOSCITO SAEPE ALTERI, NUNQUAM TIBI
Other forum [Profile] [PM]

O.S.A. ®

Gender:

Longevity: 5 years 7 months

Posts: 3548

Location: СССР

Торрент-статистика

Post 06-Dec-2015 00:57 (after 1 year 9 months)

[Quote]

06.12.2015 переоформил и заменил торрент-файл. Ранее скачавшие могут перехешировать и встать на раздачу (при желании).)

_________________

===============================
IGNOSCITO SAEPE ALTERI, NUNQUAM TIBI
Other forum [Profile] [PM]
Similar theme
Forum Topic Author Torrent Replies Last Post
./templates/default/images/folder_dl.gif Фантастика, фэнтези, ужасы, мистика Координаты чудес - Симмонс Дэн - Гиперион [1996, PDF/DjVu/FB2, RUS] Omen
1 | 0

0 | 978

5

2015-10-30 03:00
Omen Latest
./templates/default/images/folder_dl.gif Медицина и Здоровье Лилия Савко | Гипертония. Причины, профилактика, лечение (2018) [PDF] }{@R0N
1 | 0

0 | 490

7

2018-04-24 09:29
}{@R0N Latest
Display posts from previous:    
Reply to topic

The time now is: Today 05:30

All times are GMT + 3 Hours



You cannot post new topics in this forum
You cannot reply to topics in this forum
You cannot edit your posts in this forum
You cannot delete your posts in this forum
You cannot vote in polls in this forum
You cannot attach files in this forum
You cannot download files in this forum