Today is a free download without charge Download

Десять лет без права переписки (1990) / Desyat let bez prava perepiski (Владимир Наумов) [1990 г., Драма, Советский фильм, DVDRip]

Reply to topic
 
Author
Message

Region_13 ®

Gender:

Longevity: 5 years 4 months

Posts: 784

Location: Мальдивы

Торрент-статистика

Post 16-Nov-2015 18:55

[Quote]

Десять лет без права переписки (1990) / Desyat let bez prava perepiski
Год выпуска: 1990
Страна: Россия
Жанр: Драма, Советский фильм
Продолжительность: 103 мин. / 01:43
Перевод: Не требуется
Режиссер: Владимир Наумов
Сценарий: Александр Кабаков, Владимир Наумов
Бюджет: Неизвестно
Премьера в мире: декабрь 1990
зрителям, достигшим 12 лет


В ролях: Варвара Сошальская, Дарья Фекленко, Валентин Брылеев, Евгений Евстигнеев, Борис Щербаков, Вера Сотникова, Александр Яковлев, Наталья Белохвостикова, Александр Панкратов-Черный, Игорь Кашинцев
Описание: Великая Отечественная война закончилась. Михаил отправляется в Москву, где у него есть одно важное дело. Мужчина собирается отомстить человеку по фамилии Завьялов, который в 1937 году направил в НКВД донос на отца Михаила. Из-за этого доноса его отец был расстрелян. Он верит в свою правоту и не секунды не сомневаясь, убивает Завьялова. Но перед этим тот успевает вызвать сотрудников НКВД. Михаил не собирается бежать и прятаться. Он остается на месте преступления, ведь, по его мнению, он абсолютно прав.
Качество: DVDRip
Формат: AVI
Видео кодек: XviD
Аудио кодек: MPEG Audio
Видео: 1815 Kbps, 25.0 fps, разрешение 640*480 (4:3)
Аудио: 160 Kbps, 48000 Hz, 2 каналов, 0x55

Скриншоты

                       

MediaINFO

Общее
Полное имя : E:\10лет.avi
Формат : AVI
Формат/Информация : Audio Video Interleave
Размер файла : 1,35 Гбайт
Продолжительность : 1 ч. 37 м.
Общий поток : 1975 Кбит/сек
Программа кодирования : VirtualDubMod 1.5.10.1 Рус от Stvens Inc.™ www.stvens.amillo.net (build 2366/release)
Библиотека кодирования : VirtualDubMod build 2366/release
Видео
Идентификатор : 0
Формат : MPEG-4 Visual
Параметр BVOP формата : 1
Параметр QPel формата : Нет
Параметр GMC формата : Без точки перехода
Параметр матрицы формата : Default (H.263)
Режим смешивания : Сжатый битовый поток
Идентификатор кодека : DX50
Идентификатор кодека/Подсказка : DivX 5
Продолжительность : 1 ч. 37 м.
Битрейт : 1805 Кбит/сек
Ширина : 640 пикселей
Высота : 480 пикселей
Соотношение сторон : 4:3
Частота кадров : 25,000 кадров/сек
Цветовое пространство : YUV
Субдискретизация насыщенности : 4:2:0
Битовая глубина : 8 бит
Тип развёртки : Прогрессивная
Метод сжатия : С потерями
Бит/(Пиксели*Кадры) : 0.235
Размер потока : 1,23 Гбайт (91%)
Библиотека кодирования : DivX 6.2.5 (UTC 2006-07)
Аудио
Идентификатор : 1
Формат : MPEG Audio
Версия формата : Version 1
Профиль формата : Layer 3
Режим : Joint stereo
Идентификатор кодека : 55
Идентификатор кодека/Подсказка : MP3
Продолжительность : 1 ч. 37 м.
Вид битрейта : Постоянный
Битрейт : 160 Кбит/сек
Каналы : 2 канала
Частота : 48,0 КГц
Метод сжатия : С потерями
Размер потока : 112 Мбайт (8%)
Выравнивание : Соединение по промежуткам
Продолжительность промежутка : 40 мс. (1,00 видеокадр)
Время предзагрузки промежутка : 504 мс.

_________________
Other forum [Profile] [PM]
Display posts from previous:    
Reply to topic

The time now is: Today 21:18

All times are GMT + 3 Hours



You cannot post new topics in this forum
You cannot reply to topics in this forum
You cannot edit your posts in this forum
You cannot delete your posts in this forum
You cannot vote in polls in this forum
You cannot attach files in this forum
You cannot download files in this forum