Сегодня идет свободное скачивание без начисления Download

Беспредел / Bespredel (Игорь Гостев) [1989 г., драма, криминал, DVDRip-AVC]

Ответить на тему
 
Автор
Сообщение

Region_13 ®

Пол:

Стаж: 4 года 5 месяцев

Сообщений: 849

Откуда: Мальдивы

Торрент-статистика

Пост 16-Ноя-2015 17:33

[Цитировать]

Беспредел / Bespredel
Год выпуска: 1989
Страна: СССР
Жанр: драма, криминал
Продолжительность: 102 мин. / 01:42
Перевод: Не требуется
Режиссер: Игорь Гостев
Сценарий: Игорь Гостев, Леонид Никитинский
Бюджет: Неизвестно
Премьера в мире: 01.01.1989
зрителям, достигшим 16 лет


В ролях: Андрей Ташков, Александр Мохов, Сергей Гармаш, Лев Дуров, Виктор Павлов, Александр Кузнецов, Олег Рогачев, Татьяна Агафонова, Антон Андросов, Алексей Аблепихин, Наиль Идрисов, Михаил Жигалов
Описание: Что же в Росси на самом деле происходит за решеткой тюрем? Этот фильм немного приоткрывает завесу над этим вопросом. Говорится о том, о чем умалчивалось годами. Негласные правила, которые должны соблюдать все, изощренная система доносов, которая используется начальником тюрьмы для управления заключенными, вот реальность тюрьмы. Новичок может поплатиться жизнью за незнание правил тюремного бытия. Всем правит страх и раболепие, сила – это закон. Фильм основан на реальных событиях и подлинных фактах жизни колонии строгого режима. Показаны «жестокие игры» заключенных и роль администрации колонии
Качество: DVDRip-AVC
Формат: MKV
Видео кодек: H.26x
Аудио кодек: AC3
Видео: 10 MPEG4 Video (H264), 720x560, 25 fps, 2700 Kbps
Аудио: Dolby AC3, 48000 Hz, 6ch, 384 kbps

Скриншоты

                       

MediaInfo

Общее
Уникальный идентификатор : 208257996742520735768908541945268724444 (0x9CAD07FD46F0BE8D95A908C8B8A8E2DC)
Полное имя : E:\Беспредел_1989.mkv
Формат : Matroska
Версия формата : Version 2
Размер файла : 2,09 Гбайт
Продолжительность : 1 ч. 36 м.
Общий поток : 3097 Кбит/сек
Дата кодирования : UTC 2014-07-14 09:38:31
Программа кодирования : mkvmerge v5.8.0 ('No Sleep / Pillow') built on Sep 2 2012 15:37:04
Библиотека кодирования : libebml v1.2.3 + libmatroska v1.3.0
Видео
Идентификатор : 1
Формат : AVC
Формат/Информация : Advanced Video Codec
Профиль формата : High@L4.1
Параметр CABAC формата : Да
Параметр ReFrames формата : 8 кадров
Идентификатор кодека : V_MPEG4/ISO/AVC
Продолжительность : 1 ч. 36 м.
Битрейт : 2700 Кбит/сек
Ширина : 720 пикселей
Высота : 560 пикселей
Соотношение сторон : 1,286
Режим частоты кадров : Постоянный
Частота кадров : 25,000 кадров/сек
Цветовое пространство : YUV
Субдискретизация насыщенности : 4:2:0
Битовая глубина : 8 бит
Тип развёртки : Прогрессивная
Бит/(Пиксели*Кадры) : 0.268
Размер потока : 1,79 Гбайт (86%)
Библиотека кодирования : x264 core 125 r2208 d9d2288
Настройки программы : cabac=1 / ref=8 / deblock=1:-1:-1 / analyse=0x3:0x133 / me=umh / subme=9 / psy=1 / psy_rd=1.00:0.15 / mixed_ref=1 / me_range=24 / chroma_me=1 / trellis=1 / 8x8dct=1 / cqm=0 / deadzone=21,11 / fast_pskip=0 / chroma_qp_offset=-3 / threads=12 / lookahead_threads=2 / sliced_threads=0 / nr=0 / decimate=1 / interlaced=0 / bluray_compat=0 / constrained_intra=0 / bframes=8 / b_pyramid=2 / b_adapt=1 / b_bias=0 / direct=2 / weightb=1 / open_gop=0 / weightp=2 / keyint=250 / keyint_min=25 / scenecut=40 / intra_refresh=0 / rc_lookahead=50 / rc=abr / mbtree=1 / bitrate=2700 / ratetol=1.0 / qcomp=0.60 / qpmin=0 / qpmax=69 / qpstep=4 / ip_ratio=1.40 / aq=1:1.00
Default : Да
Forced : Нет
Аудио
Идентификатор : 2
Формат : AC-3
Формат/Информация : Audio Coding 3
Расширение режима : CM (complete main)
Параметр Endianness формата : Big
Идентификатор кодека : A_AC3
Продолжительность : 1 ч. 36 м.
Вид битрейта : Постоянный
Битрейт : 384 Кбит/сек
Каналы : 6 каналов
Расположение каналов : Front: L C R, Side: L R, LFE
Частота : 48,0 КГц
Метод сжатия : С потерями
Размер потока : 265 Мбайт (12%)
Default : Да
Forced : Нет

_________________
Вне форума [Профиль] [ЛС]
Показать сообщения:    
Ответить на тему

Текущее время: Сегодня 20:55

Часовой пояс: GMT + 3



Вы не можете начинать темы
Вы не можете отвечать на сообщения
Вы не можете редактировать свои сообщения
Вы не можете удалять свои сообщения
Вы не можете голосовать в опросах
Вы не можете прикреплять файлы к сообщениям
Вы не можете скачивать файлы