Today is a free download without charge Download

Двойная жизнь. Охота за атомной бомбой (2011) SATRip

Reply to topic
 
Author
Message

Omen ®

Longevity: 6 years 9 months

Posts: 181090

Торрент-статистика

Post 05-Oct-2015 21:37

[Quote]

Двойная жизнь.
Охота за атомной бомбой
- Телекомпания: ТВ3
Жанр: Документальный
Ведущий: Михаил Волков
Описание:
29 августа 1949 в СССР была испытана первая ядерная бомба. Это стало настоящим триумфом для лидеров Советского государства и настоящим шоком для Соединенных Штатов Америки. По их подсчетам, в СССР подобное оружие должно было появиться не раньше чем через 4 года. Надежды на великое ядерное превосходство, о котором мечтал Трумэн, рухнули в один миг. Но для того, чтобы СССР и США стояли на равных позициях, с самого начала разработок уранового оружия в сверхсекретные лаборатории Америки и Великобритании были внедрены советские агенты.
Продолжительность: 00:48:56
Качество видео: SATRip
Перевод: Одноголосый закадровый, профессиональный
Видео: DivX 5, 720x400 (1.78:1), ~1549 kbps, 25 fps
Аудио: MP3, 2 ch, 128 Kbps, 44.1 Hz, CBR

Дополнительная информация:

Благодарность за рип - Серый1779
Аналогичная раздача - [url=/forum/viewtopic.php?t=453419]Двойная жизнь. Охота за атомной бомбой (2011) SATRip[/url]

Mediainfo:

Код:
General
Complete name                            : I:\Torrent_Download\Dvoinaya_jizn_ohota_za_atomnoy_bomboy_2011.avi
Format                                   : AVI
Format/Info                              : Audio Video Interleave
File size                                : 585 MiB
Duration                                 : 48mn 32s
Overall bit rate                         : 1 685 Kbps
Writing library                          : VirtualDub build 24442/release
Video
ID                                       : 0
Format                                   : MPEG-4 Visual
Format settings, BVOP                    : 1
Format settings, QPel                    : No
Format settings, GMC                     : No warppoints
Format settings, Matrix                  : Default (H.263)
Muxing mode                              : Packed bitstream
Codec ID                                 : DX50
Codec ID/Hint                            : DivX 5
Duration                                 : 48mn 32s
Bit rate                                 : 1 547 Kbps
Width                                    : 720 pixels
Height                                   : 400 pixels
Display aspect ratio                     : 16:9
Frame rate                               : 25.000 fps
Color space                              : YUV
Chroma subsampling                       : 4:2:0
Bit depth                                : 8 bits
Scan type                                : Progressive
Compression mode                         : Lossy
Bits/(Pixel*Frame)                       : 0.215
Stream size                              : 537 MiB (92%)
Writing library                          : DivX 3013
Audio
ID                                       : 1
Format                                   : MPEG Audio
Format version                           : Version 1
Format profile                           : Layer 3
Codec ID                                 : 55
Codec ID/Hint                            : MP3
Duration                                 : 48mn 32s
Bit rate mode                            : Constant
Bit rate                                 : 128 Kbps
Channel(s)                               : 2 channels
Sampling rate                            : 44.1 KHz
Compression mode                         : Lossy
Delay relative to video                  : 13ms
Stream size                              : 44.4 MiB (8%)
Alignment                                : Split accross interleaves
Interleave, duration                     : 40 ms (1.00 video frame)
Interleave, preload duration             : 500 ms
Скриншоты:
       
Other forum [Profile] [PM]
Display posts from previous:    
Reply to topic

The time now is: Today 07:52

All times are GMT + 3 Hours



You cannot post new topics in this forum
You cannot reply to topics in this forum
You cannot edit your posts in this forum
You cannot delete your posts in this forum
You cannot vote in polls in this forum
You cannot attach files in this forum
You cannot download files in this forum