Today is a free download without charge Download

Земля. Территория загадок. Неразгаданный Стоунхендж (2015) SATRip

Reply to topic
 
Author
Message

Omen ®

Longevity: 6 years 9 months

Posts: 181090

Торрент-статистика

Post 30-Sep-2015 22:47

[Quote]

Земля. Территория загадок. Неразгаданный Стоунхендж - Телекомпания: МИР
Жанр: Документальный
Участники: Алексей Артемьев
Описание:Разгадать секреты Стоунхенджа пытается не одно поколение исследователей. Этот комплекс считается одним из самых знаменитых памятников неолита. Многие ученые связывают постройку артефакта с древними жрецами друидами и волшебником Мерлином. Каким образом был создан Стоунхендж и какое отношение к нему имеет Уинстон Черчилль, смотрите в нашей программе.Продолжительность: 00:23:59
Качество видео: SATRip
Видео: Xvid, 704x400, ~1479 Кбит/сек
Аудио: MP3, 2 ch, 128 Кбит/сек, CBR

Mediainfo:

Код:
Общее
Полное имя                               : F:\видео\фильмы\Земля. Территория загадок\Неразгаданный Стоунхендж.avi
Формат                                   : AVI
Формат/Информация                        : Audio Video Interleave
Размер файла                             : 277 Мбайт
Продолжительность                        : 23 м.
Общий поток                              : 1617 Кбит/сек
Программа кодирования                    : VirtualDubMod 1.5.10.3 | [url=http://www.virtualdub-fr.org]www.virtualdub-fr.org[/url] || (build 2550/release)
Библиотека кодирования                   : VirtualDubMod build 2550/release
Видео
Идентификатор                            : 0
Формат                                   : MPEG-4 Visual
Профиль формата                          : Advanced Simple@L5
Параметр BVOP формата                    : 1
Параметр QPel формата                    : Нет
Параметр GMC формата                     : Без точки перехода
Параметр матрицы формата                 : Default (H.263)
Идентификатор кодека                     : XVID
Идентификатор кодека/Подсказка           : XviD
Продолжительность                        : 23 м.
Битрейт                                  : 1479 Кбит/сек
Ширина                                   : 704 пикселя
Высота                                   : 400 пикселей
Соотношение сторон                       : 16:9
Частота кадров                           : 25,000 кадров/сек
Цветовое пространство                    : YUV
Субдискретизация насыщенности            : 4:2:0
Битовая глубина                          : 8 бит
Тип развёртки                            : Прогрессивная
Метод сжатия                             : С потерями
Бит/(Пиксели*Кадры)                      : 0.210
Размер потока                            : 253 Мбайт (91%)
Библиотека кодирования                   : XviD 1.2.1 (UTC 2008-12-04)
Аудио
Идентификатор                            : 1
Формат                                   : MPEG Audio
Версия формата                           : Version 1
Профиль формата                          : Layer 3
Идентификатор кодека                     : 55
Идентификатор кодека/Подсказка           : MP3
Продолжительность                        : 23 м.
Вид битрейта                             : Постоянный
Битрейт                                  : 128 Кбит/сек
Каналы                                   : 2 канала
Частота                                  : 48,0 КГц
Метод сжатия                             : С потерями
Размер потока                            : 21,9 Мбайт (8%)
Выравнивание                             : Соединение по промежуткам
Продолжительность промежутка             : 40  мс. (1,00 видеокадр)
Время предзагрузки промежутка            : 504  мс.
Библиотека кодирования                   : LAME3.99r
Настройки программы                      : -m s -V 4 -q 2 -lowpass 17 -b 128
Скриншоты:
       
Other forum [Profile] [PM]
Similar theme
Forum Topic Author Torrent Replies Last Post
./templates/default/images/folder_dl.gif Фильмы 2001-2010 Новая земля (Александр Мельник) (2008, Фантастика, боевик, драма) [H.264] BDRip Omen
1 | 0

0 | 3260

25

2013-02-20 16:44
Omen Latest
./templates/default/images/folder_dl.gif Фантастика, фэнтези, ужасы, мистика Сергей Куц | Земля 2252 (2019) [FB2] }{@R0N
2 | 0

0 | 174

0

2019-07-07 15:54
}{@R0N Latest
Display posts from previous:    
Reply to topic

The time now is: Today 18:00

All times are GMT + 3 Hours



You cannot post new topics in this forum
You cannot reply to topics in this forum
You cannot edit your posts in this forum
You cannot delete your posts in this forum
You cannot vote in polls in this forum
You cannot attach files in this forum
You cannot download files in this forum