Сегодня идет свободное скачивание без начисления Download

Алекс Мэй | Идеальный вечер для женщин (2014) CamRip [сексология, соблазнение]

Ответить на тему
 
Автор
Сообщение

Omen ®

Стаж: 5 лет 7 месяцев

Сообщений: 185427

Торрент-статистика

Пост 05-Июн-2015 00:03

[Цитировать]

Алекс Мэй
Идеальный вечер для женщин
- Автор (режиссер): Алекс Мэй
Жанр: сексология, взаимоотношения полов, соблазнение
Продолжительность: 03:09:44
Качество видео: CamRip
Видеокодек: AVC
Битрейт видео: ~265 kb/s
Размер кадра: 640x360
Аудиокодек: AAC
Битрейт аудио: 320 kb/s, 2 ch, 44100 Hz
Описание:
Впереди нас ждут 3 праздника, которые являются отличным поводом сделать приятный сюрприз любимому человеку, укрепить ваши отношения и возродить страсть!

Далее:

Большая часть населения планеты подарит друг другу стандартный предсказуемый набор в виде парфюмерии, одежды, дорогих или менее дорогих безделушек и так далее...
Однако, не пора ли порвать в клочья этот шаблон и сделать что-то действительно стоящее и особенное?
Хотели бы вы сделать этот день самым страстным и незабываемым для своей второй половинки?
(при этом получив море удовольствия и наслаждения для себя)
Чтобы в эти праздники у вас появилась такая возможность, я хочу пригласить вас на идеальный вечер.
Что будет:
План вечера. Пошаговые инструкции того, что необходимо сделать.
Как правильно подготовить пространство к этому празднику?
Для женщин: как заранее завести партнера и заставить его думать о сексе с вами задолго до начала вечера?
Какой должна быть прелюдия, чтобы она максимально возбудила и зажгла вас обоих? (Это совсем не та информация, которую вы, возможно, уже слышали в моей аудиокниге или в Академии!)
Как избежать массы подводных камней, которые могут свести на нет все ваши старания в этот особенный вечер.
И многое, многое другое...

MediaInfo:

General
Complete name : 7 простых шагов к созданию самого страстного, романтичного и сексуального вечера с вашим близким человеком..mp4
Format : MPEG-4
Format profile : Base Media / Version 2
Codec ID : mp42
File size : 9.92 MiB
Duration : 3mn 49s
Overall bit rate mode : Variable
Overall bit rate : 363 Kbps
Movie name : InfoMania.cc
Encoded date : UTC 2014-02-07 02:49:41
Tagged date : UTC 2014-02-07 02:49:41
gsst : 0
gstd : 229226
gssd : BADC23AE8HH1392322037151025
gshh : r8---sn-n8v7lnes.googlevideo.com
Video
ID : 1
Format : AVC
Format/Info : Advanced Video Codec
Format profile : [url=mailto:Baseline@L3.0]Baseline@L3.0[/url]
Format settings, CABAC : No
Format settings, ReFrames : 1 frame
Format settings, GOP : M=1, N=60
Codec ID : avc1
Codec ID/Info : Advanced Video Coding
Duration : 3mn 49s
Bit rate : 265 Kbps
Maximum bit rate : 721 Kbps
Width : 640 pixels
Height : 360 pixels
Display aspect ratio : 16:9
Frame rate mode : Constant
Frame rate : 25.000 fps
Color space : YUV
Chroma subsampling : 4:2:0
Bit depth : 8 bits
Scan type : Progressive
Bits/(Pixel*Frame) : 0.046
Stream size : 7.23 MiB (73%)
Tagged date : UTC 2014-02-07 02:49:44
Audio
ID : 2
Format : AAC
Format/Info : Advanced Audio Codec
Format profile : LC
Codec ID : 40
Duration : 3mn 49s
Bit rate mode : Variable
Bit rate : 96.0 Kbps
Maximum bit rate : 103 Kbps
Channel count : 2 channels
Channel positions : Front: L R
Sampling rate : 44.1 KHz
Compression mode : Lossy
Stream size : 2.62 MiB (26%)
Title : IsoMedia File Produced by Google, 5-11-2011
Encoded date : UTC 2014-02-07 02:49:43
Tagged date : UTC 2014-02-07 02:49:44
General
Complete name : Алекс Мэй - Идеальный вечер для женщин.mp3
Format : MPEG Audio
File size : 426 MiB
Duration : 3h 5mn
Overall bit rate mode : Constant
Overall bit rate : 320 Kbps
Track name : InfoMania.cc
Performer : InfoMania.cc
Writing library : LAME3.98.2
major_brand : ajor
minor_version : i
compatible_brands : ompatibl
Audio
Format : MPEG Audio
Format version : Version 1
Format profile : Layer 3
Mode : Joint stereo
Mode extension : MS Stereo
Duration : 3h 6mn
Bit rate mode : Constant
Bit rate : 320 Kbps
Channel count : 2 channels
Sampling rate : 44.1 KHz
Compression mode : Lossy
Stream size : 426 MiB (100%)
Writing library : LAME3.98.2
Скриншоты:
       
Вне форума [Профиль] [ЛС]
Похожие темы
Форум Тема Автор Торрент Отв. Посл. сообщение
./templates/default/images/folder_dl.gif Компьютерная литература Александр Пипко | 7 приемов обработки портрета в PHOTOSHOP.Быстрый старт без усилий + видеоурок (2012) [PDF] UndegraundMen
0 | 1

0 | 1178

7

2013-10-15 11:30
UndegraundMen Последнее
./templates/default/images/folder_dl.gif Обучающее видео Алексей Меркулов | Комплект курсов по 2D и 3D-моделированию в AutoCAD (2014) Omen
1 | 0

3 | 7507

269

2015-04-24 17:33
Галина123 Последнее
./templates/default/images/folder_dl.gif Обучающее видео Александр Киселев и Галина Исаева | Обучающий курс по съемке Love Story (2014) WEBRip [H.264/1080p] Omen
1 | 0

0 | 866

33

2015-02-01 23:57
Omen Последнее
./templates/default/images/folder_dl.gif Обучающее видео [Profileschool] Алексей Шадрин | Калибровка принтера: от А до Я (2015) PCRec Omen
1 | 0

0 | 1334

73

2015-03-25 21:19
Omen Последнее
./templates/default/images/folder_dl.gif Обучающее видео Александр Медведев | 10 ноу-хау на съёмке, до которых вы не додумались (2013) PCRec Omen
1 | 0

0 | 807

35

2015-04-03 20:51
Omen Последнее
./templates/default/images/folder_dl.gif Разное Алекс Мэй | 11 видов женского оргазма (2013) [PDF] Omen
3 | 0

0 | 5819

104

2015-04-22 09:02
Omen Последнее
./templates/default/images/folder_dl.gif Обучающее видео Алекс Мэй | Сексуальные позиции. Для максимального наслаждения (2013) [CamRip] Omen
2 | 0

0 | 1340

193

2015-05-07 00:08
Omen Последнее
./templates/default/images/folder_dl.gif Обучающее видео Алекс Мэй - Куннилингус. Секреты мастерства [2012] CamRip Omen
1 | 0

0 | 1456

167

2015-05-07 00:18
Omen Последнее
./templates/default/images/folder_dl.gif Обучающее видео Алекс Мэй - Секреты точки Джи [2008] DVD5 Omen
1 | 0

0 | 1291

211

2015-05-07 09:00
Omen Последнее
./templates/default/images/folder_dl.gif Обучающее видео Алекс Мэй | Как организовать секс с двумя девушками (2011) CamRip Omen
1 | 0

0 | 830

77

2015-05-19 18:27
Omen Последнее
Показать сообщения:    
Ответить на тему

Текущее время: Сегодня 05:07

Часовой пояс: GMT + 3



Вы не можете начинать темы
Вы не можете отвечать на сообщения
Вы не можете редактировать свои сообщения
Вы не можете удалять свои сообщения
Вы не можете голосовать в опросах
Вы не можете прикреплять файлы к сообщениям
Вы не можете скачивать файлы