Today is a free download without charge Download

Александр Медведев | 10 ноу-хау на съёмке, до которых вы не додумались (2013) PCRec

Reply to topic
 
Author
Message

Omen ®

Longevity: 6 years 11 months

Posts: 181090

Торрент-статистика

Post 03-Apr-2015 20:51

[Quote]

Александр Медведев
10 ноу-хау на съёмке, до которых вы не додумались
- Автор (режиссер): Александр Медведев
Жанр: Фотосъемка
Продолжительность: 04:41:40
Качество видео: PCRec
Видеокодек: AVC
Битрейт видео: ~30 - 781 kbps
Размер кадра: 768х432
Аудиокодек: AAC 2.0
Битрейт аудио: 125 - 129 kbps (CBR), 2 Ch, 44100 Hz
Описание:
Мастер-класс от Fotoshkola.net.
Темы мастер-класса:
Позирование, выбор ракурса, свет, экспозиция и другие моменты;
Как очень сильно облегчить себе жизнь в 10 конкретных советах с подробным разбором;
Как сэкономить себе пару лет хождения по граблям и поднять свой уровень скачком?
Бонус:
Александр Медведев - Системы ценностей и как с ними работать.
Дарья Булавина - Фотографии известных людей.

MediaInfo:

Код:
Общее
Полное имя                               : C:\Медведев А. - 10 ноу-хау на съёмке, до которых вы не додумались - 2013\Бонус\Булавина Д. - Фотографии известных людей.flv
Формат                                   : Flash Video
Размер файла                             : 84,2 Мбайт
Продолжительность                        : 59 м.
Общий поток                              : 198 Кбит/сек
Видео
Формат                                   : AVC
Формат/Информация                        : Advanced Video Codec
Профиль формата                          : [url=mailto:Main@L4.1]Main@L4.1[/url]
Параметр CABAC формата                   : Да
Параметр ReFrames формата                : 1 кадр
Параметр GOP формата                     : M=1, N=60
Идентификатор кодека                     : 7
Продолжительность                        : 59 м.
Битрейт                                  : 781 Кбит/сек
Ширина                                   : 768 пикселей
Высота                                   : 432 пикселя
Соотношение сторон                       : 16:9
Режим частоты кадров                     : Постоянный
Частота кадров                           : 5,000 кадров/сек
Цветовое пространство                    : YUV
Субдискретизация насыщенности            : 4:2:0
Битовая глубина                          : 8 бит
Тип развёртки                            : Прогрессивная
Бит/(Пиксели*Кадры)                      : 0.471
Размер потока                            : 333 Мбайт
Аудио
Формат                                   : AAC
Формат/Информация                        : Advanced Audio Codec
Профиль формата                          : LC
Идентификатор кодека                     : 10
Продолжительность                        : 59 м.
Битрейт                                  : 125 Кбит/сек
Каналы                                   : 2 канала
Расположение каналов                     : Front: L R
Частота                                  : 44,1 КГц
Метод сжатия                             : С потерями
Размер потока                            : 53,2 Мбайт (63%)
Скриншоты:
       

Дополнительные скриншоты:

       
 
Other forum [Profile] [PM]
Similar theme
Forum Topic Author Torrent Replies Last Post
./templates/default/images/folder_dl.gif Журналы и газеты (общий раздел) Домашние пироги и выпечка от Александра Селезнёва - 6 книг [2010-2011, книги, кулинария, PDF] Omen
1 | 0

0 | 2900

8

2011-05-14 10:05
Omen Latest
./templates/default/images/folder_dl.gif Справочники, энциклопедии и словари В.Н.Александров и др. | Лабораторный практикум по физике [2010] [PDF] UndegraundMen
0 | 1

0 | 586

0

2013-03-04 22:18
UndegraundMen Latest
./templates/default/images/folder_dl.gif Авторская песня Александр Розенбаум - 100 лучших композиций (2013) [MP3|320 кб/с] UndegraundMen
1 | 0

0 | 2127

22

2013-05-31 03:03
UndegraundMen Latest
./templates/default/images/folder_dl.gif Фантастика, фэнтези, ужасы, мистика Левицкий Андрей, Бобл Алексей - Я-сталкер 2, Антизона [Роман, (ЛИ), 2013 г., 56 kbps, MP3] Omen
1 | 0

0 | 1290

6

2014-01-18 14:00
Omen Latest
./templates/default/images/folder_dl.gif Фантастика, фэнтези, ужасы, мистика Левицкий Андрей, Бобл Алексей - Я-сталкер 1, Осознание [Роман, (ЛИ), 2013 г., 56 kbps, MP3] Omen
1 | 0

0 | 1322

6

2014-01-18 14:00
Omen Latest
./templates/default/images/folder_dl.gif Фантастика, фэнтези, ужасы, мистика Алексей Чумаков | В поисках призраков (2015) [FB2] Omen
1 | 0

0 | 1090

1

2015-03-16 18:55
Omen Latest
./templates/default/images/folder_dl.gif Разное Алекс Мэй | 11 видов женского оргазма (2013) [PDF] Omen
1 | 0

0 | 7150

117

2015-04-22 09:02
Omen Latest
./templates/default/images/folder_dl.gif Компьютерная литература Кенин Александр - Самоучитель системного администратора [2012, PDF/FB2/DOC, RUS] Omen
1 | 0

0 | 622

5

2015-05-04 06:10
Omen Latest
./templates/default/images/folder_dl.gif Отечественные cериалы Меч 2 (Пролог + Серии 01—20 из 20) (Алексей Луканев) [2015, криминал, SATRip] O.S.A.
1 | 0

0 | 1490

37

2015-06-15 18:54
O.S.A. Latest
./templates/default/images/folder_dl.gif Компьютерная литература Алексей Гультяев | Самоучитель Nero 8. Запись CD и DVD (2008) [PDF] Omen
1 | 0

0 | 989

3

2015-07-12 16:15
Omen Latest
Display posts from previous:    
Reply to topic

The time now is: Today 14:47

All times are GMT + 3 Hours



You cannot post new topics in this forum
You cannot reply to topics in this forum
You cannot edit your posts in this forum
You cannot delete your posts in this forum
You cannot vote in polls in this forum
You cannot attach files in this forum
You cannot download files in this forum