Today is a free download without charge Download

Буду помнить (Виталий Воробьёв) [2010 г., военный, SATRip]

Reply to topic
 
Author
Message

SmartSoft ®

Gender:

Longevity: 5 years 8 months

Posts: 281

Торрент-статистика

Post 19-Feb-2015 11:06

[Quote]

-Буду помнить-- Производство: Россия, «Гринсити»
Режиссер: Виталий Воробьёв
Жанр: военный
Год выпуска: 2010 г.
Продолжительность: 01:33:50
В ролях: Роман Гольчук, Денис Парамонов, Сергей Маховиков, Елена Подкаминская, Лариса Коршунова, Сергей Апрельский, Сергей Сазонтьев, Анатолий Васильев, Максим Глотов, Ирина Токарчук, Владимир Лысенко, Эльвира Шияпова, Юрий Лопарёв, Игорь Тильтиков, Анна Сафронова, Георгий Левин, Валентин Козачков, Дарья Питерова, Валерия Литвиненко, Инна Руди, Мария Шаменкова, Геннадий Скарга, Анастасия Саламатина, Евгений Штырбул-Описание: Война, 1942 год. Маленький южный город оккупировали фашисты. "Я не еврей, не еврей!" - отчаянно кричит Вадька, сжавшись под прицелом немецкого автомата. Вадька - чернявый тринадцатилетний подросток, сын гречанки и русского, полукровка. Пока его отец сидел в лагере по ложному доносу, он рос на улице и впитывал блатную романтику. Вадька считает отца никчемным человеком. Особенно сейчас, в оккупации, когда другие отцы сражаются на фронте, защищая Родину...-Качество видео: SATRip
Контейнер: AVI
Видео кодек: XviD
Аудио кодек: MP3
Видео: 720x400; 969 kbps; 25 fps; 0.135 bit/pixel
Аудио: 256 kbps; 2 ch; 48 kHz
Cубтитры: отсутствуют

Media Info

General
Format : AVI
Format/Info : Audio Video Interleave
File size : 818 MiB
Duration : 1h 32mn
Overall bit rate : 1 235 Kbps
Writing application : VirtualDubMod 1.5.4.1 (build 2178/release)
Writing library : VirtualDub build 35390/release
Video
ID : 0
Format : MPEG-4 Visual
Format profile : Advanced Simple@L5
Format settings, BVOP : 2
Format settings, QPel : No
Format settings, GMC : No warppoints
Format settings, Matrix : Default (H.263)
Muxing mode : Packed bitstream
Codec ID : XVID
Codec ID/Hint : XviD
Duration : 1h 32mn
Bit rate : 969 Kbps
Width : 720 pixels
Height : 400 pixels
Display aspect ratio : 16:9
Frame rate : 25.000 fps
Color space : YUV
Chroma subsampling : 4:2:0
Bit depth : 8 bits
Scan type : Progressive
Compression mode : Lossy
Bits/(Pixel*Frame) : 0.135
Stream size : 642 MiB (78%)
Writing library : XviD 73
Audio
ID : 1
Format : MPEG Audio
Format version : Version 1
Format profile : Layer 3
Mode : Joint stereo
Mode extension : MS Stereo
Codec ID : 55
Codec ID/Hint : MP3
Duration : 1h 32mn
Bit rate mode : Constant
Bit rate : 256 Kbps
Channel(s) : 2 channels
Sampling rate : 48.0 KHz
Compression mode : Lossy
Stream size : 170 MiB (21%)
Alignment : Aligned on interleaves
Interleave, duration : 40 ms (1.00 video frame)
Interleave, preload duratio : 504 ms

Скриншоты

       

_________________
Signed off for violation of forum rules


Last edited by SmartSoft on 2015-02-19 11:32; edited 1 time in total
Other forum [Profile] [PM]

SmartSoft ®

Gender:

Longevity: 5 years 8 months

Posts: 281

Торрент-статистика

Post 19-Feb-2015 11:13 (after 7 minutes)

[Quote]

Геннадич писал(а):
Недопустимое имя файла
Ё, такое сам не видел

_________________
Signed off for violation of forum rules
Other forum [Profile] [PM]

SmartSoft ®

Gender:

Longevity: 5 years 8 months

Posts: 281

Торрент-статистика

Post 19-Feb-2015 11:29 (after 16 minutes)

[Quote]

Геннадич писал(а):
Фильм хороший, скачай и поменяй файл https://darkos.club/viewtopic.php?t=167302
ок
Добавлено спустя 5 минут 57 секунд:
Геннадич, вот такое название устраивает?:
Код:
Budu_pomnit_[Dark-os.com].avi

_________________
Signed off for violation of forum rules
Other forum [Profile] [PM]

SmartSoft ®

Gender:

Longevity: 5 years 8 months

Posts: 281

Торрент-статистика

Post 19-Feb-2015 11:33 (after 3 minutes)

[Quote]

Геннадич писал(а):
Абсолютно, респект...
Тогда щас, перезалью
Добавлено спустя 2 минуты 16 секунд:
Геннадич, Ну вот и все!

_________________
Signed off for violation of forum rules
Other forum [Profile] [PM]
Display posts from previous:    
Reply to topic

The time now is: Today 04:14

All times are GMT + 3 Hours



You cannot post new topics in this forum
You cannot reply to topics in this forum
You cannot edit your posts in this forum
You cannot delete your posts in this forum
You cannot vote in polls in this forum
You cannot attach files in this forum
You cannot download files in this forum