Today is a free download without charge Download

Футбол. Лига Чемпионов 2014-15 / 1/8 финала. Первые матчи. 1-й день. Обзор матчей (2015) HDTVRip 720p

Reply to topic
 
Author
Message

NarDok ®

Longevity: 7 years 7 months

Posts: 914

Торрент-статистика

Post 18-Feb-2015 22:56

[Quote]

Футбол. Лига Чемпионов 2014-15 / 1/8 финала. Первые матчи. 1-й день. Обзор матчей (2015) - Телекомпания: Футбол 1
Жанр: Спорт
Участники: Роман Гутцайт, Алексей Андронов, Денис Казанский
Описание:
Футбол. Лига Чемпионов 2014-15 / 1/8 финала. Первые матчи. 1-й день. Обзор матчей
Продолжительность: 00:25:38
Качество видео: HDTVRip 720p
Комментарий: русский
Видеокодек: MPEG-4 AVC/H.264
Битрейт видео: ~~4000 Kbps
Размер кадра: 1280x720 (16:9), 50 fps
Аудиокодек: AC3 2.0
Битрейт аудио: 192 Kbps

Mediainfo:

Код:
Общее
Уникальный идентификатор                 : 68729603143986543262740599486821825435 (0x33B4D70F39F1491CE92189A22C91FB9B)
Полное имя                               : J:\Видео\Лига Чемпионов 2014-12015. 1.8 финала. 1-е матчи. 1-й день. Обзор.HDTVRip.720p.mkv
Формат                                   : Matroska
Версия формата                           : Version 2
Размер файла                             : 773 Мбайт
Продолжительность                        : 25 м.
Общий поток                              : 4218 Кбит/сек
Программа кодирования                    : HandBrake 0.9.9
Библиотека кодирования                   : libmkv 0.6.5
Видео
Идентификатор                            : 1
Формат                                   : AVC
Формат/Информация                        : Advanced Video Codec
Профиль формата                          : [url=mailto:High@L4.1]High@L4.1[/url]
Параметр CABAC формата                   : Да
Параметр ReFrames формата                : 4 кадра
Идентификатор кодека                     : V_MPEG4/ISO/AVC
Продолжительность                        : 25 м.
Битрейт                                  : 4000 Кбит/сек
Ширина                                   : 1280 пикселей
Высота                                   : 720 пикселей
Соотношение сторон                       : 16:9
Режим частоты кадров                     : Постоянный
Частота кадров                           : 50,000 кадров/сек
Цветовое пространство                    : YUV
Субдискретизация насыщенности            : 4:2:0
Битовая глубина                          : 8 бит
Тип развёртки                            : Прогрессивная
Бит/(Пиксели*Кадры)                      : 0.087
Размер потока                            : 723 Мбайт (93%)
Библиотека кодирования                   : x264 core 130 r2273 b3065e6
Настройки программы                      : cabac=1 / ref=2 / deblock=1:0:0 / analyse=0x3:0x113 / me=hex / subme=6 / psy=1 / psy_rd=1.00:0.00 / mixed_ref=1 / me_range=16 / chroma_me=1 / trellis=1 / 8x8dct=1 / cqm=0 / deadzone=21,11 / fast_pskip=1 / chroma_qp_offset=-2 / threads=12 / lookahead_threads=2 / sliced_threads=0 / nr=0 / decimate=1 / interlaced=0 / bluray_compat=0 / constrained_intra=0 / bframes=3 / b_pyramid=2 / b_adapt=1 / b_bias=0 / direct=1 / weightb=1 / open_gop=0 / weightp=1 / keyint=500 / keyint_min=50 / scenecut=40 / intra_refresh=0 / rc_lookahead=30 / rc=abr / mbtree=1 / bitrate=4000 / ratetol=1.0 / qcomp=0.60 / qpmin=0 / qpmax=69 / qpstep=4 / vbv_maxrate=62500 / vbv_bufsize=78125 / nal_hrd=none / ip_ratio=1.40 / aq=1:1.00
Язык                                     : English
Default                                  : Да
Forced                                   : Нет
Основные цвета                           : BT.709
Характеристики трансфера                 : BT.709
Коэффициенты матрицы                     : BT.709
colour_range                             : Limited
Аудио
Идентификатор                            : 2
Формат                                   : AC-3
Формат/Информация                        : Audio Coding 3
Расширение режима                        : CM (complete main)
Параметр Endianness формата              : Big
Идентификатор кодека                     : A_AC3
Продолжительность                        : 25 м.
Вид битрейта                             : Постоянный
Битрейт                                  : 192 Кбит/сек
Каналы                                   : 2 канала
Расположение каналов                     : Front: L R
Частота                                  : 48,0 КГц
Битовая глубина                          : 16 бит
Метод сжатия                             : С потерями
Размер потока                            : 35,2 Мбайт (5%)
Язык                                     : Russian
Default                                  : Да
Forced                                   : Нет
Скриншоты:
       

_________________

Other forum [Profile] [PM]
Display posts from previous:    
Reply to topic

The time now is: Today 02:21

All times are GMT + 3 Hours



You cannot post new topics in this forum
You cannot reply to topics in this forum
You cannot edit your posts in this forum
You cannot delete your posts in this forum
You cannot vote in polls in this forum
You cannot attach files in this forum
You cannot download files in this forum