Today is a free download without charge Download

Сильные духом (2015) HDTV [H.264/1080i-LQ]

Reply to topic
 
Author
Message

NarDok ®

Longevity: 7 years 7 months

Posts: 914

Торрент-статистика

Post 15-Feb-2015 20:51

[Quote]

Сильные духом (2015) HDTV [H.264/1080i-LQ]- Телекомпания: Первый канал HD
Жанр: Документальный, Спорт
Описание:7 марта 2014 года в Сочи стартовали XI Паралимпийские зимние игры. Заявленная программа стала рекордной в истории по количеству медалей - 72 и видов спорта - 5.
В рамках горнолыжной программы впервые был представлен пара-сноуборд. В паралимпиаде приняли участие 45 стран, 55 спортсменов.
В состав нашей сборной вошли и 7 чемпионов паралимпийских игр. Наши спортсмены стали золотыми призерами.
Как готовились к победе наши спортсмены? И как смогли оставить далеко позади соперников?
Валерий Редкозубов стал двукратным золотым чемпионом паралимпийских игр. Абсолютного чемпиона мира в этом виде спорта Валерия Редкозубова на трассе сопровождал зрячий лидер – Евгений Героев. Только за последний предолимпийский месяц Редкозубов принял участие в 16-ти турнирах. Так что к паралимпиаде спортсмен подошел в великолепной форме. На открытии паралимпиады он нес флаг нашей сборной.
Светлана Коновалова – двукратная олимпийская чемпионка. Завоевала еще 2 серебряных и 1 бронзовую награды. Воспитанница детского дома. После рождения с тяжёлой травмой позвоночника Свету оставили в детском доме. Когда ей исполнилось 23 года, Светлана случайно узнала, что у неё есть сестра Евгения, и они встретились. Евгения работала волонтером на паралимпиаде в Сочи. История двух сестер.
Четырехкратный олимпийский чемпион Ирек Зарипов вышел на старт уже на следующий день после открытия игр. На него возлагались большие надежды, но он стал лишь серебряным призером, но двукратным. В паралимпийскую сборную он пришел после того, как попал в автомобильную авария в 2000 году. Уже через полгода на играх в Турине он показал очень хороший результат. Карьера чемпиона помогла ему завоевать сердце девушки, которую он любил с детства. Сейчас у них двое детей. Семья будет болеть за Ирека в полном составе. Родные были уверены в его победе, ведь последний год спортсмен тренировался по восемь часов в день.
Для Инги Медведевой сочинская паралимпиада стала уже пятой. Она попала в автоаварию, когда ей было 11, а уже в 12 встала на лыжи. Инга – единственная в России спортсменка, которая катается на одной лыже. Но на паралимпиаде ей пришлось нелегко – она соревновалась и с теми спортсменами, что стоят на двух лыжах. Но те, кто знает, какой у Инги сильный характер, были уверены в ее победе – Инга взяла серебро. Дома за соревнованиями мамы следила 5-летняя Лена.
Чемпионка мира по керлингу на колясках Светлана Пахомова, как и вся ее команда была дебютантом паралимпиады. Чемпионкой Светлана Пахомова стала уже через пять лет после того, как впервые вышла на лед. Дома за нее болели муж, двое взрослых сыновей, и внук. Что побудило ее заняться спортом, и как она стала серебряным призером сочинской паралимпиады?
Продолжительность: 00:46:25
Качество видео: HDTV
Видеокодек: MPEG-4 AVC/H.264
Битрейт видео: ~10,7 Мбит/сек
Размер кадра: 1920x1080
Аудиокодек: MP2, 2ch
Битрейт аудио: 192.00 kbps

Mediainfo

Общее
Идентификатор : 1 (0x1)
Идентификатор : 1 (0x1) Полное имя : F:\видео\фильмы\Silnye.duhom.HDTV.1080i..ts
Полное имя : F:\видео\фильмы\Silnye.duhom.HDTV.1080i..ts Формат : MPEG-TS
Формат : MPEG-TS Размер файла : 3,72 Гбайт
Размер файла : 3,72 Гбайт Продолжительность : 46 м.
Продолжительность : 46 м. Режим общего битрейта : Переменный
Режим общего битрейта : Переменный Общий поток : 11,5 Мбит/сек
Общий поток : 11,5 Мбит/сек
Видео
Идентификатор : 1603 (0x643)
Идентификатор : 1603 (0x643) Идентификатор меню : 1 (0x1)
Идентификатор меню : 1 (0x1) Формат : AVC
Формат : AVC Формат/Информация : Advanced Video Codec
Формат/Информация : Advanced Video Codec Профиль формата : [url=mailto:High@L4.0]High@L4.0[/url]
Профиль формата : [url=mailto:High@L4.0]High@L4.0[/url] Параметр CABAC формата : Да
Параметр CABAC формата : Да Параметр ReFrames формата : 3 кадра
Параметр ReFrames формата : 3 кадра Идентификатор кодека : 27
Идентификатор кодека : 27 Продолжительность : 46 м.
Продолжительность : 46 м. Битрейт : 10,7 Мбит/сек
Битрейт : 10,7 Мбит/сек Ширина : 1920 пикселей
Ширина : 1920 пикселей Высота : 1080 пикселей
Высота : 1080 пикселей Соотношение сторон : 16:9
Соотношение сторон : 16:9 Частота кадров : 25,000 кадров/сек
Частота кадров : 25,000 кадров/сек Стандарт вещания : Component
Стандарт вещания : Component Цветовое пространство : YUV
Цветовое пространство : YUV Субдискретизация насыщенности : 4:2:0
Субдискретизация насыщенности : 4:2:0 Битовая глубина : 8 бит
Битовая глубина : 8 бит Тип развёртки : Чересстрочная
Тип развёртки : Чересстрочная Порядок развёртки : Верхнее поле первое
Порядок развёртки : Верхнее поле первое Бит/(Пиксели*Кадры) : 0.206
Бит/(Пиксели*Кадры) : 0.206 Размер потока : 3,47 Гбайт (93%)
Размер потока : 3,47 Гбайт (93%) Основные цвета : BT.709
Основные цвета : BT.709 Характеристики трансфера : BT.709
Характеристики трансфера : BT.709 Коэффициенты матрицы : BT.709
Коэффициенты матрицы : BT.709 colour_range : Limited
colour_range : Limited
Аудио
Идентификатор : 2603 (0xA2B)
Идентификатор : 2603 (0xA2B) Идентификатор меню : 1 (0x1)
Идентификатор меню : 1 (0x1) Формат : MPEG Audio
Формат : MPEG Audio Версия формата : Version 1
Версия формата : Version 1 Профиль формата : Layer 2
Профиль формата : Layer 2 Идентификатор кодека : 3
Идентификатор кодека : 3 Продолжительность : 46 м.
Продолжительность : 46 м. Вид битрейта : Постоянный
Вид битрейта : Постоянный Битрейт : 192 Кбит/сек
Битрейт : 192 Кбит/сек Каналы : 2 канала
Каналы : 2 канала Частота : 48,0 КГц
Частота : 48,0 КГц Метод сжатия : С потерями
Метод сжатия : С потерями Размер потока : 63,7 Мбайт (2%)
Размер потока : 63,7 Мбайт (2%) Язык : Russian
Язык : Russian
Скриншоты:
       

_________________

Other forum [Profile] [PM]
Display posts from previous:    
Reply to topic

The time now is: Today 20:00

All times are GMT + 3 Hours



You cannot post new topics in this forum
You cannot reply to topics in this forum
You cannot edit your posts in this forum
You cannot delete your posts in this forum
You cannot vote in polls in this forum
You cannot attach files in this forum
You cannot download files in this forum