Today is a free download without charge Download

[Profileschool] Алексей Шадрин | Фундаментальная цветокоррекция фотографических изображений (2014) PCRec

Reply to topic
 
Author
Message

Omen ®

Longevity: 6 years 11 months

Posts: 181090

Торрент-статистика

Post 07-Jan-2015 14:53

[Quote]

[Profileschool] Алексей Шадрин
Фундаментальная цветокоррекция фотографических изображений
- Автор (режиссер): Алексей Шадрин
Жанр: Цветокоррекция фото
Продолжительность: 07:44:50
Качество видео: PCRec
Видеокодек: H.264
Битрейт видео: ~410 Kbps, 15 fps
Размер кадра: 1920x920
Аудиокодек: AAC
Битрейт аудио: 99.0 Kbps, 2 ch, 48.0 KHz
Описание:
Фундаментальная цветокоррекция фотографических изображений — это онлайн семинар, посвященный базовой обработке фотографий, продиктованной естественными причинами.
На двухдневном онлайн семинаре будут рассмотрены базовые законы зрительного восприятия и методы перенесения впечатления от натуры на снимок этой натуры.

МедиаИнфо:

General
Complete name : Алексей Шадрин - Фундаментальная цветокоррекция фотографических изображений (2014)\Семинар\05.10.2014_Part1.mp4
Format : MPEG-4
Format profile : Base Media
Codec ID : isom
File size : 507 MiB
Duration : 2h 18mn
Overall bit rate mode : Variable
Overall bit rate : 512 Kbps
Encoded date : UTC 2014-10-17 16:36:38
Tagged date : UTC 2014-10-17 16:36:38
Video
ID : 1
Format : AVC
Format/Info : Advanced Video Codec
Format profile : [url=mailto:Main@L4.0]Main@L4.0[/url]
Format settings, CABAC : Yes
Format settings, ReFrames : 6 frames
Codec ID : avc1
Codec ID/Info : Advanced Video Coding
Duration : 2h 18mn
Bit rate : 410 Kbps
Maximum bit rate : 3 251 Kbps
Width : 1 920 pixels
Height : 920 pixels
Display aspect ratio : 2.087
Frame rate mode : Constant
Frame rate : 15.000 fps
Color space : YUV
Chroma subsampling : 4:2:0
Bit depth : 8 bits
Scan type : Progressive
Bits/(Pixel*Frame) : 0.015
Stream size : 406 MiB (80%)
Writing library : x264 core 130 r2273 b3065e6
Encoded date : UTC 2014-10-17 16:36:38
Tagged date : UTC 2014-10-17 16:36:45
Audio
ID : 2
Format : AAC
Format/Info : Advanced Audio Codec
Format profile : LC
Codec ID : 40
Duration : 2h 18mn
Bit rate mode : Variable
Bit rate : 99.0 Kbps
Maximum bit rate : 128 Kbps
Channel count : 2 channels
Channel positions : Front: L R
Sampling rate : 48.0 KHz
Compression mode : Lossy
Stream size : 98.0 MiB (19%)
Encoded date : UTC 2014-10-17 16:36:43
Tagged date : UTC 2014-10-17 16:36:45
Скриншоты:
       
Other forum [Profile] [PM]
Similar theme
Forum Topic Author Torrent Replies Last Post
./templates/default/images/folder_dl.gif Обучающее видео [Profileschool] | Секреты цветокоррекции слайдов и негативов (2015) PCRec [H.264/1080p] Omen
1 | 0

0 | 1909

27

2015-08-19 13:10
Omen Latest
./templates/default/images/folder_dl.gif Обучающее видео [profileschool] Adobe Photoshop. Продвинутый уровень [2014, RUS] Omen
1 | 0

0 | 1629

26

2015-12-20 15:32
Omen Latest
Display posts from previous:    
Reply to topic

The time now is: Today 19:37

All times are GMT + 3 Hours



You cannot post new topics in this forum
You cannot reply to topics in this forum
You cannot edit your posts in this forum
You cannot delete your posts in this forum
You cannot vote in polls in this forum
You cannot attach files in this forum
You cannot download files in this forum