Today is a free download without charge Download

Лунный свет 3: Дни вечности в 3Д / Lichtmond 3: Days of Eternity 3D (Martin Koppehele) [2014, Релакс, Музыка, BDrip] Anaglyph / Анаглиф

Reply to topic
 
Author
Message

Omen ®

Longevity: 6 years 9 months

Posts: 181090

Торрент-статистика

Post 01-Nov-2014 23:00

[Quote]

Лунный свет 3: Дни вечности / Lichtmond 3: Days of Eternity
Год выпуска: 2014
Страна: Германия
Студия: Blu Phase Media GmbH, IMAGO-D Studios
Жанр: Релакс, Музыка
Продолжительность: 00:50:03
Перевод: Не требуется-Режиссер : Martin Koppehele
Музыка и тексты: Giorgio, Suna, Martin и Gabi Koppehele, Meera Fe, Karen Kassulat, I Muvrini, Midge Ure, Sky du Mont
Стихи читает: Thomas E. Killinger
Вокал: Meera Fe, Martin Koppehele, I Muvrini, Karen Kassulat, Thomas E. Killinger, Midge Ure, Suna Koppehele-Описание: Своим третьим альбомом Lichtmond 3: Days of Eternity братья Giorgio и Martin Koppehele продолжают свой путь путешествием по первозданному миру фантастической планеты Хронос, где время растворяется в эстетике звука и изображения...-Сэмпл: http://dfiles.ru/files/3way5jah9-Качество: BDrip
Контейнер: AVI
Формат 3D: Анаглиф red-cyan
Видео кодек: XviD
Аудио кодек: AC3-Видео:XviD, 720x576@1024x576, 16:9, 3000 Kbps, 23,976 fps-Аудио 1: Немецкий AC-3, 2 ch, 48,0 kHz, 448 Kbps
Аудио 2: Немецкий AC-3, 5.1 ch, 48,0 kHz, 448 Kbps (Отдельно)
Аудио 3: Английский AC-3, 5.1 ch, 48,0 kHz, 448 Kbps (Отдельно)-

MediaInfo

Общее
Полное имя : E:\3D\Lichtmond_3-Days_of_Eternity\LICHTMOND_3D.avi
Формат : AVI
Формат/Информация : Audio Video Interleave
Профиль формата : OpenDML
Размер файла : 1,21 Гбайт
Продолжительность : 50 м.
Общий поток : 3461 Кбит/сек
Название фильма : LICHTMOND_III_3D-Anagliph
Программа кодирования : Lavf55.44.100
Видео
Идентификатор : 0
Формат : xvid
Идентификатор кодека : xvid
Продолжительность : 50 м.
Битрейт : 3000 Кбит/сек
Ширина : 720 пикселей
Высота : 576 пикселей
Соотношение сторон : 16:9
Частота кадров : 23,976 кадра/сек
Стандарт вещания : PAL
Бит/(Пиксели*Кадры) : 0.302
Размер потока : 1,05 Гбайт (87%)
Заголовок : BD3DRip by serj69
Аудио
Идентификатор : 1
Формат : AC-3
Формат/Информация : Audio Coding 3
Расширение режима : CM (complete main)
Параметр Endianness формата : Big
Идентификатор кодека : 2000
Продолжительность : 50 м.
Вид битрейта : Постоянный
Битрейт : 448 Кбит/сек
Каналы : 2 канала
Расположение каналов : Front: L R
Частота : 48,0 КГц
Битовая глубина : 16 бит
Метод сжатия : С потерями
Размер потока : 160 Мбайт (13%)
Выравнивание : Соединение по промежуткам
Продолжительность промежутка : 32 мс. (0,77 видеокадр)

Скриншоты



Other forum [Profile] [PM]
Display posts from previous:    
Reply to topic

The time now is: Today 18:01

All times are GMT + 3 Hours



You cannot post new topics in this forum
You cannot reply to topics in this forum
You cannot edit your posts in this forum
You cannot delete your posts in this forum
You cannot vote in polls in this forum
You cannot attach files in this forum
You cannot download files in this forum