Today is a free download without charge Download

W.A. Mozart - Piano Concertos 20, 23, 24, 26, 27 - Clifford Curzon (2001) [FLAC|Lossless]<Classical: Romantic Piano>

Reply to topic
 
Author
Message

sashau ®

Gender:

Longevity: 7 years 8 months

Posts: 3497

Торрент-статистика

Post 07-Sep-2014 08:44

[Quote]

W.A. Mozart - Piano Concertos 20, 23, 24, 26, 27 - Clifford Curzon- Год: 2001
Жанр: Classical: Romantic Piano
Источник: Web
Издатель: Decca Classics
Номер по каталогу: 468 491-2
Страна изготовитель: England
Продолжительность: 02:33:31
Кодек: FLAC | Битрейт: Lossless | Тип рипа: image+.cue
Треклист:
Piano Concerto no.20 in D Minor, K466
01. 1. Allegro [15:09]
02. 2. Romance [10:05]
03. 3. Rondo. Allegro assai [07:56]
Piano Concerto no.27 in B-flat Major, K595
04. 1. Allegro [14:24]
05. 2. Larghetto [09:00]
06. 3. Allegro [08:52]
Piano Concerto no.26 in D Major, K537 "Coronation"
07. 1. Allegro [14:13]
Прoдолжительность: 01:19:39

TechInfo Disc 01

Отчёт ЕАС&#58;

Код:
Exact Audio Copy V0.99 prebeta 5 from 4. May 2009
EAC extraction logfile from 5. June 2010, 11:39
Clifford Curzon / Mozart: Piano Concertos 20, 23, 24, 26 & 27 [Disc 1]
Used drive  : ASUS    DRW-1814BLT   Adapter: 2  ID: 2
Read mode               : Secure
Utilize accurate stream : Yes
Defeat audio cache      : Yes
Make use of C2 pointers : No
Read offset correction                      : 6
Overread into Lead-In and Lead-Out          : No
Fill up missing offset samples with silence : Yes
Delete leading and trailing silent blocks   : No
Null samples used in CRC calculations       : Yes
Used interface                              : Native Win32 interface for Win NT & 2000
Used output format : Internal WAV Routines
Sample format      : 44.100 Hz; 16 Bit; Stereo
TOC of the extracted CD
     Track |   Start  |  Length  | Start sector | End sector
    ---------------------------------------------------------
        1  |  0:00.00 | 15:09.00 |         0    |    68174
        2  | 15:09.00 | 10:05.00 |     68175    |   113549
        3  | 25:14.00 |  7:56.00 |    113550    |   149249
        4  | 33:10.00 | 14:24.37 |    149250    |   214086
        5  | 47:34.37 |  8:59.38 |    214087    |   254549
        6  | 56:34.00 |  8:52.00 |    254550    |   294449
        7  | 65:26.00 | 14:13.00 |    294450    |   358424
Range status and errors
Selected range
     Filename K:\EAC\Clifford Curzon - Mozart  Piano Concertos 20, 23, 24, 26 & 27 [Disc 1].wav
     Peak level 99.9 %
     Range quality 100.0 %
     Copy CRC 0660AB9C
     Copy OK
No errors occurred
AccurateRip summary
Track  1  accurately ripped (confidence 20)  [FB42336C]
Track  2  accurately ripped (confidence 20)  [F3D1D353]
Track  3  accurately ripped (confidence 20)  [D83957D8]
Track  4  accurately ripped (confidence 20)  [458F2590]
Track  5  accurately ripped (confidence 20)  [014421A0]
Track  6  accurately ripped (confidence 20)  [2FB5B0C3]
Track  7  accurately ripped (confidence 19)  [32598E9E]
All tracks accurately ripped
End of status report

Отчёт auCDtect Task manager&#58;

Код:
-----------------------
DON'T MODIFY THIS FILE
-----------------------
PERFORMER: auCDtect Task Manager, ver. 1.6.0 RC1 build 1.6.0.1
Copyright (c) 2008-2010 y-soft. All rights reserved
http://y-soft.org
ANALYZER: auCDtect: CD records authenticity detector, version 0.8.2
Copyright (c) 2004 Oleg Berngardt. All rights reserved.
Copyright (c) 2004 Alexander Djourik. All rights reserved.
FILE: Clifford Curzon - Mozart  Piano Concertos 20, 23, 24, 26 & 27 [Disc 1].flac
  Size: 346553141 Hash: 7D345A5CAF74641D887455FB692D4920 Accuracy: -m0
  Conclusion: CDDA 42%
  Signature: FD4AE743C3CADE33E3AC8C0F15DA619AEC6C975D

Disc 02

Трeклист:
Piano Concerto no.26 in D Major, K537 "Coronation"
01. 2. Larghetto [07:18]
02. 3. Allegretto [09:53]
Piano Concerto no.23 in A Major, K488
03. 1. Allegro [11:20]
04. 2. Adagio [07:04]
05. 3. Allegro assai [08:23]
Piano Concerto no.24 in C Minor, K491
06. 1. Allegro [13:16]
07. 2. Larghetto [07:44]
08. 3. Allegretto [08:54]
Прoдолжительность: 01:13:52

Отчёт ЕАС&#58;

Код:
Exact Audio Copy V0.99 prebeta 5 from 4. May 2009
EAC extraction logfile from 5. June 2010, 11:17
Clifford Curzon / Mozart: Piano Concertos 20, 23, 24, 26 & 27 [Disc 2]
Used drive  : ASUS    DRW-1814BLT   Adapter: 2  ID: 2
Read mode               : Secure
Utilize accurate stream : Yes
Defeat audio cache      : Yes
Make use of C2 pointers : No
Read offset correction                      : 6
Overread into Lead-In and Lead-Out          : No
Fill up missing offset samples with silence : Yes
Delete leading and trailing silent blocks   : No
Null samples used in CRC calculations       : Yes
Used interface                              : Native Win32 interface for Win NT & 2000
Used output format : Internal WAV Routines
Sample format      : 44.100 Hz; 16 Bit; Stereo
TOC of the extracted CD
     Track |   Start  |  Length  | Start sector | End sector
    ---------------------------------------------------------
        1  |  0:00.00 |  7:18.00 |         0    |    32849
        2  |  7:18.00 |  9:53.00 |     32850    |    77324
        3  | 17:11.00 | 11:20.00 |     77325    |   128324
        4  | 28:31.00 |  7:04.00 |    128325    |   160124
        5  | 35:35.00 |  8:23.00 |    160125    |   197849
        6  | 43:58.00 | 13:16.00 |    197850    |   257549
        7  | 57:14.00 |  7:43.38 |    257550    |   292312
        8  | 64:57.38 |  8:54.37 |    292313    |   332399
Range status and errors
Selected range
     Filename K:\EAC\Clifford Curzon - Mozart  Piano Concertos 20, 23, 24, 26 & 27 [Disc 2].wav
     Peak level 100.0 %
     Range quality 100.0 %
     Copy CRC EBBD53E4
     Copy OK
No errors occurred
AccurateRip summary
Track  1  accurately ripped (confidence 16)  [2864661A]
Track  2  accurately ripped (confidence 16)  [94DCE0DC]
Track  3  accurately ripped (confidence 17)  [701F0255]
Track  4  accurately ripped (confidence 17)  [780E1522]
Track  5  accurately ripped (confidence 16)  [68D35742]
Track  6  accurately ripped (confidence 16)  [24573B31]
Track  7  accurately ripped (confidence 16)  [B21C099B]
Track  8  accurately ripped (confidence 16)  [54EC6EE9]
All tracks accurately ripped
End of status report

Отчёт auCDtect Task manager&#58;

Код:
-----------------------
DON'T MODIFY THIS FILE
-----------------------
PERFORMER: auCDtect Task Manager, ver. 1.6.0 RC1 build 1.6.0.1
Copyright (c) 2008-2010 y-soft. All rights reserved
http://y-soft.org
ANALYZER: auCDtect: CD records authenticity detector, version 0.8.2
Copyright (c) 2004 Oleg Berngardt. All rights reserved.
Copyright (c) 2004 Alexander Djourik. All rights reserved.
FILE: Clifford Curzon - Mozart  Piano Concertos 20, 23, 24, 26 & 27 [Disc 2].flac
  Size: 311060497 Hash: F653F835901D8BFDDEB9929F0C11A579 Accuracy: -m0
  Conclusion: CDDA 86%
  Signature: 38884DDB3B7ABA4E03F60F14A1418B3598468CFE

Дополнительная информация&#58;

Clifford Curzon: Piano
K 466 & K 595
English Chamber Orchestra: Benjamin Britten
K 537, K 488 & K 491
London Symphony Orchestra: Istvan Kertesz
Other forum [Profile] [PM]
Display posts from previous:    
Reply to topic

The time now is: Today 03:40

All times are GMT + 3 Hours



You cannot post new topics in this forum
You cannot reply to topics in this forum
You cannot edit your posts in this forum
You cannot delete your posts in this forum
You cannot vote in polls in this forum
You cannot attach files in this forum
You cannot download files in this forum