Today is a free download without charge Download

Шмели - 22 альбома (1998-2011) [FLAC|Lossless]

Reply to topic
 
Author
Message

UndegraundMen ®

Longevity: 6 years 7 months

Posts: 25145

Торрент-статистика

Post 08-Jun-2013 09:42

[Quote]

Шмели - Дискография 22 альбома (1998-2011)- Год: 1998-2011
Жанр: Industrial Folk
Продолжительность: 20:14:31
Кодек: FLAC, (image+.cue)
Битрейт: Lossless
Трек лист:

Шмели

1998 - Пурга

Продолжительность: 00:52:11--Трек лист:
01. На крутом краю (3:51)
02. Гроза (3:11)
03. тоска (3:43)
04. Лакай отраву (1:49)
05. Искушение (3:47)
06. Тень неизвестной звезды (3:49)
07. Невеселая сказка (2:57)
08. Виртуальный самолет (3:02)
09. Барыня-сударыня (3:46)
10. Отдайся, молодая (2:00)
11. Лютий снiг (3:47)
12. Логово (3:15)
13. Лей брагу (2:32)
14. Волшебный замок и туч (3:29)
15. Вода (3:22)
16. Ее губы - яд (2:57)
17. Зверь (стих) (0:54)

Отчёт ЕАС:

Код:
Exact Audio Copy V0.99 prebeta 5 from 4. May 2009
EAC extraction logfile from 26. October 2009, 16:49
Шмели / Пурга
Used drive : _NEC CDRW/DVD CB1100A Adapter: 0 ID: 0
Read mode : Secure
Utilize accurate stream : Yes
Defeat audio cache : Yes
Make use of C2 pointers : No
Read offset correction : 6
Overread into Lead-In and Lead-Out : No
Fill up missing offset samples with silence : Yes
Delete leading and trailing silent blocks : No
Null samples used in CRC calculations : Yes
Used interface : Installed external ASPI interface
Used output format : User Defined Encoder
Selected bitrate : 128 kBit/s
Quality : High
Add ID3 tag : No
Command line compressor : C:\Share\Exact Audio Copy\Flac\flac.exe
Additional command line options : -8 -V %s
TOC of the extracted CD
Track | Start | Length | Start sector | End sector
---------------------------------------------------------
1 | 0:00.00 | 3:50.51 | 0 | 17300
2 | 3:50.51 | 3:10.66 | 17301 | 31616
3 | 7:01.42 | 3:43.27 | 31617 | 48368
4 | 10:44.69 | 1:48.38 | 48369 | 56506
5 | 12:33.32 | 3:46.51 | 56507 | 73507
6 | 16:20.08 | 3:49.33 | 73508 | 90715
7 | 20:09.41 | 2:56.51 | 90716 | 103966
8 | 23:06.17 | 3:02.34 | 103967 | 117650
9 | 26:08.51 | 3:45.46 | 117651 | 134571
10 | 29:54.22 | 2:00.35 | 134572 | 143606
11 | 31:54.57 | 3:47.13 | 143607 | 160644
12 | 35:41.70 | 3:14.58 | 160645 | 175252
13 | 38:56.53 | 2:31.43 | 175253 | 186620
14 | 41:28.21 | 3:29.06 | 186621 | 202301
15 | 44:57.27 | 3:21.59 | 202302 | 217435
16 | 48:19.11 | 2:57.35 | 217436 | 230745
17 | 51:16.46 | 0:54.35 | 230746 | 234830
Range status and errors
Selected range
Filename C:\Share\Exact Audio Copy\Flac\Шмели - Пурга.wav
Peak level 100.0 %
Range quality 100.0 %
Test CRC 83711461
Copy CRC 83711461
Copy OK
No errors occurred
AccurateRip summary
Track 1 not present in database
Track 2 not present in database
Track 3 not present in database
Track 4 not present in database
Track 5 not present in database
Track 6 not present in database
Track 7 not present in database
Track 8 not present in database
Track 9 not present in database
Track 10 not present in database
Track 11 not present in database
Track 12 not present in database
Track 13 not present in database
Track 14 not present in database
Track 15 not present in database
Track 16 not present in database
Track 17 not present in database
None of the tracks are present in the AccurateRip database
End of status report

Отчёт auCDtect Task manager:

Код:
DON'T MODIFY THIS FILE
-----------------------
PERFORMER: auCDtect Task Manager, ver. 1.6.0 RC1 build 1.6.0.1
Copyright (c) 2008-2010 y-soft. All rights reserved
http://y-soft.org
ANALYZER: auCDtect: CD records authenticity detector, version 0.8.2
Copyright (c) 2004 Oleg Berngardt. All rights reserved.
Copyright (c) 2004 Alexander Djourik. All rights reserved.
FILE: Шмели - Пурга.flac
  Size: 352613046 Hash: F2E668FEB9907EC13A41814EAAA36801 Accuracy: -m0
  Conclusion: CDDA 100%
  Signature: 357C2C3BDA1DA9656FF20CC6D8D15EFBC9649057

1998 - Дурацкие книжки

Продолжительность: 00:40:34--Трек лист:

01. Я не ангел (2:36)
02. Могильщик (2:38)
03. Волосы (1:21)
04. Жрать подано (1:48)
05. Гори костер (2:00)
06. Резиновые дебри (2:06)
07. Язва на душе (2:41)
08. Дурацкие книжки (2:14)
09. Говно (1:45)
10. Не грусти, и так хуево (1:25)
11. Пьяные облака (2:58)
12. Икона (2:43)
13. Откровения (3:13)
14. Мiсяць з неба геть (2:34)
15. Дорогая (3:00)
16. Руйнется мозок (2:06)
17. Вакханалия (3:26)

Отчёт ЕАС:

Код:
Exact Audio Copy V0.99 prebeta 5 from 4. May 2009
EAC extraction logfile from 26. October 2009, 14:59
Шмели / Дурацкие книжки
Used drive : _NEC CDRW/DVD CB1100A Adapter: 0 ID: 0
Read mode : Secure
Utilize accurate stream : Yes
Defeat audio cache : Yes
Make use of C2 pointers : No
Read offset correction : 6
Overread into Lead-In and Lead-Out : No
Fill up missing offset samples with silence : Yes
Delete leading and trailing silent blocks : No
Null samples used in CRC calculations : Yes
Used interface : Installed external ASPI interface
Used output format : User Defined Encoder
Selected bitrate : 128 kBit/s
Quality : High
Add ID3 tag : No
Command line compressor : C:\Share\Exact Audio Copy\Flac\flac.exe
Additional command line options : -8 -V %s
TOC of the extracted CD
Track | Start | Length | Start sector | End sector
---------------------------------------------------------
1 | 0:00.00 | 2:36.01 | 0 | 11700
2 | 2:36.01 | 2:37.60 | 11701 | 23535
3 | 5:13.61 | 1:21.07 | 23536 | 29617
4 | 6:34.68 | 1:48.15 | 29618 | 37732
5 | 8:23.08 | 1:59.56 | 37733 | 46713
6 | 10:22.64 | 2:05.59 | 46714 | 56147
7 | 12:28.48 | 2:41.32 | 56148 | 68254
8 | 15:10.05 | 2:14.35 | 68255 | 78339
9 | 17:24.40 | 1:44.43 | 78340 | 86182
10 | 19:09.08 | 1:24.69 | 86183 | 92551
11 | 20:34.02 | 2:58.37 | 92552 | 105938
12 | 23:32.39 | 2:43.08 | 105939 | 118171
13 | 26:15.47 | 3:12.54 | 118172 | 132625
14 | 29:28.26 | 2:33.61 | 132626 | 144161
15 | 32:02.12 | 2:59.48 | 144162 | 157634
16 | 35:01.60 | 2:06.31 | 157635 | 167115
17 | 37:08.16 | 3:25.38 | 167116 | 182528
Range status and errors
Selected range
Filename C:\Share\Exact Audio Copy\Flac\Шмели - Дурацкие книжки.wav
Peak level 99.4 %
Range quality 99.9 %
Test CRC A49AF8FC
Copy CRC A49AF8FC
Copy OK
No errors occurred
AccurateRip summary
Track 1 not present in database
Track 2 not present in database
Track 3 not present in database
Track 4 not present in database
Track 5 not present in database
Track 6 not present in database
Track 7 not present in database
Track 8 not present in database
Track 9 not present in database
Track 10 not present in database
Track 11 not present in database
Track 12 not present in database
Track 13 not present in database
Track 14 not present in database
Track 15 not present in database
Track 16 not present in database
Track 17 not present in database
None of the tracks are present in the AccurateRip database
End of status report

Отчёт auCDtect Task manager:

Код:
DON'T MODIFY THIS FILE
-----------------------
PERFORMER: auCDtect Task Manager, ver. 1.6.0 RC1 build 1.6.0.1
Copyright (c) 2008-2010 y-soft. All rights reserved
http://y-soft.org
ANALYZER: auCDtect: CD records authenticity detector, version 0.8.2
Copyright (c) 2004 Oleg Berngardt. All rights reserved.
Copyright (c) 2004 Alexander Djourik. All rights reserved.
FILE: Шмели - Дурацкие книжки.flac
  Size: 256795864 Hash: 39066B8A75D3B6F23B049E093BD99F3E Accuracy: -m0
  Conclusion: CDDA 100%
  Signature: 6F1F8834E0C54FE570A19B629870A728EF19C75D

2000 - Мощи

Продолжительность: 00:43:48--Трек лист:

01. Крыша горит (2:57)
02. Сизоблюдов (3:28)
03. Эпидемия Ха (3:20)
04. Лаборатория альтруизма (3:16)
05. Иволга (3:02)
06. /личность с низкой социальной ответственностью/-вампир (2:00)
07. В мясном цеху праздник души (3:55)
08. Клякса (3:04)
09. Фабрика фекалий (2:42)
10. Лукавый суицид (1:35)
11. Падаль (2:01)
12. Атеист (2:00)
13. Радиактивные отходы (4:05)
14. Мастурбатор (2:47)
15. Сизоблюдов и Камнеблядов (3:35)

Отчёт ЕАС:

Код:
Exact Audio Copy V0.99 prebeta 5 from 4. May 2009
EAC extraction logfile from 26. October 2009, 13:56
Шмели / Мощи
Used drive : _NEC CDRW/DVD CB1100A Adapter: 0 ID: 0
Read mode : Secure
Utilize accurate stream : Yes
Defeat audio cache : Yes
Make use of C2 pointers : No
Read offset correction : 6
Overread into Lead-In and Lead-Out : No
Fill up missing offset samples with silence : Yes
Delete leading and trailing silent blocks : No
Null samples used in CRC calculations : Yes
Used interface : Installed external ASPI interface
Used output format : User Defined Encoder
Selected bitrate : 128 kBit/s
Quality : High
Add ID3 tag : No
Command line compressor : C:\Share\Exact Audio Copy\Flac\flac.exe
Additional command line options : -8 -V %s
TOC of the extracted CD
Track | Start | Length | Start sector | End sector
---------------------------------------------------------
1 | 0:00.00 | 2:56.49 | 0 | 13248
2 | 2:56.49 | 3:27.52 | 13249 | 28825
3 | 6:24.26 | 3:20.15 | 28826 | 43840
4 | 9:44.41 | 3:16.05 | 43841 | 58545
5 | 13:00.46 | 3:02.36 | 58546 | 72231
6 | 16:03.07 | 2:00.00 | 72232 | 81231
7 | 18:03.07 | 3:55.20 | 81232 | 98876
8 | 21:58.27 | 3:04.05 | 98877 | 112681
9 | 25:02.32 | 2:42.33 | 112682 | 124864
10 | 27:44.65 | 1:34.55 | 124865 | 131969
11 | 29:19.45 | 2:00.68 | 131970 | 141037
12 | 31:20.38 | 1:59.64 | 141038 | 150026
13 | 33:20.27 | 4:05.20 | 150027 | 168421
14 | 37:25.47 | 2:47.03 | 168422 | 180949
15 | 40:12.50 | 3:35.20 | 180950 | 197094
Range status and errors
Selected range
Filename C:\Share\Exact Audio Copy\Flac\Шмели - Мощи.wav
Peak level 96.6 %
Range quality 99.9 %
Test CRC 65CB61A9
Copy CRC 65CB61A9
Copy OK
No errors occurred
AccurateRip summary
Track 1 not present in database
Track 2 not present in database
Track 3 not present in database
Track 4 not present in database
Track 5 not present in database
Track 6 not present in database
Track 7 not present in database
Track 8 not present in database
Track 9 not present in database
Track 10 not present in database
Track 11 not present in database
Track 12 not present in database
Track 13 not present in database
Track 14 not present in database
Track 15 not present in database
None of the tracks are present in the AccurateRip database
End of status report

Отчёт auCDtect Task manager:

Код:
DON'T MODIFY THIS FILE
-----------------------
PERFORMER: auCDtect Task Manager, ver. 1.6.0 RC1 build 1.6.0.1
Copyright (c) 2008-2010 y-soft. All rights reserved
http://y-soft.org
ANALYZER: auCDtect: CD records authenticity detector, version 0.8.2
Copyright (c) 2004 Oleg Berngardt. All rights reserved.
Copyright (c) 2004 Alexander Djourik. All rights reserved.
FILE: Шмели - Мощи.flac
  Size: 271560316 Hash: FE29B23DC24FAD3C8D1368BB6FC3A013 Accuracy: -m0
  Conclusion: MPEG 95%
  Signature: B57B9F7708C97ED628537667638745E278B20986

Спектрограмма

 

2001 - Спазмы рока

Продолжительность: 00:53:05--Трек лист:

01. Я-Вселенная (3:16)
02. Макет мира счастья (3:33)
03. На ладони планета (3:07)
04. Огонь-наш свет, огонь-нащ след (2:55)
05. Черная вода (3:34)
06. Патологоанатом (3:06)
07. Новая религия (3:04)
08. Ждать (3:44)
09. Моя любимая (3:34)
10. Невеселая сказка (3:26)
11. Сапрофаг (3:30)
12. Спазмы рока (3:15)
13. Волосы (3:07)
14. Завтра на выписку в ад (3:23)
15. Все во имя человека (2:37)
16. Бой (3:55)

Отчёт ЕАС:

Код:
Exact Audio Copy V0.99 prebeta 5 from 4. May 2009
EAC extraction logfile from 26. November 2009, 15:54
Шмели / Спазмы рока
Used drive : _NEC CDRW/DVD CB1100A Adapter: 0 ID: 0
Read mode : Secure
Utilize accurate stream : Yes
Defeat audio cache : Yes
Make use of C2 pointers : No
Read offset correction : 6
Overread into Lead-In and Lead-Out : No
Fill up missing offset samples with silence : Yes
Delete leading and trailing silent blocks : No
Null samples used in CRC calculations : No
Used interface : Native Win32 interface for Win NT & 2000
Used output format : User Defined Encoder
Selected bitrate : 128 kBit/s
Quality : High
Add ID3 tag : No
Command line compressor : E:\!Temp\Exact Audio Copy\Flac\flac.exe
Additional command line options : -8 -V %s
TOC of the extracted CD
Track | Start | Length | Start sector | End sector
---------------------------------------------------------
1 | 0:00.00 | 3:16.17 | 0 | 14716
2 | 3:16.17 | 3:32.48 | 14717 | 30664
3 | 6:48.65 | 3:07.18 | 30665 | 44707
4 | 9:56.08 | 2:55.07 | 44708 | 57839
5 | 12:51.15 | 3:34.18 | 57840 | 73907
6 | 16:25.33 | 3:06.17 | 73908 | 87874
7 | 19:31.50 | 3:03.62 | 87875 | 101661
8 | 22:35.37 | 3:43.52 | 101662 | 118438
9 | 26:19.14 | 3:33.65 | 118439 | 134478
10 | 29:53.04 | 3:26.14 | 134479 | 149942
11 | 33:19.18 | 3:29.48 | 149943 | 165665
12 | 36:48.66 | 3:14.52 | 165666 | 180267
13 | 40:03.43 | 3:06.47 | 180268 | 194264
14 | 43:10.15 | 3:23.05 | 194265 | 209494
15 | 46:33.20 | 2:37.20 | 209495 | 221289
16 | 49:10.40 | 3:54.42 | 221290 | 238881
Range status and errors
Selected range
Filename E:\!Temp\Exact Audio Copy\Flac\Шмели - Спазмы рока.wav
Peak level 96.5 %
Range quality 99.9 %
Test CRC 060A59DD
Copy CRC 060A59DD
Copy OK
No errors occurred
End of status report

Отчёт auCDtect Task manager:

Код:
DON'T MODIFY THIS FILE
-----------------------
PERFORMER: auCDtect Task Manager, ver. 1.6.0 RC1 build 1.6.0.1
Copyright (c) 2008-2010 y-soft. All rights reserved
http://y-soft.org
ANALYZER: auCDtect: CD records authenticity detector, version 0.8.2
Copyright (c) 2004 Oleg Berngardt. All rights reserved.
Copyright (c) 2004 Alexander Djourik. All rights reserved.
FILE: Шмели - Спазмы рока.flac
  Size: 376247294 Hash: F52D7B59D93C39DC2355F552BA93AC34 Accuracy: -m0
  Conclusion: CDDA 99%
  Signature: B50D0FB8F50895453E1455E5C9C273A03E41A5CE

2003 - Полна сума (Сборник 1998-1999)

Продолжительность: 01:08:26--Трек лист:

01. Зверь (0:57)
02. Я обернусь огнем (2:45)
03. Тоска (3:43)
04. Агония (3:28)
05. Клякса (3:03)
06. Полна сума (2:27)
07. Лаборатория альтруизма (3:15)
08. Вода (3:20)
09. Садизм (2:18)
10. Радиактивные отходы (4:05)
11. Иволга (3:02)
12. Виртуальный самолет (3:03)
13. Бом лбом (2:52)
14. Тишина и покой (3:48)
15. Фабрика фекалий (2:41)
16. Облака (2:57)
17. Эпидемия ха (3:17)
18. Гори костер (1:59)
19. Крыша горит (2:56)
20. Трупные пятна (3:11)
21. Сизоблюдов (3:27)
22. Хули пули праху (2:13)
23. Уа-у-уа (3:39)

Отчёт ЕАС:

Код:
Exact Audio Copy V0.99 prebeta 5 from 4. May 2009
EAC extraction logfile from 13. September 2009, 14:05
Шмели / Полна сума (Сборник 1998-1999)
Used drive : _NEC CDRW/DVD CB1100A Adapter: 0 ID: 0
Read mode : Secure
Utilize accurate stream : Yes
Defeat audio cache : Yes
Make use of C2 pointers : No
Read offset correction : 6
Overread into Lead-In and Lead-Out : No
Fill up missing offset samples with silence : Yes
Delete leading and trailing silent blocks : No
Null samples used in CRC calculations : Yes
Used interface : Installed external ASPI interface
Used output format : User Defined Encoder
Selected bitrate : 128 kBit/s
Quality : High
Add ID3 tag : No
Command line compressor : C:\Share\Exact Audio Copy\Flac\flac.exe
Additional command line options : -8 -V %s
TOC of the extracted CD
Track | Start | Length | Start sector | End sector
---------------------------------------------------------
1 | 0:00.00 | 0:56.46 | 0 | 4245
2 | 0:56.46 | 2:45.11 | 4246 | 16631
3 | 3:41.57 | 3:43.27 | 16632 | 33383
4 | 7:25.09 | 3:27.45 | 33384 | 48953
5 | 10:52.54 | 3:03.18 | 48954 | 62696
6 | 13:55.72 | 2:27.14 | 62697 | 73735
7 | 16:23.11 | 3:15.05 | 73736 | 88365
8 | 19:38.16 | 3:20.33 | 88366 | 103398
9 | 22:58.49 | 2:17.41 | 103399 | 113714
10 | 25:16.15 | 4:05.18 | 113715 | 132107
11 | 29:21.33 | 3:01.62 | 132108 | 145744
12 | 32:23.20 | 3:02.56 | 145745 | 159450
13 | 35:26.01 | 2:51.57 | 159451 | 172332
14 | 38:17.58 | 3:47.70 | 172333 | 189427
15 | 42:05.53 | 2:41.35 | 189428 | 201537
16 | 44:47.13 | 2:56.72 | 201538 | 214809
17 | 47:44.10 | 3:16.70 | 214810 | 229579
18 | 51:01.05 | 1:59.03 | 229580 | 238507
19 | 53:00.08 | 2:55.48 | 238508 | 251680
20 | 55:55.56 | 3:10.51 | 251681 | 265981
21 | 59:06.32 | 3:27.14 | 265982 | 281520
22 | 62:33.46 | 2:13.33 | 281521 | 291528
23 | 64:47.04 | 3:39.23 | 291529 | 307976
Range status and errors
Selected range
Filename C:\Share\Exact Audio Copy\Flac\Шмели - Полна сума (Сборник 1998-1999).wav
Peak level 100.0 %
Range quality 100.0 %
Test CRC 7491910D
Copy CRC 7491910D
Copy OK
No errors occurred
AccurateRip summary
Track 1 not present in database
Track 2 not present in database
Track 3 not present in database
Track 4 not present in database
Track 5 not present in database
Track 6 not present in database
Track 7 not present in database
Track 8 not present in database
Track 9 not present in database
Track 10 not present in database
Track 11 not present in database
Track 12 not present in database
Track 13 not present in database
Track 14 not present in database
Track 15 not present in database
Track 16 not present in database
Track 17 not present in database
Track 18 not present in database
Track 19 not present in database
Track 20 not present in database
Track 21 not present in database
Track 22 not present in database
Track 23 not present in database
None of the tracks are present in the AccurateRip database
End of status report

Отчёт auCDtect Task manager:

Код:
DON'T MODIFY THIS FILE
-----------------------
PERFORMER: auCDtect Task Manager, ver. 1.6.0 RC1 build 1.6.0.1
Copyright (c) 2008-2010 y-soft. All rights reserved
http://y-soft.org
ANALYZER: auCDtect: CD records authenticity detector, version 0.8.2
Copyright (c) 2004 Oleg Berngardt. All rights reserved.
Copyright (c) 2004 Alexander Djourik. All rights reserved.
FILE: Шмели - Полна сума (Сборник 1998-1999).flac
  Size: 477515742 Hash: 37FBFFD80922C15B4D273CE9EDE62C4E Accuracy: -m0
  Conclusion: CDDA 100%
  Signature: 9E0D297401C65825F373CDB628C86DF2BF6414F5

2002 - Пошмелье

Продолжительность: 00:55:44--Трек лист:

01. Я-Вселенная (3:17)
02. Анелы в дверях (3:17)
03. Огонь-наш свет, огонь-наш след (2:54)
04. На ладони планета (3:06)
05. Гроза (4:33)
06. Поле (3:05)
07. Пошмелье (3:13)
08. Клоун (4:11)
09. Путь к... (3:52)
10. Волосы (3:19)
11. Кронос (3:11)
12. Тень неизвестной звезды (3:50)
13. Скелеты (3:58)
14. Патологоанатом (3:04)
15. Новая религия (3:03)
16. Цветы (3:51)

Отчёт ЕАС:

Код:
Exact Audio Copy V0.99 prebeta 5 from 4. May 2009
EAC extraction logfile from 12. September 2009, 22:20
Шмели / Пошмелье
Used drive : _NEC CDRW/DVD CB1100A Adapter: 0 ID: 0
Read mode : Secure
Utilize accurate stream : Yes
Defeat audio cache : Yes
Make use of C2 pointers : No
Read offset correction : 6
Overread into Lead-In and Lead-Out : No
Fill up missing offset samples with silence : Yes
Delete leading and trailing silent blocks : No
Null samples used in CRC calculations : Yes
Used interface : Installed external ASPI interface
Used output format : User Defined Encoder
Selected bitrate : 128 kBit/s
Quality : High
Add ID3 tag : No
Command line compressor : C:\Share\Exact Audio Copy\Flac\flac.exe
Additional command line options : -8 -V %s
TOC of the extracted CD
Track | Start | Length | Start sector | End sector
---------------------------------------------------------
1 | 0:00.00 | 3:16.50 | 0 | 14749
2 | 3:16.50 | 3:17.09 | 14750 | 29533
3 | 6:33.59 | 2:54.34 | 29534 | 42617
4 | 9:28.18 | 3:05.69 | 42618 | 56561
5 | 12:34.12 | 4:32.38 | 56562 | 76999
6 | 17:06.50 | 3:04.67 | 77000 | 90866
7 | 20:11.42 | 3:12.64 | 90867 | 105330
8 | 23:24.31 | 4:11.04 | 105331 | 124159
9 | 27:35.35 | 3:52.37 | 124160 | 141596
10 | 31:27.72 | 3:18.47 | 141597 | 156493
11 | 34:46.44 | 3:11.32 | 156494 | 170850
12 | 37:58.01 | 3:49.42 | 170851 | 188067
13 | 41:47.43 | 3:57.60 | 188068 | 205902
14 | 45:45.28 | 3:04.05 | 205903 | 219707
15 | 48:49.33 | 3:03.03 | 219708 | 233435
16 | 51:52.36 | 3:51.09 | 233436 | 250769
Range status and errors
Selected range
Filename C:\Share\Exact Audio Copy\Flac\Шмели - Пошмелье.wav
Peak level 96.6 %
Range quality 99.9 %
Test CRC F4B62E26
Copy CRC F4B62E26
Copy OK
No errors occurred
AccurateRip summary
Track 1 not present in database
Track 2 not present in database
Track 3 not present in database
Track 4 not present in database
Track 5 not present in database
Track 6 not present in database
Track 7 not present in database
Track 8 not present in database
Track 9 not present in database
Track 10 not present in database
Track 11 not present in database
Track 12 not present in database
Track 13 not present in database
Track 14 not present in database
Track 15 not present in database
Track 16 not present in database
None of the tracks are present in the AccurateRip database
End of status report

Отчёт auCDtect Task manager:

Код:
DON'T MODIFY THIS FILE
-----------------------
PERFORMER: auCDtect Task Manager, ver. 1.6.0 RC1 build 1.6.0.1
Copyright (c) 2008-2010 y-soft. All rights reserved
http://y-soft.org
ANALYZER: auCDtect: CD records authenticity detector, version 0.8.2
Copyright (c) 2004 Oleg Berngardt. All rights reserved.
Copyright (c) 2004 Alexander Djourik. All rights reserved.
FILE: Шмели - Пошмелье.flac
  Size: 400981766 Hash: BEB744A2B38C20DC7D366152EC93D2B9 Accuracy: -m0
  Conclusion: CDDA 100%
  Signature: 863C275A787302803E0718CE8CDD36E2493F28DA

2002 - Негатив пространства

Продолжительность: 00:57:59--Трек лист:

01. Реаниматор (4:41)
02. Вера и любовь (3:44)
03. Волчица (3:57)
04. Нежность (3:29)
05. Слезная (3:36)
06. Первородный грех (3:52)
07. Лихорадит меня ночь (4:52)
08. Негатив пространства (3:00)
09. Последний рейс (3:40)
10. Высота (4:36)
11. Прощай (3:22)
12. Через край (3:14)
13. Брага (3:12)
14. Все (2:28)
15. Реаниматор (Club Mix) (6:16)

Отчёт ЕАС:

Код:
Exact Audio Copy V0.99 prebeta 5 from 4. May 2009
EAC extraction logfile from 13. September 2009, 11:48
Шмели / Негатив пространства
Used drive : _NEC CDRW/DVD CB1100A Adapter: 0 ID: 0
Read mode : Secure
Utilize accurate stream : Yes
Defeat audio cache : Yes
Make use of C2 pointers : No
Read offset correction : 6
Overread into Lead-In and Lead-Out : No
Fill up missing offset samples with silence : Yes
Delete leading and trailing silent blocks : No
Null samples used in CRC calculations : Yes
Used interface : Installed external ASPI interface
Used output format : User Defined Encoder
Selected bitrate : 128 kBit/s
Quality : High
Add ID3 tag : No
Command line compressor : C:\Share\Exact Audio Copy\Flac\flac.exe
Additional command line options : -8 -V %s
TOC of the extracted CD
Track | Start | Length | Start sector | End sector
---------------------------------------------------------
1 | 0:00.00 | 4:40.64 | 0 | 21063
2 | 4:40.64 | 3:44.05 | 21064 | 37868
3 | 8:24.69 | 3:57.33 | 37869 | 55676
4 | 12:22.27 | 3:28.56 | 55677 | 71332
5 | 15:51.08 | 3:35.46 | 71333 | 87503
6 | 19:26.54 | 3:51.58 | 87504 | 104886
7 | 23:18.37 | 4:51.65 | 104887 | 126776
8 | 28:10.27 | 3:00.03 | 126777 | 140279
9 | 31:10.30 | 3:40.20 | 140280 | 156799
10 | 34:50.50 | 4:35.46 | 156800 | 177470
11 | 39:26.21 | 3:22.04 | 177471 | 192624
12 | 42:48.25 | 3:14.05 | 192625 | 207179
13 | 46:02.30 | 3:12.23 | 207180 | 221602
14 | 49:14.53 | 2:28.37 | 221603 | 232739
15 | 51:43.15 | 6:15.70 | 232740 | 260934
16 | 60:31.10 | 5:22.14 | 272335 | 296498
Range status and errors
Selected range
Filename C:\Share\Exact Audio Copy\Flac\Шмели - Негатив пространства.wav
Peak level 99.9 %
Range quality 100.0 %
Test CRC 28DA2C59
Copy CRC 28DA2C59
Copy OK
No errors occurred
AccurateRip summary
Track 1 not present in database
Track 2 not present in database
Track 3 not present in database
Track 4 not present in database
Track 5 not present in database
Track 6 not present in database
Track 7 not present in database
Track 8 not present in database
Track 9 not present in database
Track 10 not present in database
Track 11 not present in database
Track 12 not present in database
Track 13 not present in database
Track 14 not present in database
Track 15 not present in database
None of the tracks are present in the AccurateRip database
End of status report

Отчёт auCDtect Task manager:

Код:
DON'T MODIFY THIS FILE
-----------------------
PERFORMER: auCDtect Task Manager, ver. 1.6.0 RC1 build 1.6.0.1
Copyright (c) 2008-2010 y-soft. All rights reserved
http://y-soft.org
ANALYZER: auCDtect: CD records authenticity detector, version 0.8.2
Copyright (c) 2004 Oleg Berngardt. All rights reserved.
Copyright (c) 2004 Alexander Djourik. All rights reserved.
FILE: Шмели - Негатив пространства.flac
  Size: 397254372 Hash: 40728E6A28F3C49CCBDA49320B80B782 Accuracy: -m0
  Conclusion: CDDA 100%
  Signature: 6AD80CD9D742FD44A92CC17680B421003B993D31

2002 - Агрессивный покой

Продолжительность: 01:00:44--Трек лист:

01. Боль (3:46)
02. Ты снег в моей преисподней (3:58)
03. Агресивный покой (3:23)
04. The First Love (3:32)
05. Погадай (new version) (3:06)
06. Рисунки на душе (new version) (5:11)
07. Искушение (1999) (3:46)
08. Благодать (3:08)
09. Манекен (3:16)
10. Лаборатория альтруизма (new version) (3:37)
11. День Святого Валентина (3:43)
12. Отравленные боги (3:17)
13. Слезная (remix) (3:37)
14. Либо (remix) (3:13)
15. Гроза (remix) (4:56)
16. Волшебнай замок (live 1999) (3:29)
17. Лакай отраву (live 1999) (1:46)

Отчёт ЕАС:

Код:
Exact Audio Copy V0.99 prebeta 5 from 4. May 2009
EAC extraction logfile from 26. August 2009, 14:04
Шмели / Агрессивный покой
Used drive : _NEC CDRW/DVD CB1100A Adapter: 0 ID: 0
Read mode : Secure
Utilize accurate stream : Yes
Defeat audio cache : Yes
Make use of C2 pointers : No
Read offset correction : 6
Overread into Lead-In and Lead-Out : No
Fill up missing offset samples with silence : Yes
Delete leading and trailing silent blocks : No
Null samples used in CRC calculations : Yes
Used interface : Installed external ASPI interface
Used output format : User Defined Encoder
Selected bitrate : 128 kBit/s
Quality : High
Add ID3 tag : No
Command line compressor : C:\Share\Exact Audio Copy\Flac\flac.exe
Additional command line options : -8 -V %s
TOC of the extracted CD
Track | Start | Length | Start sector | End sector
---------------------------------------------------------
1 | 0:00.00 | 3:46.16 | 0 | 16965
2 | 3:46.16 | 3:57.42 | 16966 | 34782
3 | 7:43.58 | 3:22.51 | 34783 | 49983
4 | 11:06.34 | 3:32.18 | 49984 | 65901
5 | 14:38.52 | 3:05.43 | 65902 | 79819
6 | 17:44.20 | 5:11.31 | 79820 | 103175
7 | 22:55.51 | 3:45.43 | 103176 | 120093
8 | 26:41.19 | 3:07.51 | 120094 | 134169
9 | 29:48.70 | 3:16.12 | 134170 | 148881
10 | 33:05.07 | 3:36.62 | 148882 | 165143
11 | 36:41.69 | 3:42.64 | 165144 | 181857
12 | 40:24.58 | 3:17.10 | 181858 | 196642
13 | 43:41.68 | 3:37.33 | 196643 | 212950
14 | 47:19.26 | 3:13.26 | 212951 | 227451
15 | 50:32.52 | 4:56.24 | 227452 | 249675
16 | 55:29.01 | 3:28.53 | 249676 | 265328
17 | 58:57.54 | 1:46.37 | 265329 | 273315
18 | 63:16.16 | 3:18.01 | 284716 | 299566
Range status and errors
Selected range
Filename C:\Share\Exact Audio Copy\Flac\Шмели - Агрессивный покой.wav
Peak level 100.0 %
Range quality 100.0 %
Test CRC F200FE4C
Copy CRC F200FE4C
Copy OK
No errors occurred
AccurateRip summary
Track 1 not present in database
Track 2 not present in database
Track 3 not present in database
Track 4 not present in database
Track 5 not present in database
Track 6 not present in database
Track 7 not present in database
Track 8 not present in database
Track 9 not present in database
Track 10 not present in database
Track 11 not present in database
Track 12 not present in database
Track 13 not present in database
Track 14 not present in database
Track 15 not present in database
Track 16 not present in database
Track 17 not present in database
None of the tracks are present in the AccurateRip database
End of status report

Отчёт auCDtect Task manager:

Код:
DON'T MODIFY THIS FILE
-----------------------
PERFORMER: auCDtect Task Manager, ver. 1.6.0 RC1 build 1.6.0.1
Copyright (c) 2008-2010 y-soft. All rights reserved
http://y-soft.org
ANALYZER: auCDtect: CD records authenticity detector, version 0.8.2
Copyright (c) 2004 Oleg Berngardt. All rights reserved.
Copyright (c) 2004 Alexander Djourik. All rights reserved.
FILE: Шмели - Агрессивный покой.flac
  Size: 465006817 Hash: 56427581E749AD3C1142989E3987DBA5 Accuracy: -m0
  Conclusion: CDDA 100%
  Signature: F7A24BA04CCACA8A03CED7FCC59C796620D5450C

2003 - AntiVirus - Остановите человечество

Продолжительность: 01:06:14--Трек лист:

01. Аист над инкубатором (3:35)
02. Я все нарушил (3:47)
03. В клочья (3:35)
04. Чужой (3:47)
05. Шанс (4:38)
06. Красота (3:12)
07. На могиле любви (3:32)
08. Био-мотор (4:33)
09. Откровения (4:37)
10. Нет выбора (3:08)
11. Прорвемся (3:58)
12. Голос-палач (3:48)
13. Он (2:55)
14. Остановите человечество (5:14)
15. Мой путь (Grader) (5:28)
16. Взгляд изнутри (Grader) (6:28)

Отчёт ЕАС:

Код:
Exact Audio Copy V0.99 prebeta 5 from 4. May 2009
EAC extraction logfile from 13. September 2009, 12:54
AntiVirus / Остановите человечество
Used drive : _NEC CDRW/DVD CB1100A Adapter: 0 ID: 0
Read mode : Secure
Utilize accurate stream : Yes
Defeat audio cache : Yes
Make use of C2 pointers : No
Read offset correction : 6
Overread into Lead-In and Lead-Out : No
Fill up missing offset samples with silence : Yes
Delete leading and trailing silent blocks : No
Null samples used in CRC calculations : Yes
Used interface : Installed external ASPI interface
Used output format : User Defined Encoder
Selected bitrate : 128 kBit/s
Quality : High
Add ID3 tag : No
Command line compressor : C:\Share\Exact Audio Copy\Flac\flac.exe
Additional command line options : -8 -V %s
TOC of the extracted CD
Track | Start | Length | Start sector | End sector
---------------------------------------------------------
1 | 0:00.00 | 3:34.41 | 0 | 16090
2 | 3:34.41 | 3:47.00 | 16091 | 33115
3 | 7:21.41 | 3:35.30 | 33116 | 49270
4 | 10:56.71 | 3:46.48 | 49271 | 66268
5 | 14:43.44 | 4:37.65 | 66269 | 87108
6 | 19:21.34 | 3:11.43 | 87109 | 101476
7 | 22:33.02 | 3:31.39 | 101477 | 117340
8 | 26:04.41 | 4:33.11 | 117341 | 137826
9 | 30:37.52 | 4:37.11 | 137827 | 158612
10 | 35:14.63 | 3:08.03 | 158613 | 172715
11 | 38:22.66 | 3:57.53 | 172716 | 190543
12 | 42:20.44 | 3:48.00 | 190544 | 207643
13 | 46:08.44 | 2:55.37 | 207644 | 220805
14 | 49:04.06 | 5:13.55 | 220806 | 244335
15 | 54:17.61 | 5:27.73 | 244336 | 268933
16 | 59:45.59 | 6:27.58 | 268934 | 298016
17 | 68:45.42 | 4:06.32 | 309417 | 327898
Range status and errors
Selected range
Filename C:\Share\Exact Audio Copy\Flac\AntiVirus - Остановите человечество.wav
Peak level 98.1 %
Range quality 100.0 %
Test CRC 44D0511C
Copy CRC 44D0511C
Copy OK
No errors occurred
AccurateRip summary
Track 1 not present in database
Track 2 not present in database
Track 3 not present in database
Track 4 not present in database
Track 5 not present in database
Track 6 not present in database
Track 7 not present in database
Track 8 not present in database
Track 9 not present in database
Track 10 not present in database
Track 11 not present in database
Track 12 not present in database
Track 13 not present in database
Track 14 not present in database
Track 15 not present in database
Track 16 not present in database
None of the tracks are present in the AccurateRip database
End of status report

Отчёт auCDtect Task manager:

Код:
DON'T MODIFY THIS FILE
-----------------------
PERFORMER: auCDtect Task Manager, ver. 1.6.0 RC1 build 1.6.0.1
Copyright (c) 2008-2010 y-soft. All rights reserved
http://y-soft.org
ANALYZER: auCDtect: CD records authenticity detector, version 0.8.2
Copyright (c) 2004 Oleg Berngardt. All rights reserved.
Copyright (c) 2004 Alexander Djourik. All rights reserved.
FILE: AntiVirus - Остановите человечество.flac
  Size: 466704555 Hash: 57F2F5F797530E88895957284966FA8C Accuracy: -m0
  Conclusion: CDDA 100%
  Signature: 67C90B20E1932259142B6D6F11A304F520F6972E

2004 - Жажда

Продолжительность: 00:28:23--Трек лист:

01. Жажда (2:44)
02. Дорогая (2:34)
03. Сера (3:49)
04. День рождения (2:58)
05. Трудный ребенок (2:31)
06. Я не ангел (3:43)
07. Дискотека (3:15)
08. Я обернусь огнем (3:29)
09. Коробас (3:19)

Отчёт ЕАС:

Код:
Exact Audio Copy V0.99 prebeta 5 from 4. May 2009
EAC extraction logfile from 13. September 2009, 14:40
Шмели / Жажда
Used drive : _NEC CDRW/DVD CB1100A Adapter: 0 ID: 0
Read mode : Secure
Utilize accurate stream : Yes
Defeat audio cache : Yes
Make use of C2 pointers : No
Read offset correction : 6
Overread into Lead-In and Lead-Out : No
Fill up missing offset samples with silence : Yes
Delete leading and trailing silent blocks : No
Null samples used in CRC calculations : Yes
Used interface : Installed external ASPI interface
Used output format : User Defined Encoder
Selected bitrate : 128 kBit/s
Quality : High
Add ID3 tag : No
Command line compressor : C:\Share\Exact Audio Copy\Flac\flac.exe
Additional command line options : -8 -V %s
TOC of the extracted CD
Track | Start | Length | Start sector | End sector
---------------------------------------------------------
1 | 0:00.00 | 2:44.33 | 0 | 12332
2 | 2:44.33 | 2:34.02 | 12333 | 23884
3 | 5:18.35 | 3:49.16 | 23885 | 41075
4 | 9:07.51 | 2:58.01 | 41076 | 54426
5 | 12:05.52 | 2:31.02 | 54427 | 65753
6 | 14:36.54 | 3:43.01 | 65754 | 82479
7 | 18:19.55 | 3:15.02 | 82480 | 97106
8 | 21:34.57 | 3:29.01 | 97107 | 112782
9 | 25:03.58 | 3:19.02 | 112783 | 127709
Range status and errors
Selected range
Filename C:\Share\Exact Audio Copy\Flac\Шмели - Жажда.wav
Peak level 100.0 %
Range quality 99.9 %
Test CRC C529A55D
Copy CRC C529A55D
Copy OK
No errors occurred
AccurateRip summary
Track 1 not present in database
Track 2 not present in database
Track 3 not present in database
Track 4 not present in database
Track 5 not present in database
Track 6 not present in database
Track 7 not present in database
Track 8 not present in database
Track 9 not present in database
None of the tracks are present in the AccurateRip database
End of status report

Отчёт auCDtect Task manager:

Код:
DON'T MODIFY THIS FILE
-----------------------
PERFORMER: auCDtect Task Manager, ver. 1.6.0 RC1 build 1.6.0.1
Copyright (c) 2008-2010 y-soft. All rights reserved
http://y-soft.org
ANALYZER: auCDtect: CD records authenticity detector, version 0.8.2
Copyright (c) 2004 Oleg Berngardt. All rights reserved.
Copyright (c) 2004 Alexander Djourik. All rights reserved.
FILE: Шмели - Жажда.flac
  Size: 202371903 Hash: 066DC3D11B980CA04E917720EF776E2F Accuracy: -m0
  Conclusion: CDDA 100%
  Signature: E241DD9466A3009C0267816147760D34544E8AEA

2004 - Тень сердца

Продолжительность: 00:57:36--Трек лист:

01. Для нее одной (2:35)
02. Бей, колокол! (3:47)
03. Напролом (3:58)
04. Волчья ягода (3:53)
05. Тень сердца (3:38)
06. Ливень слез (3:55)
07. Вулканизация душ (4:47)
08. Карусель (4:01)
09. Тьма (4:08)
10. Корм для души (4:10)
11. Вместе умереть (3:53)
12. Свобода (3:56)
13. Спидвей (3:24)
14. Волчья ягода (remix) (3:51)
15. Тень сердца (remix) (3:41)

Отчёт ЕАС:

Код:
Exact Audio Copy V0.99 prebeta 5 from 4. May 2009
EAC extraction logfile from 26. August 2009, 17:36
Шмели / Тень сердца
Used drive : _NEC CDRW/DVD CB1100A Adapter: 0 ID: 0
Read mode : Secure
Utilize accurate stream : Yes
Defeat audio cache : Yes
Make use of C2 pointers : No
Read offset correction : 6
Overread into Lead-In and Lead-Out : No
Fill up missing offset samples with silence : Yes
Delete leading and trailing silent blocks : No
Null samples used in CRC calculations : Yes
Used interface : Installed external ASPI interface
Used output format : User Defined Encoder
Selected bitrate : 128 kBit/s
Quality : High
Add ID3 tag : No
Command line compressor : C:\Share\Exact Audio Copy\Flac\flac.exe
Additional command line options : -8 -V %s
TOC of the extracted CD
Track | Start | Length | Start sector | End sector
---------------------------------------------------------
1 | 0:00.00 | 2:34.42 | 0 | 11591
2 | 2:34.42 | 3:46.39 | 11592 | 28580
3 | 6:21.06 | 3:58.00 | 28581 | 46430
4 | 10:19.06 | 3:53.36 | 46431 | 63941
5 | 14:12.42 | 3:37.65 | 63942 | 80281
6 | 17:50.32 | 3:54.66 | 80282 | 97897
7 | 21:45.23 | 4:47.01 | 97898 | 119423
8 | 26:32.24 | 4:00.44 | 119424 | 137467
9 | 30:32.68 | 4:07.71 | 137468 | 156063
10 | 34:40.64 | 4:10.06 | 156064 | 174819
11 | 38:50.70 | 3:53.15 | 174820 | 192309
12 | 42:44.10 | 3:56.01 | 192310 | 210010
13 | 46:40.11 | 3:23.57 | 210011 | 225292
14 | 50:03.68 | 3:51.13 | 225293 | 242630
15 | 53:55.06 | 3:40.56 | 242631 | 259186
16 | 60:07.62 | 4:13.67 | 270587 | 289628
Range status and errors
Selected range
Filename C:\Share\Exact Audio Copy\Flac\Шмели - Тень сердца.wav
Peak level 100.0 %
Range quality 100.0 %
Test CRC 1512E815
Copy CRC 1512E815
Copy OK
No errors occurred
AccurateRip summary
Track 1 accurately ripped (confidence 1) [DFA86ACE]
Track 2 accurately ripped (confidence 1) [AEF4FF9D]
Track 3 accurately ripped (confidence 1) [37855FB6]
Track 4 accurately ripped (confidence 1) [87332A83]
Track 5 accurately ripped (confidence 1) [2B689F14]
Track 6 accurately ripped (confidence 1) [71238862]
Track 7 accurately ripped (confidence 1) [B391F11D]
Track 8 accurately ripped (confidence 1) [C2F8D138]
Track 9 accurately ripped (confidence 1) [9C0F81A3]
Track 10 accurately ripped (confidence 1) [40C93027]
Track 11 accurately ripped (confidence 1) [B1DFC004]
Track 12 accurately ripped (confidence 1) [82EE4C59]
Track 13 accurately ripped (confidence 1) [E4033F45]
Track 14 accurately ripped (confidence 1) [D57EDCBD]
Track 15 not present in database
14 track(s) accurately ripped
1 track(s) not present in the AccurateRip database
Some tracks could not be verified as accurate
End of status report

Отчёт auCDtect Task manager:

Код:
DON'T MODIFY THIS FILE
-----------------------
PERFORMER: auCDtect Task Manager, ver. 1.6.0 RC1 build 1.6.0.1
Copyright (c) 2008-2010 y-soft. All rights reserved
http://y-soft.org
ANALYZER: auCDtect: CD records authenticity detector, version 0.8.2
Copyright (c) 2004 Oleg Berngardt. All rights reserved.
Copyright (c) 2004 Alexander Djourik. All rights reserved.
FILE: Шмели - Тень сердца.flac
  Size: 450369135 Hash: AB65016601737754B891106609CB994F Accuracy: -m0
  Conclusion: MPEG 95%
  Signature: 767912D01BE9F3F09F7412100D1404214873B7DE

Спектрограмма

 

2005 - Лед

Продолжительность: 00:47:53--Трек лист:

01. Осиновый кол (4:31)
02. Женщина-птица (2:08)
03. Солнце мое (4:31)
04. Любовь (3:10)
05. Повелительница снов (3:42)
06. Иди (2:52)
07. Полынь (3:37)
08. Лед (3:46)
09. Шутка (3:24)
10. Черная Волга (3:52)
11. На том свете встретимся вновь (4:32)
12. Огненные слезы гиены (4:02)
13. Давит небо (3:46)

Отчёт ЕАС:

Код:
Exact Audio Copy V0.99 prebeta 5 from 4. May 2009
EAC extraction logfile from 26. August 2009, 12:44
Шмели / Лед
Used drive : _NEC CDRW/DVD CB1100A Adapter: 0 ID: 0
Read mode : Secure
Utilize accurate stream : Yes
Defeat audio cache : Yes
Make use of C2 pointers : No
Read offset correction : 6
Overread into Lead-In and Lead-Out : No
Fill up missing offset samples with silence : Yes
Delete leading and trailing silent blocks : No
Null samples used in CRC calculations : Yes
Used interface : Installed external ASPI interface
Used output format : User Defined Encoder
Selected bitrate : 128 kBit/s
Quality : High
Add ID3 tag : No
Command line compressor : C:\Share\Exact Audio Copy\Flac\flac.exe
Additional command line options : -8 -V %s
TOC of the extracted CD
Track | Start | Length | Start sector | End sector
---------------------------------------------------------
1 | 0:00.00 | 4:31.07 | 0 | 20331
2 | 4:31.07 | 2:07.52 | 20332 | 29908
3 | 6:38.59 | 4:30.52 | 29909 | 50210
4 | 11:09.36 | 3:10.05 | 50211 | 64465
5 | 14:19.41 | 3:42.00 | 64466 | 81115
6 | 18:01.41 | 2:52.19 | 81116 | 94034
7 | 20:53.60 | 3:37.15 | 94035 | 110324
8 | 24:31.00 | 3:46.17 | 110325 | 127291
9 | 28:17.17 | 3:23.71 | 127292 | 142587
10 | 31:41.13 | 3:51.58 | 142588 | 159970
11 | 35:32.71 | 4:32.15 | 159971 | 180385
12 | 40:05.11 | 4:02.03 | 180386 | 198538
13 | 44:07.14 | 3:45.56 | 198539 | 215469
Range status and errors
Selected range
Filename C:\Share\Exact Audio Copy\Flac\Шмели - Лед.wav
Peak level 100.0 %
Range quality 100.0 %
Test CRC 08271C1E
Copy CRC 08271C1E
Copy OK
No errors occurred
AccurateRip summary
Track 1 not present in database
Track 2 not present in database
Track 3 not present in database
Track 4 not present in database
Track 5 not present in database
Track 6 not present in database
Track 7 not present in database
Track 8 not present in database
Track 9 not present in database
Track 10 not present in database
Track 11 not present in database
Track 12 not present in database
Track 13 not present in database
None of the tracks are present in the AccurateRip database
End of status report

Отчёт auCDtect Task manager:

Код:
DON'T MODIFY THIS FILE
-----------------------
PERFORMER: auCDtect Task Manager, ver. 1.6.0 RC1 build 1.6.0.1
Copyright (c) 2008-2010 y-soft. All rights reserved
http://y-soft.org
ANALYZER: auCDtect: CD records authenticity detector, version 0.8.2
Copyright (c) 2004 Oleg Berngardt. All rights reserved.
Copyright (c) 2004 Alexander Djourik. All rights reserved.
FILE: Шмели - Лед.flac
  Size: 363883219 Hash: D63C2C7D5C5A42897B5EDA7B498BF410 Accuracy: -m0
  Conclusion: MPEG 95%
  Signature: 16F05E1E22F0999AFAF9099E2DCF84BB3AD5E024

Спектрограмма

 

2005 - Восемь женщин на радуге

Продолжительность: 00:57:55--Трек лист:

01. Впереди (3:58)
02. Похороны любви (2:14)
03. Полнолуние (3:37)
04. Восемь женщин на радуге (3:40)
05. Мельпомена (4:19)
06. Я не ангел (3:33)
07. Иволга (3:50)
08. Солнце вампира (3:47)
09. Художник (4:16)
10. Пластика сна (1:14)
11. Ритуал сожжения кукол (4:07)
12. Глоток (3:56)
13. Стон олицетворения (3:47)
14. Где есть ты (5:16)
15. Женщина-бабочка (3:48)
16. Радуга над бензиновой лужей (2:35)

Отчёт ЕАС:

Код:
Exact Audio Copy V0.99 prebeta 5 from 4. May 2009
EAC extraction logfile from 26. August 2009, 13:21
Шмели / Восемь женщин на радуге
Used drive : _NEC CDRW/DVD CB1100A Adapter: 0 ID: 0
Read mode : Secure
Utilize accurate stream : Yes
Defeat audio cache : Yes
Make use of C2 pointers : No
Read offset correction : 6
Overread into Lead-In and Lead-Out : No
Fill up missing offset samples with silence : Yes
Delete leading and trailing silent blocks : No
Null samples used in CRC calculations : Yes
Used interface : Installed external ASPI interface
Used output format : User Defined Encoder
Selected bitrate : 128 kBit/s
Quality : High
Add ID3 tag : No
Command line compressor : C:\Share\Exact Audio Copy\Flac\flac.exe
Additional command line options : -8 -V %s
TOC of the extracted CD
Track | Start | Length | Start sector | End sector
---------------------------------------------------------
1 | 0:00.00 | 3:57.49 | 0 | 17823
2 | 3:57.49 | 2:13.41 | 17824 | 27839
3 | 6:11.15 | 3:36.52 | 27840 | 44091
4 | 9:47.67 | 3:39.39 | 44092 | 60555
5 | 13:27.31 | 4:18.45 | 60556 | 79950
6 | 17:46.01 | 3:32.52 | 79951 | 95902
7 | 21:18.53 | 3:49.46 | 95903 | 113123
8 | 25:08.24 | 3:46.49 | 113124 | 130122
9 | 28:54.73 | 4:16.27 | 130123 | 149349
10 | 33:11.25 | 1:14.00 | 149350 | 154899
11 | 34:25.25 | 4:07.34 | 154900 | 173458
12 | 38:32.59 | 3:56.10 | 173459 | 191168
13 | 42:28.69 | 3:47.33 | 191169 | 208226
14 | 46:16.27 | 5:16.10 | 208227 | 231936
15 | 51:32.37 | 3:47.58 | 231937 | 249019
16 | 55:20.20 | 2:34.50 | 249020 | 260619
17 | 60:26.70 | 2:04.42 | 272020 | 281361
Range status and errors
Selected range
Filename C:\Share\Exact Audio Copy\Flac\Шмели - Восемь женщин на радуге.wav
Peak level 100.0 %
Range quality 99.9 %
Test CRC D6DC5698
Copy CRC D6DC5698
Copy OK
No errors occurred
AccurateRip summary
Track 1 not present in database
Track 2 not present in database
Track 3 not present in database
Track 4 not present in database
Track 5 not present in database
Track 6 not present in database
Track 7 not present in database
Track 8 not present in database
Track 9 not present in database
Track 10 not present in database
Track 11 not present in database
Track 12 not present in database
Track 13 not present in database
Track 14 not present in database
Track 15 not present in database
Track 16 not present in database
None of the tracks are present in the AccurateRip database
End of status report

Отчёт auCDtect Task manager:

Код:
DON'T MODIFY THIS FILE
-----------------------
PERFORMER: auCDtect Task Manager, ver. 1.6.0 RC1 build 1.6.0.1
Copyright (c) 2008-2010 y-soft. All rights reserved
http://y-soft.org
ANALYZER: auCDtect: CD records authenticity detector, version 0.8.2
Copyright (c) 2004 Oleg Berngardt. All rights reserved.
Copyright (c) 2004 Alexander Djourik. All rights reserved.
FILE: Шмели - Восемь женщин на радуге.flac
  Size: 430149024 Hash: 3A2D0A960FAE71A684A474E8646FB41B Accuracy: -m0
  Conclusion: CDDA 100%
  Signature: AB4E4D5712D98F7006FB7CB61095054D2F9630F9

2006 - Пуговица

Продолжительность: 00:54:00--Трек лист:

01. Все будет хорошо (2:26)
02. Пуговица (3:46)
03. Ангел 13 (4:16)
04. Стриптиз интеллекта (3:44)
05. Женщина-драматургия (3:44)
06. Мегаполис (4:35)
07. Гильотина в цветах (3:43)
08. Зверь (4:21)
09. Ренессанс (2:29)
10. Антиромантика (3:36)
11. Ходит черная королева (3:34)
12. Вальс влюбленных волн (4:33)
13. Катенка (3:01)
14. Мир-комедия (2:30)
15. Судороги живых болот (3:40)

Отчёт ЕАС:

Код:
Exact Audio Copy V0.99 prebeta 5 from 4. May 2009
EAC extraction logfile from 26. August 2009, 11:51
Шмели / Пуговица
Used drive : _NEC CDRW/DVD CB1100A Adapter: 0 ID: 0
Read mode : Secure
Utilize accurate stream : Yes
Defeat audio cache : Yes
Make use of C2 pointers : No
Read offset correction : 6
Overread into Lead-In and Lead-Out : No
Fill up missing offset samples with silence : Yes
Delete leading and trailing silent blocks : No
Null samples used in CRC calculations : Yes
Used interface : Installed external ASPI interface
Used output format : User Defined Encoder
Selected bitrate : 128 kBit/s
Quality : High
Add ID3 tag : No
Command line compressor : C:\Share\Exact Audio Copy\Flac\flac.exe
Additional command line options : -8 -V %s
TOC of the extracted CD
Track | Start | Length | Start sector | End sector
---------------------------------------------------------
1 | 0:00.00 | 2:26.08 | 0 | 10957
2 | 2:26.08 | 3:46.31 | 10958 | 27938
3 | 6:12.39 | 4:16.29 | 27939 | 47167
4 | 10:28.68 | 3:43.74 | 47168 | 63966
5 | 14:12.67 | 3:44.20 | 63967 | 80786
6 | 17:57.12 | 4:35.33 | 80787 | 101444
7 | 22:32.45 | 3:43.27 | 101445 | 118196
8 | 26:15.72 | 4:21.08 | 118197 | 137779
9 | 30:37.05 | 2:28.67 | 137780 | 148946
10 | 33:05.72 | 3:35.38 | 148947 | 165109
11 | 36:41.35 | 3:34.29 | 165110 | 181188
12 | 40:15.64 | 4:33.29 | 181189 | 201692
13 | 44:49.18 | 3:01.33 | 201693 | 215300
14 | 47:50.51 | 2:29.54 | 215301 | 226529
15 | 50:20.30 | 3:39.64 | 226530 | 243018
Range status and errors
Selected range
Filename C:\Share\Exact Audio Copy\Flac\Шмели - Пуговица.wav
Peak level 100.0 %
Range quality 99.9 %
Test CRC 29D74AF1
Copy CRC 29D74AF1
Copy OK
No errors occurred
AccurateRip summary
Track 1 not present in database
Track 2 not present in database
Track 3 not present in database
Track 4 not present in database
Track 5 not present in database
Track 6 not present in database
Track 7 not present in database
Track 8 not present in database
Track 9 not present in database
Track 10 not present in database
Track 11 not present in database
Track 12 not present in database
Track 13 not present in database
Track 14 not present in database
Track 15 not present in database
None of the tracks are present in the AccurateRip database
End of status report

Отчёт auCDtect Task manager:

Код:
DON'T MODIFY THIS FILE
-----------------------
PERFORMER: auCDtect Task Manager, ver. 1.6.0 RC1 build 1.6.0.1
Copyright (c) 2008-2010 y-soft. All rights reserved
http://y-soft.org
ANALYZER: auCDtect: CD records authenticity detector, version 0.8.2
Copyright (c) 2004 Oleg Berngardt. All rights reserved.
Copyright (c) 2004 Alexander Djourik. All rights reserved.
FILE: Шмели - Пуговица.flac
  Size: 419196855 Hash: 6B7CF7911BFB97BF7AD3863C23976CAF Accuracy: -m0
  Conclusion: CDDA 100%
  Signature: 7065C1715948615DCF3928B04A3613EAB89980E3

2006 - Я вернусь к тебе

Продолжительность: 00:48:58--Трек лист:

01. Жди меня в полночь (4:02)
02. Ангелы в дверях (3:19)
03. Вьюга (3:52)
04. Лаборатория альтруизма (3:11)
05. Гроза (3:20)
06. Биомеханика (3:06)
07. Клоун умер (4:05)
08. Боль (3:35)
09. Покидая мир (5:02)
10. Все мечты сбываются (3:23)
11. Dramatyrgiya - Драма (3:47)
12. Dramatyrgiya - Эвакуатор (4:28)
13. Dramatyrgiya - Драматургия (3:47)

Отчёт ЕАС:

Код:
Exact Audio Copy V0.99 prebeta 5 from 4. May 2009
EAC extraction logfile from 26. August 2009, 18:20
Шмели / Я вернусь к тебе
Used drive : _NEC CDRW/DVD CB1100A Adapter: 0 ID: 0
Read mode : Secure
Utilize accurate stream : Yes
Defeat audio cache : Yes
Make use of C2 pointers : No
Read offset correction : 6
Overread into Lead-In and Lead-Out : No
Fill up missing offset samples with silence : Yes
Delete leading and trailing silent blocks : No
Null samples used in CRC calculations : Yes
Used interface : Installed external ASPI interface
Used output format : User Defined Encoder
Selected bitrate : 128 kBit/s
Quality : High
Add ID3 tag : No
Command line compressor : C:\Share\Exact Audio Copy\Flac\flac.exe
Additional command line options : -8 -V %s
TOC of the extracted CD
Track | Start | Length | Start sector | End sector
---------------------------------------------------------
1 | 0:00.00 | 4:01.74 | 0 | 18148
2 | 4:01.74 | 3:19.01 | 18149 | 33074
3 | 7:21.00 | 3:51.74 | 33075 | 50473
4 | 11:12.74 | 3:11.34 | 50474 | 64832
5 | 14:24.33 | 3:20.12 | 64833 | 79844
6 | 17:44.45 | 3:06.07 | 79845 | 93801
7 | 20:50.52 | 4:05.02 | 93802 | 112178
8 | 24:55.54 | 3:35.04 | 112179 | 128307
9 | 28:30.58 | 5:02.07 | 128308 | 150964
10 | 33:32.65 | 3:23.03 | 150965 | 166192
11 | 36:55.68 | 3:47.15 | 166193 | 183232
12 | 40:43.08 | 4:28.33 | 183233 | 203365
13 | 45:11.41 | 3:46.69 | 203366 | 220384
Range status and errors
Selected range
Filename C:\Share\Exact Audio Copy\Flac\Шмели - Я вернусь к тебе.wav
Peak level 100.0 %
Range quality 100.0 %
Test CRC 4DE12EF3
Copy CRC 4DE12EF3
Copy OK
No errors occurred
AccurateRip summary
Track 1 not present in database
Track 2 not present in database
Track 3 not present in database
Track 4 not present in database
Track 5 not present in database
Track 6 not present in database
Track 7 not present in database
Track 8 not present in database
Track 9 not present in database
Track 10 not present in database
Track 11 not present in database
Track 12 not present in database
Track 13 not present in database
None of the tracks are present in the AccurateRip database
End of status report

Отчёт auCDtect Task manager:

Код:
DON'T MODIFY THIS FILE
-----------------------
PERFORMER: auCDtect Task Manager, ver. 1.6.0 RC1 build 1.6.0.1
Copyright (c) 2008-2010 y-soft. All rights reserved
http://y-soft.org
ANALYZER: auCDtect: CD records authenticity detector, version 0.8.2
Copyright (c) 2004 Oleg Berngardt. All rights reserved.
Copyright (c) 2004 Alexander Djourik. All rights reserved.
FILE: Шмели - Я вернусь к тебе.flac
  Size: 370976962 Hash: 554C3677DEC286A7C5125A94FE07EE62 Accuracy: -m0
  Conclusion: CDDA 100%
  Signature: 319A705995A86A3A717061FC16371423662496EE

2007 - Кошкины обиды

Продолжительность: 00:51:46--Трек лист:

01. Уходи (2:58)
02. Череп. Слезы. (3:45)
03. Кошкины обиды (1:26)
04. Пантомима (4:00)
05. Меч (3:45)
06. Равнодушно (4:44)
07. Зло реки (3:56)
08. Летальный приход (4:10)
09. Жертва (3:44)
10. Суета (3:42)
11. Дорога к морю (4:09)
12. Женщина-летучая мышь (3:25)
13. За пределом (3:56)
14. Life (4:06)

Отчёт ЕАС:

Код:
Exact Audio Copy V0.99 prebeta 5 from 4. May 2009
EAC extraction logfile from 26. August 2009, 15:30
Шмели / Кошкины обиды
Used drive : _NEC CDRW/DVD CB1100A Adapter: 0 ID: 0
Read mode : Secure
Utilize accurate stream : Yes
Defeat audio cache : Yes
Make use of C2 pointers : No
Read offset correction : 6
Overread into Lead-In and Lead-Out : No
Fill up missing offset samples with silence : Yes
Delete leading and trailing silent blocks : No
Null samples used in CRC calculations : Yes
Used interface : Installed external ASPI interface
Used output format : User Defined Encoder
Selected bitrate : 128 kBit/s
Quality : High
Add ID3 tag : No
Command line compressor : C:\Share\Exact Audio Copy\Flac\flac.exe
Additional command line options : -8 -V %s
TOC of the extracted CD
Track | Start | Length | Start sector | End sector
---------------------------------------------------------
1 | 0:00.00 | 2:58.37 | 0 | 13386
2 | 2:58.37 | 3:45.02 | 13387 | 30263
3 | 6:43.39 | 1:26.03 | 30264 | 36716
4 | 8:09.42 | 3:59.66 | 36717 | 54707
5 | 12:09.33 | 3:44.54 | 54708 | 71561
6 | 15:54.12 | 4:44.25 | 71562 | 92886
7 | 20:38.37 | 3:55.64 | 92887 | 110575
8 | 24:34.26 | 4:10.21 | 110576 | 129346
9 | 28:44.47 | 3:44.17 | 129347 | 146163
10 | 32:28.64 | 3:41.52 | 146164 | 162790
11 | 36:10.41 | 4:08.58 | 162791 | 181448
12 | 40:19.24 | 3:24.46 | 181449 | 196794
13 | 43:43.70 | 3:56.07 | 196795 | 214501
14 | 47:40.02 | 4:06.33 | 214502 | 232984
15 | 54:18.35 | 3:40.66 | 244385 | 260950
Range status and errors
Selected range
Filename C:\Share\Exact Audio Copy\Flac\Шмели - Кошкины обиды.wav
Peak level 97.2 %
Range quality 99.9 %
Test CRC 80BEA2D0
Copy CRC 80BEA2D0
Copy OK
No errors occurred
AccurateRip summary
Track 1 not present in database
Track 2 not present in database
Track 3 not present in database
Track 4 not present in database
Track 5 not present in database
Track 6 not present in database
Track 7 not present in database
Track 8 not present in database
Track 9 not present in database
Track 10 not present in database
Track 11 not present in database
Track 12 not present in database
Track 13 not present in database
Track 14 not present in database
None of the tracks are present in the AccurateRip database
End of status report

Отчёт auCDtect Task manager:

Код:
DON'T MODIFY THIS FILE
-----------------------
PERFORMER: auCDtect Task Manager, ver. 1.6.0 RC1 build 1.6.0.1
Copyright (c) 2008-2010 y-soft. All rights reserved
http://y-soft.org
ANALYZER: auCDtect: CD records authenticity detector, version 0.8.2
Copyright (c) 2004 Oleg Berngardt. All rights reserved.
Copyright (c) 2004 Alexander Djourik. All rights reserved.
FILE: Шмели - Кошкины обиды.flac
  Size: 349785467 Hash: D869A3220AB533D285AFE0ACDCFC1839 Accuracy: -m0
  Conclusion: CDDA 100%
  Signature: 72D9F76EA44592C65BD0B23054F595EF7CE300A2

2007 - 17.03.2007 MezzoForte

Продолжительность: 00:56:09--Трек лист:

01. Вьюга (4:48)
02. Ты снег в моей преисподней (4:06)
03. Иди (3:49)
04. Вселенная (3:36)
05. Бом лбом (2:31)
06. Лед (3:25)
07. Лаборатория альтруизма (3:35)
08. Реаниматор (4:02)
09. Жди меня в полночь (3:55)
10. Ангелы в дверях (3:41)
11. Напролом (3:31)
12. Зверь (3:37)
13. Клоун (4:08)
14. Тень сердца (3:13)
15. Вера и любовь (4:11)

Отчёт ЕАС:

Код:
Exact Audio Copy V0.99 prebeta 5 from 4. May 2009
EAC extraction logfile from 26. August 2009, 22:20
Шмели / 17.03.2007 MezzoForte
Used drive : _NEC CDRW/DVD CB1100A Adapter: 0 ID: 0
Read mode : Secure
Utilize accurate stream : Yes
Defeat audio cache : Yes
Make use of C2 pointers : No
Read offset correction : 6
Overread into Lead-In and Lead-Out : No
Fill up missing offset samples with silence : Yes
Delete leading and trailing silent blocks : No
Null samples used in CRC calculations : Yes
Used interface : Installed external ASPI interface
Used output format : User Defined Encoder
Selected bitrate : 128 kBit/s
Quality : High
Add ID3 tag : No
Command line compressor : C:\Share\Exact Audio Copy\Flac\flac.exe
Additional command line options : -8 -V %s
TOC of the extracted CD
Track | Start | Length | Start sector | End sector
---------------------------------------------------------
1 | 0:00.00 | 4:47.72 | 0 | 21596
2 | 4:47.72 | 4:05.54 | 21597 | 40025
3 | 8:53.51 | 3:49.12 | 40026 | 57212
4 | 12:42.63 | 3:35.57 | 57213 | 73394
5 | 16:18.45 | 2:31.27 | 73395 | 84746
6 | 18:49.72 | 3:25.36 | 84747 | 100157
7 | 22:15.33 | 3:34.57 | 100158 | 116264
8 | 25:50.15 | 4:02.21 | 116265 | 134435
9 | 29:52.36 | 3:55.36 | 134436 | 152096
10 | 33:47.72 | 3:41.18 | 152097 | 168689
11 | 37:29.15 | 3:31.03 | 168690 | 184517
12 | 41:00.18 | 3:36.63 | 184518 | 200780
13 | 44:37.06 | 4:07.48 | 200781 | 219353
14 | 48:44.54 | 3:13.21 | 219354 | 233849
15 | 51:58.00 | 4:11.27 | 233850 | 252701
Range status and errors
Selected range
Filename C:\Share\Exact Audio Copy\Flac\Шмели - 17.03.2007 MezzoForte.wav
Peak level 100.0 %
Range quality 100.0 %
Test CRC 9CB12BC9
Copy CRC 9CB12BC9
Copy OK
No errors occurred
AccurateRip summary
Track 1 not present in database
Track 2 not present in database
Track 3 not present in database
Track 4 not present in database
Track 5 not present in database
Track 6 not present in database
Track 7 not present in database
Track 8 not present in database
Track 9 not present in database
Track 10 not present in database
Track 11 not present in database
Track 12 not present in database
Track 13 not present in database
Track 14 not present in database
Track 15 not present in database
None of the tracks are present in the AccurateRip database
End of status report

Отчёт auCDtect Task manager:

Код:
DON'T MODIFY THIS FILE
-----------------------
PERFORMER: auCDtect Task Manager, ver. 1.6.0 RC1 build 1.6.0.1
Copyright (c) 2008-2010 y-soft. All rights reserved
http://y-soft.org
ANALYZER: auCDtect: CD records authenticity detector, version 0.8.2
Copyright (c) 2004 Oleg Berngardt. All rights reserved.
Copyright (c) 2004 Alexander Djourik. All rights reserved.
FILE: Шмели - 17.03.2007 MezzoForte.flac
  Size: 407755853 Hash: 1AE547E742D462F6FB1A3F8A5544CB55 Accuracy: -m0
  Conclusion: CDDA 100%
  Signature: 2187517BF159453F2CBAF873C56E03D3174168D1

2008 - Карамельные Страхи

Продолжительность: 00:45:34--Трек лист:

01. Мама (3:36)
02. Я буду жить (3:23)
03. Карамельный страх (3:27)
04. Лирика (3:48)
05. Свадьбы не будет (2:25)
06. Я тебя люблю (3:26)
07. енщина в сером (3:41)
08. Змея эйфория (2:55)
09. Раны (3:31)
10. Нервы (2:54)
11. Колыбельная плюс... (3:49)
12. неспокойные сны (стих) (0:48)
13. В живых играют мертвецы (4:09)
14. Цвет дождя (3:41)

Отчёт ЕАС:

Код:
Exact Audio Copy V0.99 prebeta 5 from 4. May 2009
EAC extraction logfile from 26. August 2009, 16:55
Шмели / Карамельные Страхи
Used drive : _NEC CDRW/DVD CB1100A Adapter: 0 ID: 0
Read mode : Secure
Utilize accurate stream : Yes
Defeat audio cache : Yes
Make use of C2 pointers : No
Read offset correction : 6
Overread into Lead-In and Lead-Out : No
Fill up missing offset samples with silence : Yes
Delete leading and trailing silent blocks : No
Null samples used in CRC calculations : Yes
Used interface : Installed external ASPI interface
Used output format : User Defined Encoder
Selected bitrate : 128 kBit/s
Quality : High
Add ID3 tag : No
Command line compressor : C:\Share\Exact Audio Copy\Flac\flac.exe
Additional command line options : -8 -V %s
TOC of the extracted CD
Track | Start | Length | Start sector | End sector
---------------------------------------------------------
1 | 0:00.00 | 3:35.74 | 0 | 16198
2 | 3:35.74 | 3:22.39 | 16199 | 31387
3 | 6:58.38 | 3:27.05 | 31388 | 46917
4 | 10:25.43 | 3:48.01 | 46918 | 64018
5 | 14:13.44 | 2:25.02 | 64019 | 74895
6 | 16:38.46 | 3:26.08 | 74896 | 90353
7 | 20:04.54 | 3:41.04 | 90354 | 106932
8 | 23:45.58 | 2:54.72 | 106933 | 120054
9 | 26:40.55 | 3:31.18 | 120055 | 135897
10 | 30:11.73 | 2:53.62 | 135898 | 148934
11 | 33:05.60 | 3:49.20 | 148935 | 166129
12 | 36:55.05 | 0:48.32 | 166130 | 169761
13 | 37:43.37 | 4:09.09 | 169762 | 188445
14 | 41:52.46 | 3:41.13 | 188446 | 205033
15 | 48:05.59 | 9:57.51 | 216434 | 261259
Range status and errors
Selected range
Filename C:\Share\Exact Audio Copy\Flac\Шмели - Карамельные Страхи.wav
Peak level 100.0 %
Range quality 99.9 %
Test CRC 3BA532AA
Copy CRC 3BA532AA
Copy OK
No errors occurred
AccurateRip summary
Track 1 not present in database
Track 2 not present in database
Track 3 not present in database
Track 4 not present in database
Track 5 not present in database
Track 6 not present in database
Track 7 not present in database
Track 8 not present in database
Track 9 not present in database
Track 10 not present in database
Track 11 not present in database
Track 12 not present in database
Track 13 not present in database
Track 14 not present in database
None of the tracks are present in the AccurateRip database
End of status report

Отчёт auCDtect Task manager:

Код:
DON'T MODIFY THIS FILE
-----------------------
PERFORMER: auCDtect Task Manager, ver. 1.6.0 RC1 build 1.6.0.1
Copyright (c) 2008-2010 y-soft. All rights reserved
http://y-soft.org
ANALYZER: auCDtect: CD records authenticity detector, version 0.8.2
Copyright (c) 2004 Oleg Berngardt. All rights reserved.
Copyright (c) 2004 Alexander Djourik. All rights reserved.
FILE: Шмели - Карамельные Страхи.flac
  Size: 304802977 Hash: 2189C7334F89CD00366CBC87CA258ECA Accuracy: -m0
  Conclusion: CDDA 100%
  Signature: 9EE23F364C548CBDDE32DA8390D85947C822748D

2009 - М.Я.У. (Московская Ярмарка Удовольствий)

Продолжительность: 00:55:41--Трек лист:

01. Все деньги кончились (3:24)
02. Девочка с черными бантиками (3:55)
03. Женщина-тень (3:36)
04. Желуди (3:30)
05. Любовь из стекла (3:36)
06. Ласка (3:34)
07. М.Я.У. (Московская Ярмарка Удовольствий) (3:40)
08. Пир (3:18)
09. Кризис (3:45)
10. Две столицы (3:51)
11. Голое брюхо (3:46)
12. Зоя (3:45)
13. Где (4:55)
14. С новым годом (3:31)
15. Млечная депрессия (3:36)

Отчёт ЕАС:

Код:
Exact Audio Copy V0.99 prebeta 5 from 4. May 2009
EAC extraction logfile from 26. August 2009, 23:22
Шмели / М.Я.У. (Московская Ярмарка Удовольствий)
Used drive : _NEC CDRW/DVD CB1100A Adapter: 0 ID: 0
Read mode : Secure
Utilize accurate stream : Yes
Defeat audio cache : Yes
Make use of C2 pointers : No
Read offset correction : 6
Overread into Lead-In and Lead-Out : No
Fill up missing offset samples with silence : Yes
Delete leading and trailing silent blocks : No
Null samples used in CRC calculations : Yes
Used interface : Installed external ASPI interface
Used output format : User Defined Encoder
Selected bitrate : 128 kBit/s
Quality : High
Add ID3 tag : No
Command line compressor : C:\Share\Exact Audio Copy\Flac\flac.exe
Additional command line options : -8 -V %s
TOC of the extracted CD
Track | Start | Length | Start sector | End sector
---------------------------------------------------------
1 | 0:00.00 | 3:23.60 | 0 | 15284
2 | 3:23.60 | 3:55.09 | 15285 | 32918
3 | 7:18.69 | 3:35.67 | 32919 | 49110
4 | 10:54.61 | 3:30.13 | 49111 | 64873
5 | 14:24.74 | 3:35.46 | 64874 | 81044
6 | 18:00.45 | 3:33.70 | 81045 | 97089
7 | 21:34.40 | 3:39.49 | 97090 | 113563
8 | 25:14.14 | 3:18.21 | 113564 | 128434
9 | 28:32.35 | 3:44.49 | 128435 | 145283
10 | 32:17.09 | 3:50.39 | 145284 | 162572
11 | 36:07.48 | 3:45.43 | 162573 | 179490
12 | 39:53.16 | 3:44.47 | 179491 | 196337
13 | 43:37.63 | 4:55.25 | 196338 | 218487
14 | 48:33.13 | 3:31.19 | 218488 | 234331
15 | 52:04.32 | 3:36.08 | 234332 | 250539
Range status and errors
Selected range
Filename C:\Share\Exact Audio Copy\Flac\Шмели - М.Я.У. (Московская Ярмарка Удовольствий).wav
Peak level 98.6 %
Range quality 100.0 %
Test CRC 26EFD03B
Copy CRC 26EFD03B
Copy OK
No errors occurred
AccurateRip summary
Track 1 not present in database
Track 2 not present in database
Track 3 not present in database
Track 4 not present in database
Track 5 not present in database
Track 6 not present in database
Track 7 not present in database
Track 8 not present in database
Track 9 not present in database
Track 10 not present in database
Track 11 not present in database
Track 12 not present in database
Track 13 not present in database
Track 14 not present in database
Track 15 not present in database
None of the tracks are present in the AccurateRip database
End of status report

Отчёт auCDtect Task manager:

Код:
DON'T MODIFY THIS FILE
-----------------------
PERFORMER: auCDtect Task Manager, ver. 1.6.0 RC1 build 1.6.0.1
Copyright (c) 2008-2010 y-soft. All rights reserved
http://y-soft.org
ANALYZER: auCDtect: CD records authenticity detector, version 0.8.2
Copyright (c) 2004 Oleg Berngardt. All rights reserved.
Copyright (c) 2004 Alexander Djourik. All rights reserved.
FILE: Шмели - М.Я.У. (Московская Ярмарка Удовольствий).flac
  Size: 408871508 Hash: 3C878C3137E1ED37FD50B4B604AEF72A Accuracy: -m0
  Conclusion: CDDA 99%
  Signature: 614192AF1B9A7BE0B2019F462446A9AEFC977F94

2010 - Механическая балерина

Продолжительность: 00:53:37--Трек лист:

01. Механическая балерина (3:42)
02. Люди (3:41)
03. Какофония сердец (3:45)
04. Вещий сон (3:31)
05. Прет? Так при! (3:51)
06. Жги (3:50)
07. Лысая гора (3:58)
08. Небо против (3:46)
09. Котейка на трех ножках (3:44)
10. Снова про любовь, блин (4:55)
11. Цветочный медведь (3:36)
12. Колыбельная++ (4:14)
13. Аель-Ауа (3:47)
14. Женщина-игра (3:18)

Отчёт ЕАС:

Код:
Exact Audio Copy V0.99 prebeta 5 from 4. May 2009
EAC extraction logfile from 12. April 2010, 23:54
Шмели / Механическая балерина
Used drive : Optiarc DVD RW AD-7203A Adapter: 1 ID: 0
Read mode : Secure
Utilize accurate stream : Yes
Defeat audio cache : Yes
Make use of C2 pointers : No
Read offset correction : 48
Overread into Lead-In and Lead-Out : No
Fill up missing offset samples with silence : Yes
Delete leading and trailing silent blocks : No
Null samples used in CRC calculations : Yes
Used interface : Native Win32 interface for Win NT & 2000
Used output format : User Defined Encoder
Selected bitrate : 768 kBit/s
Quality : High
Add ID3 tag : No
Command line compressor : C:\Program Files (x86)\Exact Audio Copy\FLAC\FLAC.EXE
Additional command line options : -8 -V %s
TOC of the extracted CD
Track | Start | Length | Start sector | End sector
---------------------------------------------------------
1 | 0:00.00 | 3:41.71 | 0 | 16645
2 | 3:41.71 | 3:41.15 | 16646 | 33235
3 | 7:23.11 | 3:45.07 | 33236 | 50117
4 | 11:08.18 | 3:30.53 | 50118 | 65920
5 | 14:38.71 | 3:50.42 | 65921 | 83212
6 | 18:29.38 | 3:49.49 | 83213 | 100436
7 | 22:19.12 | 3:57.69 | 100437 | 118280
8 | 26:17.06 | 3:45.42 | 118281 | 135197
9 | 30:02.48 | 3:44.08 | 135198 | 152005
10 | 33:46.56 | 4:54.54 | 152006 | 174109
11 | 38:41.35 | 3:35.41 | 174110 | 190275
12 | 42:17.01 | 4:14.15 | 190276 | 209340
13 | 46:31.16 | 3:47.24 | 209341 | 226389
14 | 50:18.40 | 3:18.22 | 226390 | 241261
15 | 56:08.62 | 23:41.38 | 252662 | 359274
Range status and errors
Selected range
Filename C:\Users\LLIMEJIb\Шмели - Механическая балерина.wav
Peak level 98.8 %
Range quality 100.0 %
Test CRC D0CB6CFB
Copy CRC D0CB6CFB
Copy OK
No errors occurred
End of status report
------------------------------------------------------------
Exact Audio Copy V0.99 prebeta 5 from 4. May 2009
EAC extraction logfile from 13. April 2010, 0:24
Шмели / Механическая балерина
Used drive : Optiarc DVD RW AD-7203A Adapter: 1 ID: 0
Read mode : Secure
Utilize accurate stream : Yes
Defeat audio cache : Yes
Make use of C2 pointers : No
Read offset correction : 48
Overread into Lead-In and Lead-Out : No
Fill up missing offset samples with silence : Yes
Delete leading and trailing silent blocks : No
Null samples used in CRC calculations : Yes
Used interface : Native Win32 interface for Win NT & 2000
Used output format : User Defined Encoder
Selected bitrate : 768 kBit/s
Quality : High
Add ID3 tag : No
Command line compressor : C:\Program Files (x86)\Exact Audio Copy\FLAC\FLAC.EXE
Additional command line options : -8 -V %s
TOC of the extracted CD
Track | Start | Length | Start sector | End sector
---------------------------------------------------------
1 | 0:00.00 | 3:41.71 | 0 | 16645
2 | 3:41.71 | 3:41.15 | 16646 | 33235
3 | 7:23.11 | 3:45.07 | 33236 | 50117
4 | 11:08.18 | 3:30.53 | 50118 | 65920
5 | 14:38.71 | 3:50.42 | 65921 | 83212
6 | 18:29.38 | 3:49.49 | 83213 | 100436
7 | 22:19.12 | 3:57.69 | 100437 | 118280
8 | 26:17.06 | 3:45.42 | 118281 | 135197
9 | 30:02.48 | 3:44.08 | 135198 | 152005
10 | 33:46.56 | 4:54.54 | 152006 | 174109
11 | 38:41.35 | 3:35.41 | 174110 | 190275
12 | 42:17.01 | 4:14.15 | 190276 | 209340
13 | 46:31.16 | 3:47.24 | 209341 | 226389
14 | 50:18.40 | 3:18.22 | 226390 | 241261
15 | 56:08.62 | 23:41.38 | 252662 | 359274
Range status and errors
Selected range
Filename C:\Users\LLIMEJIb\Шмели - Механическая балерина.wav
Peak level 98.8 %
Range quality 100.0 %
Test CRC D0CB6CFB
Copy CRC D0CB6CFB
Copy OK
No errors occurred
End of status report

Отчёт auCDtect Task manager:

Код:
DON'T MODIFY THIS FILE
-----------------------
PERFORMER: auCDtect Task Manager, ver. 1.6.0 RC1 build 1.6.0.1
Copyright (c) 2008-2010 y-soft. All rights reserved
http://y-soft.org
ANALYZER: auCDtect: CD records authenticity detector, version 0.8.2
Copyright (c) 2004 Oleg Berngardt. All rights reserved.
Copyright (c) 2004 Alexander Djourik. All rights reserved.
FILE: Шмели - Механическая балерина.flac
  Size: 417338797 Hash: 1DDCD071D755CB47ED7CB2CCA127D8B1 Accuracy: -m0
  Conclusion: CDDA 100%
  Signature: 227A36A9DFFB80C3B3E3B01776BD177941D4EC04

2010 - Топливо

Продолжительность: 01:00:33--Трек лист:

01. Топливо-жизнь (3:46)
02. Автомобиль и Ты (3:42)
03. Паруса (3:34)
04. Женщина за рулем (3:29)
05. Черемуха (3:37)
06. Меланхолия (4:20)
07. Ласковый Уродец (4:12)
08. Найди... (3:39)
09. Генератор мечты (3:52)
10. Хворь (3:35)
11. Доктор Моторфил (3:45)
12. Нефть Аллилуйя (5:23)
13. Хоровод (2:16)
14. Плюшевые зомби (4:03)
15. Труна на колесах (3:13)
16. Бог любит себя (4:06)

Отчёт ЕАС:

Код:
Exact Audio Copy V0.99 prebeta 5 from 4. May 2009
EAC extraction logfile from 23. December 2010, 20:53
Шмели / Топливо
Used drive : Optiarc DVD RW AD-7263S Adapter: 0 ID: 0
Read mode : Secure
Utilize accurate stream : Yes
Defeat audio cache : Yes
Make use of C2 pointers : No
Read offset correction : 48
Overread into Lead-In and Lead-Out : No
Fill up missing offset samples with silence : Yes
Delete leading and trailing silent blocks : No
Null samples used in CRC calculations : Yes
Used interface : Native Win32 interface for Win NT & 2000
Used output format : User Defined Encoder
Selected bitrate : 128 kBit/s
Quality : High
Add ID3 tag : No
Command line compressor : C:\Program Files (x86)\Exact Audio Copy\Flac\flac.exe
Additional command line options : -8 -V %s
Use compression offset : 48
TOC of the extracted CD
Track | Start | Length | Start sector | End sector
---------------------------------------------------------
1 | 0:00.00 | 3:45.41 | 0 | 16915
2 | 3:45.41 | 3:42.31 | 16916 | 33596
3 | 7:27.72 | 3:33.64 | 33597 | 49635
4 | 11:01.61 | 3:28.40 | 49636 | 65275
5 | 14:30.26 | 3:36.70 | 65276 | 81545
6 | 18:07.21 | 4:20.21 | 81546 | 101066
7 | 22:27.42 | 4:12.30 | 101067 | 119996
8 | 26:39.72 | 3:39.35 | 119997 | 136456
9 | 30:19.32 | 3:52.25 | 136457 | 153881
10 | 34:11.57 | 3:35.31 | 153882 | 170037
11 | 37:47.13 | 3:45.07 | 170038 | 186919
12 | 41:32.20 | 5:22.67 | 186920 | 211136
13 | 46:55.12 | 2:15.62 | 211137 | 221323
14 | 49:10.74 | 4:02.58 | 221324 | 239531
15 | 53:13.57 | 3:13.21 | 239532 | 254027
16 | 56:27.03 | 4:05.48 | 254028 | 272450
17 | 63:04.51 | 9:11.24 | 283851 | 325199
Range status and errors
Selected range
Filename F:\!TEMP_DIR!\123\Шмели - Топливо.wav
Peak level 98.8 %
Range quality 100.0 %
Test CRC 21B3886C
Copy CRC 21B3886C
Copy OK
No errors occurred
End of status report

Отчёт auCDtect Task manager:

Код:
DON'T MODIFY THIS FILE
-----------------------
PERFORMER: auCDtect Task Manager, ver. 1.6.0 RC1 build 1.6.0.1
Copyright (c) 2008-2010 y-soft. All rights reserved
http://y-soft.org
ANALYZER: auCDtect: CD records authenticity detector, version 0.8.2
Copyright (c) 2004 Oleg Berngardt. All rights reserved.
Copyright (c) 2004 Alexander Djourik. All rights reserved.
FILE: Шмели - Топливо.flac
  Size: 472004331 Hash: 0DE000B1B035E5118AF28EAE0CD30C6A Accuracy: -m0
  Conclusion: CDDA 100%
  Signature: 328AA8759198B7787167058AC693905B064209A1

2010 - Цех по реабилитации параноиков

Продолжительность: 00:44:54--Трек лист:

01. Свет остановился (4:19)
02. Отвали, моя черешня (3:36)
03. Были мы (new version) (4:06)
04. Я хочу быть роботом (4:10)
05. Катенка (new version) (3:24)
06. Ц.Р.П. (Цех по реабилитации параноиков) (3:46)
07. Песенка пластилина 2 (продолжение) (3:32)
08. Лечебница (new version) (4:06)
09. Заговорка (3:12)
10. Паника (из цикла "Школьные песни") (3:14)
11. Почта (3:51)
12. Халява (из цикла "Школьные песни") (3:38)

Отчёт ЕАС:

Код:
Exact Audio Copy V0.99 prebeta 5 from 4. May 2009
EAC extraction logfile from 29. January 2011, 23:13
Шмели / Цех по реабилитации параноиков
Used drive : Optiarc DVD RW AD-7263S Adapter: 0 ID: 0
Read mode : Secure
Utilize accurate stream : Yes
Defeat audio cache : Yes
Make use of C2 pointers : No
Read offset correction : 48
Overread into Lead-In and Lead-Out : No
Fill up missing offset samples with silence : Yes
Delete leading and trailing silent blocks : No
Null samples used in CRC calculations : Yes
Used interface : Native Win32 interface for Win NT & 2000
Used output format : User Defined Encoder
Selected bitrate : 768 kBit/s
Quality : High
Add ID3 tag : No
Command line compressor : C:\Program Files (x86)\Exact Audio Copy\FLAC\FLAC.EXE
Additional command line options : -8 -V %s
TOC of the extracted CD
Track | Start | Length | Start sector | End sector
---------------------------------------------------------
1 | 0:00.00 | 4:19.32 | 0 | 19456
2 | 4:19.32 | 3:35.51 | 19457 | 35632
3 | 7:55.08 | 4:06.24 | 35633 | 54106
4 | 12:01.32 | 4:09.60 | 54107 | 72841
5 | 16:11.17 | 3:24.14 | 72842 | 88155
6 | 19:35.31 | 3:45.66 | 88156 | 105096
7 | 23:21.22 | 3:31.71 | 105097 | 120992
8 | 26:53.18 | 4:06.30 | 120993 | 139472
9 | 30:59.48 | 3:11.72 | 139473 | 153869
10 | 34:11.45 | 3:14.10 | 153870 | 168429
11 | 37:25.55 | 3:50.43 | 168430 | 185722
12 | 41:16.23 | 3:38.00 | 185723 | 202072
Range status and errors
Selected range
Filename E:\Мои документы\Новая папка\Шмели - Цех по реабилитации параноиков.wav
Peak level 98.8 %
Range quality 100.0 %
Test CRC F8772B88
Copy CRC F8772B88
Copy OK
No errors occurred
End of status report

Отчёт auCDtect Task manager:

Код:
DON'T MODIFY THIS FILE
-----------------------
PERFORMER: auCDtect Task Manager, ver. 1.6.0 RC1 build 1.6.0.1
Copyright (c) 2008-2010 y-soft. All rights reserved
http://y-soft.org
ANALYZER: auCDtect: CD records authenticity detector, version 0.8.2
Copyright (c) 2004 Oleg Berngardt. All rights reserved.
Copyright (c) 2004 Alexander Djourik. All rights reserved.
FILE: Шмели - Цех по реабилитации параноиков.flac
  Size: 362545067 Hash: ABFD006AED7637576ADB3052C7654A2B Accuracy: -m0
  Conclusion: CDDA 76%
  Signature: 58F48DFEA40DCF6E1741F797F71867D3D4EBB2F4

2011 - Театр уродов

Продолжительность: 00:52:47--Трек лист:

01. Улет (3:30)
02. Санитарка (3:58)
03. Тату на попе (3:02)
04. Маэстро ужасов (4:41)
05. Дорога пуста (4:25)
06. Зеленый поезд (3:44)
07. Фокусник (3:58)
08. Поцелуи (4:02)
09. Ах, у ели (4:01)
10. Мало (3:12)
11. Театр уродов (4:31)
12. КрАЗ 255 (3:26)
13. Судьба (3:40)
14. Му-Му жива (2:37)

Отчёт ЕАС:

Код:
Exact Audio Copy V0.99 prebeta 5 from 4. May 2009
EAC extraction logfile from 30. October 2011, 0:55
Шмели / Театр уродов
Used drive : Optiarc DVD RW AD-7263S Adapter: 0 ID: 0
Read mode : Secure
Utilize accurate stream : Yes
Defeat audio cache : Yes
Make use of C2 pointers : No
Read offset correction : 48
Overread into Lead-In and Lead-Out : No
Fill up missing offset samples with silence : Yes
Delete leading and trailing silent blocks : No
Null samples used in CRC calculations : Yes
Used interface : Native Win32 interface for Win NT & 2000
Used output format : User Defined Encoder
Selected bitrate : 768 kBit/s
Quality : High
Add ID3 tag : No
Command line compressor : C:\Program Files (x86)\Exact Audio Copy\FLAC\FLAC.EXE
Additional command line options : -8 -V %s
TOC of the extracted CD
Track | Start | Length | Start sector | End sector
---------------------------------------------------------
1 | 0:00.00 | 3:30.03 | 0 | 15752
2 | 3:30.03 | 3:58.10 | 15753 | 33612
3 | 7:28.13 | 3:02.19 | 33613 | 47281
4 | 10:30.32 | 4:41.36 | 47282 | 68392
5 | 15:11.68 | 4:24.41 | 68393 | 88233
6 | 19:36.34 | 3:44.20 | 88234 | 105053
7 | 23:20.54 | 3:57.54 | 105054 | 122882
8 | 27:18.33 | 4:02.09 | 122883 | 141041
9 | 31:20.42 | 4:00.54 | 141042 | 159095
10 | 35:21.21 | 3:12.03 | 159096 | 173498
11 | 38:33.24 | 4:31.16 | 173499 | 193839
12 | 43:04.40 | 3:25.43 | 193840 | 209257
13 | 46:30.08 | 3:39.59 | 209258 | 225741
14 | 50:09.67 | 2:37.15 | 225742 | 237531
Range status and errors
Selected range
Filename E:\Моя музыка\Шмели\Шмели\2011 - Театр уродов\Шмели - Театр уродов.wav
Peak level 98.8 %
Range quality 100.0 %
Test CRC FA66AB66
Copy CRC FA66AB66
Copy OK
No errors occurred
End of status report

Отчёт auCDtect Task manager:

Код:
DON'T MODIFY THIS FILE
-----------------------
PERFORMER: auCDtect Task Manager, ver. 1.6.0 RC1 build 1.6.0.1
Copyright (c) 2008-2010 y-soft. All rights reserved
http://y-soft.org
ANALYZER: auCDtect: CD records authenticity detector, version 0.8.2
Copyright (c) 2004 Oleg Berngardt. All rights reserved.
Copyright (c) 2004 Alexander Djourik. All rights reserved.
FILE: Шмели - Театр уродов.flac
  Size: 397541830 Hash: B5534AD3828DF73391486EED6314AE92 Accuracy: -m0
  Conclusion: CDDA 100%
  Signature: 06A6FCCAA9731414FD06B4B5D39D2D666167F021

Об исполнителе

«ШМели́» — московская группа, музыка которой имеет фолк-направленность в сочетании с другими рок-стилями.
Украинский период
История группы началась в 1993 году на Украине, в городе Ровно. Когда к Александру Шмелёву (гитара, вокал), писавшему панковские песни присоединилась Лёля (вокал, гитара), учившаяся в педагогическом институте. Первоначальное группа называлась «Rubbish Chute Road». Ранее, с 1989, Александр Шмелёв играл в молодёжной группе, существовавшей в среде учеников ровенской школы № 15, его первыми коллегами были, в частности, Андрей Пермяков и Алексей «Лёша Калекин» Шевчук. В первых песнях было заметно сильное влияние групп «Гражданская Оборона» и «АукцЫон». Состав группы почти постоянно меняется. Первыми музыкантами, игравшими со Шмелями ещё с 1993 года, были Михаил «Майк» Просюк, Антон Рештаненко и Игорь «Проха» Прошин (погиб в 2005 году). В 1996 группа впервые приезжает в Москву.
Российский период
В 1999 году, по приглашению Сергея Троицкого, Шмель и Лёс (Лёля Заседателева) окончательно переезжают в Москву. Поскольку на остальную команду приглашение не распространялось, в состав группы приходят новые музыканты — Владимир «TGR» Алимин (бас-гитара, экс-Юрий Антонов), Иван Тимошенко (гитара, «Билли Schubert») и сессионный барабанщик Николай «Робот» Быков. В конце 2000 года к группе, на постоянной основе, присоединяется ровенский ударник Андрей «Танцор» Мартыненков (с 2004-го в «Коррозии Металла»). В 2002 году, Иван и Андрей ненадолго покидают команду и на их место приходят Олег «Сова» Туртыгин (гитара, «Тетрайдер») и Олег «Монстр» Горохов (ударные, «Море»). В конце 2002 года «Шмели» выходят из состава «Корпорации Тяжёлого Рока» и начинают самостоятельную концертную деятельность. В 2003 году «Монстр» уходит петь в возродившееся «Море» (в 2007 название сменилось на «Туловище»), в «ШМели», на сессионной основе, возвращаются И. Тимошенко и А. Мартыненков, но, в связи с ухудшившимся состоянием здоровья, группу покидает В. Алимин и Шмель берёт на себя функцию бас-гитариста. За последующие годы группа много экспериментирует со звучанием, Шмель и Лёля участвуют в нескольких альтернативных проектах, в частности в сотрудничестве с экс-гитаристом «Тетрайдер» Аланом Waters’ом («Клочья», «Антивирус», «Драматургия»).
«ШМели» много гастролируют по России и странам СНГ. В начале 2008 года, совместно с группами Tamtrum (Франция) и Roman Rain, «ШМели» провели широкомасштабный тур, по Украине и России (график).
В последнее время состав группы часто меняется. Актуальный состав можно посмотреть на официальном сайте.
Состав
Действующий
Лёс
Александр Шмелёв
Бывшие участники
Николай Быков †
Иван Тимошенко
Олег Туртыгин †
Андрей Мартыненков
Владимир Алимин
Андрей «Зуев» Билаш
Сергей «Карабас» Коробко
Время раздачи: 24/7 - круглосуточно-
Other forum [Profile] [PM]

Dracula

Longevity: 5 years 11 months

Posts: 10578

Торрент-статистика

Post 08-Jun-2013 11:00 (after 1 hour 17 minutes)

Топик был перенесен из форума Rock в форум Russian Rock


p2000s
 

RaZOR2014

Gender:

Longevity: 5 years 3 months

Posts: 7

Location: Воронеж

Торрент-статистика

Post 30-Aug-2014 19:05 (after 1 year 2 months)

[Quote]

Обожаю эту группу, автору спасибо
Other forum [Profile] [PM]
Display posts from previous:    
Reply to topic

The time now is: Today 11:03

All times are GMT + 3 Hours



You cannot post new topics in this forum
You cannot reply to topics in this forum
You cannot edit your posts in this forum
You cannot delete your posts in this forum
You cannot vote in polls in this forum
You cannot attach files in this forum
You cannot download files in this forum