Today is a free download without charge Download

Синевир 3D в 3Д / Synevir 3D (Александр Алешечкин,) [2013, ужасы, DCPrip] Half OverUnder / Вертикальная анаморфная стереопара

Reply to topic
 
Author
Message

Omen ®

Longevity: 6 years 9 months

Posts: 181090

Торрент-статистика

Post 16-Mar-2014 05:00

[Quote]

Синевир 3D / Synevir / Трейлер 3D
Год выпуска: 2013
Страна: Украина
Жанр: ужасы
Продолжительность: 00:01:16
Перевод: Не требуется
Русские субтитры: нет
Режиссер на русском: Александр Алешечкин,Вячеслав Алешечкин
В ролях: Сергей Романюк, Алена Лавренюк, Илья Рудаков, Богдан Юсипчук
Описание: Действие происходит на озере Синевир, одном из красивейших озёр Карпат. Среди местного населения бытует поверье, что если юноша и девушка повстречались возле озера, они будут любить друг друга до конца своих дней. Две молодые пары приезжают на Синевир, чтобы провести здесь романтический вечер. Они хорошо проводят время, выпивают, шутят и наслаждаются шумом волн и ночной свежестью. Ничто в эту ночь не предвещает беды. Неожиданно из леса неподалёку от озера, где ребята оставили свою машину доносится пугающий вой. Горе-туристы еще не догадываются, что вскоре им на собственной шкуре предстоит узнать еще одну страшную легенду о горном озере, а точнее тех ужасах, которые водятся в его окрестностях.
Качество: DCPrip
Контейнер: MKV
Формат 3D: Half OverUnder / Вертикальная анаморфная стереопара
Порядок ракурсов: левый ракурс первый
Видео кодек: h.264
Аудио кодек: AC3
Видео: MPEG4 Video (H264),1920х1080,24fps,43.9 Мбит/сек
Аудио: Rus, AC3 48000Hz 6ch

MediaInfo

General
Unique ID : 227657258737965834197880870152815942444 (0xAB45317354A5B0DA851A52A20A0A9B2C)
Complete name : D:\SINEVIR_TRL-3D.mkv
Format : Matroska
Format version : Version 4 / Version 2
File size : 400 MiB
Duration : 1mn 16s
Overall bit rate mode : Variable
Overall bit rate : 43.9 Mbps
Encoded date : UTC 2014-03-12 17:10:44
Writing application : mkvmerge v6.8.0 ('Theme for Great Cities') 64bit built on Mar 2 2014 21:34:26
Writing library : libebml v1.3.0 + libmatroska v1.4.1
Video
ID : 1
Format : AVC
Format/Info : Advanced Video Codec
Format profile : High@L5.1
Format settings, CABAC : Yes
Format settings, ReFrames : 4 frames
Codec ID : V_MPEG4/ISO/AVC
Duration : 1mn 16s
Bit rate mode : Variable
Bit rate : 42.5 Mbps
Maximum bit rate : 240 Mbps
Width : 1 920 pixels
Height : 1 080 pixels
Display aspect ratio : 16:9
Frame rate mode : Constant
Frame rate : 24.000 fps
Standard : NTSC
Color space : YUV
Chroma subsampling : 4:2:0
Bit depth : 8 bits
Scan type : Progressive
Bits/(Pixel*Frame) : 0.855
Stream size : 388 MiB (97%)
Language : Russian
Default : Yes
Forced : No
Color primaries : BT.709
Transfer characteristics : BT.709
Matrix coefficients : BT.709
Audio
ID : 2
Format : AC-3
Format/Info : Audio Coding 3
Mode extension : CM (complete main)
Format settings, Endianness : Big
Codec ID : A_AC3
Duration : 1mn 16s
Bit rate mode : Constant
Bit rate : 448 Kbps
Channel(s) : 6 channels
Channel positions : Front: L C R, Side: L R, LFE
Sampling rate : 48.0 KHz
Bit depth : 16 bits
Compression mode : Lossy
Stream size : 4.09 MiB (1%)
Language : Russian
Default : Yes
Forced : No

Скриншоты



Other forum [Profile] [PM]
Display posts from previous:    
Reply to topic

The time now is: Today 03:40

All times are GMT + 3 Hours



You cannot post new topics in this forum
You cannot reply to topics in this forum
You cannot edit your posts in this forum
You cannot delete your posts in this forum
You cannot vote in polls in this forum
You cannot attach files in this forum
You cannot download files in this forum