Today is a free download without charge Download

Олимпийские игры 2014. Церемония закрытия (2014.02.23) HDTV [H.264/1080i] [Спорт1]

Reply to topic
 
Author
Message

Varius ®

Gender:

Longevity: 9 years 4 months

Posts: 2407

Location: Hell

Торрент-статистика

Post 24-Feb-2014 04:01

[Quote]

Олимпийские игры 2014. Церемония закрытия (2014.02.23) HDTV [H.264/1080i] [Спорт1]- Режиссер / Телекомпания: СПОРТ 1
Русское название: Олимпийские игры 2014
Год выпуска: 2014
Жанр: Спорт
Выпущено: Россия,
Описание:
XXII Олимпийские зимние игры 2014 года в Сочи завершатся сегодня Церемонией закрытия на Олимпийском стадионе «Фишт». Церемония представит яркое и эмоциональное завершение Игр и станет посвящением русской культуре. Зрители увидят Россию глазами европейца – признанного во всем мире режиссера Даниэле Финци Паска, который присоединился к команде российских профессионалов в качестве режиссера-постановщика Церемонии закрытия Олимпийских игр в Сочи. Главным креативным директором Церемонии закрытия стал Константин Эрнст, Исполнительным продюсером Церемонии - Андрей Насоновский. Зрители Церемонии закрытия Олимпийских зимних игр 2014 года вновь встретятся с уже знакомой им по Церемонии открытия девочкой Любовь, которая вместе со своими новыми друзьями, Валентиной и Юрой, будет путешествовать через русскую культуру – переворачивать страницы русской литературы, наслаждаться волшебством русской живописи и внимать чудесным звукам русской музыки. По традиции, часть Церемонии закрытия будет посвящена торжественной церемонии передачи Олимпийского флага столице будущих зимних Игр - городу Пхёнчхан
Ведущие: Дмитрий Губерниев, Сергей Брылев
Продолжительность: 02:30:56
Видеокодек: AVC
Качество видео: HDTV
Битрейт видео: ~8363 kb/s
Размер кадра: 1920 x 1080
Аудиокодек: MP2, 2.0ch.
Битрейт аудио: 192 kb/s

MediaInfo:

Формат : MPEG-TS
Размер файла : 9,49 Гбайт
Продолжительность : 2 ч. 30 м.
Общий поток : 9002 Кбит/сек
Видео
Идентификатор : 41 (0x29)
Идентификатор меню : 1 (0x1)
Формат : AVC
Формат/Информация : Advanced Video Codec
Профиль формата : [url=mailto:High@L4.0]High@L4.0[/url]
Параметр CABAC формата : Да
Параметр ReFrames формата : 3 кадра
Параметр GOP формата : M=4, N=32
Идентификатор кодека : 27
Продолжительность : 2 ч. 30 м.
Битрейт : 8363 Кбит/сек
Ширина : 1920 пикселей
Высота : 1080 пикселей
Соотношение сторон : 16:9
Частота кадров : 25,000 кадров/сек
Стандарт вещания : Component
Цветовое пространство : YUV
Субдискретизация насыщенности : 4:2:0
Битовая глубина : 8 бит
Тип развёртки : Чересстрочная
Порядок развёртки : Верхнее поле первое
Бит/(Пиксели*Кадры) : 0.161
Размер потока : 8,82 Гбайт (93%)
Основные цвета : BT.709-5, BT.1361, IEC 61966-2-4, SMPTE RP177
Характеристики трансфера : BT.709-5, BT.1361
Коэффициенты матрицы : BT.709-5, BT.1361, IEC 61966-2-4 709, SMPTE RP177
Аудио
Идентификатор : 44 (0x2C)
Идентификатор меню : 1 (0x1)
Формат : MPEG Audio
Версия формата : Version 1
Профиль формата : Layer 2
Идентификатор кодека : 3
Продолжительность : 2 ч. 30 м.
Вид битрейта : Постоянный
Битрейт : 192 Кбит/сек
Каналы : 2 канала
Частота : 48,0 КГц
Метод сжатия : С потерями
Размер потока : 207 Мбайт (2%)
Язык : Russian
Скриншоты:          

_________________

Создавая "Новую папку", не считайте себя Создателем - это право Вам дано Админом


Other forum [Profile] [PM]
Display posts from previous:    
Reply to topic

The time now is: Today 18:02

All times are GMT + 3 Hours



You cannot post new topics in this forum
You cannot reply to topics in this forum
You cannot edit your posts in this forum
You cannot delete your posts in this forum
You cannot vote in polls in this forum
You cannot attach files in this forum
You cannot download files in this forum