Today is a free download without charge Download

Олимпийские игры 2014. Хоккей. Хоккей. Мужчины. Группа С. Чехия - Швеция (2014.02.12) HDTV [1080i]

Reply to topic
 
Author
Message

Varius ®

Gender:

Longevity: 9 years 4 months

Posts: 2407

Location: Hell

Торрент-статистика

Post 13-Feb-2014 21:01

[Quote]

Олимпийские игры 2014. Хоккей. Хоккей. Мужчины. Группа С. Чехия - Швеция (2014.02.12) HDTV [1080i]- Телекомпания: НТВ+ СпортХит HD
Дата выпуска: 2014.02.12
Жанр: Спорт, Видовой
Комментаторы: Денис Казанский и Борис Майоров
Описание:
Звенит в ушах лихая музыка атаки,
Точней отдай на клюшку пас, сильней ударь.
И все в порядке, если только на площадке
Великолепная пятерка и вратарь.
Суровый бой ведет ледовая дружина,
Мы верим мужеству отчаянных парней.
В хоккей играют настоящие мужчины,
Трус не играет в хоккей.
Варяги или братья-славяне? Смогут ли старики-разбойники Ягр и Недвед доказать жёлто-синим, что есть ещё порох в пороховницах? Или же викинги докажут, что без Доминатора чешские ворота - просто большая дырка?
Продолжительность: 01:53:07
Качество видео: HDTV
Видеокодек: AVC
Битрейт видео: ~15300 Kb/s
Размер кадра: 1920x1080i
Аудиокодек: MP2 2.0
Битрейт аудио: 192 kb/s

MediaInfo:

General
ID : 1 (0x1)
Complete name : F:\Multimedia\Video\Sochi\XXII Зимние Олимпийские игры. Сочи. 12.02.2014. Хоккей. Мужчины. Группа С. 1-й тур. Чехия-Швеция. НТВ+ СпортХит. HDTV. 1080i.ts
Format : MPEG-TS
File size : 12.8 GiB
Duration : 1h 53mn
Overall bit rate : 16.3 Mbps
Video
ID : 301 (0x12D)
Menu ID : 1 (0x1)
Format : AVC
Format/Info : Advanced Video Codec
Format profile : [url=mailto:High@L4.0]High@L4.0[/url]
Format settings, CABAC : Yes
Format settings, ReFrames : 3 frames
Codec ID : 27
Duration : 1h 53mn
Bit rate : 15.3 Mbps
Width : 1 920 pixels
Height : 1 080 pixels
Display aspect ratio : 16:9
Frame rate : 25.000 fps
Standard : Component
Color space : YUV
Chroma subsampling : 4:2:0
Bit depth : 8 bits
Scan type : Interlaced
Scan order : Top Field First
Bits/(Pixel*Frame) : 0.294
Stream size : 12.1 GiB (94%)
Color primaries : BT.709-5, BT.1361, IEC 61966-2-4, SMPTE RP177
Transfer characteristics : BT.709-5, BT.1361
Matrix coefficients : BT.709-5, BT.1361, IEC 61966-2-4 709, SMPTE RP177
Audio
ID : 401 (0x191)
Menu ID : 1 (0x1)
Format : MPEG Audio
Format version : Version 1
Format profile : Layer 2
Codec ID : 3
Duration : 1h 53mn
Bit rate mode : Constant
Bit rate : 192 Kbps
Channel(s) : 2 channels
Sampling rate : 48.0 KHz
Compression mode : Lossy
Stream size : 155 MiB (1%)
Language : Russian
Стартовые составы:
   

Официальные результаты:

 
Полная статистика на сайте Игр
Скриншоты:
     
     
Время раздачи: 24/7

_________________

Создавая "Новую папку", не считайте себя Создателем - это право Вам дано Админом


Other forum [Profile] [PM]
Display posts from previous:    
Reply to topic

The time now is: Today 19:59

All times are GMT + 3 Hours



You cannot post new topics in this forum
You cannot reply to topics in this forum
You cannot edit your posts in this forum
You cannot delete your posts in this forum
You cannot vote in polls in this forum
You cannot attach files in this forum
You cannot download files in this forum