Today is a free download without charge Download

Олимпийские игры 2014. Церемония открытия(Спорт)(Первый канал.2014.02.07) HDTVRip

Reply to topic
 
Author
Message

KirovSOFT ®

Gender:

Longevity: 7 years 4 months

Posts: 998

Location: Кировская область -Оричи

Торрент-статистика

Post 08-Feb-2014 13:51

[Quote]

Олимпийские игры 2014. Церемония открытия - Режиссер / Телекомпания: НТВ+ Спорт HD
Год выпуска: 2014
Жанр: Спорт
Описание:
07.02.2014, Сочи 20:14:27 В Сочи проходит церемония открытия зимних Олимпийских игр. Она началась ровно в 20:14 по московскому времени, что символизирует год проведения первых в истории России зимних Игр. Церемония проходит на Олимпийском стадионе "Фишт" и продлится около 3-х часов.
Театрализованная часть церемонии представит основные этапы исторического развития России - от зарождения государственности до современности. Всего в массовых постановочных сценах церемонии открытия, включая танцевальные, балетные, акробатические и цирковые номера, примут участие более 3 тыс. учащихся высших и средних учебных заведений, а также молодых талантов из профессиональных творческих коллективов. Помогать в организации церемоний на площадках, за кулисами и на территории Олимпийского парка будут 2000 волонтеров "Сочи 2014".
В начале церемонии открытия будет показано несколько ярких видеофрагментов о России. После этого президент РФ Владимир Путин приветствует зрителей церемонии, и под звуки российского гимна состоится поднятие флага страны-хозяйки Игр-2014. Впервые в истории церемоний Олимпийских игр изменен традиционный проход атлетов во время парада наций. Спортсмены будут подниматься на сцену по специальной 48-метровой рампе, расположенной в центре стадиона. В параде наций примут участие представители 88 делегаций. Для зимних Игр число участников парада приближается к числу исполнителей и превысит 3 тыс. человек. Всего для участников шоу сшито более 6 тыс. костюмов. После официальных речей президента Оргкомитета "Сочи 2014" Дмитрия Чернышенко и президента Международного Олимпийского комитета Томаса Баха, президент России Владимир Путин объявит XXII Олимпийские зимние игры открытыми. Во время исполнения Олимпийского гимна на стадионе будет поднят Олимпийских флаг. По традиции, церемония открытия завершится зажжением чаши Олимпийского огня. Огонь XXII Олимпийских зимних игр 2014г. будет зажжен с помощью факела, побывавшего в космосе. Церемонию Открытия увенчает масштабный фейерверк из 3 500 залпов.
Всего для реализации проведения церемонии открытия XXII Олимпийских зимних игр 2014 задействовано более 12 тыс. человек.
Эта Олимпиада богата на сенсации. Так, впервые зимняя Олимпиада проводится в субтропиках. Впервые в истории на зимней Олимпиаде выступят спортсмены из 88 стран, причем ее участниками впервые станут спортсмены из Зимбабве и Парагвая. Спортсмены выступят в 15 видах спорта, всего будет разыграно 98 комплектов медалей. Это самая дорогая Олимпиада за всю историю проведения Олимпийских игр. Затраты на ее проведение превысили 50 млрд долл., что превысило изначальный бюджет в 12 млрд долл.
Участники: В.В. Путин, А.М. Кабаева, В.Ф. Янукович, А.Г. Лукашенко, Н.А. Назарбаев, Р.А. Абрамович, Н.С. Михалков, С.В. Безруков, герои летнего и зимнего спорта
Ведущие: Анна Дмитриева и Денис Косинов, не занимают всё время своим трёпом
Продолжительность: 02:50:23
Качество видео: HDTVRip
Видеокодек: Xvid
Битрейт видео: ~329 Kb/s
Размер кадра: 704 x 400 (1.76:1)
Аудиокодек: MP3, 2 ch
Битрейт аудио: 128 kb/s

MediaInfo

General
Complete name : F:\Multimedia\Video\Sochi\Церемония открытия XXII Зимних Олимпийских Игр 2014 в Сочи. НТВ HD Спорт. HDTVRip.avi
Format : AVI
Format/Info : Audio Video Interleave
Format profile : OpenDML
File size : 2.43 GiB
Duration : 2h 50mn
Overall bit rate : 2 040 Kbps
Writing application : XviD4PSP 6.0 / 54.29.105
Video
ID : 1
Format : MPEG-4 Visual
Codec ID : XVID
Codec ID/Hint : XviD
Duration : 2h 50mn
Bit rate : 329 Kbps
Width : 704 pixels
Height : 400 pixels
Display aspect ratio : 16:9
Frame rate : 25.000 fps
Color space : YUV
Chroma subsampling : 4:2:0
Compression mode : Lossy
Bits/(Pixel*Frame) : 0.047
Stream size : 401 MiB (16%)
Audio
ID : 0
Format : MPEG Audio
Format version : Version 1
Format profile : Layer 3
Mode : Joint stereo
Mode extension : MS Stereo
Codec ID : 55
Codec ID/Hint : MP3
Duration : 2h 50mn
Bit rate mode : Constant
Bit rate : 128 Kbps
Channel(s) : 2 channels
Sampling rate : 48.0 KHz
Compression mode : Lossy
Stream size : 32.8 MiB (1%)
Alignment : Aligned on interleaves
Interleave, duration : 40 ms (1.00 video frame)
Writing library : LAME3.99.4
Скриншоты:
       
       
       

_________________
Other forum [Profile] [PM]
Display posts from previous:    
Reply to topic

The time now is: Today 09:58

All times are GMT + 3 Hours



You cannot post new topics in this forum
You cannot reply to topics in this forum
You cannot edit your posts in this forum
You cannot delete your posts in this forum
You cannot vote in polls in this forum
You cannot attach files in this forum
You cannot download files in this forum