Today is a free download without charge Download

Dragon Ball GT / Dragonball GT / Драгонболл ГТ [1996, TV, 64 + sp] DVDRip 540p Raw

Reply to topic
 
Author
Message

UndegraundMen ®

Longevity: 6 years 6 months

Posts: 25145

Торрент-статистика

Post 23-Dec-2013 23:00

[Quote]

Dragon Ball GT / Dragonball GT / Драгонболл ГТ- Жанр: приключения, комедия, фэнтези, сёнэн
Тип: TV-сериал
Количество серий: 64 + спешел
Продолжительность: 25 мин.
Качество видео: DVDRip
Дата премьеры / период выхода: c 07.02.1996 по 19.11.1997
Производство/студия: Toei Animation
Автор оригинала: Торияма Акира
Режиссер: Касай Осаму
Битрейт видео: ~1141 Кбит/сек
Размер кадра: 720x540
Аудио: AAC2 137 Кбит/сек
Звук: Японский
Тип субтитров: Raw



Описание:
Третий сезон.
Кануло немало лет после эпических событий прошлого сезона и вот наш герой, чуточку постарел, стал дедушкой, казалось пора уже на покой, но старый враг не дремлет.
Из-за ошибки в желании Пилафа Сон Гоку вновь стал маленьким. Казалось бы, куда уж хуже, но не тут то было- на сей раз “Драконий жемчуг” разлетелся по всей галактике. Мало того, если он в течении года вновь не будут собран, то земля погибнет. И так, наших героев ждет незабываемое приключение. Сон Гоку снова подтвердит, что звание сильнейшего во вселенной- не пустой звук...

Эпизоды:

01. The mysterious Dragon balls appear!! Son Goku becomes a child!?
02. I am the Leader! Pan Flies into Space!!
03. The Ultimate Moneygrubbers!! Imegga, Planet of Merchants
04. Wanted!! Goku is a criminal!?
05. See, the Strong Guy!! The Bodyguard Rejjik
06. It hurts, eh!? Goku the dentist
07. Beloved Honey!? The Betrothed is Trunks
08. Son Goku also Thunders!! The Whiskers` Power is at Full
09. Damn!! Goku Leaps into the Trap Planet!?
10. Dance Attack!? Boom-shakalaka!!
11. The Curse of Ruudo!? Pan turns into a Doll
12. The Oracle of God is REALLY Troublesome!! Soldier Ruudo
13. This is Father and Son? The Riddle of Scientist Myuu
14. Can We Get the Rhythm Down Perfectly!? Capture Ruudo!!
15. "I Can`t Take Anymore!!" Pan Runs Away!?
16. Machine Planet M2... Gill the Backstabber!?
17. Waiting for Pan!! The Tactical Strike to Rescue Son Goku!!
18. Yo, Some Data is Missing!! Son Goku`s Ultimate True Determination
19. Set Out and Attack!! The Mighty Mutant Rirudo
20. Surprise!! Goku`s Attacked By a Metal Storm
21. What is this!! Goku is Turned to Metal
22. Violent Ambition!! Birth of the Evil `Bebi`
23. A Hidden Crisis? A Spacewrecked and Mysterious Boy
24. Bebi`s Counterattack!! Target the Saiya-jin!!
25. Oh no!! Bebi Has Appeared on Earth
26. Gohan and Goten... The Worst Brotherly Spat!?
27. Ambition Achieved!? Vejita Possessed
28. Goku Returns... "All of Earth is My Enemy!?"
29. This is Really Bad!? Supper Saiya-jin 3 Fails!!
30. Goku Has Passed On!? "I`m Dead"
31. What the...!? The Sky of Suguro-ku Studio is Collapsing
32. Goku Returns!! Angry Fighter Uubu
33. Eat This, Bebi! New Uubu`s Killing Light Ray!!
34. The Transformation Fails? Giant Ape Goku`s Rampage
35. Final Strength! Goku Becomes Super Saiya-jin 4!!
36. Immortal Monster!? Atrocious Giant Monkey Bebi
37. Bebi and Goku -- Double KO!!
38. From Everyone`s Power... The Revival of Super Goku 4
39. This is How it Ends! At Last, Bebi`s Extinction
40. Earth Explodes!! Piccolo`s Serious Determination
41. Tenkai-Ichi Budoukai.Who Will Be Satans Successor?
41,5 Спешел Наследство героя
42. Die, Son Goku!! The Revived Strong Enemies Escape From Hell
43. Hell`s Devil Fighters!! The Revival of Cell and Freezer
44. The Ultimate Android! The Two #17s Unite
45. Hurry, Goku!! The Plan to Escape From Hell
46. Crash!! SSJ4 vs Super #17
47. The Big Reversal! Son Goku`s and #18`s 2-Step Attack Explosion
48. This is a Surprise! Shenron is the Enemy?!
49. The Strongest Enemy!? The Fear of the Underhanded-Trick Using Dragon
50. Saiya-jin Power Dies in Honorable Defeat!? Electrical Fighter Uu Shinlon
51. Ryuu Shinlon! Looking for the Big Tornado Attack`s Weak Point
52. Pan, Look Out! To be Possessed by Chii-Shenron
53. Pan Dies!? The Tears of 10x`s Kamehame-ha
54. 6000 Degree Celsius Power! The Fighter of the Sun
55. Bulma Begins Working on Vejita`s Makeover Plan!
56. After the Sun, Comes the Freeze! The Fire and Ice
57. The Overwhelmingly Strong Enemy!! The Ruling Evil
58. Counterattack Returned! Super 4 is Surpassed
59. Friend? Foe?... Were-monkey Vejita on the Rampage
60. Fu--sion!! The Ultimate Super Gojita
61. I WILL Win!! Goku Swallows the #4 Dragonball
62. To the Rescue!! Goku`s Final Assistant Appears
63. The Miracle Turnaround Victory!! Son Goku Pleads with the Galaxy for Help
64. Goodbye, Goku... Till the Day We Meet Again
Дополнительная информация:
Отличия от имеющихся в рунете релизов: рип с большим размером картинки.

mediainfo на 1 серию

Код:
Общее
Полное имя                               : E:\3Dragon_Ball_GT\GT01 (720x540 x264 AAC2).mp4
Формат                                   : MPEG-4
Профиль формата                          : Base Media
Идентификатор кодека                     : isom
Размер файла                             : 201 Мбайт
Продолжительность                        : 24 м.
Режим общего битрейта                    : Переменный
Общий поток                              : 1141 Кбит/сек
Дата кодирования                         : UTC 2010-07-29 08:31:02
Дата пометки                             : UTC 2010-07-29 08:31:02
Программа кодирования                    : Yamb 2.1.0.0 [http://yamb.unite-video.com]
Видео
Идентификатор                            : 1
Формат                                   : AVC
Формат/Информация                        : Advanced Video Codec
Профиль формата                          : [url=mailto:High@L4.1]High@L4.1[/url]
Параметр CABAC формата                   : Да
Параметр ReFrames формата                : 6 кадров
Идентификатор кодека                     : avc1
Идентификатор кодека/Информация          : Advanced Video Coding
Продолжительность                        : 24 м.
Продолжительность оригинала              : 24 м.
Битрейт                                  : 1000 Кбит/сек
Максимальный битрейт                     : 3249 Кбит/сек
Ширина                                   : 720 пикселей
Высота                                   : 540 пикселей
Соотношение сторон                       : 4:3
Режим частоты кадров                     : Постоянный
Частота кадров                           : 23,976 кадра/сек
Цветовое пространство                    : YUV
Субдискретизация насыщенности            : 4:2:0
Битовая глубина                          : 8 бит
Тип развёртки                            : Прогрессивная
Бит/(Пиксели*Кадры)                      : 0.107
Размер потока                            : 176 Мбайт (88%)
Размер потока оригинала                  : 176 Мбайт (88%)
Библиотека кодирования                   : x264 core 88 r1471 1144615
Настройки программы                      : cabac=1 / ref=6 / deblock=1:1:1 / analyse=0x3:0x113 / me=hex / subme=7 / psy=1 / psy_rd=0.40:0.00 / mixed_ref=1 / me_range=16 / chroma_me=1 / trellis=1 / 8x8dct=1 / cqm=0 / deadzone=21,11 / fast_pskip=1 / chroma_qp_offset=-2 / threads=12 / sliced_threads=0 / nr=0 / decimate=1 / mbaff=0 / constrained_intra=0 / bframes=5 / b_pyramid=0 / b_adapt=1 / b_bias=0 / direct=1 / wpredb=1 / wpredp=2 / keyint=250 / keyint_min=25 / scenecut=40 / intra_refresh=0 / rc_lookahead=40 / rc=2pass / mbtree=1 / bitrate=1000 / ratetol=1.0 / qcomp=0.60 / qpmin=10 / qpmax=51 / qpstep=4 / cplxblur=20.0 / qblur=0.5 / vbv_maxrate=31250 / vbv_bufsize=31250 / ip_ratio=1.40 / aq=1:0.60
Дата кодирования                         : UTC 2010-07-29 08:03:07
Дата пометки                             : UTC 2010-07-29 08:31:27
Аудио
Идентификатор                            : 2
Формат                                   : AAC
Формат/Информация                        : Advanced Audio Codec
Профиль формата                          : LC
Идентификатор кодека                     : 40
Продолжительность                        : 24 м.
Вид битрейта                             : Переменный
Битрейт                                  : 137 Кбит/сек
Максимальный битрейт                     : 230 Кбит/сек
Каналы                                   : 2 канала
Расположение каналов                     : Front: L R
Частота                                  : 48,0 КГц
Метод сжатия                             : С потерями
Размер потока                            : 24,2 Мбайт (12%)
Дата кодирования                         : UTC 2010-07-29 08:31:25
Дата пометки                             : UTC 2010-07-29 08:31:27
Скриншоты: Время раздачи: 24/7 (круглосуточно), ширина канала 10мб (08.00-01.00), 20мб (01.00-08.00)
Other forum [Profile] [PM]
Display posts from previous:    
Reply to topic

The time now is: Today 13:11

All times are GMT + 3 Hours



You cannot post new topics in this forum
You cannot reply to topics in this forum
You cannot edit your posts in this forum
You cannot delete your posts in this forum
You cannot vote in polls in this forum
You cannot attach files in this forum
You cannot download files in this forum