Сегодня идет свободное скачивание без начисления Download

VA - Mimetic Collective - One By One (2006) [FLAC|Lossless]<IDM, Ambient, Rhythmic Noise>

Ответить на тему
 
Автор
Сообщение

UndegraundMen ®

Стаж: 5 лет 9 месяцев

Сообщений: 25860

Торрент-статистика

Пост 17-Май-2013 00:04

[Цитировать]

Mimetic Collective - One By One- Жанр: IDM, Ambient, Rhythmic Noise
Страна: Switzerland
Год издания: 2006
Лейбл: Urgence Disk Records
Номер по каталогу: Kab 047
Аудиокодек: FLAC (*.flac)
Тип рипа: tracks+.cue
Битрейт аудио: lossless
Продолжительность: 01:13:59
Трек лист:
01. Monstrum Sepsis - Mimetic Monstrum Sepsis (6:08)
02. L'Ombre - Mimetic L'Ombre (5:08)
03. Sayari - Mimetic Sayari (6:11)
04. Column One - Mimetic Column One (5:17)
05. Iszoloscope - Mimetic Iszoloscope (5:00)
06. Ah Cama-Sotz - Mimetic Ah Cama-Sotz (3:55)
07. Von Magnet - Mimetic Von Magnet (4:22)
08. Ab Ovo - Mimetic Ab Ovo (5:21)
09. Dither - Mimetic Dither (4:51)
10. Kaltesglas - Mimetic Kaltesglas (4:10)
11. Caustic - Mimetic Caustic (4:09)
12. Zonk't - Mimetic Zonk't (7:08)
13. Sonar - Mimetic Sonar (4:18)
14. Suicide Inside - Mimetic Suicide Inside (4:53)
15. Art Mode - Mimetic Art Mode (3:07)

Отчёт ЕАС&#58;

Код:
Exact Audio Copy V0.99 prebeta 4 from 23. January 2008
EAC extraction logfile from 19. December 2008, 12:01
Mimetic Collective / One By One
Used drive  : _NEC    DVD+-RW ND-6650A   Adapter: 2  ID: 0
Read mode               : Secure
Utilize accurate stream : Yes
Defeat audio cache      : Yes
Make use of C2 pointers : No
Read offset correction                      : 48
Overread into Lead-In and Lead-Out          : No
Fill up missing offset samples with silence : Yes
Delete leading and trailing silent blocks   : No
Null samples used in CRC calculations       : Yes
Used interface                              : Installed external ASPI interface
Gap handling                                : Appended to previous track
Used output format              : User Defined Encoder
Selected bitrate                : 1024 kBit/s
Quality                         : High
Add ID3 tag                     : No
Command line compressor         : C:\Program Files\Exact Audio Copy2\Flac\flac.exe
Additional command line options : -8 -V -T "ARTIST=%a" -T "TITLE=%t" -T "ALBUM=%g" -T "DATE=%y" -T "TRACKNUMBER=%n" -T "GENRE=%m" -T "COMMENT=%e" %s -o %d
TOC of the extracted CD
     Track |   Start  |  Length  | Start sector | End sector
    ---------------------------------------------------------
        1  |  0:00.00 |  6:08.24 |         0    |    27623
        2  |  6:08.24 |  5:08.07 |     27624    |    50730
        3  | 11:16.31 |  6:10.39 |     50731    |    78519
        4  | 17:26.70 |  5:16.71 |     78520    |   102290
        5  | 22:43.66 |  5:00.03 |    102291    |   124793
        6  | 27:43.69 |  3:54.39 |    124794    |   142382
        7  | 31:38.33 |  4:21.60 |    142383    |   162017
        8  | 36:00.18 |  5:21.34 |    162018    |   186126
        9  | 41:21.52 |  4:50.62 |    186127    |   207938
       10  | 46:12.39 |  4:10.33 |    207939    |   226721
       11  | 50:22.72 |  4:09.37 |    226722    |   245433
       12  | 54:32.34 |  7:08.26 |    245434    |   277559
       13  | 61:40.60 |  4:17.44 |    277560    |   296878
       14  | 65:58.29 |  4:53.00 |    296879    |   318853
       15  | 70:51.29 |  3:07.37 |    318854    |   332915
Track  1
     Filename C:\EAC\01-Mimetic Monstrum Sepsis.wav
     Pre-gap length  0:00:02.00
     Peak level 95.5 %
     Track quality 100.0 %
     Test CRC 4B590260
     Copy CRC 4B590260
     Copy OK
Track  2
     Filename C:\EAC\02-Mimetic L'Ombre.wav
     Peak level 94.8 %
     Track quality 100.0 %
     Test CRC E3954C70
     Copy CRC E3954C70
     Copy OK
Track  3
     Filename C:\EAC\03-Mimetic Sayari.wav
     Peak level 95.5 %
     Track quality 100.0 %
     Test CRC 882E3E3D
     Copy CRC 882E3E3D
     Copy OK
Track  4
     Filename C:\EAC\04-Mimetic Column One.wav
     Peak level 95.5 %
     Track quality 100.0 %
     Test CRC CCB31FF5
     Copy CRC CCB31FF5
     Copy OK
Track  5
     Filename C:\EAC\05-Mimetic Iszoloscope.wav
     Peak level 94.8 %
     Track quality 100.0 %
     Test CRC 3478406B
     Copy CRC 3478406B
     Copy OK
Track  6
     Filename C:\EAC\06-Mimetic Ah Cama-Sotz.wav
     Peak level 93.5 %
     Track quality 100.0 %
     Test CRC 57190F47
     Copy CRC 57190F47
     Copy OK
Track  7
     Filename C:\EAC\07-Mimetic Von Magnet.wav
     Peak level 85.8 %
     Track quality 100.0 %
     Test CRC 98C08A10
     Copy CRC 98C08A10
     Copy OK
Track  8
     Filename C:\EAC\08-Mimetic Ab Ovo.wav
     Peak level 95.5 %
     Track quality 100.0 %
     Test CRC FAA0F128
     Copy CRC FAA0F128
     Copy OK
Track  9
     Filename C:\EAC\09-Mimetic Dither.wav
     Peak level 95.5 %
     Track quality 100.0 %
     Test CRC D800D3B5
     Copy CRC D800D3B5
     Copy OK
Track 10
     Filename C:\EAC\10-Mimetic Kaltesglas.wav
     Peak level 95.5 %
     Track quality 100.0 %
     Test CRC 69420740
     Copy CRC 69420740
     Copy OK
Track 11
     Filename C:\EAC\11-Mimetic Caustic.wav
     Peak level 95.3 %
     Track quality 100.0 %
     Test CRC 60ADE36F
     Copy CRC 60ADE36F
     Copy OK
Track 12
     Filename C:\EAC\12-Mimetic Zonk't.wav
     Peak level 95.5 %
     Track quality 99.9 %
     Test CRC 82514872
     Copy CRC 82514872
     Copy OK
Track 13
     Filename C:\EAC\13-Mimetic Sonar.wav
     Peak level 94.3 %
     Track quality 100.0 %
     Test CRC 60A13D1D
     Copy CRC 60A13D1D
     Copy OK
Track 14
     Filename C:\EAC\14-Mimetic Suicide Inside.wav
     Peak level 95.5 %
     Track quality 100.0 %
     Test CRC 0EE587FA
     Copy CRC 0EE587FA
     Copy OK
Track 15
     Filename C:\EAC\15-Mimetic Art Mode.wav
     Peak level 87.0 %
     Track quality 100.0 %
     Test CRC A07A02D2
     Copy CRC A07A02D2
     Copy OK
No errors occurred
End of status report

Отчёт auCDtect Task manager&#58;

Код:
-----------------------
DON'T MODIFY THIS FILE
-----------------------
PERFORMER: auCDtect Task Manager, ver. 1.5.1RC6 build 1.5.1.7
Copyright (c) 2008-2010 y-soft. All rights reserved
http://y-soft.org
ANALYZER: auCDtect: CD records authenticity detector, version 0.8.2
Copyright (c) 2004 Oleg Berngardt. All rights reserved.
Copyright (c) 2004 Alexander Djourik. All rights reserved.
FILE: 15-Mimetic Art Mode.flac
  Size: 11944646 Hash: 7862746B3566FC5BD5B7C37105699013 Accuracy: -m0
  Conclusion: CDDA 100%
  Signature: 9016621C507DEA8D87CC6F44263080304FDB3B4A
FILE: 14-Mimetic Suicide Inside.flac
  Size: 38132369 Hash: 9C53658A914762B2E9076653EEE0BD69 Accuracy: -m0
  Conclusion: CDDA 99%
  Signature: 62C7C93A05867C39E699655F554D471F6F4ECEFF
FILE: 13-Mimetic Sonar.flac
  Size: 32333075 Hash: B631FE868338F88EF7C93BB3373D6D40 Accuracy: -m0
  Conclusion: CDDA 100%
  Signature: AA16A99CBFCD8C9F0A7651B9B189FAFA47448CBB
FILE: 12-Mimetic Zonk't.flac
  Size: 45799567 Hash: 70BA0C2A79DB3A99C22FEE57A92489B9 Accuracy: -m0
  Conclusion: CDDA 99%
  Signature: 754AE6D104487CEDB3BA188E923E003D0247328A
FILE: 11-Mimetic Caustic.flac
  Size: 33335124 Hash: 15DDFE061680887F232DF69859EC7D96 Accuracy: -m0
  Conclusion: CDDA 100%
  Signature: A5D74F0E90A83B67F7006347A26A7D4C22E30676
FILE: 10-Mimetic Kaltesglas.flac
  Size: 29109889 Hash: 8729A02EB77084D54CFD59894FD7A287 Accuracy: -m0
  Conclusion: CDDA 100%
  Signature: 8DFACB909A6C56A9DC4A4532E299132B9A3D482B
FILE: 09-Mimetic Dither.flac
  Size: 26246430 Hash: 94CB0AC60CBB92EAB83E6548CE3FA2A0 Accuracy: -m0
  Conclusion: CDDA 100%
  Signature: 5E697C3B315104775724197B652F8B9EEA892DD3
FILE: 08-Mimetic Ab Ovo.flac
  Size: 35545662 Hash: FA13D9D6C18B2F59B529F199604D8842 Accuracy: -m0
  Conclusion: CDDA 100%
  Signature: 2DEA77A606AAC76FFFDC3FCA7E98FF58F180A45F
FILE: 07-Mimetic Von Magnet.flac
  Size: 30583083 Hash: 037C8A9CBA49D8C5DBE72E74E16DCE02 Accuracy: -m0
  Conclusion: CDDA 99%
  Signature: 427C455D8301C721C64172A96E49C05E220B5445
FILE: 06-Mimetic Ah Cama-Sotz.flac
  Size: 27016444 Hash: B1BB4CD1A54C0A660DDE37D70F0C5337 Accuracy: -m0
  Conclusion: CDDA 100%
  Signature: 2E4CD145CC39688E2A9A95EB4BB9BD09D550E67E
FILE: 05-Mimetic Iszoloscope.flac
  Size: 36963561 Hash: 97A8A3188E696CACAF1C14270EE499B4 Accuracy: -m0
  Conclusion: CDDA 99%
  Signature: F28891D40A372DC895AD82128953F1CD0A2C8C2B
FILE: 04-Mimetic Column One.flac
  Size: 36863093 Hash: AEE023692794B69E4BFA735C223AFCCD Accuracy: -m0
  Conclusion: CDDA 100%
  Signature: 284D350F5588E0CF290778132B0E0B5CA729A836
FILE: 03-Mimetic Sayari.flac
  Size: 37299343 Hash: CEE8B7792E03D2715BBF809BF713AFC1 Accuracy: -m0
  Conclusion: CDDA 100%
  Signature: FB8AB5E730A073C6559B66FC7D62A69B9DFAE4A5
FILE: 02-Mimetic L'Ombre.flac
  Size: 33680363 Hash: 335C74A208ECFB0A714F110DD32A7E04 Accuracy: -m0
  Conclusion: CDDA 100%
  Signature: A0B728200A6CA80F45A000E16312FAFEAE99CCD3
FILE: 01-Mimetic Monstrum Sepsis.flac
  Size: 38924160 Hash: ED4FD84C72604D91EE50DECF5C76566F Accuracy: -m0
  Conclusion: CDDA 100%
  Signature: 3489FA053439556601100637D61C4829F444034D
Время раздачи: 12/7
Вне форума [Профиль] [ЛС]

Dracula

Стаж: 5 лет 1 месяц

Сообщений: 12358

Торрент-статистика

Пост 17-Май-2013 11:19 (спустя 11 часов)

Топик был перенесен из форума Учебники, справочники, энциклопедии и словари в форум Drum & Bass, Jungle, Breakbeat, Dubstep, IDM


kogesan
 
Показать сообщения:    
Ответить на тему

Текущее время: Сегодня 08:41

Часовой пояс: GMT + 3



Вы не можете начинать темы
Вы не можете отвечать на сообщения
Вы не можете редактировать свои сообщения
Вы не можете удалять свои сообщения
Вы не можете голосовать в опросах
Вы не можете прикреплять файлы к сообщениям
Вы не можете скачивать файлы