Сегодня идет свободное скачивание без начисления Download

Результатов поиска: 500

Автор Сообщение

Theseus

Пост 10-Сен-2017 23:47

[Цитировать]

Город тьмы / Темный город / Dark City
Режиссерская версия / Director's cut
Год выхода: 1998
Страна: Австралия, США
Жанр: фантастика, фэнтези, боевик, триллер
Продолжительность: 01:51:43
Перевод: Профессиональный (многоголосый закадровый) | Киномания
Субтитры: Русские , Английские
Режиссер: Алекс Пройас-В ролях: Руфус Сьюэлл, Уильям Хёрт, Кифер Сазерленд, Дженнифер Коннелли, Ричард О’Брайэн, Иэн Ричардсон, Брюс Спенс, Колин Фрилз, Джон Блузал, Митчел Бутел-О фильме: Убийцу, не помнящего своего имени и прошлого, преследует полицейский инспектор Фрэнк Бастед. Его ищет жена Эмма, за ним охотятся чужаки, а он по обрывкам воспоминаний пытается разобраться в том, что происходит.- -Качество: BDRip 1080p
Формат: MKV
Видео кодек: x.264
Аудио кодек: AC3/DTS
Видео: AVC, 1920x812 (2.35:1), 23.976 fps, 8221Kbps
Аудио #1: AC-3, 48.0 KHz, 6 ch, 448 Kbps, CBR (Russian)
Аудио #2: DTS, 48.0 KHz, 6 ch, 1536 Kbps, CBR (English)-

Трейлер

-     - - -

Theseus

Пост 10-Сен-2017 23:46

[Цитировать]

Город тьмы / Темный город / Dark City
Режиссерская версия / Director's cut
Год выхода: 1998
Страна: Австралия, США
Жанр: фантастика, фэнтези, боевик, триллер
Продолжительность: 01:51:43
Перевод: Профессиональный (многоголосый закадровый) | Киномания
Субтитры: Русские , Английские
Режиссер: Алекс Пройас-В ролях: Руфус Сьюэлл, Уильям Хёрт, Кифер Сазерленд, Дженнифер Коннелли, Ричард О’Брайэн, Иэн Ричардсон, Брюс Спенс, Колин Фрилз, Джон Блузал, Митчел Бутел-О фильме: Убийцу, не помнящего своего имени и прошлого, преследует полицейский инспектор Фрэнк Бастед. Его ищет жена Эмма, за ним охотятся чужаки, а он по обрывкам воспоминаний пытается разобраться в том, что происходит.- -Качество: BDRip 720p
Формат: MKV
Видео кодек: x.264
Аудио кодек: AC3/DTS
Видео: AVC, 1280x544 (2.35:1), 23.976 fps, 4 397 Kbps (0.263 bit/pixel)
Аудио #1: AC-3, 48.0 KHz, 6 ch, 448 Kbps, CBR (Russian)
Аудио #2: DTS, 48.0 KHz, 6 ch, 755 Kbps, CBR (English)-

Трейлер

-     - - -

Theseus

Пост 23-Мар-2017 23:59

[Цитировать]

Изгой-один: Звёздные войны. Истории / Rogue One: A Star Wars Story-
Год выпуска: 2016
Страна: США
Жанр: фантастика, боевик, приключения
Продолжительность: 02:13:57
Перевод: Профессиональный (полное дублирование) [iTunes]
Режиссер: Гарет Эдвардс-В ролях: Фелисити Джонс, Диего Луна, Алан Тьюдик, Донни Йен, Цзян Вэнь, Бен Мендельсон, Форест Уитакер, Риз Ахмед, Мадс Миккельсен, Джимми Смитс-Описание: Сопротивление собирает отряд для выполнения особой миссии — надо выкрасть чертежи самого совершенного и смертоносного оружия Империи. Возглавляет бойцов неуправляемая и бесстрашная Джин Эрсо, у которой в этом самоубийственном задании есть и личные мотивы. Не всем суждено вернуться домой, но герои готовы к этому, ведь на кону судьба Галактики- -Качество: BDRemux
Контейнер: MKV
Видео кодек: H.264
Аудио кодек: AC3/DTS-HD
Видео: MPEG-4 AVC, 1920x1080, 33.8 Mbit/s, 23.976 fps
Аудио 1 RUS: 48 kHz, AC3, 6 ch, 384 kbps
Аудио 2 ENG: 48 kHz, DTS-HD MA, 8 ch, 5135 kbps
Субтитры: Русские, английские
-

MI

General
Unique ID : 178970658147066843048646070257019224832 (0x86A47EB64D6543A1820653167F338300)
Complete name : Rogue.One.2016.BDREMUX.1080p.ExKinoRay.mkv
Format : Matroska
Format version : Version 4 / Version 2
File size : 36.8 GiB
Duration : 2 h 14 min
Overall bit rate mode : Variable
Overall bit rate : 39.3 Mb/s
Encoded date : UTC 2017-03-23 20:13:28
Writing application : mkvmerge v8.3.0 ('Over the Horizon') 64bit
Writing library : libebml v1.3.1 + libmatroska v1.4.2
Cover : Yes
Attachments : cover.jpg
Video
ID : 1
Format : AVC
Format/Info : Advanced Video Codec
Format profile : High@L4.1
Format settings, CABAC : Yes
Format settings, ReFrames : 4 frames
Codec ID : V_MPEG4/ISO/AVC
Duration : 2 h 13 min
Bit rate mode : Variable
Bit rate : 33.8 Mb/s
Maximum bit rate : 35.5 Mb/s
Width : 1 920 pixels
Height : 1 080 pixels
Display aspect ratio : 16:9
Frame rate mode : Constant
Frame rate : 23.976 (24000/1001) FPS
Color space : YUV
Chroma subsampling : 4:2:0
Bit depth : 8 bits
Scan type : Progressive
Bits/(Pixel*Frame) : 0.680
Stream size : 31.6 GiB (86%)
Language : English
Default : Yes
Forced : No
Audio #1
ID : 2
Format : AC-3
Format/Info : Audio Coding 3
Mode extension : CM (complete main)
Format settings, Endianness : Big
Codec ID : A_AC3
Duration : 2 h 14 min
Bit rate mode : Constant
Bit rate : 384 kb/s
Channel(s) : 6 channels
Channel positions : Front: L C R, Side: L R, LFE
Sampling rate : 48.0 kHz
Frame rate : 31.250 FPS (1536 spf)
Bit depth : 16 bits
Compression mode : Lossy
Stream size : 369 MiB (1%)
Title : iTunes
Language : Russian
Default : Yes
Forced : No
Audio #2
ID : 3
Format : DTS
Format/Info : Digital Theater Systems
Format profile : MA / Core
Mode : 16
Format settings, Endianness : Big
Codec ID : A_DTS
Duration : 2 h 13 min
Bit rate mode : Variable / Constant
Bit rate : 5 135 kb/s / 1 509 kb/s
Channel(s) : 8 channels / 6 channels
Channel positions : Front: L C R, Side: L R, Back: L R, LFE / Front: L C R, Side: L R, LFE
Sampling rate : 48.0 kHz
Frame rate : 93.750 FPS (512 spf)
Bit depth : 24 bits
Compression mode : Lossless / Lossy
Stream size : 4.80 GiB (13%)
Title : Original
Language : English
Default : No
Forced : No
Text #1
ID : 4
Format : UTF-8
Codec ID : S_TEXT/UTF8
Codec ID/Info : UTF-8 Plain Text
Duration : 25 min 37 s
Bit rate : 1 b/s
Count of elements : 9
Stream size : 318 Bytes (0%)
Title : Forced
Language : Russian
Default : Yes
Forced : No
Text #2
ID : 5
Format : UTF-8
Codec ID : S_TEXT/UTF8
Codec ID/Info : UTF-8 Plain Text
Duration : 2 h 4 min
Bit rate : 78 b/s
Count of elements : 1507
Stream size : 71.5 KiB (0%)
Title : Full
Language : Russian
Default : No
Forced : No
Text #3
ID : 6
Format : UTF-8
Codec ID : S_TEXT/UTF8
Codec ID/Info : UTF-8 Plain Text
Duration : 2 h 4 min
Bit rate : 46 b/s
Count of elements : 1559
Stream size : 42.0 KiB (0%)
Title : Full
Language : English
Default : No
Forced : No
Text #4
ID : 7
Format : UTF-8
Codec ID : S_TEXT/UTF8
Codec ID/Info : UTF-8 Plain Text
Duration : 2 h 5 min
Bit rate : 52 b/s
Count of elements : 1826
Stream size : 48.6 KiB (0%)
Title : SDH
Language : English
Default : No
Forced : No
Text #5
ID : 8
Format : UTF-8
Codec ID : S_TEXT/UTF8
Codec ID/Info : UTF-8 Plain Text
Duration : 2 h 6 min
Bit rate : 66 b/s
Count of elements : 1804
Stream size : 61.3 KiB (0%)
Title : SDH Colored
Language : English
Default : No
Forced : No
Menu
00:00:00.000 : en:"He's Come For Us"
00:02:34.654 : en:Unfinished Business
00:07:46.466 : en:Jyn in Prison
00:08:42.814 : en:Ring of Kafrene
00:11:04.622 : en:An Urgent Message
00:12:21.199 : en:Wobani Prison Break
00:13:41.154 : en:Rebel Interrogation
00:17:19.914 : en:Mission Departure
00:20:09.542 : en:Saw Gerrera
00:21:54.772 : en:Krennic and Tarkin
00:23:47.092 : en:Jyn's Dream
00:24:31.386 : en:Scouting Jedha City
00:26:53.445 : en:Bor Gullet
00:27:46.623 : en:Guardians of The Whills
00:30:37.294 : en:Holy City Ambush
00:33:53.406 : en:"Let them Pass"
00:37:11.271 : en:Saw's Catacombs
00:42:30.089 : en:Galen's Message
00:47:16.125 : en:Jedha Escape
00:51:04.144 : en:Tarkin Commands
00:52:23.724 : en:Race to Eadu
00:55:53.266 : en:Eadu Crash
00:59:48.251 : en:Scouting Eadu
01:02:07.807 : en:Krennic and Galen
01:05:25.505 : en:Attack on Eadu
01:10:24.095 : en:Eadu Aftermath
01:12:49.532 : en:Mustafar
01:16:28.459 : en:Jyn Before the Council
01:19:04.323 : en:"May the Force Be With Us"
01:21:55.160 : en:Rogue One Launches
01:23:25.667 : en:Scarif Gate
01:25:58.987 : en:10 Men Like 100
01:27:34.958 : en:Imperial Inspection
01:29:57.308 : en:Ground Forces
01:31:53.841 : en:The Battle Begins
01:34:18.736 : en:Scrambling the Rebel Fleet
01:36:07.512 : en:Sowing Confusion
01:37:48.237 : en:Rebel Reinforcements
01:40:27.605 : en:Beach Battle
01:42:44.074 : en:Master Switch
01:45:26.779 : en:Stardust
01:47:55.010 : en:Data Vault
01:50:31.416 : en:Sacrifices
01:53:28.885 : en:"We Have the Plans"
01:55:46.272 : en:Final Confrontation
01:59:23.448 : en:Transmission Received
02:01:11.347 : en:Fire When Ready
02:03:15.596 : en:Hope
02:05:42.118 : en:End Credits

Трейлер

-     - - -

Theseus

Пост 23-Мар-2017 23:14

[Цитировать]

Изгой-один: Звёздные войны. Истории / Rogue One: A Star Wars Story-
Год выпуска: 2016
Страна: США
Жанр: фантастика, боевик, приключения
Продолжительность: 02:13:57
Перевод: Профессиональный (полное дублирование) [iTunes]
Режиссер: Гарет Эдвардс-В ролях: Фелисити Джонс, Диего Луна, Алан Тьюдик, Донни Йен, Цзян Вэнь, Бен Мендельсон, Форест Уитакер, Риз Ахмед, Мадс Миккельсен, Джимми Смитс-Описание: Сопротивление собирает отряд для выполнения особой миссии — надо выкрасть чертежи самого совершенного и смертоносного оружия Империи. Возглавляет бойцов неуправляемая и бесстрашная Джин Эрсо, у которой в этом самоубийственном задании есть и личные мотивы. Не всем суждено вернуться домой, но герои готовы к этому, ведь на кону судьба Галактики- -Качество: BDRip 1080p
Формат: MKV
Видео кодек: x.264
Аудио кодек: AC3/DTS
Видео: MPEG-4 AVC, 1920x804, 21.0 Mbps, 23.976 fps
Аудио 1 RUS: 48 kHz, AC3, 6 ch, 384 kbps
Аудио 2 ENG: 48 kHz, DTS, 6 ch, 1509 kbps
Субтитры: Русские, английские
-

MI

General
Unique ID : 250449027985795932231018883042266243275 (0xBC6ABA6EDB890CD6AE0780ABCF4AE0CB)
Complete name : Rogue.One.2016.BDRip.1080p.ExKinoRay.mkv
Format : Matroska
Format version : Version 4 / Version 2
File size : 21.4 GiB
Duration : 2 h 14 min
Overall bit rate : 22.9 Mb/s
Encoded date : UTC 2017-03-23 19:19:13
Writing application : mkvmerge v8.3.0 ('Over the Horizon') 64bit
Writing library : libebml v1.3.1 + libmatroska v1.4.2
Cover : Yes
Attachments : cover.jpg
Video
ID : 1
Format : AVC
Format/Info : Advanced Video Codec
Format profile : High@L4.1
Format settings, CABAC : Yes
Format settings, ReFrames : 5 frames
Codec ID : V_MPEG4/ISO/AVC
Duration : 2 h 13 min
Bit rate : 21.0 Mb/s
Width : 1 920 pixels
Height : 804 pixels
Display aspect ratio : 2.40:1
Frame rate mode : Constant
Frame rate : 23.976 (24000/1001) FPS
Color space : YUV
Chroma subsampling : 4:2:0
Bit depth : 8 bits
Scan type : Progressive
Bits/(Pixel*Frame) : 0.567
Stream size : 19.7 GiB (92%)
Writing library : x264 core 148 r2744kMod b97ae06
Encoding settings : cabac=1 / ref=5 / deblock=1:-3:-3 / analyse=0x3:0x133 / me=tesa / subme=11 / psy=1 / fade_compensate=0.00 / psy_rd=1.10:0.00 / mixed_ref=1 / me_range=48 / chroma_me=1 / trellis=2 / 8x8dct=1 / cqm=0 / deadzone=21,11 / fast_pskip=0 / chroma_qp_offset=-2 / threads=24 / lookahead_threads=4 / sliced_threads=0 / nr=0 / decimate=0 / interlaced=0 / bluray_compat=0 / constrained_intra=0 / bframes=8 / b_pyramid=2 / b_adapt=2 / b_bias=0 / direct=3 / weightb=1 / open_gop=0 / weightp=2 / keyint=240 / keyint_min=2 / scenecut=40 / intra_refresh=0 / rc=2pass / mbtree=0 / bitrate=21000 / ratetol=1.0 / qcomp=0.70 / qpmin=0 / qpmax=69 / qpstep=4 / cplxblur=20.0 / qblur=0.5 / ip_ratio=1.25 / pb_ratio=1.20 / aq=3:0.90
Language : English
Default : Yes
Forced : No
Audio #1
ID : 2
Format : AC-3
Format/Info : Audio Coding 3
Mode extension : CM (complete main)
Format settings, Endianness : Big
Codec ID : A_AC3
Duration : 2 h 14 min
Bit rate mode : Constant
Bit rate : 384 kb/s
Channel(s) : 6 channels
Channel positions : Front: L C R, Side: L R, LFE
Sampling rate : 48.0 kHz
Frame rate : 31.250 FPS (1536 spf)
Bit depth : 16 bits
Compression mode : Lossy
Stream size : 369 MiB (2%)
Title : iTunes
Language : Russian
Default : Yes
Forced : No
Audio #2
ID : 3
Format : DTS
Format/Info : Digital Theater Systems
Mode : 16
Format settings, Endianness : Big
Codec ID : A_DTS
Duration : 2 h 13 min
Bit rate mode : Constant
Bit rate : 1 509 kb/s
Channel(s) : 6 channels
Channel positions : Front: L C R, Side: L R, LFE
Sampling rate : 48.0 kHz
Frame rate : 93.750 FPS (512 spf)
Bit depth : 24 bits
Compression mode : Lossy
Stream size : 1.41 GiB (7%)
Title : Original
Language : English
Default : No
Forced : No
Text #1
ID : 4
Format : UTF-8
Codec ID : S_TEXT/UTF8
Codec ID/Info : UTF-8 Plain Text
Duration : 25 min 37 s
Bit rate : 1 b/s
Count of elements : 9
Stream size : 318 Bytes (0%)
Title : Forced
Language : Russian
Default : Yes
Forced : No
Text #2
ID : 5
Format : UTF-8
Codec ID : S_TEXT/UTF8
Codec ID/Info : UTF-8 Plain Text
Duration : 2 h 4 min
Bit rate : 78 b/s
Count of elements : 1507
Stream size : 71.5 KiB (0%)
Title : Full
Language : Russian
Default : No
Forced : No
Text #3
ID : 6
Format : UTF-8
Codec ID : S_TEXT/UTF8
Codec ID/Info : UTF-8 Plain Text
Duration : 2 h 4 min
Bit rate : 46 b/s
Count of elements : 1559
Stream size : 42.0 KiB (0%)
Title : Full
Language : English
Default : No
Forced : No
Text #4
ID : 7
Format : UTF-8
Codec ID : S_TEXT/UTF8
Codec ID/Info : UTF-8 Plain Text
Duration : 2 h 5 min
Bit rate : 52 b/s
Count of elements : 1826
Stream size : 48.6 KiB (0%)
Title : SDH
Language : English
Default : No
Forced : No
Text #5
ID : 8
Format : UTF-8
Codec ID : S_TEXT/UTF8
Codec ID/Info : UTF-8 Plain Text
Duration : 2 h 6 min
Bit rate : 66 b/s
Count of elements : 1804
Stream size : 61.3 KiB (0%)
Title : SDH Colored
Language : English
Default : No
Forced : No
Menu
00:00:00.000 : en:"He's Come For Us"
00:02:34.654 : en:Unfinished Business
00:07:46.466 : en:Jyn in Prison
00:08:42.814 : en:Ring of Kafrene
00:11:04.622 : en:An Urgent Message
00:12:21.199 : en:Wobani Prison Break
00:13:41.154 : en:Rebel Interrogation
00:17:19.914 : en:Mission Departure
00:20:09.542 : en:Saw Gerrera
00:21:54.772 : en:Krennic and Tarkin
00:23:47.092 : en:Jyn's Dream
00:24:31.386 : en:Scouting Jedha City
00:26:53.445 : en:Bor Gullet
00:27:46.623 : en:Guardians of The Whills
00:30:37.294 : en:Holy City Ambush
00:33:53.406 : en:"Let them Pass"
00:37:11.271 : en:Saw's Catacombs
00:42:30.089 : en:Galen's Message
00:47:16.125 : en:Jedha Escape
00:51:04.144 : en:Tarkin Commands
00:52:23.724 : en:Race to Eadu
00:55:53.266 : en:Eadu Crash
00:59:48.251 : en:Scouting Eadu
01:02:07.807 : en:Krennic and Galen
01:05:25.505 : en:Attack on Eadu
01:10:24.095 : en:Eadu Aftermath
01:12:49.532 : en:Mustafar
01:16:28.459 : en:Jyn Before the Council
01:19:04.323 : en:"May the Force Be With Us"
01:21:55.160 : en:Rogue One Launches
01:23:25.667 : en:Scarif Gate
01:25:58.987 : en:10 Men Like 100
01:27:34.958 : en:Imperial Inspection
01:29:57.308 : en:Ground Forces
01:31:53.841 : en:The Battle Begins
01:34:18.736 : en:Scrambling the Rebel Fleet
01:36:07.512 : en:Sowing Confusion
01:37:48.237 : en:Rebel Reinforcements
01:40:27.605 : en:Beach Battle
01:42:44.074 : en:Master Switch
01:45:26.779 : en:Stardust
01:47:55.010 : en:Data Vault
01:50:31.416 : en:Sacrifices
01:53:28.885 : en:"We Have the Plans"
01:55:46.272 : en:Final Confrontation
01:59:23.448 : en:Transmission Received
02:01:11.347 : en:Fire When Ready
02:03:15.596 : en:Hope
02:05:42.118 : en:End Credits

Трейлер

-     - - -

Theseus

Пост 23-Мар-2017 23:12

[Цитировать]

Изгой-один: Звёздные войны. Истории / Rogue One: A Star Wars Story-
Год выпуска: 2016
Страна: США
Жанр: фантастика, боевик, приключения
Продолжительность: 02:13:57
Перевод: Профессиональный (полное дублирование) [iTunes]
Режиссер: Гарет Эдвардс-В ролях: Фелисити Джонс, Диего Луна, Алан Тьюдик, Донни Йен, Цзян Вэнь, Бен Мендельсон, Форест Уитакер, Риз Ахмед, Мадс Миккельсен, Джимми Смитс-Описание: Сопротивление собирает отряд для выполнения особой миссии — надо выкрасть чертежи самого совершенного и смертоносного оружия Империи. Возглавляет бойцов неуправляемая и бесстрашная Джин Эрсо, у которой в этом самоубийственном задании есть и личные мотивы. Не всем суждено вернуться домой, но герои готовы к этому, ведь на кону судьба Галактики- -Качество: BDRip 720p
Формат: MKV
Видео кодек: x.264
Аудио кодек: AC3/DTS
Видео: MPEG-4 AVC, 1280x536, 6000 Кbit/s, 23.976 fps
Аудио 1 RUS: 48 kHz, AC3, 6 ch, 384 kbps
Аудио 2 ENG: 48 kHz, DTS, 6 ch, 1509 kbps
Субтитры: Русские, английские
-

MI

General
Unique ID : 214336242293210664301972889927349065420 (0xA13FA8A1DF9C278A94A02D4556C656CC)
Complete name : DesktopRogue.One.2016.BDRip.720p.ExKinoRay.mkv
Format : Matroska
Format version : Version 4 / Version 2
File size : 7.39 GiB
Duration : 2 h 14 min
Overall bit rate : 7 884 kb/s
Movie name : Rogue.One.2016.BluRay.1080p.x264.DTS-HD.MA.7.1-HDChina
Encoded date : UTC 2017-03-23 19:31:53
Writing application : mkvmerge v8.3.0 ('Over the Horizon') 64bit
Writing library : libebml v1.3.1 + libmatroska v1.4.2
Cover : Yes
Attachments : cover.jpg
Video
ID : 1
Format : AVC
Format/Info : Advanced Video Codec
Format profile : High@L4.1
Format settings, CABAC : Yes
Format settings, ReFrames : 12 frames
Codec ID : V_MPEG4/ISO/AVC
Duration : 2 h 13 min
Bit rate : 6 000 kb/s
Width : 1 280 pixels
Height : 536 pixels
Display aspect ratio : 2.40:1
Frame rate mode : Constant
Frame rate : 23.976 (23976/1000) FPS
Color space : YUV
Chroma subsampling : 4:2:0
Bit depth : 8 bits
Scan type : Progressive
Bits/(Pixel*Frame) : 0.365
Stream size : 5.61 GiB (76%)
Writing library : x264 core 146 r2538 121396c
Encoding settings : cabac=1 / ref=12 / deblock=1:-3:-3 / analyse=0x3:0x133 / me=umh / subme=11 / psy=1 / psy_rd=1.05:0.05 / mixed_ref=1 / me_range=32 / chroma_me=1 / trellis=2 / 8x8dct=1 / cqm=0 / deadzone=21,11 / fast_pskip=0 / chroma_qp_offset=-3 / threads=6 / lookahead_threads=1 / sliced_threads=0 / nr=0 / decimate=0 / interlaced=0 / bluray_compat=0 / constrained_intra=0 / bframes=8 / b_pyramid=2 / b_adapt=2 / b_bias=0 / direct=3 / weightb=1 / open_gop=0 / weightp=2 / keyint=240 / keyint_min=23 / scenecut=40 / intra_refresh=0 / rc_lookahead=50 / rc=2pass / mbtree=0 / bitrate=6000 / ratetol=1.0 / qcomp=0.60 / qpmin=0 / qpmax=69 / qpstep=4 / cplxblur=20.0 / qblur=0.5 / vbv_maxrate=50000 / vbv_bufsize=62500 / nal_hrd=none / filler=0 / ip_ratio=1.40 / pb_ratio=1.30 / aq=1:0.80
Language : English
Default : Yes
Forced : No
Audio #1
ID : 2
Format : AC-3
Format/Info : Audio Coding 3
Mode extension : CM (complete main)
Format settings, Endianness : Big
Codec ID : A_AC3
Duration : 2 h 14 min
Bit rate mode : Constant
Bit rate : 384 kb/s
Channel(s) : 6 channels
Channel positions : Front: L C R, Side: L R, LFE
Sampling rate : 48.0 kHz
Frame rate : 31.250 FPS (1536 spf)
Bit depth : 16 bits
Compression mode : Lossy
Stream size : 369 MiB (5%)
Title : iTunes
Language : Russian
Default : Yes
Forced : No
Audio #2
ID : 3
Format : DTS
Format/Info : Digital Theater Systems
Mode : 16
Format settings, Endianness : Big
Codec ID : A_DTS
Duration : 2 h 13 min
Bit rate mode : Constant
Bit rate : 1 509 kb/s
Channel(s) : 6 channels
Channel positions : Front: L C R, Side: L R, LFE
Sampling rate : 48.0 kHz
Frame rate : 93.750 FPS (512 spf)
Bit depth : 24 bits
Compression mode : Lossy
Stream size : 1.41 GiB (19%)
Title : Original
Language : English
Default : No
Forced : No
Text #1
ID : 4
Format : UTF-8
Codec ID : S_TEXT/UTF8
Codec ID/Info : UTF-8 Plain Text
Duration : 25 min 37 s
Bit rate : 1 b/s
Count of elements : 9
Stream size : 318 Bytes (0%)
Title : Forced
Language : Russian
Default : Yes
Forced : No
Text #2
ID : 5
Format : UTF-8
Codec ID : S_TEXT/UTF8
Codec ID/Info : UTF-8 Plain Text
Duration : 2 h 4 min
Bit rate : 78 b/s
Count of elements : 1507
Stream size : 71.5 KiB (0%)
Title : Full
Language : Russian
Default : No
Forced : No
Text #3
ID : 6
Format : UTF-8
Codec ID : S_TEXT/UTF8
Codec ID/Info : UTF-8 Plain Text
Duration : 2 h 4 min
Bit rate : 46 b/s
Count of elements : 1559
Stream size : 42.0 KiB (0%)
Title : Full
Language : English
Default : No
Forced : No
Text #4
ID : 7
Format : UTF-8
Codec ID : S_TEXT/UTF8
Codec ID/Info : UTF-8 Plain Text
Duration : 2 h 5 min
Bit rate : 52 b/s
Count of elements : 1826
Stream size : 48.6 KiB (0%)
Title : SDH
Language : English
Default : No
Forced : No
Text #5
ID : 8
Format : UTF-8
Codec ID : S_TEXT/UTF8
Codec ID/Info : UTF-8 Plain Text
Duration : 2 h 6 min
Bit rate : 66 b/s
Count of elements : 1804
Stream size : 61.3 KiB (0%)
Title : SDH Colored
Language : English
Default : No
Forced : No
Menu
00:00:00.000 : en:"He's Come For Us"
00:02:34.654 : en:Unfinished Business
00:07:46.466 : en:Jyn in Prison
00:08:42.814 : en:Ring of Kafrene
00:11:04.622 : en:An Urgent Message
00:12:21.199 : en:Wobani Prison Break
00:13:41.154 : en:Rebel Interrogation
00:17:19.914 : en:Mission Departure
00:20:09.542 : en:Saw Gerrera
00:21:54.772 : en:Krennic and Tarkin
00:23:47.092 : en:Jyn's Dream
00:24:31.386 : en:Scouting Jedha City
00:26:53.445 : en:Bor Gullet
00:27:46.623 : en:Guardians of The Whills
00:30:37.294 : en:Holy City Ambush
00:33:53.406 : en:"Let them Pass"
00:37:11.271 : en:Saw's Catacombs
00:42:30.089 : en:Galen's Message
00:47:16.125 : en:Jedha Escape
00:51:04.144 : en:Tarkin Commands
00:52:23.724 : en:Race to Eadu
00:55:53.266 : en:Eadu Crash
00:59:48.251 : en:Scouting Eadu
01:02:07.807 : en:Krennic and Galen
01:05:25.505 : en:Attack on Eadu
01:10:24.095 : en:Eadu Aftermath
01:12:49.532 : en:Mustafar
01:16:28.459 : en:Jyn Before the Council
01:19:04.323 : en:"May the Force Be With Us"
01:21:55.160 : en:Rogue One Launches
01:23:25.667 : en:Scarif Gate
01:25:58.987 : en:10 Men Like 100
01:27:34.958 : en:Imperial Inspection
01:29:57.308 : en:Ground Forces
01:31:53.841 : en:The Battle Begins
01:34:18.736 : en:Scrambling the Rebel Fleet
01:36:07.512 : en:Sowing Confusion
01:37:48.237 : en:Rebel Reinforcements
01:40:27.605 : en:Beach Battle
01:42:44.074 : en:Master Switch
01:45:26.779 : en:Stardust
01:47:55.010 : en:Data Vault
01:50:31.416 : en:Sacrifices
01:53:28.885 : en:"We Have the Plans"
01:55:46.272 : en:Final Confrontation
01:59:23.448 : en:Transmission Received
02:01:11.347 : en:Fire When Ready
02:03:15.596 : en:Hope
02:05:42.118 : en:End Credits

Трейлер

-     - - -

Theseus

Пост 22-Мар-2017 11:05

[Цитировать]

Изгой-один: Звёздные войны. Истории / Rogue One: A Star Wars Story-
Год выпуска: 2016
Страна: США
Жанр: фантастика, боевик, приключения
Продолжительность: 02:14:51
Перевод: Профессиональный (полное дублирование) [Чистый звук]
Режиссер: Гарет Эдвардс-В ролях: Фелисити Джонс, Диего Луна, Алан Тьюдик, Донни Йен, Цзян Вэнь, Бен Мендельсон, Форест Уитакер, Риз Ахмед, Мадс Миккельсен, Джимми Смитс-Описание: Сопротивление собирает отряд для выполнения особой миссии — надо выкрасть чертежи самого совершенного и смертоносного оружия Империи. Возглавляет бойцов неуправляемая и бесстрашная Джин Эрсо, у которой в этом самоубийственном задании есть и личные мотивы. Не всем суждено вернуться домой, но герои готовы к этому, ведь на кону судьба Галактики- -Качество: BDRip 1080p
Формат: MKV
Видео кодек: x.264
Аудио кодек: AC3
Видео: 1920x804, 23.976 fps, AVC/x.264, 11 Mbps avg
Аудио: 48 kHz, AC3 Dolby Digital, 2/0 (L,R) ch, ~448 kbps
- -

Трейлер

-   -

Theseus

Пост 22-Мар-2017 11:03

[Цитировать]

Изгой-один: Звёздные войны. Истории / Rogue One: A Star Wars Story-
Год выпуска: 2016
Страна: США
Жанр: фантастика, боевик, приключения
Продолжительность: 02:14:51
Перевод: Профессиональный (полное дублирование) [Чистый звук]
Режиссер: Гарет Эдвардс-В ролях: Фелисити Джонс, Диего Луна, Алан Тьюдик, Донни Йен, Цзян Вэнь, Бен Мендельсон, Форест Уитакер, Риз Ахмед, Мадс Миккельсен, Джимми Смитс-Описание: Сопротивление собирает отряд для выполнения особой миссии — надо выкрасть чертежи самого совершенного и смертоносного оружия Империи. Возглавляет бойцов неуправляемая и бесстрашная Джин Эрсо, у которой в этом самоубийственном задании есть и личные мотивы. Не всем суждено вернуться домой, но герои готовы к этому, ведь на кону судьба Галактики- -Качество: BDRip 720p
Формат: MKV
Видео кодек: x.264
Аудио кодек: AC3
Видео: 1280x536, 23.976 fps, AVC/x.264, 5595 kbps avg
Аудио: 48 kHz, AC3 Dolby Digital, 2/0 (L,R) ch, ~448 kbps
- -

Трейлер

-   -

RazBoyNik

Пост 15-Фев-2017 20:57

[Цитировать]

Невероятные приключения янки в Африке / Yankee Zulu - Производство: ЮАР / Distant Horizons, Koukus Troika, Toron Screen Corporation
Жанр: Комедия
Режиссер: Грей Хофмайр
Актеры: Леон Шустер, Джон Матшикиза, Уилсон Данстер, Терри Триз, Мишель Боус, Скай Свориник, Руан Мандельстам, Бобо Серитсани, Мари Майкл, Мбали Дладла
Описание:
Шалости друзей — мальчишек, белого африканера и черного зулу — сделали бы честь даже легендарному Кевину из комедии «Один дома».
Жизнь надолго разлучает их, но встретившись через 25 лет, они вспоминают детство — похищают полмиллиона долларов и, преобразившись в гримерной телевидения белый в черного, а черный в белого, скрываются от преследователей.

Рейтинг MPAA: PG (рекомендуется присутствие родителей)
Продолжительность: 01:29:42
Качество видео: WEB-DLRip
Перевод: Двуголосый закадровый, многоголосый закадровый
Язык субтитров: Русский
Вид субтитров: Вшитые отключаемые
Видео: AVC/H.264, 1920х1080, ~13 Mbps
Аудио: 1 AC3, 6 ch, 384 kbps - Русский, двуголосый (НТВ)
Аудио: 2 AC3, 2 ch, 192 kbps - Русский, многоголосый (Хлопушка)
Аудио: 3 EAC3, 2 ch, 224 kbps - Английский оригинальный

Mediainfo:

Complete name               : H:\Yankee Zulu.(1993).WEBRip.1080p.mkv
Format : Matroska
Format version : Version 2
File size : 8.78 GiB
Duration : 1 h 29 min
Overall bit rate mode : Variable
Overall bit rate : 14.0 Mb/s
Movie name : Yankee Zulu.(1993).WEBRip.1080p_ Atomsk_
Encoded date : UTC 2017-02-14 18:27:15
Writing application : mkvmerge v5.8.0 ('No Sleep / Pillow') built on Sep 2 2012 15:37:04
Writing library : libebml v1.2.3 + libmatroska v1.3.0
Video
ID : 1
Format : AVC
Format/Info : Advanced Video Codec
Format profile : High@L4
Format settings, CABAC : Yes
Format settings, ReFrames : 4 frames
Codec ID : V_MPEG4/ISO/AVC
Duration : 1 h 29 min
Bit rate mode : Variable
Bit rate : 12.9 Mb/s
Maximum bit rate : 15.0 Mb/s
Width : 1 920 pixels
Height : 1 080 pixels
Display aspect ratio : 16:9
Frame rate mode : Constant
Frame rate : 23.976 (24000/1001) FPS
Color space : YUV
Chroma subsampling : 4:2:0
Bit depth : 8 bits
Scan type : Progressive
Bits/(Pixel*Frame) : 0.259
Stream size : 8.07 GiB (92%)
Title : Yankee Zulu.(1993).WEBRip.1080p
Writing library : x264 core 148 r2623 d5b2374
Encoding settings : cabac=1 / ref=4 / deblock=1:-1:-1 / analyse=0x3:0x133 / me=umh / subme=9 / psy=1 / psy_rd=1.00:0.15 / mixed_ref=1 / me_range=24 / chroma_me=1 / trellis=2 / 8x8dct=1 / cqm=0 / deadzone=21,11 / fast_pskip=1 / chroma_qp_offset=-3 / threads=34 / lookahead_threads=5 / sliced_threads=0 / nr=150 / decimate=1 / interlaced=0 / bluray_compat=0 / constrained_intra=0 / bframes=8 / b_pyramid=2 / b_adapt=2 / b_bias=0 / direct=3 / weightb=1 / open_gop=0 / weightp=2 / keyint=120 / keyint_min=61 / scenecut=0 / intra_refresh=0 / rc_lookahead=120 / rc=crf / mbtree=1 / crf=18.0 / qcomp=0.60 / qpmin=0 / qpmax=69 / qpstep=4 / vbv_maxrate=15000 / vbv_bufsize=31250 / crf_max=0.0 / nal_hrd=vbr / filler=0 / ip_ratio=1.40 / aq=3:1.00
Language : English
Default : Yes
Forced : No
Color range : Limited
Color primaries : BT.709
Transfer characteristics : BT.709
Matrix coefficients : BT.709
Audio #1
ID : 2
Format : AC-3
Format/Info : Audio Coding 3
Mode extension : CM (complete main)
Format settings, Endianness : Big
Codec ID : A_AC3
Duration : 1 h 29 min
Bit rate mode : Constant
Bit rate : 384 kb/s
Channel(s) : 6 channels
Channel positions : Front: L C R, Side: L R, LFE
Sampling rate : 48.0 kHz
Frame rate : 31.250 FPS (1536 spf)
Bit depth : 16 bits
Compression mode : Lossy
Stream size : 246 MiB (3%)
Title : AC3 5.1 @ 384 kbps - DVO, НТВ
Language : Russian
Default : No
Forced : No
Audio #2
ID : 3
Format : AC-3
Format/Info : Audio Coding 3
Mode extension : CM (complete main)
Format settings, Endianness : Big
Codec ID : A_AC3
Duration : 1 h 29 min
Bit rate mode : Constant
Bit rate : 256 kb/s
Channel(s) : 2 channels
Channel positions : Front: L R
Sampling rate : 48.0 kHz
Frame rate : 31.250 FPS (1536 spf)
Bit depth : 16 bits
Compression mode : Lossy
Stream size : 164 MiB (2%)
Title : AC3 2.0 @ 192 kbps - MVO, Хлопушка
Language : Russian
Default : No
Forced : No
Audio #3
ID : 4
Format : E-AC-3
Format/Info : Enhanced Audio Coding 3
Format settings, Endianness : Big
Codec ID : A_EAC3
Duration : 1 h 29 min
Bit rate mode : Constant
Bit rate : 224 kb/s
Channel(s) : 2 channels
Channel positions : Front: L R
Sampling rate : 48.0 kHz
Frame rate : 187.500 FPS (256 spf)
Compression mode : Lossy
Stream size : 144 MiB (2%)
Title : E-AC3 2.0 @ 224 kbps - Original
Language : English
Default : No
Forced : No
Text
ID : 5
Format : UTF-8
Codec ID : S_TEXT/UTF8
Codec ID/Info : UTF-8 Plain Text
Language : Russian
Default : No
Forced : No
Скриншоты:
       

RazBoyNik

Пост 15-Фев-2017 20:51

[Цитировать]

Майна / Maïna - Производство: Канада / Equinoxe
Жанр: Приключения
Режиссер: Мишель Полетт
Актеры: Ренетта Арлук, Танту Кардинал, Грэм Грин, Пакак Иннуксук, Ипилье Оотова, Эрик Швейг, Роузэнн Супернаульт, Уапшкусс Терниш, Люси Тулугарджук, Нуувия Тулугарджук
Описание:
Юная девушка Майна родилась и выросла в племени северо-американских индейцев, которые испокон веков живут на лоне природы, верят в силы духов и почитают старые традиции, и обычаи. Родила девочку Такаэра, но вскормила и вырастила девочку другая женщина, ставшая спутницей отца — вождя племени. Такаэра не смогла простить ему измену. Она покинула племя и стала вести уединенную жизнь, оставаясь при этом шаманом племени.
После смерти отца, отравленного членом враждующего племени Саиту, Майна вынуждена противостоять одержимому ею Саиту, а также отправиться в далекое путешествие, чтобы разыскать похищенного одиннадцатилетнего мальчишку из племени, по имени Нипки. На пути бесстрашную девушку ждет множество приключений, опасных ситуаций и знакомств с новыми интересными людьми.

Продолжительность: 01:38:06
Качество видео: BDRip
Перевод: Авторский (П. Морозов/PashaUp)
Язык субтитров: Русский (полные), Английский (на диалоги индейцев)
Вид субтитров: Вшитые, отключаемые
Видео: AVC/H.264, 1920x1032, ~11.2 Mbps
Аудио 1: AC3, 6 ch, 640 kbps, Русский (AVO, П. Морозов/PashaUp)
Аудио 2: AC3, 6 ch, 640 kbps, Английский (Оригинал)

MediaIinfo:

Общее
Формат : Matroska
Версия формата : Version 4 / Version 2
Размер файла : 8,56 Гбайт
Продолжительность : 1 ч. 38 м.
Общий поток : 12,5 Мбит/сек
Название фильма : Maina (2013) BDRip by Lexandros
Дата кодирования : UTC 2017-02-15 03:17:38
Программа кодирования : mkvmerge v9.8.0 ('Kuglblids') 64bit
Библиотека кодирования : libebml v1.3.4 + libmatroska v1.4.5
Видео
Идентификатор : 1
Формат : AVC
Формат/Информация : Advanced Video Codec
Профиль формата : [url=mailto:High@L4.1]High@L4.1[/url]
Параметр CABAC формата : Да
Параметр ReFrames формата : 4 кадра
Идентификатор кодека : V_MPEG4/ISO/AVC
Продолжительность : 1 ч. 38 м.
Битрейт : 11,2 Мбит/сек
Ширина : 1920 пикселей
Высота : 1032 пикселя
Соотношение сторон : 1,85:1
Режим частоты кадров : Постоянный
Частота кадров : 25,000 кадров/сек
Цветовое пространство : YUV
Субдискретизация насыщенности : 4:2:0
Битовая глубина : 8 бит
Тип развёртки : Прогрессивная
Бит/(Пиксели*Кадры) : 0.226
Размер потока : 7,68 Гбайт (90%)
Библиотека кодирования : x264 core 148 r2638 7599210
Настройки программы : cabac=1 / ref=4 / deblock=1:-1:-1 / analyse=0x3:0x133 / me=umh / subme=9 / psy=1 / psy_rd=1.05:0.00 / mixed_ref=1 / me_range=32 / chroma_me=1 / trellis=2 / 8x8dct=1 / cqm=0 / deadzone=21,11 / fast_pskip=0 / chroma_qp_offset=-2 / threads=6 / lookahead_threads=1 / sliced_threads=0 / nr=0 / decimate=0 / interlaced=0 / bluray_compat=0 / constrained_intra=0 / bframes=8 / b_pyramid=2 / b_adapt=2 / b_bias=0 / direct=3 / weightb=1 / open_gop=0 / weightp=2 / keyint=250 / keyint_min=25 / scenecut=40 / intra_refresh=0 / rc_lookahead=60 / rc=2pass / mbtree=0 / bitrate=11200 / ratetol=1.0 / qcomp=0.70 / qpmin=10 / qpmax=51 / qpstep=4 / cplxblur=20.0 / qblur=0.5 / vbv_maxrate=50000 / vbv_bufsize=50000 / nal_hrd=none / filler=0 / ip_ratio=1.40 / pb_ratio=1.30 / aq=1:0.85
Язык : English
Default : Да
Forced : Нет
Цветовой диапазон : Limited
Основные цвета : BT.709
Характеристики трансфера : BT.709
Коэффициенты матрицы : BT.709
Аудио #1
Идентификатор : 2
Формат : AC-3
Формат/Информация : Audio Coding 3
Расширение режима : CM (complete main)
Параметр Endianness формата : Big
Идентификатор кодека : A_AC3
Продолжительность : 1 ч. 38 м.
Вид битрейта : Постоянный
Битрейт : 640 Кбит/сек
Каналы : 6 каналов
Расположение каналов : Front: L C R, Side: L R, LFE
Частота : 48,0 КГц
Частота кадров : 31,250 кадров/сек (1536 spf)
Битовая глубина : 16 бит
Метод сжатия : С потерями
Размер потока : 449 Мбайт (5%)
Заголовок : AVO, PashaUp
Язык : Russian
Default : Да
Forced : Нет
Аудио #2
Идентификатор : 3
Формат : AC-3
Формат/Информация : Audio Coding 3
Расширение режима : CM (complete main)
Параметр Endianness формата : Big
Идентификатор кодека : A_AC3
Продолжительность : 1 ч. 38 м.
Вид битрейта : Постоянный
Битрейт : 640 Кбит/сек
Каналы : 6 каналов
Расположение каналов : Front: L C R, Side: L R, LFE
Частота : 48,0 КГц
Частота кадров : 31,250 кадров/сек (1536 spf)
Битовая глубина : 16 бит
Метод сжатия : С потерями
Размер потока : 449 Мбайт (5%)
Язык : English
Default : Нет
Forced : Нет
Текст #1
Идентификатор : 4
Формат : UTF-8
Идентификатор кодека : S_TEXT/UTF8
Идентификатор кодека/Информация : UTF-8 Plain Text
Продолжительность : 1 ч. 34 м.
Битрейт : 32 бит/сек
Count of elements : 464
Размер потока : 22,7 Кбайт (0%)
Язык : Russian
Default : Нет
Forced : Нет
Текст #2
Идентификатор : 5
Формат : UTF-8
Идентификатор кодека : S_TEXT/UTF8
Идентификатор кодека/Информация : UTF-8 Plain Text
Продолжительность : 1 ч. 31 м.
Битрейт : 12 бит/сек
Count of elements : 336
Размер потока : 8,24 Кбайт (0%)
Язык : English
Default : Нет
Forced : Нет
Меню
00:00:00.000 : en:00:00:00.000
00:10:05.000 : en:00:10:05.000
00:24:56.800 : en:00:24:56.800
00:36:28.000 : en:00:36:28.000
00:50:02.120 : en:00:50:02.120
01:01:05.200 : en:01:01:05.200
01:13:18.000 : en:01:13:18.000
01:25:19.000 : en:01:25:19.000
Скриншоты:
       

RazBoyNik

Пост 15-Фев-2017 20:47

[Цитировать]

Майна / Maïna - Производство: Канада / Equinoxe
Жанр: Приключения
Режиссер: Мишель Полетт
Актеры: Ренетта Арлук, Танту Кардинал, Грэм Грин, Пакак Иннуксук, Ипилье Оотова, Эрик Швейг, Роузэнн Супернаульт, Уапшкусс Терниш, Люси Тулугарджук, Нуувия Тулугарджук
Описание:
Юная девушка Майна родилась и выросла в племени северо-американских индейцев, которые испокон веков живут на лоне природы, верят в силы духов и почитают старые традиции, и обычаи. Родила девочку Такаэра, но вскормила и вырастила девочку другая женщина, ставшая спутницей отца — вождя племени. Такаэра не смогла простить ему измену. Она покинула племя и стала вести уединенную жизнь, оставаясь при этом шаманом племени.
После смерти отца, отравленного членом враждующего племени Саиту, Майна вынуждена противостоять одержимому ею Саиту, а также отправиться в далекое путешествие, чтобы разыскать похищенного одиннадцатилетнего мальчишку из племени, по имени Нипки. На пути бесстрашную девушку ждет множество приключений, опасных ситуаций и знакомств с новыми интересными людьми.

Продолжительность: 01:38:06
Качество видео: BDRip
Перевод: Авторский (П. Морозов/PashaUp)
Язык субтитров: Русский (полные), Английский (на диалоги индейцев)
Вид субтитров: Вшитые, отключаемые
Видео: AVC/H.264, 1280x688, ~5 Mbps
Аудио 1: AC3, 6 ch, 640 kbps, Русский (AVO, П. Морозов/PashaUp)
Аудио 2: AC3, 6 ch, 640 kbps, Английский (Оригинал)

MediaIinfo:

Общее
Формат : Matroska
Версия формата : Version 4 / Version 2
Размер файла : 4,30 Гбайт
Продолжительность : 1 ч. 38 м.
Общий поток : 6277 Кбит/сек
Название фильма : Maina (2013) BDRip by Lexandros
Дата кодирования : UTC 2017-02-13 07:45:19
Программа кодирования : mkvmerge v9.8.0 ('Kuglblids') 64bit
Библиотека кодирования : libebml v1.3.4 + libmatroska v1.4.5
Видео
Идентификатор : 1
Формат : AVC
Формат/Информация : Advanced Video Codec
Профиль формата : [url=mailto:High@L4.1]High@L4.1[/url]
Параметр CABAC формата : Да
Параметр ReFrames формата : 9 кадров
Идентификатор кодека : V_MPEG4/ISO/AVC
Продолжительность : 1 ч. 38 м.
Битрейт : 5000 Кбит/сек
Ширина : 1280 пикселей
Высота : 688 пикселей
Соотношение сторон : 1,85:1
Режим частоты кадров : Постоянный
Частота кадров : 25,000 кадров/сек
Цветовое пространство : YUV
Субдискретизация насыщенности : 4:2:0
Битовая глубина : 8 бит
Тип развёртки : Прогрессивная
Бит/(Пиксели*Кадры) : 0.227
Размер потока : 3,42 Гбайт (80%)
Библиотека кодирования : x264 core 148 r2638 7599210
Настройки программы : cabac=1 / ref=9 / deblock=1:-1:-1 / analyse=0x3:0x133 / me=umh / subme=9 / psy=1 / psy_rd=1.05:0.00 / mixed_ref=1 / me_range=32 / chroma_me=1 / trellis=2 / 8x8dct=1 / cqm=0 / deadzone=21,11 / fast_pskip=0 / chroma_qp_offset=-2 / threads=6 / lookahead_threads=1 / sliced_threads=0 / nr=0 / decimate=0 / interlaced=0 / bluray_compat=0 / constrained_intra=0 / bframes=11 / b_pyramid=2 / b_adapt=2 / b_bias=0 / direct=3 / weightb=1 / open_gop=0 / weightp=2 / keyint=250 / keyint_min=25 / scenecut=40 / intra_refresh=0 / rc_lookahead=60 / rc=2pass / mbtree=0 / bitrate=5000 / ratetol=1.0 / qcomp=0.70 / qpmin=10 / qpmax=51 / qpstep=4 / cplxblur=20.0 / qblur=0.5 / vbv_maxrate=50000 / vbv_bufsize=50000 / nal_hrd=none / filler=0 / ip_ratio=1.40 / pb_ratio=1.30 / aq=1:0.85
Язык : English
Default : Да
Forced : Нет
Цветовой диапазон : Limited
Основные цвета : BT.709
Характеристики трансфера : BT.709
Коэффициенты матрицы : BT.709
Аудио #1
Идентификатор : 2
Формат : AC-3
Формат/Информация : Audio Coding 3
Расширение режима : CM (complete main)
Параметр Endianness формата : Big
Идентификатор кодека : A_AC3
Продолжительность : 1 ч. 38 м.
Вид битрейта : Постоянный
Битрейт : 640 Кбит/сек
Каналы : 6 каналов
Расположение каналов : Front: L C R, Side: L R, LFE
Частота : 48,0 КГц
Частота кадров : 31,250 кадров/сек (1536 spf)
Битовая глубина : 16 бит
Метод сжатия : С потерями
Размер потока : 449 Мбайт (10%)
Заголовок : AVO, PashaUp
Язык : Russian
Default : Да
Forced : Нет
Аудио #2
Идентификатор : 3
Формат : AC-3
Формат/Информация : Audio Coding 3
Расширение режима : CM (complete main)
Параметр Endianness формата : Big
Идентификатор кодека : A_AC3
Продолжительность : 1 ч. 38 м.
Вид битрейта : Постоянный
Битрейт : 640 Кбит/сек
Каналы : 6 каналов
Расположение каналов : Front: L C R, Side: L R, LFE
Частота : 48,0 КГц
Частота кадров : 31,250 кадров/сек (1536 spf)
Битовая глубина : 16 бит
Метод сжатия : С потерями
Размер потока : 449 Мбайт (10%)
Язык : English
Default : Нет
Forced : Нет
Текст #1
Идентификатор : 4
Формат : UTF-8
Идентификатор кодека : S_TEXT/UTF8
Идентификатор кодека/Информация : UTF-8 Plain Text
Продолжительность : 1 ч. 34 м.
Битрейт : 32 бит/сек
Count of elements : 464
Размер потока : 22,7 Кбайт (0%)
Язык : Russian
Default : Да
Forced : Нет
Текст #2
Идентификатор : 5
Формат : UTF-8
Идентификатор кодека : S_TEXT/UTF8
Идентификатор кодека/Информация : UTF-8 Plain Text
Продолжительность : 1 ч. 31 м.
Битрейт : 12 бит/сек
Count of elements : 336
Размер потока : 8,24 Кбайт (0%)
Язык : English
Default : Нет
Forced : Нет
Меню
00:00:00.000 : en:00:00:00.000
00:10:05.000 : en:00:10:05.000
00:24:56.800 : en:00:24:56.800
00:36:28.000 : en:00:36:28.000
00:50:02.120 : en:00:50:02.120
01:01:05.200 : en:01:01:05.200
01:13:18.000 : en:01:13:18.000
01:25:19.000 : en:01:25:19.000
Скриншоты:
       

RazBoyNik

Пост 14-Фев-2017 18:29

[Цитировать]

Билли Мэдисон / Billy Madison - Производство: США, Robert Simonds Productions, Universal Pictures
Жанр: Комедия
Режиссер: Тамра Дэвис
Актеры: Адам Сэндлер, Брэдли Уитфорд, Джош Мостел, Бриджит Уилсон, Норм МакДоналд, Марк Белцмэн, Ларри Хэнкин, Тереза Мерритт, Дина Платиас, Даррен МакГэвин, Хрант Альянак, Винсент Марино, Джек Мэтер, Кристофер Келк, Марк Донато
Описание:
Великовозрастный балбес Билли Мэдисон, наследник невероятно богатого владельца сети отелей, проводит круглые сутки в разглядывании непристойных журнальчиков, поглощая пиво и устраивая идиотские розыгрыши. Правда, довольно скоро ему приходится взяться за ум: Мэдисон-старший сообщает Билли, что собирается передать бизнес подхалиму мистеру Гордону, и единственное условие, при котором Билли может стать руководителем компании отца, это заново закончить школу, начиная с первого класса, причем на каждый класс ему отводится всего две недели…

Возраст: 12+ (зрителям, достигшим 12 лет)
Рейтинг MPAA: PG-13 (детям до 13 лет просмотр нежелателен)
Продолжительность: 1:29:52
Качество видео: BDRemux
Перевод: Многоголосый закадровый
Язык субтитров: Русские, английские, испанские, французские, украинские, немецкие, португальские, китайские, корейские, японские, греческие, итальянские, голландские, тайские, норвежские, шведские, чешские, турецкие, финские, датские
Вид субтитров: Вшитые
Видео: AVC/H.264, 1920x1080, ~24053 Kbps
Аудио: DTS, 3/2 (L,C,R,l,r) + LFE ch, 48 kHz, ~768.00 kbps avg - Русский (Lizard Cinema Trade)
Аудио: DTS-HD MA 5.1, 48 kHz/24-bit, ~2386.00 kbps avg (DTS Core: 5.1 / 48 kHz / 1509 kbps / 24-bit) - Английский

Mediainfo:

Disc Title:     Билли Мэдисон
Disc Size: 32 470 640 063 bytes
Protection: AACS
BD-Java: No
BDInfo: 0.5.8
Notes:
BDINFO HOME:
Cinema Squid
http://www.cinemasquid.com/blu-ray/tools/bdinfo
INCLUDES FORUMS REPORT FOR:
AVS Forum Blu-ray Audio and Video Specifications Thread
http://www.avsforum.com/avs-vb/showthread.php?t=1155731
********************
PLAYLIST: 00000.MPLS
********************
Код:
Total   Video
Title                                                           Codec   Length  Movie Size      Disc Size       Bitrate Bitrate Main Audio Track                          Secondary Audio Track
-----                                                           ------  ------- --------------  --------------  ------- ------- ------------------                        ---------------------
00000.MPLS                                                      VC-1    1:29:52 19 860 658 176  32 470 640 063  29,47   24,05   DTS 5.1 768Kbps (48kHz/24-bit)
Код:
DISC INFO:
Disc Title:     Билли Мэдисон
Disc Size:      32 470 640 063 bytes
Protection:     AACS
BD-Java:        No
BDInfo:         0.5.8
PLAYLIST REPORT:
Name:                   00000.MPLS
Length:                 1:29:52.010 (h:m:s.ms)
Size:                   19 860 658 176 bytes
Total Bitrate:          29,47 Mbps
VIDEO:
Codec                   Bitrate             Description
-----                   -------             -----------
VC-1 Video              24053 kbps          1080p / 23,976 fps / 16:9 / Advanced Profile 3
AUDIO:
Codec                           Language        Bitrate         Description
-----                           --------        -------         -----------
DTS Audio                       Russian         768 kbps        5.1 / 48 kHz / 768 kbps / 24-bit
DTS-HD Master Audio             English         2386 kbps       5.1 / 48 kHz / 2386 kbps / 24-bit (DTS Core: 5.1 / 48 kHz / 1509 kbps / 24-bit)
SUBTITLES:
Codec                           Language        Bitrate         Description
-----                           --------        -------         -----------
Presentation Graphics           Russian         26,269 kbps
Presentation Graphics           English         40,763 kbps
Presentation Graphics           French          34,848 kbps
Presentation Graphics           Italian         32,904 kbps
Presentation Graphics           Japanese        21,628 kbps
Presentation Graphics           German          35,862 kbps
Presentation Graphics           Spanish         32,377 kbps
Presentation Graphics           Portuguese      33,835 kbps
Presentation Graphics           Spanish         29,938 kbps
Presentation Graphics           Danish          33,339 kbps
Presentation Graphics           Dutch           31,981 kbps
Presentation Graphics           Finnish         35,782 kbps
Presentation Graphics           Greek           39,577 kbps
Presentation Graphics           Korean          20,353 kbps
Presentation Graphics           Norwegian       35,274 kbps
Presentation Graphics           Portuguese      34,052 kbps
Presentation Graphics           Swedish         33,284 kbps
Presentation Graphics           Thai            27,709 kbps
Presentation Graphics           Turkish         37,167 kbps
Presentation Graphics           Chinese         28,906 kbps
Presentation Graphics           Japanese        0,282 kbps
Presentation Graphics           French          0,262 kbps
Presentation Graphics           Italian         0,217 kbps
Presentation Graphics           German          0,377 kbps
Presentation Graphics           Spanish         0,327 kbps
FILES:
Name            Time In         Length          Size            Total Bitrate
----            -------         ------          ----            -------------
00000.M2TS      0:00:00.000     1:29:52.010     19 860 658 176  29 467
CHAPTERS:
Number          Time In         Length          Avg Video Rate  Max 1-Sec Rate  Max 1-Sec Time  Max 5-Sec Rate  Max 5-Sec Time  Max 10Sec Rate  Max 10Sec Time  Avg Frame Size  Max Frame Size  Max Frame Time
------          -------         ------          --------------  --------------  --------------  --------------  --------------  --------------  --------------  --------------  --------------  --------------
1               0:00:00.000     0:05:40.130     22 441 kbps     45 923 kbps     00:01:40.725    36 447 kbps     00:01:05.190    35 321 kbps     00:01:00.185    117 401 bytes   413 947 bytes   00:05:04.971
2               0:05:40.130     0:08:07.821     22 869 kbps     33 965 kbps     00:13:00.404    29 430 kbps     00:12:57.985    28 567 kbps     00:06:10.119    119 228 bytes   349 490 bytes   00:06:12.163
3               0:13:47.952     0:04:33.647     25 421 kbps     34 225 kbps     00:17:24.376    31 472 kbps     00:18:12.716    30 483 kbps     00:18:11.590    132 532 bytes   352 408 bytes   00:15:21.003
4               0:18:21.599     0:02:43.872     25 360 kbps     35 122 kbps     00:18:52.130    32 013 kbps     00:18:51.129    30 267 kbps     00:19:18.031    132 215 bytes   409 022 bytes   00:19:20.993
5               0:21:05.472     0:08:09.738     25 855 kbps     40 280 kbps     00:22:42.235    36 619 kbps     00:28:17.404    34 241 kbps     00:28:17.987    134 797 bytes   523 870 bytes   00:28:20.281
6               0:29:15.210     0:06:56.541     26 258 kbps     47 250 kbps     00:30:54.561    37 327 kbps     00:31:23.715    32 911 kbps     00:30:54.269    136 895 bytes   391 996 bytes   00:31:22.255
7               0:36:11.752     0:04:17.090     26 653 kbps     34 293 kbps     00:36:22.597    31 385 kbps     00:36:18.968    30 612 kbps     00:36:13.713    138 959 bytes   328 038 bytes   00:37:54.355
8               0:40:28.843     0:10:10.818     24 382 kbps     41 109 kbps     00:42:20.871    37 451 kbps     00:42:16.867    35 739 kbps     00:43:15.259    127 119 bytes   473 293 bytes   00:43:20.306
9               0:50:39.661     0:10:32.674     25 825 kbps     49 319 kbps     00:53:26.536    37 283 kbps     00:53:23.783    35 851 kbps     00:53:23.033    134 638 bytes   459 327 bytes   00:53:36.129
10              1:01:12.335     0:03:53.149     25 861 kbps     35 605 kbps     01:01:59.507    32 024 kbps     01:01:55.586    31 015 kbps     01:01:51.416    134 825 bytes   386 356 bytes   01:03:29.388
11              1:05:05.484     0:02:01.204     25 839 kbps     44 940 kbps     01:05:45.608    39 596 kbps     01:05:41.687    35 475 kbps     01:05:39.101    134 713 bytes   396 448 bytes   01:05:28.424
12              1:07:06.689     0:07:06.634     25 079 kbps     39 284 kbps     01:09:44.388    33 569 kbps     01:09:40.384    31 964 kbps     01:09:38.382    130 749 bytes   495 614 bytes   01:08:42.284
13              1:14:13.323     0:03:18.781     25 439 kbps     36 823 kbps     01:17:18.133    35 135 kbps     01:15:13.383    34 694 kbps     01:15:13.217    132 629 bytes   425 883 bytes   01:17:17.341
14              1:17:32.104     0:04:35.526     24 778 kbps     38 306 kbps     01:21:51.072    32 227 kbps     01:17:32.606    30 212 kbps     01:17:32.105    129 181 bytes   407 179 bytes   01:21:51.114
15              1:22:07.631     0:00:48.714     28 186 kbps     33 096 kbps     01:22:17.724    30 365 kbps     01:22:11.593    29 680 kbps     01:22:08.757    146 947 bytes   434 587 bytes   01:22:56.346
16              1:22:56.345     0:06:55.664     12 012 kbps     33 821 kbps     01:24:14.382    28 314 kbps     01:25:05.767    27 516 kbps     01:25:01.346    62 907 bytes    465 829 bytes   01:25:20.198
STREAM DIAGNOSTICS:
File            PID             Type            Codec           Language                Seconds                 Bitrate                 Bytes           Packets
----            ---             ----            -----           --------                --------------          --------------          -------------   -----
00000.M2TS      4113 (0x1011)   0xEA            VC-1                                    5391,886                24 054                  16 211 894 842  88 186 301
00000.M2TS      4352 (0x1100)   0x82            DTS             rus (Russian)           5391,886                767                     516 905 984     3 028 746
00000.M2TS      4353 (0x1101)   0x86            DTS-HD MA       eng (English)           5391,886                2 386                   1 608 051 828   9 574 780
00000.M2TS      4608 (0x1200)   0x90            PGS             rus (Russian)           5391,886                26                      17 705 448      102 842
00000.M2TS      4609 (0x1201)   0x90            PGS             eng (English)           5391,886                41                      27 474 085      158 369
00000.M2TS      4610 (0x1202)   0x90            PGS             fra (French)            5391,886                35                      23 487 908      134 813
00000.M2TS      4611 (0x1203)   0x90            PGS             ita (Italian)           5391,886                33                      22 177 198      127 947
00000.M2TS      4612 (0x1204)   0x90            PGS             jpn (Japanese)          5391,886                22                      14 577 476      85 119
00000.M2TS      4613 (0x1205)   0x90            PGS             deu (German)            5391,886                36                      24 170 933      138 801
00000.M2TS      4614 (0x1206)   0x90            PGS             spa (Spanish)           5391,886                32                      21 821 837      125 906
00000.M2TS      4615 (0x1207)   0x90            PGS             por (Portuguese)        5391,886                34                      22 804 705      131 335
00000.M2TS      4616 (0x1208)   0x90            PGS             spa (Spanish)           5391,886                30                      20 178 031      116 882
00000.M2TS      4617 (0x1209)   0x90            PGS             dan (Danish)            5391,886                33                      22 470 728      129 465
00000.M2TS      4618 (0x120A)   0x90            PGS             nld (Dutch)             5391,886                32                      21 555 432      124 019
00000.M2TS      4619 (0x120B)   0x90            PGS             fin (Finnish)           5391,886                36                      24 117 039      138 510
00000.M2TS      4620 (0x120C)   0x90            PGS             ell (Greek)             5391,886                40                      26 674 923      152 692
00000.M2TS      4621 (0x120D)   0x90            PGS             kor (Korean)            5391,886                20                      13 717 893      82 019
00000.M2TS      4622 (0x120E)   0x90            PGS             nor (Norwegian)         5391,886                35                      23 775 028      136 280
00000.M2TS      4623 (0x120F)   0x90            PGS             por (Portuguese)        5391,886                34                      22 950 866      131 994
00000.M2TS      4624 (0x1210)   0x90            PGS             swe (Swedish)           5391,886                33                      22 433 584      129 258
00000.M2TS      4625 (0x1211)   0x90            PGS             tha (Thai)              5391,886                28                      18 676 186      109 368
00000.M2TS      4626 (0x1212)   0x90            PGS             tur (Turkish)           5391,886                37                      25 050 379      143 881
00000.M2TS      4627 (0x1213)   0x90            PGS             zho (Chinese)           5391,886                29                      19 482 743      113 502
00000.M2TS      4628 (0x1214)   0x90            PGS             jpn (Japanese)          5391,886                0                       189 769         1 123
00000.M2TS      4629 (0x1215)   0x90            PGS             fra (French)            5391,886                0                       176 768         1 029
00000.M2TS      4630 (0x1216)   0x90            PGS             ita (Italian)           5391,886                0                       146 572         857
00000.M2TS      4631 (0x1217)   0x90            PGS             deu (German)            5391,886                0                       253 790         1 468
00000.M2TS      4632 (0x1218)   0x90            PGS             spa (Spanish)           5391,886                0                       220 687         1 271
QUICK SUMMARY:
Disc Title: Билли Мэдисон
Disc Size: 32 470 640 063 bytes
Protection: AACS
BD-Java: No
Playlist: 00000.MPLS
Size: 19 860 658 176 bytes
Length: 1:29:52.010
Total Bitrate: 29,47 Mbps
Video: VC-1 Video / 24053 kbps / 1080p / 23,976 fps / 16:9 / Advanced Profile 3
Audio: Russian / DTS Audio / 5.1 / 48 kHz / 768 kbps / 24-bit
Audio: English / DTS-HD Master Audio / 5.1 / 48 kHz / 2386 kbps / 24-bit (DTS Core: 5.1 / 48 kHz / 1509 kbps / 24-bit)
Subtitle: Russian / 26,269 kbps
Subtitle: English / 40,763 kbps
Subtitle: French / 34,848 kbps
Subtitle: Italian / 32,904 kbps
Subtitle: Japanese / 21,628 kbps
Subtitle: German / 35,862 kbps
Subtitle: Spanish / 32,377 kbps
Subtitle: Portuguese / 33,835 kbps
Subtitle: Spanish / 29,938 kbps
Subtitle: Danish / 33,339 kbps
Subtitle: Dutch / 31,981 kbps
Subtitle: Finnish / 35,782 kbps
Subtitle: Greek / 39,577 kbps
Subtitle: Korean / 20,353 kbps
Subtitle: Norwegian / 35,274 kbps
Subtitle: Portuguese / 34,052 kbps
Subtitle: Swedish / 33,284 kbps
Subtitle: Thai / 27,709 kbps
Subtitle: Turkish / 37,167 kbps
Subtitle: Chinese / 28,906 kbps
Subtitle: Japanese / 0,282 kbps
Subtitle: French / 0,262 kbps
Subtitle: Italian / 0,217 kbps
Subtitle: German / 0,377 kbps
Subtitle: Spanish / 0,327 kbps
Скриншоты:
       

RazBoyNik

Пост 14-Фев-2017 18:25

[Цитировать]

Ловушка для родителей / The Parent Trap- Производство: США Cinema Vehicle Services, The Meyers/Shyer Company, Walt Disney Pictures
Жанр: Драма, Мелодрама, Комедия, Семейный
Режиссер: Нэнси Майерс
Актеры: Линдси Лохан, Деннис Куэйд, Наташа Ричардсон, Илэйн Хендрикс, Лиза Энн Уолтер, Саймон Кунц, Полли Холлидей, Мэгги Вилер, Ронни Стивенс, Джоэнна Барнс
Описание:
Юная Холли Паркер живет в солнечной Калифорнии с самым замечательным отцом на свете, а ее ровесница Энни Джеймс — в туманном Лондоне с прекрасной любящей матерью. Первая мечтает о маме, без которой ей очень тяжело, а второй так хочется, чтобы у нее был папа.
Когда девочки случайно встречаются в летнем лагере, им есть, чем поделиться друг с другом. Но помимо общих горестей между Холли и Энни существует еще одно сходство: они… близнецы! Их родители развелись много лет назад, и девочки решают исправить эту трагическую ошибку.
Сестрички начинают действовать: американка возвращается в Лондон, а англичанка в Америку. И ничего не подозревающие родители легко попадают в ловушку…

Возраст: 12+ (зрителям, достигшим 12 лет)
Рейтинг MPAA: PG (рекомендуется присутствие родителей)
Продолжительность: 02:08:08
Качество видео: WEB-DLRip
Перевод: Многоголосый закадровый, авторский одноголосый закадровый
Язык субтитров: Русский, английский
Вид субтитров: Вшитые отключаемые
Видео: AVC/H.264, 1920х1080, ~12,3 Mbps
Аудио: 1 AC3, 2 ch, 192 kbps - Русский, многоголосый (СТС)
Аудио: 2 AC3, 2 ch, 192 kbps - Русский, многоголосый (Видеосервис)
Аудио: 3 AC3, 2 ch, 192 kbps - Русский, многоголосый (ОРТ)
Аудио: 4 AC3, 6 ch, 448 kbps - Русский, одноголосый (С. Визгунов)
Аудио: 5 AC3, 2 ch, 192 kbps - Русский, одноголосый (А. Кашкин)
Аудио: 6 AC3, 6 ch, 640 kbps - Английский оригинальный

Mediainfo:

Complete name               : H:\The Parent Trap.(1998).WEBRip.1080p.mkv
Format : Matroska
Format version : Version 2
File size : 12.9 GiB
Duration : 2 h 8 min
Overall bit rate mode : Variable
Overall bit rate : 14.4 Mb/s
Movie name : The Parent Trap.(1998).WEBRip.1080p
Encoded date : UTC 2017-02-12 17:05:10
Writing application : mkvmerge v5.8.0 ('No Sleep / Pillow') built on Sep 2 2012 15:37:04
Writing library : libebml v1.2.3 + libmatroska v1.3.0
Video
ID : 1
Format : AVC
Format/Info : Advanced Video Codec
Format profile : High@L4
Format settings, CABAC : Yes
Format settings, ReFrames : 4 frames
Codec ID : V_MPEG4/ISO/AVC
Duration : 2 h 8 min
Bit rate mode : Variable
Bit rate : 12.3 Mb/s
Maximum bit rate : 15.0 Mb/s
Width : 1 920 pixels
Height : 1 080 pixels
Display aspect ratio : 16:9
Frame rate mode : Constant
Frame rate : 23.976 (24000/1001) FPS
Color space : YUV
Chroma subsampling : 4:2:0
Bit depth : 8 bits
Scan type : Progressive
Bits/(Pixel*Frame) : 0.247
Stream size : 11.0 GiB (85%)
Title : The Parent Trap.(1998).WEBRip.1080p
Writing library : x264 core 148 r2623 d5b2374
Encoding settings : cabac=1 / ref=4 / deblock=1:-1:-1 / analyse=0x3:0x133 / me=umh / subme=9 / psy=1 / psy_rd=1.00:0.15 / mixed_ref=1 / me_range=24 / chroma_me=1 / trellis=2 / 8x8dct=1 / cqm=0 / deadzone=21,11 / fast_pskip=1 / chroma_qp_offset=-3 / threads=34 / lookahead_threads=5 / sliced_threads=0 / nr=150 / decimate=1 / interlaced=0 / bluray_compat=0 / constrained_intra=0 / bframes=8 / b_pyramid=2 / b_adapt=2 / b_bias=0 / direct=3 / weightb=1 / open_gop=0 / weightp=2 / keyint=120 / keyint_min=61 / scenecut=0 / intra_refresh=0 / rc_lookahead=120 / rc=crf / mbtree=1 / crf=18.0 / qcomp=0.60 / qpmin=0 / qpmax=69 / qpstep=4 / vbv_maxrate=15000 / vbv_bufsize=31250 / crf_max=0.0 / nal_hrd=vbr / filler=0 / ip_ratio=1.40 / aq=3:1.00
Language : English
Default : Yes
Forced : No
Color range : Limited
Color primaries : BT.709
Transfer characteristics : BT.709
Matrix coefficients : BT.709
Audio #1
ID : 2
Format : AC-3
Format/Info : Audio Coding 3
Mode extension : CM (complete main)
Format settings, Endianness : Big
Codec ID : A_AC3
Duration : 2 h 8 min
Bit rate mode : Constant
Bit rate : 192 kb/s
Channel(s) : 2 channels
Channel positions : Front: L R
Sampling rate : 48.0 kHz
Frame rate : 31.250 FPS (1536 spf)
Bit depth : 16 bits
Compression mode : Lossy
Stream size : 176 MiB (1%)
Title : AC3 2.0 @ 192 kbps - MVO, CTC
Language : Russian
Default : No
Forced : No
Audio #2
ID : 3
Format : AC-3
Format/Info : Audio Coding 3
Mode extension : CM (complete main)
Format settings, Endianness : Big
Codec ID : A_AC3
Duration : 2 h 8 min
Bit rate mode : Constant
Bit rate : 192 kb/s
Channel(s) : 2 channels
Channel positions : Front: L R
Sampling rate : 48.0 kHz
Frame rate : 31.250 FPS (1536 spf)
Bit depth : 16 bits
Compression mode : Lossy
Stream size : 176 MiB (1%)
Title : AC3 2.0 @ 192 kbps - MVO, Видеосервис
Language : Russian
Default : No
Forced : No
Audio #3
ID : 4
Format : AC-3
Format/Info : Audio Coding 3
Mode extension : CM (complete main)
Format settings, Endianness : Big
Codec ID : A_AC3
Duration : 2 h 8 min
Bit rate mode : Constant
Bit rate : 192 kb/s
Channel(s) : 2 channels
Channel positions : Front: L R
Sampling rate : 48.0 kHz
Frame rate : 31.250 FPS (1536 spf)
Bit depth : 16 bits
Compression mode : Lossy
Stream size : 176 MiB (1%)
Title : AC3 2.0 @ 192 kbps - MVO, ОРТ
Language : Russian
Default : No
Forced : No
Audio #4
ID : 5
Format : AC-3
Format/Info : Audio Coding 3
Mode extension : CM (complete main)
Format settings, Endianness : Big
Codec ID : A_AC3
Duration : 2 h 8 min
Bit rate mode : Constant
Bit rate : 448 kb/s
Channel(s) : 6 channels
Channel positions : Front: L C R, Side: L R, LFE
Sampling rate : 48.0 kHz
Frame rate : 31.250 FPS (1536 spf)
Bit depth : 16 bits
Compression mode : Lossy
Stream size : 411 MiB (3%)
Title : AC3 5.1 @ 448 kbps - AVO, С. Визгунов
Language : Russian
Default : No
Forced : No
Audio #5
ID : 6
Format : AC-3
Format/Info : Audio Coding 3
Mode extension : CM (complete main)
Format settings, Endianness : Big
Codec ID : A_AC3
Duration : 2 h 8 min
Bit rate mode : Constant
Bit rate : 192 kb/s
Channel(s) : 2 channels
Channel positions : Front: L R
Sampling rate : 48.0 kHz
Frame rate : 31.250 FPS (1536 spf)
Bit depth : 16 bits
Compression mode : Lossy
Stream size : 176 MiB (1%)
Title : AC3 2.0 @ 192 kbps - AVO, А. Кашкин
Language : Russian
Default : No
Forced : No
Audio #6
ID : 7
Format : E-AC-3
Format/Info : Enhanced Audio Coding 3
Format settings, Endianness : Big
Codec ID : A_EAC3
Duration : 2 h 8 min
Bit rate mode : Constant
Bit rate : 640 kb/s
Channel(s) : 6 channels
Channel positions : Front: L C R, Side: L R, LFE
Sampling rate : 48.0 kHz
Frame rate : 187.500 FPS (256 spf)
Compression mode : Lossy
Stream size : 587 MiB (4%)
Title : AC3 5.1 @ 640 kbps - Original
Language : English
Default : No
Forced : No
Text #1
ID : 8
Format : UTF-8
Codec ID : S_TEXT/UTF8
Codec ID/Info : UTF-8 Plain Text
Language : Russian
Default : No
Forced : No
Text #2
ID : 9
Format : UTF-8
Codec ID : S_TEXT/UTF8
Codec ID/Info : UTF-8 Plain Text
Language : English
Default : No
Forced : No
Скриншоты:
       

RazBoyNik

Пост 14-Фев-2017 18:12

[Цитировать]

Майна / Maïna - Производство: Канада / Equinoxe
Жанр: Приключения
Режиссер: Мишель Полетт
Актеры: Ренетта Арлук, Танту Кардинал, Грэм Грин, Пакак Иннуксук, Ипилье Оотова, Эрик Швейг, Роузэнн Супернаульт, Уапшкусс Терниш, Люси Тулугарджук, Нуувия Тулугарджук
Описание:
Юная девушка Майна родилась и выросла в племени северо-американских индейцев, которые испокон веков живут на лоне природы, верят в силы духов и почитают старые традиции, и обычаи. Родила девочку Такаэра, но вскормила и вырастила девочку другая женщина, ставшая спутницей отца — вождя племени. Такаэра не смогла простить ему измену. Она покинула племя и стала вести уединенную жизнь, оставаясь при этом шаманом племени.
После смерти отца, отравленного членом враждующего племени Саиту, Майна вынуждена противостоять одержимому ею Саиту, а также отправиться в далекое путешествие, чтобы разыскать похищенного одиннадцатилетнего мальчишку из племени, по имени Нипки. На пути бесстрашную девушку ждет множество приключений, опасных ситуаций и знакомств с новыми интересными людьми.

Продолжительность: 01:38:06
Качество видео: BDRemux
Перевод: Авторский (П. Морозов/PashaUp)
Язык субтитров: Русский (полные), Английский (на диалоги индейцев)
Вид субтитров: Вшитые, отключаемые
Видео: AVC/H.264, 1920x1080, ~20 Mbps
Аудио 1: DTS-HD MA, 6 ch, ~2048 kbps, Русский (AVO, П. Морозов/PashaUp)
Аудио 2: DTS-HD MA, 6 ch, ~2048 kbps, Английский (Оригинал)

MediaIinfo:

Общее
Формат : Matroska
Версия формата : Version 4 / Version 2
Размер файла : 16,6 Гбайт
Продолжительность : 1 ч. 38 м.
Режим общего битрейта : Переменный
Общий поток : 24,3 Мбит/сек
Название фильма : Maina (2013) BDRemux by Lexandros
Дата кодирования : UTC 2017-02-13 06:53:06
Программа кодирования : mkvmerge v9.8.0 ('Kuglblids') 64bit
Библиотека кодирования : libebml v1.3.4 + libmatroska v1.4.5
Видео
Идентификатор : 1
Формат : AVC
Формат/Информация : Advanced Video Codec
Профиль формата : [url=mailto:High@L4.1]High@L4.1[/url]
Параметр CABAC формата : Да
Параметр ReFrames формата : 2 кадра
Параметр GOP формата : M=1, N=5
Идентификатор кодека : V_MPEG4/ISO/AVC
Продолжительность : 1 ч. 38 м.
Вид битрейта : Переменный
Битрейт : 20,1 Мбит/сек
Максимальный битрейт : 36,2 Мбит/сек
Ширина : 1920 пикселей
Высота : 1080 пикселей
Соотношение сторон : 16:9
Режим частоты кадров : Постоянный
Частота кадров : 25,000 кадров/сек
Цветовое пространство : YUV
Субдискретизация насыщенности : 4:2:0
Битовая глубина : 8 бит
Тип развёртки : MBAFF
Метод сохранения типа развёртки : Чередующиеся поля
Порядок развёртки : Верхнее поле первое
Бит/(Пиксели*Кадры) : 0.388
Размер потока : 13,8 Гбайт (83%)
Язык : English
Default : Да
Forced : Нет
Аудио #1
Идентификатор : 2
Формат : DTS
Формат/Информация : Digital Theater Systems
Профиль формата : MA / Core
Режим : 16
Параметр Endianness формата : Big
Идентификатор кодека : A_DTS
Продолжительность : 1 ч. 38 м.
Вид битрейта : Переменный / Постоянный
Битрейт : 2048 Кбит/сек / 1509 Кбит/сек
Каналы : 6 каналов
Расположение каналов : Front: L C R, Side: L R, LFE
Частота : 48,0 КГц
Частота кадров : 93,750 кадра/сек (512 spf)
Битовая глубина : 16 бит
Метод сжатия : Без потерь / Lossy
Размер потока : 1,43 Гбайт (9%)
Заголовок : AVO, PashaUp
Язык : Russian
Default : Да
Forced : Нет
Аудио #2
Идентификатор : 3
Формат : DTS
Формат/Информация : Digital Theater Systems
Профиль формата : MA / Core
Режим : 16
Параметр Endianness формата : Big
Идентификатор кодека : A_DTS
Продолжительность : 1 ч. 38 м.
Вид битрейта : Переменный / Постоянный
Битрейт : 2048 Кбит/сек / 1509 Кбит/сек
Каналы : 6 каналов
Расположение каналов : Front: L C R, Side: L R, LFE
Частота : 48,0 КГц
Частота кадров : 93,750 кадра/сек (512 spf)
Битовая глубина : 16 бит
Метод сжатия : Без потерь / Lossy
Размер потока : 1,42 Гбайт (9%)
Язык : English
Default : Нет
Forced : Нет
Текст #1
Идентификатор : 4
Формат : UTF-8
Идентификатор кодека : S_TEXT/UTF8
Идентификатор кодека/Информация : UTF-8 Plain Text
Продолжительность : 1 ч. 34 м.
Битрейт : 17 бит/сек
Count of elements : 464
Размер потока : 12,4 Кбайт (0%)
Язык : Russian
Default : Да
Forced : Нет
Текст #2
Идентификатор : 5
Формат : UTF-8
Идентификатор кодека : S_TEXT/UTF8
Идентификатор кодека/Информация : UTF-8 Plain Text
Продолжительность : 1 ч. 31 м.
Битрейт : 12 бит/сек
Count of elements : 336
Размер потока : 8,24 Кбайт (0%)
Язык : English
Default : Нет
Forced : Нет
Меню
00:00:00.000 : en:00:00:00.000
00:10:05.000 : en:00:10:05.000
00:24:56.800 : en:00:24:56.800
00:36:28.000 : en:00:36:28.000
00:50:02.120 : en:00:50:02.120
01:01:05.200 : en:01:01:05.200
01:13:18.000 : en:01:13:18.000
01:25:19.000 : en:01:25:19.000
Скриншоты:
       

RazBoyNik

Пост 14-Фев-2017 18:07

[Цитировать]

Снайпер / Sniper - Производство: США, Перу, Baltimore Pictures, Iguana Producciones, Sniper Productions
Жанр: Боевик, Триллер, Драма, Военный
Режиссер: Луис Ллоса
Актеры: Том Беренджер, Билли Зейн, Дж.Т. Уолш, Аден Янг, Кен Рэдли, Рейнальдо Аренас, Гэри Суонсон, Хэнк Гаррет, Фредерик Миральотта, Ванесса Стил, Тайлер Коппин, Тео Геберт
Описание:
Два снайпера. Том Бекет и Ричард Миллер, получают смертельно опасное задание: в джунглях Центральной Америки найти базу колумбийских наркодельцов, проникнуть внутрь и ликвидировать главаря. Возможна только одна попытка, один выстрел.

Возраст: 16+ (зрителям, достигшим 16 лет)
Дата выхода DVD/Blu-ray релиза: 5 марта 2009, «Мьюзик-Трейд»
Продолжительность: 01:39:01
Качество видео: BDRip 720p
Перевод: Профессиональный (многоголосый, закадровый), Профессиональный (двухголосый, закадровый), авторский (одноголосый, закадровый)
Язык субтитров: Русский, Английский
Вид субтитров: Вшитые, отключаемые
Видео: AVC/H.264, 1280x694, ~11.4 Mbps
Аудио1: AC3, 6 ch, 384 Kbps - Многоголосый, закадровый (R5)
Аудио2: AC3, 2 ch, 192 Kbps - Двухголосый, закадровый (НТВ)
Аудио3: DTS, 6 ch, 1509 Kbps - Одноголосый, авторский (А. Гаврилов)
Аудио4: DTS, 6 ch, 1509 Kbps - Одноголосый, авторский (Ю.Живов)
Аудио5: DTS, 6 ch, 1509 Kbps - Одноголосый, авторский (Д.Пучков)
Аудио6: AC3, 2 ch, 192 Kbps - Одноголосый, авторский (М.Латышев / CDV)
Аудио7: AC3, 2 ch, 192 Kbps - Одноголосый, авторский (В.Горчаков)
Аудио8: AC3, 2 ch, 384 Kbps - Одноголосый, авторский (Л.Володарский)
Аудио9: AC3, 2 ch, 192 Kbps - Украинский двухголосый, закадровый (ICTV)
Аудио10: AC3, 2 ch, 192 Kbps - Украинский двухголосый, закадровый (Тонис)
Аудио11: DTS, 6 ch, 1509 Kbps - Английский, оригинал

x264:

x264 [info]: frame I:1732  Avg QP:16.53  size:146639
x264 [info]: frame P:29965 Avg QP:17.73 size: 99304
x264 [info]: frame B:110756 Avg QP:20.14 size: 47082

Mediainfo:

Формат                                   : Matroska
Версия формата : Version 4 / Version 2
Размер файла : 13,3 Гбайт
Продолжительность : 1 ч. 39 м.
Общий поток : 19,2 Мбит/сек
Название фильма : Sniper.1992.x264.BDRip.720p.BLUEBIRD
Дата кодирования : UTC 2017-02-04 13:42:24
Программа кодирования : mkvmerge v7.9.0 ('Birds') 32bit
Библиотека кодирования : libebml v1.3.1 + libmatroska v1.4.2
Видео
Идентификатор : 1
Формат : AVC
Формат/Информация : Advanced Video Codec
Профиль формата : [url=mailto:High@L4.1]High@L4.1[/url]
Параметр CABAC формата : Да
Параметр ReFrames формата : 9 кадров
Идентификатор кодека : V_MPEG4/ISO/AVC
Продолжительность : 1 ч. 39 м.
Битрейт : 11,4 Мбит/сек
Ширина : 1280 пикселей
Высота : 694 пикселя
Соотношение сторон : 1,85:1
Режим частоты кадров : Постоянный
Частота кадров : 23,976 (24000/1001) кадра/сек
Цветовое пространство : YUV
Субдискретизация насыщенности : 4:2:0
Битовая глубина : 8 бит
Тип развёртки : Прогрессивная
Бит/(Пиксели*Кадры) : 0.534
Размер потока : 7,86 Гбайт (59%)
Заголовок : Sniper.1992.x264.BDRip.720p.BLUEBIRD
Библиотека кодирования : x264 core 148 r2744 b97ae06
Настройки программы : cabac=1 / ref=9 / deblock=1:-3:-3 / analyse=0x3:0x113 / me=esa / subme=10 / psy=1 / psy_rd=1.10:0.20 / mixed_ref=1 / me_range=32 / chroma_me=1 / trellis=2 / 8x8dct=1 / cqm=0 / deadzone=21,11 / fast_pskip=0 / chroma_qp_offset=-3 / threads=12 / lookahead_threads=1 / sliced_threads=0 / nr=0 / decimate=0 / interlaced=0 / bluray_compat=0 / constrained_intra=0 / bframes=9 / b_pyramid=2 / b_adapt=1 / b_bias=0 / direct=3 / weightb=1 / open_gop=0 / weightp=2 / keyint=240 / keyint_min=23 / scenecut=40 / intra_refresh=0 / rc_lookahead=60 / rc=crf / mbtree=0 / crf=17.7 / qcomp=0.75 / qpmin=0 / qpmax=69 / qpstep=4 / vbv_maxrate=62500 / vbv_bufsize=78125 / crf_max=0.0 / nal_hrd=none / filler=0 / ip_ratio=1.40 / pb_ratio=1.30 / aq=1:0.85 / zones=0,1703,q=19/13710,13850,q=16/24189,24834,q=16/59547,59665,q=16/60728,61284,q=16/61460,61987,q=16/62105,65192,q=15/66225,67308,q=16/67577,67625,q=26/81806,84855,q=16/85316,85528,q=16/85631,85744,q=16/86053,86293,q=16/87408,87780,q=16/97225,98968,q=16/99643,100086,q=16/128868,128925,q=16/129027,130818,q=16/133671,133788,q=20/137663,142452,q=30
Язык : English
Default : Да
Forced : Нет
Аудио #1
Идентификатор : 2
Формат : AC-3
Формат/Информация : Audio Coding 3
Расширение режима : CM (complete main)
Параметр Endianness формата : Big
Идентификатор кодека : A_AC3
Продолжительность : 1 ч. 39 м.
Вид битрейта : Постоянный
Битрейт : 448 Кбит/сек
Каналы : 6 каналов
Расположение каналов : Front: L C R, Side: L R, LFE
Частота : 48,0 КГц
Частота кадров : 31,250 кадров/сек (1536 spf)
Битовая глубина : 16 бит
Метод сжатия : С потерями
Размер потока : 317 Мбайт (2%)
Заголовок : Профессиональный многоголосый (R5)
Язык : Russian
Default : Да
Forced : Нет
Аудио #2
Идентификатор : 3
Формат : AC-3
Формат/Информация : Audio Coding 3
Расширение режима : CM (complete main)
Параметр Endianness формата : Big
Идентификатор кодека : A_AC3
Продолжительность : 1 ч. 39 м.
Вид битрейта : Постоянный
Битрейт : 192 Кбит/сек
Каналы : 2 канала
Расположение каналов : Front: L R
Частота : 48,0 КГц
Частота кадров : 31,250 кадров/сек (1536 spf)
Битовая глубина : 16 бит
Метод сжатия : С потерями
Размер потока : 136 Мбайт (1%)
Заголовок : Профессиональный двухголосый (НТВ)
Язык : Russian
Default : Нет
Forced : Нет
Аудио #3
Идентификатор : 4
Формат : DTS
Формат/Информация : Digital Theater Systems
Режим : 16
Параметр Endianness формата : Big
Идентификатор кодека : A_DTS
Продолжительность : 1 ч. 39 м.
Вид битрейта : Постоянный
Битрейт : 1509 Кбит/сек
Каналы : 6 каналов
Расположение каналов : Front: L C R, Side: L R, LFE
Частота : 48,0 КГц
Частота кадров : 93,750 кадра/сек (512 spf)
Битовая глубина : 24 бит
Метод сжатия : С потерями
Размер потока : 1,04 Гбайт (8%)
Заголовок : Авторский одноголосый (А.Гаврилов)
Язык : Russian
Default : Нет
Forced : Нет
Аудио #4
Идентификатор : 5
Формат : DTS
Формат/Информация : Digital Theater Systems
Режим : 16
Параметр Endianness формата : Big
Идентификатор кодека : A_DTS
Продолжительность : 1 ч. 39 м.
Вид битрейта : Постоянный
Битрейт : 1509 Кбит/сек
Каналы : 6 каналов
Расположение каналов : Front: L C R, Side: L R, LFE
Частота : 48,0 КГц
Частота кадров : 93,750 кадра/сек (512 spf)
Битовая глубина : 24 бит
Метод сжатия : С потерями
Размер потока : 1,04 Гбайт (8%)
Заголовок : Авторский одноголосый (Ю.Живов)
Язык : Russian
Default : Нет
Forced : Нет
Аудио #5
Идентификатор : 6
Формат : DTS
Формат/Информация : Digital Theater Systems
Режим : 16
Параметр Endianness формата : Big
Идентификатор кодека : A_DTS
Продолжительность : 1 ч. 39 м.
Вид битрейта : Постоянный
Битрейт : 1509 Кбит/сек
Каналы : 6 каналов
Расположение каналов : Front: L C R, Side: L R, LFE
Частота : 48,0 КГц
Частота кадров : 93,750 кадра/сек (512 spf)
Битовая глубина : 24 бит
Метод сжатия : С потерями
Размер потока : 1,04 Гбайт (8%)
Заголовок : Авторский одноголосый (Д.Пучков)
Язык : Russian
Default : Нет
Forced : Нет
Аудио #6
Идентификатор : 7
Формат : AC-3
Формат/Информация : Audio Coding 3
Расширение режима : CM (complete main)
Параметр Endianness формата : Big
Идентификатор кодека : A_AC3
Продолжительность : 1 ч. 39 м.
Вид битрейта : Постоянный
Битрейт : 192 Кбит/сек
Каналы : 2 канала
Расположение каналов : Front: L R
Частота : 48,0 КГц
Частота кадров : 31,250 кадров/сек (1536 spf)
Битовая глубина : 16 бит
Метод сжатия : С потерями
Размер потока : 136 Мбайт (1%)
Заголовок : Авторский одноголосый (М.Латышев / CDV)
Язык : Russian
Default : Нет
Forced : Нет
Аудио #7
Идентификатор : 8
Формат : AC-3
Формат/Информация : Audio Coding 3
Расширение режима : CM (complete main)
Параметр Endianness формата : Big
Идентификатор кодека : A_AC3
Продолжительность : 1 ч. 39 м.
Вид битрейта : Постоянный
Битрейт : 192 Кбит/сек
Каналы : 2 канала
Расположение каналов : Front: L R
Частота : 48,0 КГц
Частота кадров : 31,250 кадров/сек (1536 spf)
Битовая глубина : 16 бит
Метод сжатия : С потерями
Размер потока : 136 Мбайт (1%)
Заголовок : Авторский одноголосый (В.Горчаков)
Язык : Russian
Default : Нет
Forced : Нет
Аудио #8
Идентификатор : 9
Формат : AC-3
Формат/Информация : Audio Coding 3
Расширение режима : CM (complete main)
Параметр Endianness формата : Big
Идентификатор кодека : A_AC3
Продолжительность : 1 ч. 39 м.
Вид битрейта : Постоянный
Битрейт : 384 Кбит/сек
Каналы : 2 канала
Расположение каналов : Front: L R
Частота : 48,0 КГц
Частота кадров : 31,250 кадров/сек (1536 spf)
Битовая глубина : 16 бит
Метод сжатия : С потерями
Размер потока : 272 Мбайт (2%)
Заголовок : Авторский одноголосый (Л.Володарский)
Язык : Russian
Default : Нет
Forced : Нет
Аудио #9
Идентификатор : 10
Формат : AC-3
Формат/Информация : Audio Coding 3
Расширение режима : CM (complete main)
Параметр Endianness формата : Big
Идентификатор кодека : A_AC3
Продолжительность : 1 ч. 39 м.
Вид битрейта : Постоянный
Битрейт : 192 Кбит/сек
Каналы : 2 канала
Расположение каналов : Front: L R
Частота : 48,0 КГц
Частота кадров : 31,250 кадров/сек (1536 spf)
Битовая глубина : 16 бит
Метод сжатия : С потерями
Размер потока : 136 Мбайт (1%)
Заголовок : Профессиональный многоголосый (ICTV)
Язык : Ukrainian
Default : Нет
Forced : Нет
Аудио #10
Идентификатор : 11
Формат : AC-3
Формат/Информация : Audio Coding 3
Расширение режима : CM (complete main)
Параметр Endianness формата : Big
Идентификатор кодека : A_AC3
Продолжительность : 1 ч. 39 м.
Вид битрейта : Постоянный
Битрейт : 192 Кбит/сек
Каналы : 2 канала
Расположение каналов : Front: L R
Частота : 48,0 КГц
Частота кадров : 31,250 кадров/сек (1536 spf)
Битовая глубина : 16 бит
Метод сжатия : С потерями
Размер потока : 136 Мбайт (1%)
Заголовок : Профессиональный многоголосый (Тонис)
Язык : Ukrainian
Default : Нет
Forced : Нет
Аудио #11
Идентификатор : 12
Формат : DTS
Формат/Информация : Digital Theater Systems
Режим : 16
Параметр Endianness формата : Big
Идентификатор кодека : A_DTS
Продолжительность : 1 ч. 39 м.
Вид битрейта : Постоянный
Битрейт : 1509 Кбит/сек
Каналы : 6 каналов
Расположение каналов : Front: L C R, Side: L R, LFE
Частота : 48,0 КГц
Частота кадров : 93,750 кадра/сек (512 spf)
Битовая глубина : 24 бит
Метод сжатия : С потерями
Размер потока : 1,04 Гбайт (8%)
Язык : English
Default : Нет
Forced : Нет
Текст #1
Идентификатор : 13
Формат : UTF-8
Идентификатор кодека : S_TEXT/UTF8
Идентификатор кодека/Информация : UTF-8 Plain Text
Продолжительность : 1 ч. 34 м.
Битрейт : 49 бит/сек
Count of elements : 645
Размер потока : 34,0 Кбайт (0%)
Заголовок : full #1 (Uncensored)
Язык : Russian
Default : Нет
Forced : Нет
Текст #2
Идентификатор : 14
Формат : UTF-8
Идентификатор кодека : S_TEXT/UTF8
Идентификатор кодека/Информация : UTF-8 Plain Text
Продолжительность : 1 ч. 32 м.
Битрейт : 41 бит/сек
Count of elements : 495
Размер потока : 28,6 Кбайт (0%)
Заголовок : full #2
Язык : Russian
Default : Нет
Forced : Нет
Текст #3
Идентификатор : 15
Формат : UTF-8
Идентификатор кодека : S_TEXT/UTF8
Идентификатор кодека/Информация : UTF-8 Plain Text
Продолжительность : 1 ч. 31 м.
Битрейт : 28 бит/сек
Count of elements : 573
Размер потока : 19,3 Кбайт (0%)
Заголовок : full
Язык : English
Default : Нет
Forced : Нет
Меню
00:00:00.000 : en:00:00:00.000
00:07:04.423 : en:00:07:04.423
00:16:05.965 : en:00:16:05.965
00:25:32.528 : en:00:25:32.528
00:32:29.948 : en:00:32:29.948
00:41:24.481 : en:00:41:24.481
00:48:44.922 : en:00:48:44.922
00:56:52.409 : en:00:56:52.409
01:04:20.856 : en:01:04:20.856
01:15:30.524 : en:01:15:30.524
01:22:50.966 : en:01:22:50.966
01:29:28.363 : en:01:29:28.363
Скриншоты:
       

RazBoyNik

Пост 14-Фев-2017 18:01

[Цитировать]

Джек Ричер 2: Никогда не возвращайся / Jack Reacher: Never Go Back - Производство: Китай, США / Paramount Pictures, Skydance Productions, TC Productions
Жанр: Боевик, Триллер, Криминал, Детектив
Режиссер: Эдвард Цвик
Актеры: Том Круз, Коби Смолдерс, Элдис Ходж, Даника Ярош, Патрик Хьюсингер, Холт МакКэллани, Джудд Лорманд, Кристофер Берри, Хантер Бурк, Джейсон Дуглас, Лизет Хатчингс, Марисела Зумбадо
Описание:
Экс-военный Джек Ричер приезжает в Вашингтон, чтобы впервые встретиться с майором Сьюзен Тернер, которая возглавила его бывшее подразделение и не раз выручала его в непростых ситуациях. По странному стечению обстоятельств буквально накануне его визита майора арестовывают по обвинению в измене... Ричеру, уверенному в невиновности Сьюзен, предстоит освободить ее и раскрыть заговор, ниточки которого тянутся на самый верх. Стремясь докопаться до правды, он также делает поразительное открытие, способное раз и навсегда изменить его жизнь...

Возраст: 16+ (зрителям, достигшим 16 лет)
Рейтинг MPAA: PG-13 (детям до 13 лет просмотр нежелателен)
Продолжительность: 01:58:10
Качество видео: BDRip
Перевод: Дублированный (Лицензия BD CEE)
Язык субтитров: Русский (форсированные, полные)
Вид субтитров: Вшитые, отключаемые
Видео: HEVC/H.265, 3840Х2160, ~54,3 Мбит/сек
Аудио 1: AC3, 6 ch, 640 kbps, CBR - Русский
Аудио 2: AC3, 6 ch, 640 kbps, CBR - Английский

Mediainfo:

Общее
Уникальный идентификатор : 204629630728604696896820750718826265797 (0x99F23BBBB4AB1685A624E7D461C93CC5)
Полное имя : G:\Jack Reacher Never Go Back 2016 4K UHD 2160p HEVC ).mkv
Формат : Matroska
Версия формата : Version 4 / Version 2
Размер файла : 45,9 Гбайт
Продолжительность : 1 ч. 58 м.
Общий поток : 55,6 Мбит/сек
Название фильма : Jack Reacher_Never Go Back.2016.BDRip.1080p
Дата кодирования : UTC 2017-02-13 08:30:02
Программа кодирования : mkvmerge v9.8.0 ('Kuglblids') 64bit
Библиотека кодирования : libebml v1.3.4 + libmatroska v1.4.5
Видео
Идентификатор : 1
Формат : HEVC
Формат/Информация : High Efficiency Video Coding
Профиль формата : Main 10@L5@Main
Идентификатор кодека : V_MPEGH/ISO/HEVC
Продолжительность : 1 ч. 58 м.
Битрейт : 54,3 Мбит/сек
Ширина : 3840 пикселей
Высота : 2160 пикселей
Соотношение сторон : 16:9
Режим частоты кадров : Постоянный
Частота кадров : 23,976 (24000/1001) кадра/сек
Цветовое пространство : YUV
Субдискретизация насыщенности : 4:2:0
Битовая глубина : 10 бит
Бит/(Пиксели*Кадры) : 0.273
Размер потока : 44,8 Гбайт (98%)
Библиотека кодирования : x265 2.2+22-20217c8af8ac:[Windows][GCC 6.2.0][64 bit] 10bit
Настройки программы : cpuid=1173503 / frame-threads=5 / numa-pools=14,14 / wpp / no-pmode / no-pme / no-psnr / no-ssim / log-level=2 / input-csp=1 / input-res=3840x2160 / interlace=0 / total-frames=170379 / level-idc=0 / high-tier=1 / uhd-bd=0 / ref=3 / no-allow-non-conformance / no-repeat-headers / annexb / no-aud / no-hrd / info / hash=0 / no-temporal-layers / open-gop / min-keyint=23 / keyint=250 / bframes=4 / b-adapt=2 / b-pyramid / bframe-bias=0 / rc-lookahead=20 / lookahead-slices=8 / scenecut=40 / no-intra-refresh / ctu=64 / min-cu-size=8 / no-rect / no-amp / max-tu-size=32 / tu-inter-depth=1 / tu-intra-depth=1 / limit-tu=0 / rdoq-level=0 / signhide / no-tskip / nr-intra=0 / nr-inter=0 / no-constrained-intra / no-strong-intra-smoothing / max-merge=2 / limit-refs=3 / no-limit-modes / me=3 / subme=7 / merange=57 / temporal-mvp / weightp / no-weightb / no-analyze-src-pics / deblock=-3:-3 / no-sao / no-sao-non-deblock / rd=3 / no-early-skip / no-rskip / no-fast-intra / no-tskip-fast / no-cu-lossless / no-b-intra / rdpenalty=0 / psy-rd=3.50 / psy-rdoq=0.00 / no-rd-refine / analysis-mode=0 / no-lossless / cbqpoffs=0 / crqpoffs=0 / rc=crf / crf=16.0 / qcomp=0.60 / qpstep=1 / stats-write=0 / stats-read=0 / ipratio=1.10 / pbratio=1.00 / aq-mode=0 / aq-strength=0.00 / no-cutree / zone-count=0 / no-strict-cbr / qg-size=64 / rc-grain / qpmax=69 / qpmin=0 / sar=1 / overscan=0 / videoformat=5 / range=0 / colorprim=1 / transfer=1 / colormatrix=1 / chromaloc=0 / display-window=0 / max-cll=0,0 / min-luma=0 / max-luma=1023 / log2-max-poc-lsb=8 / vui-timing-info / vui-hrd-info / slices=1 / opt-qp-pps / opt-ref-list-length-pps / no-multi-pass-opt-rps / scenecut-bias=0.05 / no-opt-cu-delta-qp / no-aq-motion
Язык : English
Default : Да
Forced : Нет
Цветовой диапазон : Limited
Основные цвета : BT.709
Характеристики трансфера : BT.709
Коэффициенты матрицы : BT.709
Аудио #1
Идентификатор : 2
Формат : AC-3
Формат/Информация : Audio Coding 3
Расширение режима : CM (complete main)
Параметр Endianness формата : Big
Идентификатор кодека : A_AC3
Продолжительность : 1 ч. 58 м.
Вид битрейта : Постоянный
Битрейт : 640 Кбит/сек
Каналы : 6 каналов
Расположение каналов : Front: L C R, Side: L R, LFE
Частота : 48,0 КГц
Частота кадров : 31,250 кадров/сек (1536 spf)
Метод сжатия : С потерями
Задержка видео : 1 с. 200 мс.
Размер потока : 541 Мбайт (1%)
Заголовок : DUB
Язык : Russian
Default : Да
Forced : Нет
Аудио #2
Идентификатор : 3
Формат : AC-3
Формат/Информация : Audio Coding 3
Расширение режима : CM (complete main)
Параметр Endianness формата : Big
Идентификатор кодека : A_AC3
Продолжительность : 1 ч. 58 м.
Вид битрейта : Постоянный
Битрейт : 640 Кбит/сек
Каналы : 6 каналов
Расположение каналов : Front: L C R, Side: L R, LFE
Частота : 48,0 КГц
Частота кадров : 31,250 кадров/сек (1536 spf)
Метод сжатия : С потерями
Задержка видео : 1 с. 200 мс.
Размер потока : 541 Мбайт (1%)
Язык : English
Default : Нет
Forced : Нет
Текст #1
Идентификатор : 4
Формат : UTF-8
Идентификатор кодека : S_TEXT/UTF8
Идентификатор кодека/Информация : UTF-8 Plain Text
Продолжительность : 1 ч. 13 м.
Битрейт : 0 бит/сек
Count of elements : 8
Размер потока : 406 байт (0%)
Заголовок : Forced
Язык : Russian
Default : Да
Forced : Нет
Текст #2
Идентификатор : 5
Формат : UTF-8
Идентификатор кодека : S_TEXT/UTF8
Идентификатор кодека/Информация : UTF-8 Plain Text
Продолжительность : 1 ч. 52 м.
Битрейт : 79 бит/сек
Count of elements : 1277
Размер потока : 65,5 Кбайт (0%)
Заголовок : Full
Язык : Russian
Default : Нет
Forced : Нет
Меню
00:00:00.000 : en:00:00:00.000
00:07:00.627 : en:00:07:00.627
00:15:19.876 : en:00:15:19.876
00:20:33.856 : en:00:20:33.856
00:29:04.576 : en:00:29:04.576
00:34:35.739 : en:00:34:35.739
00:42:40.139 : en:00:42:40.139
00:49:28.005 : en:00:49:28.005
00:58:44.561 : en:00:58:44.561
01:03:10.161 : en:01:03:10.161
01:09:35.753 : en:01:09:35.753
01:15:05.333 : en:01:15:05.333
01:21:59.663 : en:01:21:59.663
01:27:07.220 : en:01:27:07.220
01:34:14.064 : en:01:34:14.064
01:46:44.855 : en:01:46:44.855
01:53:30.845 : en:01:53:30.845
Скриншоты:
       
 

Текущее время: Сегодня 22:25

Часовой пояс: GMT + 3