Сегодня идет свободное скачивание без начисления Download

Результатов поиска: 500

Автор Сообщение

Theseus

Пост 09-Дек-2017 15:27

[Цитировать]

-Дракула / Dracula Untold- Год выпуска: 2014
Страна: США
Жанр: фантастика, боевик, драма
Продолжительность: 01:32:08
Перевод: Профессиональный (полное дублирование) [Лицензия] / Авторский одноголосый (С.Визгунов), (А.Дольский), (Д.Есарев)
Субтитры: Русские (форсированные, полные), английские (форсированные, полные)-Режиссер: Гари Шор-В ролях: Люк Эванс, Сара Гадон, Доминик Купер, Арт Паркинсон, Чарльз Дэнс, Дайармейд Мерта, Пол Кэй, Уильям Хьюстон, Ной Хантли, Ронан Вайберт-Описание: Влад Дракула был величайшим правителем, доблестным воином и страстным мужчиной. Но судьба свела его с врагом, коварство которого не знало границ. И тогда Дракула заключил сделку - нечеловеческая сила в обмен на самую малость - бессмертную душу... .- -Качество: BDRip 720p
Формат: MKV
Видео кодек: x.264
Аудио кодек: AC3
Видео: AVC, 1280x532 (2.40:1), 23.976 fps, 3649 Kbps (0.242 bit/pixel)
Аудио #1: AC-3, 48.0 KHz, 6 ch, 448 Kbps, CBR (RUS / DUB)
Аудио #2: AC-3, 48.0 KHz, 6 ch, 640 Kbps, CBR (RUS / С.Визгунов)
Аудио #3: AC-3, 48.0 KHz, 6 ch, 640 Kbps, CBR (RUS / А.Дольский)
Аудио #4: AC-3, 48.0 KHz, 6 ch, 640 Kbps, CBR (RUS / Д.Есарев)
Аудио #5: AC-3, 48.0 KHz, 6 ch, 640 Kbps, CBR (ENG)-

MediaInfo

Формат : Matroska
Размер файла : 4,47 Гигабайт
Продолжительность : 1ч 32мин
Общий поток : 6 953 Кбит/сек
Фильм : группа ExKinoRay, автор morfyi
Дата кодирования : UTC 2017-08-22 12:53:08
Программа-кодировщик : mkvmerge v5.8.0 ('No Sleep / Pillow') built on Sep 2 2012 15:37:04
Библиотека кодирования : libebml v1.2.3 + libmatroska v1.3.0
Видео
Формат : AVC
Формат/Информация : Advanced Video Codec
Профайл формата : High@L4.1
Настройка CABAC формата : Да
Настройка ReFrames формата : 12 кадры
Режим смешивания : Container profile=Unknown@4.1
Идентификатор кодека : V_MPEG4/ISO/AVC
Продолжительность : 1ч 32мин
Битрейт : 3 649 Кбит/сек
Номинальный битрейт : 3 945 Кбит/сек
Ширина : 1 280 пикс.
Высота : 532 пикс.
Соотношение кадра : 2.406
Частота кадров : 23,976 кадр/сек
Разрешение : 24 бит
Колориметрия : 4:2:0
Тип развёртки : Прогрессивная
Бит/(Пиксели*Кадры) : 0.242
Библиотека кодирования : x264 core 148 r2638 7599210
Настройки программы : cabac=1 / ref=12 / deblock=1:-3:-2 / analyse=0x3:0x113 / me=umh / subme=11 / psy=1 / psy_rd=1.00:0.15 / mixed_ref=1 / me_range=48 / chroma_me=0 / trellis=2 / 8x8dct=1 / cqm=0 / deadzone=21,11 / fast_pskip=0 / chroma_qp_offset=-3 / threads=6 / lookahead_threads=1 / sliced_threads=0 / nr=0 / decimate=0 / interlaced=0 / bluray_compat=0 / constrained_intra=0 / bframes=14 / b_pyramid=2 / b_adapt=2 / b_bias=0 / direct=3 / weightb=1 / open_gop=0 / weightp=2 / keyint=240 / keyint_min=23 / scenecut=40 / intra_refresh=0 / rc_lookahead=40 / rc=2pass / mbtree=0 / bitrate=3945 / ratetol=1.0 / qcomp=0.60 / qpmin=0 / qpmax=69 / qpstep=4 / cplxblur=20.0 / qblur=0.5 / vbv_maxrate=50000 / vbv_bufsize=62500 / nal_hrd=none / filler=0 / ip_ratio=1.40 / pb_ratio=1.30 / aq=3:1.00
Аудио #1
Формат : AC-3
Формат/Информация : Audio Coding 3
Идентификатор кодека : A_AC3
Продолжительность : 1ч 32мин
Режим расчёта битрейта : Постоянный
Битрейт : 448 Кбит/сек
Канал(ы) : 6 канала(ов)
Расположение каналов : Front: L C R, Rear: L R, LFE
Частота : 48,0 КГц
Заголовок : Дублированный
Язык : Russian
Аудио #2
Формат : AC-3
Формат/Информация : Audio Coding 3
Идентификатор кодека : A_AC3
Продолжительность : 1ч 32мин
Режим расчёта битрейта : Постоянный
Битрейт : 640 Кбит/сек
Канал(ы) : 6 канала(ов)
Расположение каналов : Front: L C R, Rear: L R, LFE
Частота : 48,0 КГц
Заголовок : Авторский одноголосый (С.Визгунов)
Язык : Russian
Аудио #3
Формат : AC-3
Формат/Информация : Audio Coding 3
Идентификатор кодека : A_AC3
Продолжительность : 1ч 32мин
Режим расчёта битрейта : Постоянный
Битрейт : 640 Кбит/сек
Канал(ы) : 6 канала(ов)
Расположение каналов : Front: L C R, Rear: L R, LFE
Частота : 48,0 КГц
Заголовок : Авторский одноголосый (А.Дольский)
Язык : Russian
Аудио #4
Формат : AC-3
Формат/Информация : Audio Coding 3
Идентификатор кодека : A_AC3
Продолжительность : 1ч 32мин
Режим расчёта битрейта : Постоянный
Битрейт : 640 Кбит/сек
Канал(ы) : 6 канала(ов)
Расположение каналов : Front: L C R, Rear: L R, LFE
Частота : 48,0 КГц
Заголовок : Авторский одноголосый (Д.Есарев)
Язык : Russian
Аудио #5
Формат : AC-3
Формат/Информация : Audio Coding 3
Идентификатор кодека : A_AC3
Продолжительность : 1ч 32мин
Режим расчёта битрейта : Постоянный
Битрейт : 640 Кбит/сек
Канал(ы) : 6 канала(ов)
Расположение каналов : Front: L C R, Rear: L R, LFE
Частота : 48,0 КГц
Заголовок : Оригинал
Текст #1
Формат : UTF-8
Идентификатор кодека : S_TEXT/UTF8
Идентификатор кодека/Информация : UTF-8 Plain Text
Заголовок : Форсированные
Язык : Russian
Текст #2
Формат : UTF-8
Идентификатор кодека : S_TEXT/UTF8
Идентификатор кодека/Информация : UTF-8 Plain Text
Заголовок : Полные
Язык : Russian
Текст #3
Формат : UTF-8
Идентификатор кодека : S_TEXT/UTF8
Идентификатор кодека/Информация : UTF-8 Plain Text
Заголовок : Форсированные
Текст #4
Формат : UTF-8
Идентификатор кодека : S_TEXT/UTF8
Идентификатор кодека/Информация : UTF-8 Plain Text
Заголовок : Полные
Разделы
Язык : English
1 : 00:00:00.000 00:00:00.000
2 : 00:04:07.289 00:04:07.289
3 : 00:07:20.565 00:07:20.565
4 : 00:11:32.817 00:11:32.817
5 : 00:16:30.698 00:16:30.698
6 : 00:22:53.664 00:22:53.664
7 : 00:30:23.447 00:30:23.447
8 : 00:34:16.763 00:34:16.763
9 : 00:38:57.043 00:38:57.043
10 : 00:43:00.369 00:43:00.369
11 : 00:47:03.738 00:47:03.738
12 : 00:53:16.735 00:53:16.735
13 : 00:57:39.831 00:57:39.831
14 : 01:00:47.310 01:00:47.310
15 : 01:04:30.033 01:04:30.033
16 : 01:09:12.190 01:09:12.190
17 : 01:12:47.613 01:12:47.613
18 : 01:17:11.877 01:17:11.877
19 : 01:21:52.658 01:21:52.658
20 : 01:25:02.556 01:25:02.556

Трейлер

-     - -

Theseus

Пост 09-Дек-2017 15:27

[Цитировать]

-Дракула / Dracula Untold- Год выпуска: 2014
Страна: США
Жанр: фантастика, боевик, драма
Продолжительность: 01:32:08
Перевод: Профессиональный (полное дублирование) [Лицензия]
Субтитры: Русские (форсированные, полные), английские (полные)-Режиссер: Гари Шор-В ролях: Люк Эванс, Сара Гадон, Доминик Купер, Арт Паркинсон, Чарльз Дэнс, Дайармейд Мерта, Пол Кэй, Уильям Хьюстон, Ной Хантли, Ронан Вайберт-Описание: Влад Дракула был величайшим правителем, доблестным воином и страстным мужчиной. Но судьба свела его с врагом, коварство которого не знало границ. И тогда Дракула заключил сделку - нечеловеческая сила в обмен на самую малость - бессмертную душу... .- -Качество: BDRip 1080p
Формат: MKV
Видео кодек: x.264
Аудио кодек: AC3
Видео: AVC, 1920x800 (2.40:1), 23.976 fps, 8050 Kbps (0.219 bit/pixel)
Аудио #1: AC-3, 48.0 KHz, 6 ch, 448 Kbps, CBR (RUS)
Аудио #2: AC-3, 48.0 KHz, 6 ch, 448 Kbps, CBR (ENG)-

MediaInfo

Общее
Уникальный идентификатор : 174972550945875195734472182696288205642 (0x83A27CCED90EE2E480BB79A2D0F03B4A)
Полное имя : Dracula.Untold.2014.BDRip.1080p.Rus.Eng.mkv
Формат : Matroska
Версия формата : Version 2
Размер файла : 5,75 Гбайт
Продолжительность : 1 ч. 32 м.
Общий поток : 8937 Кбит/сек
Название фильма : Дракула / Dracula Untold (2014)
Дата кодирования : UTC 2015-01-25 01:17:41
Программа кодирования : mkvmerge v5.8.0 ('No Sleep / Pillow') built on Sep 2 2012 15:37:04
Библиотека кодирования : libebml v1.2.3 + libmatroska v1.3.0
Видео
Идентификатор : 1
Формат : AVC
Формат/Информация : Advanced Video Codec
Профиль формата : High@L4.1
Параметр CABAC формата : Да
Параметр ReFrames формата : 5 кадров
Идентификатор кодека : V_MPEG4/ISO/AVC
Продолжительность : 1 ч. 32 м.
Битрейт : 8050 Кбит/сек
Ширина : 1920 пикселей
Высота : 800 пикселей
Соотношение сторон : 2,40:1
Режим частоты кадров : Постоянный
Частота кадров : 23,976 кадра/сек
Цветовое пространство : YUV
Субдискретизация насыщенности : 4:2:0
Битовая глубина : 8 бит
Тип развёртки : Прогрессивная
Бит/(Пиксели*Кадры) : 0.219
Размер потока : 5,06 Гбайт (88%)
Заголовок : Release by AlexKa
Библиотека кодирования : x264 core 144 r2525 40bb568
Настройки программы : cabac=1 / ref=5 / deblock=1:-3:-3 / analyse=0x3:0x133 / me=umh / subme=11 / psy=1 / psy_rd=1.00:0.00 / mixed_ref=1 / me_range=32 / chroma_me=1 / trellis=2 / 8x8dct=1 / cqm=0 / deadzone=21,11 / fast_pskip=0 / chroma_qp_offset=-2 / threads=12 / lookahead_threads=2 / sliced_threads=0 / nr=0 / decimate=0 / interlaced=0 / bluray_compat=0 / constrained_intra=0 / bframes=9 / b_pyramid=2 / b_adapt=2 / b_bias=0 / direct=3 / weightb=1 / open_gop=0 / weightp=2 / keyint=240 / keyint_min=23 / scenecut=40 / intra_refresh=0 / rc=2pass / mbtree=0 / bitrate=8050 / ratetol=1.0 / qcomp=0.60 / qpmin=0 / qpmax=69 / qpstep=4 / cplxblur=20.0 / qblur=0.5 / ip_ratio=1.40 / pb_ratio=1.30 / aq=1:0.90
Язык : English
Аудио #1
Идентификатор : 2
Формат : AC-3
Формат/Информация : Audio Coding 3
Расширение режима : CM (complete main)
Параметр Endianness формата : Big
Идентификатор кодека : A_AC3
Продолжительность : 1 ч. 32 м.
Вид битрейта : Постоянный
Битрейт : 448 Кбит/сек
Каналы : 6 каналов
Расположение каналов : Front: L C R, Side: L R, LFE
Частота : 48,0 КГц
Битовая глубина : 16 бит
Метод сжатия : С потерями
Размер потока : 295 Мбайт (5%)
Заголовок : Rus
Язык : Russian
Аудио #2
Идентификатор : 3
Формат : AC-3
Формат/Информация : Audio Coding 3
Расширение режима : CM (complete main)
Параметр Endianness формата : Big
Идентификатор кодека : A_AC3
Продолжительность : 1 ч. 32 м.
Вид битрейта : Постоянный
Битрейт : 448 Кбит/сек
Каналы : 6 каналов
Расположение каналов : Front: L C R, Side: L R, LFE
Частота : 48,0 КГц
Битовая глубина : 16 бит
Метод сжатия : С потерями
Размер потока : 295 Мбайт (5%)
Заголовок : Eng
Язык : English
Текст #1
Идентификатор : 4
Формат : UTF-8
Идентификатор кодека : S_TEXT/UTF8
Идентификатор кодека/Информация : UTF-8 Plain Text
Заголовок : Rus forced
Язык : Russian
Текст #2
Идентификатор : 5
Формат : UTF-8
Идентификатор кодека : S_TEXT/UTF8
Идентификатор кодека/Информация : UTF-8 Plain Text
Заголовок : Rus
Язык : Russian
Текст #3
Идентификатор : 6
Формат : UTF-8
Идентификатор кодека : S_TEXT/UTF8
Идентификатор кодека/Информация : UTF-8 Plain Text
Заголовок : Eng
Язык : English
Меню
00:00:00.000 : :Chapter 01
00:04:07.288 : :Chapter 02
00:07:20.565 : :Chapter 03
00:11:32.817 : :Chapter 04
00:16:30.698 : :Chapter 05
00:22:53.663 : :Chapter 06
00:30:23.446 : :Chapter 07
00:34:16.763 : :Chapter 08
00:38:57.043 : :Chapter 09
00:43:00.369 : :Chapter 10
00:47:03.737 : :Chapter 11
00:53:16.735 : :Chapter 12
00:57:39.831 : :Chapter 13
01:00:47.310 : :Chapter 14
01:04:30.032 : :Chapter 15
01:09:12.189 : :Chapter 16
01:12:47.613 : :Chapter 17
01:17:11.877 : :Chapter 18
01:21:52.657 : :Chapter 19
01:25:02.555 : :Chapter 20
01:32:08.147 : :Chapter 21

Трейлер

-     - -

Theseus

Пост 09-Дек-2017 15:26

[Цитировать]

-Дракула / Dracula Untold- Год выпуска: 2014
Страна: США
Жанр: фантастика, боевик, драма
Продолжительность: 01:32:08
Перевод: Профессиональный (полное дублирование) [Лицензия]
Субтитры: Русские, английские-Режиссер: Гари Шор-В ролях: Люк Эванс, Сара Гадон, Доминик Купер, Арт Паркинсон, Чарльз Дэнс, Дайармейд Мерта, Пол Кэй, Уильям Хьюстон, Ной Хантли, Ронан Вайберт-Описание: Влад Дракула был величайшим правителем, доблестным воином и страстным мужчиной. Но судьба свела его с врагом, коварство которого не знало границ. И тогда Дракула заключил сделку - нечеловеческая сила в обмен на самую малость - бессмертную душу... .- -Качество: BDRemux 2160p
Контейнер: MKV
Видео кодек: H.265
Аудио кодек: AC3/DTS-HD MA
Видео: MPEG-H HEVC HDR Video, H.265, 3840x2160, 71.5 Mbit/s, 23.976 fps
Аудио #1: AC-3, 48.0 KHz, 6 ch, 768 Kbps, CBR (RUS)
Аудио #2: DTS-HD MA, 48.0 KHz, 8 ch, 5212 Kbps, CBR (ENG)-

MediaInfo

General
Unique ID : 237910816683146655633264500888945034278 (0xB2FBF4E35E5C539381944DB283FC0426)
Complete name : G:VideoSSDDracula.Untold.2014.D.BDREMUX.2160p.4K.UltraHD.HEVC.HDR.ExKinoRay.mkv
Format : Matroska
Format version : Version 4 / Version 2
File size : 49.9 GiB
Duration : 1 h 32 min
Overall bit rate : 77.5 Mb/s
Movie name : Dracula Untold 2014 from ExKinoRay
Encoded date : UTC 2017-12-07 15:10:26
Writing application : mkvmerge v18.0.0 ('Apricity') 64-bit
Writing library : libebml v1.3.5 + libmatroska v1.4.8
Video
ID : 1
Format : HEVC
Format/Info : High Efficiency Video Coding
Format profile : Main 10@L5.1@High
Codec ID : V_MPEGH/ISO/HEVC
Duration : 1 h 32 min
Bit rate : 71.5 Mb/s
Width : 3 840 pixels
Height : 2 160 pixels
Display aspect ratio : 16:9
Frame rate mode : Constant
Frame rate : 23.976 (24000/1001) FPS
Color space : YUV
Chroma subsampling : 4:2:0 (Type 2)
Bit depth : 10 bits
Bits/(Pixel*Frame) : 0.360
Stream size : 46.1 GiB (92%)
Language : English
Default : Yes
Forced : No
Color range : Limited
Color primaries : BT.2020
Transfer characteristics : PQ
Matrix coefficients : BT.2020 non-constant
Mastering display color pri : R: x=0.680000 y=0.320000, G: x=0.265000 y=0.690000, B: x=0.150000 y=0.060000, White point: x=0.312700 y=0.329000
Mastering display luminance : min: 0.0000 cd/m2, max: 1000.0000 cd/m2
Audio #1
ID : 2
Format : DTS
Format/Info : Digital Theater Systems
Mode : 16
Format settings, Endianness : Big
Codec ID : A_DTS
Duration : 1 h 32 min
Bit rate mode : Constant
Bit rate : 768 kb/s
Channel(s) : 6 channels
Channel positions : Front: L C R, Side: L R, LFE
Sampling rate : 48.0 kHz
Frame rate : 93.750 FPS (512 SPF)
Bit depth : 24 bits
Compression mode : Lossy
Stream size : 506 MiB (1%)
Title : Dub [License]
Language : Russian
Default : Yes
Forced : No
Audio #2
ID : 3
Format : DTS
Format/Info : Digital Theater Systems
Format profile : X / MA / Core
Mode : 16
Format settings, Endianness : Big
Codec ID : A_DTS
Duration : 1 h 32 min
Bit rate mode : Variable / Variable / Constant
Bit rate : 5 212 kb/s / 5 212 kb/s / 1 509 kb/s
Channel(s) : Object Based / 8 channels / 6 channels
Channel positions : Object Based / Front: L C R, Side: L R, Back: L R, LFE / Front: L C R, Side: L R, LFE
Sampling rate : / 48.0 kHz / 48.0 kHz
Frame rate : 93.750 FPS (512 SPF)
Bit depth : / 24 bits / 24 bits
Compression mode : / Lossless / Lossy
Stream size : 3.36 GiB (7%)
Title : Original
Language : English
Default : No
Forced : No
Text #1
ID : 4
Format : UTF-8
Codec ID : S_TEXT/UTF8
Codec ID/Info : UTF-8 Plain Text
Duration : 1 h 24 min
Bit rate : 50 b/s
Count of elements : 624
Stream size : 30.9 KiB (0%)
Title : Full
Language : Russian
Default : No
Forced : No
Text #2
ID : 5
Format : UTF-8
Codec ID : S_TEXT/UTF8
Codec ID/Info : UTF-8 Plain Text
Duration : 1 h 24 min
Bit rate : 31 b/s
Count of elements : 757
Stream size : 19.6 KiB (0%)
Title : Full
Language : English
Default : No
Forced : No
Text #3
ID : 6
Format : UTF-8
Codec ID : S_TEXT/UTF8
Codec ID/Info : UTF-8 Plain Text
Duration : 1 h 24 min
Bit rate : 37 b/s
Count of elements : 956
Stream size : 22.9 KiB (0%)
Title : SDH
Language : English
Default : No
Forced : No
Menu
00:00:00.000 : en:Chapter 01
00:04:07.288 : en:Chapter 02
00:07:20.565 : en:Chapter 03
00:11:32.817 : en:Chapter 04
00:16:30.698 : en:Chapter 05
00:22:53.663 : en:Chapter 06
00:30:23.446 : en:Chapter 07
00:34:16.763 : en:Chapter 08
00:38:57.043 : en:Chapter 09
00:43:00.369 : en:Chapter 10
00:47:03.737 : en:Chapter 11
00:53:16.735 : en:Chapter 12
00:57:39.831 : en:Chapter 13
01:00:47.310 : en:Chapter 14
01:04:30.032 : en:Chapter 15
01:09:12.189 : en:Chapter 16
01:12:47.613 : en:Chapter 17
01:17:11.877 : en:Chapter 18
01:21:52.657 : en:Chapter 19
01:25:02.555 : en:Chapter 20

Трейлер

-     - -

Theseus

Пост 03-Дек-2017 12:33

[Цитировать]

Невидимый гость / Contratiempo- Год выпуска: 2016
Страна: Австралия
Жанр: триллер, криминал, детектив
Продолжительность: 01:46:19
Перевод: Профессиональный (многоголосый закадровый) | Alex Film
Субтитры: Русские, английские-Режиссер: Ориол Паоло-В ролях: Марио Касас, Хосе Коронадо, Барбара Ленни, Ана Вахенер, Франсеск Орелья, Кристиан Валенсиа, Пако Тоус, Бетси Тунес, Давид Сельвас-Описание:Молодого бизнесмена Адриана Дориа обвиняют в убийстве любовницы, и он решает воспользоваться услугами Вирджинии Гудман, лучшего в стране специалиста по выходу из самых сложных ситуаций. Адриан содержится под домашним арестом, а завтра состоится судебное заседание, поэтому вечером к нему приходит Вирджиния, чтобы придумать наилучшую стратегию защиты. Для неё это последнее дело, и она не собирается его проигрывать.- -Качество: BDRip 1080p
Формат: MKV
Видео кодек: x.264
Аудио кодек: AC3
Видео: MPEG-4 AVC, 1920x804 (2.40:1), 23.976 fps, 17,5 Mbps avg, 0.473 bit/pixel
Аудио 1: 48 kHz, AC3 Dolby Digital, 3/2 (L,C,R,l,r) + LFE ch, 640 kbps avg | RUS
Аудио 2: 48 kHz, AC3 Dolby Digital, 3/2 (L,C,R,l,r) + LFE ch, 640 kbps avg | ESP
-

Трейлер

-     - -

Theseus

Пост 03-Дек-2017 12:32

[Цитировать]

Невидимый гость / Contratiempo- Год выпуска: 2016
Страна: Австралия
Жанр: триллер, криминал, детектив
Продолжительность: 01:46:19
Перевод: Профессиональный (многоголосый закадровый) | Alex Film
Субтитры: Русские, английские-Режиссер: Ориол Паоло-В ролях: Марио Касас, Хосе Коронадо, Барбара Ленни, Ана Вахенер, Франсеск Орелья, Кристиан Валенсиа, Пако Тоус, Бетси Тунес, Давид Сельвас-Описание:Молодого бизнесмена Адриана Дориа обвиняют в убийстве любовницы, и он решает воспользоваться услугами Вирджинии Гудман, лучшего в стране специалиста по выходу из самых сложных ситуаций. Адриан содержится под домашним арестом, а завтра состоится судебное заседание, поэтому вечером к нему приходит Вирджиния, чтобы придумать наилучшую стратегию защиты. Для неё это последнее дело, и она не собирается его проигрывать.- -Качество: BDRip 720p
Формат: MKV
Видео кодек: x.264
Аудио кодек: AC3
Видео: MPEG-4 AVC, 1280x536 (2.40:1), 24 fps, 8750 kbps avg, 0.532 bit/pixel
Аудио 1: 48 kHz, AC3 Dolby Digital, 3/2 (L,C,R,l,r) + LFE ch, 640 kbps avg | RUS
Аудио 2: 48 kHz, AC3 Dolby Digital, 3/2 (L,C,R,l,r) + LFE ch, 640 kbps avg | ESP
-

Трейлер

-     - -

Theseus

Пост 10-Сен-2017 23:47

[Цитировать]

Город тьмы / Темный город / Dark City
Режиссерская версия / Director's cut
Год выхода: 1998
Страна: Австралия, США
Жанр: фантастика, фэнтези, боевик, триллер
Продолжительность: 01:51:43
Перевод: Профессиональный (многоголосый закадровый) | Киномания
Субтитры: Русские , Английские
Режиссер: Алекс Пройас-В ролях: Руфус Сьюэлл, Уильям Хёрт, Кифер Сазерленд, Дженнифер Коннелли, Ричард О’Брайэн, Иэн Ричардсон, Брюс Спенс, Колин Фрилз, Джон Блузал, Митчел Бутел-О фильме: Убийцу, не помнящего своего имени и прошлого, преследует полицейский инспектор Фрэнк Бастед. Его ищет жена Эмма, за ним охотятся чужаки, а он по обрывкам воспоминаний пытается разобраться в том, что происходит.- -Качество: BDRip 1080p
Формат: MKV
Видео кодек: x.264
Аудио кодек: AC3/DTS
Видео: AVC, 1920x812 (2.35:1), 23.976 fps, 8221Kbps
Аудио #1: AC-3, 48.0 KHz, 6 ch, 448 Kbps, CBR (Russian)
Аудио #2: DTS, 48.0 KHz, 6 ch, 1536 Kbps, CBR (English)-

Трейлер

-     - - -

Theseus

Пост 10-Сен-2017 23:46

[Цитировать]

Город тьмы / Темный город / Dark City
Режиссерская версия / Director's cut
Год выхода: 1998
Страна: Австралия, США
Жанр: фантастика, фэнтези, боевик, триллер
Продолжительность: 01:51:43
Перевод: Профессиональный (многоголосый закадровый) | Киномания
Субтитры: Русские , Английские
Режиссер: Алекс Пройас-В ролях: Руфус Сьюэлл, Уильям Хёрт, Кифер Сазерленд, Дженнифер Коннелли, Ричард О’Брайэн, Иэн Ричардсон, Брюс Спенс, Колин Фрилз, Джон Блузал, Митчел Бутел-О фильме: Убийцу, не помнящего своего имени и прошлого, преследует полицейский инспектор Фрэнк Бастед. Его ищет жена Эмма, за ним охотятся чужаки, а он по обрывкам воспоминаний пытается разобраться в том, что происходит.- -Качество: BDRip 720p
Формат: MKV
Видео кодек: x.264
Аудио кодек: AC3/DTS
Видео: AVC, 1280x544 (2.35:1), 23.976 fps, 4 397 Kbps (0.263 bit/pixel)
Аудио #1: AC-3, 48.0 KHz, 6 ch, 448 Kbps, CBR (Russian)
Аудио #2: DTS, 48.0 KHz, 6 ch, 755 Kbps, CBR (English)-

Трейлер

-     - - -

Theseus

Пост 23-Мар-2017 23:59

[Цитировать]

Изгой-один: Звёздные войны. Истории / Rogue One: A Star Wars Story-
Год выпуска: 2016
Страна: США
Жанр: фантастика, боевик, приключения
Продолжительность: 02:13:57
Перевод: Профессиональный (полное дублирование) [iTunes]
Режиссер: Гарет Эдвардс-В ролях: Фелисити Джонс, Диего Луна, Алан Тьюдик, Донни Йен, Цзян Вэнь, Бен Мендельсон, Форест Уитакер, Риз Ахмед, Мадс Миккельсен, Джимми Смитс-Описание: Сопротивление собирает отряд для выполнения особой миссии — надо выкрасть чертежи самого совершенного и смертоносного оружия Империи. Возглавляет бойцов неуправляемая и бесстрашная Джин Эрсо, у которой в этом самоубийственном задании есть и личные мотивы. Не всем суждено вернуться домой, но герои готовы к этому, ведь на кону судьба Галактики- -Качество: BDRemux
Контейнер: MKV
Видео кодек: H.264
Аудио кодек: AC3/DTS-HD
Видео: MPEG-4 AVC, 1920x1080, 33.8 Mbit/s, 23.976 fps
Аудио 1 RUS: 48 kHz, AC3, 6 ch, 384 kbps
Аудио 2 ENG: 48 kHz, DTS-HD MA, 8 ch, 5135 kbps
Субтитры: Русские, английские
-

MI

General
Unique ID : 178970658147066843048646070257019224832 (0x86A47EB64D6543A1820653167F338300)
Complete name : Rogue.One.2016.BDREMUX.1080p.ExKinoRay.mkv
Format : Matroska
Format version : Version 4 / Version 2
File size : 36.8 GiB
Duration : 2 h 14 min
Overall bit rate mode : Variable
Overall bit rate : 39.3 Mb/s
Encoded date : UTC 2017-03-23 20:13:28
Writing application : mkvmerge v8.3.0 ('Over the Horizon') 64bit
Writing library : libebml v1.3.1 + libmatroska v1.4.2
Cover : Yes
Attachments : cover.jpg
Video
ID : 1
Format : AVC
Format/Info : Advanced Video Codec
Format profile : High@L4.1
Format settings, CABAC : Yes
Format settings, ReFrames : 4 frames
Codec ID : V_MPEG4/ISO/AVC
Duration : 2 h 13 min
Bit rate mode : Variable
Bit rate : 33.8 Mb/s
Maximum bit rate : 35.5 Mb/s
Width : 1 920 pixels
Height : 1 080 pixels
Display aspect ratio : 16:9
Frame rate mode : Constant
Frame rate : 23.976 (24000/1001) FPS
Color space : YUV
Chroma subsampling : 4:2:0
Bit depth : 8 bits
Scan type : Progressive
Bits/(Pixel*Frame) : 0.680
Stream size : 31.6 GiB (86%)
Language : English
Default : Yes
Forced : No
Audio #1
ID : 2
Format : AC-3
Format/Info : Audio Coding 3
Mode extension : CM (complete main)
Format settings, Endianness : Big
Codec ID : A_AC3
Duration : 2 h 14 min
Bit rate mode : Constant
Bit rate : 384 kb/s
Channel(s) : 6 channels
Channel positions : Front: L C R, Side: L R, LFE
Sampling rate : 48.0 kHz
Frame rate : 31.250 FPS (1536 spf)
Bit depth : 16 bits
Compression mode : Lossy
Stream size : 369 MiB (1%)
Title : iTunes
Language : Russian
Default : Yes
Forced : No
Audio #2
ID : 3
Format : DTS
Format/Info : Digital Theater Systems
Format profile : MA / Core
Mode : 16
Format settings, Endianness : Big
Codec ID : A_DTS
Duration : 2 h 13 min
Bit rate mode : Variable / Constant
Bit rate : 5 135 kb/s / 1 509 kb/s
Channel(s) : 8 channels / 6 channels
Channel positions : Front: L C R, Side: L R, Back: L R, LFE / Front: L C R, Side: L R, LFE
Sampling rate : 48.0 kHz
Frame rate : 93.750 FPS (512 spf)
Bit depth : 24 bits
Compression mode : Lossless / Lossy
Stream size : 4.80 GiB (13%)
Title : Original
Language : English
Default : No
Forced : No
Text #1
ID : 4
Format : UTF-8
Codec ID : S_TEXT/UTF8
Codec ID/Info : UTF-8 Plain Text
Duration : 25 min 37 s
Bit rate : 1 b/s
Count of elements : 9
Stream size : 318 Bytes (0%)
Title : Forced
Language : Russian
Default : Yes
Forced : No
Text #2
ID : 5
Format : UTF-8
Codec ID : S_TEXT/UTF8
Codec ID/Info : UTF-8 Plain Text
Duration : 2 h 4 min
Bit rate : 78 b/s
Count of elements : 1507
Stream size : 71.5 KiB (0%)
Title : Full
Language : Russian
Default : No
Forced : No
Text #3
ID : 6
Format : UTF-8
Codec ID : S_TEXT/UTF8
Codec ID/Info : UTF-8 Plain Text
Duration : 2 h 4 min
Bit rate : 46 b/s
Count of elements : 1559
Stream size : 42.0 KiB (0%)
Title : Full
Language : English
Default : No
Forced : No
Text #4
ID : 7
Format : UTF-8
Codec ID : S_TEXT/UTF8
Codec ID/Info : UTF-8 Plain Text
Duration : 2 h 5 min
Bit rate : 52 b/s
Count of elements : 1826
Stream size : 48.6 KiB (0%)
Title : SDH
Language : English
Default : No
Forced : No
Text #5
ID : 8
Format : UTF-8
Codec ID : S_TEXT/UTF8
Codec ID/Info : UTF-8 Plain Text
Duration : 2 h 6 min
Bit rate : 66 b/s
Count of elements : 1804
Stream size : 61.3 KiB (0%)
Title : SDH Colored
Language : English
Default : No
Forced : No
Menu
00:00:00.000 : en:"He's Come For Us"
00:02:34.654 : en:Unfinished Business
00:07:46.466 : en:Jyn in Prison
00:08:42.814 : en:Ring of Kafrene
00:11:04.622 : en:An Urgent Message
00:12:21.199 : en:Wobani Prison Break
00:13:41.154 : en:Rebel Interrogation
00:17:19.914 : en:Mission Departure
00:20:09.542 : en:Saw Gerrera
00:21:54.772 : en:Krennic and Tarkin
00:23:47.092 : en:Jyn's Dream
00:24:31.386 : en:Scouting Jedha City
00:26:53.445 : en:Bor Gullet
00:27:46.623 : en:Guardians of The Whills
00:30:37.294 : en:Holy City Ambush
00:33:53.406 : en:"Let them Pass"
00:37:11.271 : en:Saw's Catacombs
00:42:30.089 : en:Galen's Message
00:47:16.125 : en:Jedha Escape
00:51:04.144 : en:Tarkin Commands
00:52:23.724 : en:Race to Eadu
00:55:53.266 : en:Eadu Crash
00:59:48.251 : en:Scouting Eadu
01:02:07.807 : en:Krennic and Galen
01:05:25.505 : en:Attack on Eadu
01:10:24.095 : en:Eadu Aftermath
01:12:49.532 : en:Mustafar
01:16:28.459 : en:Jyn Before the Council
01:19:04.323 : en:"May the Force Be With Us"
01:21:55.160 : en:Rogue One Launches
01:23:25.667 : en:Scarif Gate
01:25:58.987 : en:10 Men Like 100
01:27:34.958 : en:Imperial Inspection
01:29:57.308 : en:Ground Forces
01:31:53.841 : en:The Battle Begins
01:34:18.736 : en:Scrambling the Rebel Fleet
01:36:07.512 : en:Sowing Confusion
01:37:48.237 : en:Rebel Reinforcements
01:40:27.605 : en:Beach Battle
01:42:44.074 : en:Master Switch
01:45:26.779 : en:Stardust
01:47:55.010 : en:Data Vault
01:50:31.416 : en:Sacrifices
01:53:28.885 : en:"We Have the Plans"
01:55:46.272 : en:Final Confrontation
01:59:23.448 : en:Transmission Received
02:01:11.347 : en:Fire When Ready
02:03:15.596 : en:Hope
02:05:42.118 : en:End Credits

Трейлер

-     - - -

Theseus

Пост 23-Мар-2017 23:14

[Цитировать]

Изгой-один: Звёздные войны. Истории / Rogue One: A Star Wars Story-
Год выпуска: 2016
Страна: США
Жанр: фантастика, боевик, приключения
Продолжительность: 02:13:57
Перевод: Профессиональный (полное дублирование) [iTunes]
Режиссер: Гарет Эдвардс-В ролях: Фелисити Джонс, Диего Луна, Алан Тьюдик, Донни Йен, Цзян Вэнь, Бен Мендельсон, Форест Уитакер, Риз Ахмед, Мадс Миккельсен, Джимми Смитс-Описание: Сопротивление собирает отряд для выполнения особой миссии — надо выкрасть чертежи самого совершенного и смертоносного оружия Империи. Возглавляет бойцов неуправляемая и бесстрашная Джин Эрсо, у которой в этом самоубийственном задании есть и личные мотивы. Не всем суждено вернуться домой, но герои готовы к этому, ведь на кону судьба Галактики- -Качество: BDRip 1080p
Формат: MKV
Видео кодек: x.264
Аудио кодек: AC3/DTS
Видео: MPEG-4 AVC, 1920x804, 21.0 Mbps, 23.976 fps
Аудио 1 RUS: 48 kHz, AC3, 6 ch, 384 kbps
Аудио 2 ENG: 48 kHz, DTS, 6 ch, 1509 kbps
Субтитры: Русские, английские
-

MI

General
Unique ID : 250449027985795932231018883042266243275 (0xBC6ABA6EDB890CD6AE0780ABCF4AE0CB)
Complete name : Rogue.One.2016.BDRip.1080p.ExKinoRay.mkv
Format : Matroska
Format version : Version 4 / Version 2
File size : 21.4 GiB
Duration : 2 h 14 min
Overall bit rate : 22.9 Mb/s
Encoded date : UTC 2017-03-23 19:19:13
Writing application : mkvmerge v8.3.0 ('Over the Horizon') 64bit
Writing library : libebml v1.3.1 + libmatroska v1.4.2
Cover : Yes
Attachments : cover.jpg
Video
ID : 1
Format : AVC
Format/Info : Advanced Video Codec
Format profile : High@L4.1
Format settings, CABAC : Yes
Format settings, ReFrames : 5 frames
Codec ID : V_MPEG4/ISO/AVC
Duration : 2 h 13 min
Bit rate : 21.0 Mb/s
Width : 1 920 pixels
Height : 804 pixels
Display aspect ratio : 2.40:1
Frame rate mode : Constant
Frame rate : 23.976 (24000/1001) FPS
Color space : YUV
Chroma subsampling : 4:2:0
Bit depth : 8 bits
Scan type : Progressive
Bits/(Pixel*Frame) : 0.567
Stream size : 19.7 GiB (92%)
Writing library : x264 core 148 r2744kMod b97ae06
Encoding settings : cabac=1 / ref=5 / deblock=1:-3:-3 / analyse=0x3:0x133 / me=tesa / subme=11 / psy=1 / fade_compensate=0.00 / psy_rd=1.10:0.00 / mixed_ref=1 / me_range=48 / chroma_me=1 / trellis=2 / 8x8dct=1 / cqm=0 / deadzone=21,11 / fast_pskip=0 / chroma_qp_offset=-2 / threads=24 / lookahead_threads=4 / sliced_threads=0 / nr=0 / decimate=0 / interlaced=0 / bluray_compat=0 / constrained_intra=0 / bframes=8 / b_pyramid=2 / b_adapt=2 / b_bias=0 / direct=3 / weightb=1 / open_gop=0 / weightp=2 / keyint=240 / keyint_min=2 / scenecut=40 / intra_refresh=0 / rc=2pass / mbtree=0 / bitrate=21000 / ratetol=1.0 / qcomp=0.70 / qpmin=0 / qpmax=69 / qpstep=4 / cplxblur=20.0 / qblur=0.5 / ip_ratio=1.25 / pb_ratio=1.20 / aq=3:0.90
Language : English
Default : Yes
Forced : No
Audio #1
ID : 2
Format : AC-3
Format/Info : Audio Coding 3
Mode extension : CM (complete main)
Format settings, Endianness : Big
Codec ID : A_AC3
Duration : 2 h 14 min
Bit rate mode : Constant
Bit rate : 384 kb/s
Channel(s) : 6 channels
Channel positions : Front: L C R, Side: L R, LFE
Sampling rate : 48.0 kHz
Frame rate : 31.250 FPS (1536 spf)
Bit depth : 16 bits
Compression mode : Lossy
Stream size : 369 MiB (2%)
Title : iTunes
Language : Russian
Default : Yes
Forced : No
Audio #2
ID : 3
Format : DTS
Format/Info : Digital Theater Systems
Mode : 16
Format settings, Endianness : Big
Codec ID : A_DTS
Duration : 2 h 13 min
Bit rate mode : Constant
Bit rate : 1 509 kb/s
Channel(s) : 6 channels
Channel positions : Front: L C R, Side: L R, LFE
Sampling rate : 48.0 kHz
Frame rate : 93.750 FPS (512 spf)
Bit depth : 24 bits
Compression mode : Lossy
Stream size : 1.41 GiB (7%)
Title : Original
Language : English
Default : No
Forced : No
Text #1
ID : 4
Format : UTF-8
Codec ID : S_TEXT/UTF8
Codec ID/Info : UTF-8 Plain Text
Duration : 25 min 37 s
Bit rate : 1 b/s
Count of elements : 9
Stream size : 318 Bytes (0%)
Title : Forced
Language : Russian
Default : Yes
Forced : No
Text #2
ID : 5
Format : UTF-8
Codec ID : S_TEXT/UTF8
Codec ID/Info : UTF-8 Plain Text
Duration : 2 h 4 min
Bit rate : 78 b/s
Count of elements : 1507
Stream size : 71.5 KiB (0%)
Title : Full
Language : Russian
Default : No
Forced : No
Text #3
ID : 6
Format : UTF-8
Codec ID : S_TEXT/UTF8
Codec ID/Info : UTF-8 Plain Text
Duration : 2 h 4 min
Bit rate : 46 b/s
Count of elements : 1559
Stream size : 42.0 KiB (0%)
Title : Full
Language : English
Default : No
Forced : No
Text #4
ID : 7
Format : UTF-8
Codec ID : S_TEXT/UTF8
Codec ID/Info : UTF-8 Plain Text
Duration : 2 h 5 min
Bit rate : 52 b/s
Count of elements : 1826
Stream size : 48.6 KiB (0%)
Title : SDH
Language : English
Default : No
Forced : No
Text #5
ID : 8
Format : UTF-8
Codec ID : S_TEXT/UTF8
Codec ID/Info : UTF-8 Plain Text
Duration : 2 h 6 min
Bit rate : 66 b/s
Count of elements : 1804
Stream size : 61.3 KiB (0%)
Title : SDH Colored
Language : English
Default : No
Forced : No
Menu
00:00:00.000 : en:"He's Come For Us"
00:02:34.654 : en:Unfinished Business
00:07:46.466 : en:Jyn in Prison
00:08:42.814 : en:Ring of Kafrene
00:11:04.622 : en:An Urgent Message
00:12:21.199 : en:Wobani Prison Break
00:13:41.154 : en:Rebel Interrogation
00:17:19.914 : en:Mission Departure
00:20:09.542 : en:Saw Gerrera
00:21:54.772 : en:Krennic and Tarkin
00:23:47.092 : en:Jyn's Dream
00:24:31.386 : en:Scouting Jedha City
00:26:53.445 : en:Bor Gullet
00:27:46.623 : en:Guardians of The Whills
00:30:37.294 : en:Holy City Ambush
00:33:53.406 : en:"Let them Pass"
00:37:11.271 : en:Saw's Catacombs
00:42:30.089 : en:Galen's Message
00:47:16.125 : en:Jedha Escape
00:51:04.144 : en:Tarkin Commands
00:52:23.724 : en:Race to Eadu
00:55:53.266 : en:Eadu Crash
00:59:48.251 : en:Scouting Eadu
01:02:07.807 : en:Krennic and Galen
01:05:25.505 : en:Attack on Eadu
01:10:24.095 : en:Eadu Aftermath
01:12:49.532 : en:Mustafar
01:16:28.459 : en:Jyn Before the Council
01:19:04.323 : en:"May the Force Be With Us"
01:21:55.160 : en:Rogue One Launches
01:23:25.667 : en:Scarif Gate
01:25:58.987 : en:10 Men Like 100
01:27:34.958 : en:Imperial Inspection
01:29:57.308 : en:Ground Forces
01:31:53.841 : en:The Battle Begins
01:34:18.736 : en:Scrambling the Rebel Fleet
01:36:07.512 : en:Sowing Confusion
01:37:48.237 : en:Rebel Reinforcements
01:40:27.605 : en:Beach Battle
01:42:44.074 : en:Master Switch
01:45:26.779 : en:Stardust
01:47:55.010 : en:Data Vault
01:50:31.416 : en:Sacrifices
01:53:28.885 : en:"We Have the Plans"
01:55:46.272 : en:Final Confrontation
01:59:23.448 : en:Transmission Received
02:01:11.347 : en:Fire When Ready
02:03:15.596 : en:Hope
02:05:42.118 : en:End Credits

Трейлер

-     - - -

Theseus

Пост 23-Мар-2017 23:12

[Цитировать]

Изгой-один: Звёздные войны. Истории / Rogue One: A Star Wars Story-
Год выпуска: 2016
Страна: США
Жанр: фантастика, боевик, приключения
Продолжительность: 02:13:57
Перевод: Профессиональный (полное дублирование) [iTunes]
Режиссер: Гарет Эдвардс-В ролях: Фелисити Джонс, Диего Луна, Алан Тьюдик, Донни Йен, Цзян Вэнь, Бен Мендельсон, Форест Уитакер, Риз Ахмед, Мадс Миккельсен, Джимми Смитс-Описание: Сопротивление собирает отряд для выполнения особой миссии — надо выкрасть чертежи самого совершенного и смертоносного оружия Империи. Возглавляет бойцов неуправляемая и бесстрашная Джин Эрсо, у которой в этом самоубийственном задании есть и личные мотивы. Не всем суждено вернуться домой, но герои готовы к этому, ведь на кону судьба Галактики- -Качество: BDRip 720p
Формат: MKV
Видео кодек: x.264
Аудио кодек: AC3/DTS
Видео: MPEG-4 AVC, 1280x536, 6000 Кbit/s, 23.976 fps
Аудио 1 RUS: 48 kHz, AC3, 6 ch, 384 kbps
Аудио 2 ENG: 48 kHz, DTS, 6 ch, 1509 kbps
Субтитры: Русские, английские
-

MI

General
Unique ID : 214336242293210664301972889927349065420 (0xA13FA8A1DF9C278A94A02D4556C656CC)
Complete name : DesktopRogue.One.2016.BDRip.720p.ExKinoRay.mkv
Format : Matroska
Format version : Version 4 / Version 2
File size : 7.39 GiB
Duration : 2 h 14 min
Overall bit rate : 7 884 kb/s
Movie name : Rogue.One.2016.BluRay.1080p.x264.DTS-HD.MA.7.1-HDChina
Encoded date : UTC 2017-03-23 19:31:53
Writing application : mkvmerge v8.3.0 ('Over the Horizon') 64bit
Writing library : libebml v1.3.1 + libmatroska v1.4.2
Cover : Yes
Attachments : cover.jpg
Video
ID : 1
Format : AVC
Format/Info : Advanced Video Codec
Format profile : High@L4.1
Format settings, CABAC : Yes
Format settings, ReFrames : 12 frames
Codec ID : V_MPEG4/ISO/AVC
Duration : 2 h 13 min
Bit rate : 6 000 kb/s
Width : 1 280 pixels
Height : 536 pixels
Display aspect ratio : 2.40:1
Frame rate mode : Constant
Frame rate : 23.976 (23976/1000) FPS
Color space : YUV
Chroma subsampling : 4:2:0
Bit depth : 8 bits
Scan type : Progressive
Bits/(Pixel*Frame) : 0.365
Stream size : 5.61 GiB (76%)
Writing library : x264 core 146 r2538 121396c
Encoding settings : cabac=1 / ref=12 / deblock=1:-3:-3 / analyse=0x3:0x133 / me=umh / subme=11 / psy=1 / psy_rd=1.05:0.05 / mixed_ref=1 / me_range=32 / chroma_me=1 / trellis=2 / 8x8dct=1 / cqm=0 / deadzone=21,11 / fast_pskip=0 / chroma_qp_offset=-3 / threads=6 / lookahead_threads=1 / sliced_threads=0 / nr=0 / decimate=0 / interlaced=0 / bluray_compat=0 / constrained_intra=0 / bframes=8 / b_pyramid=2 / b_adapt=2 / b_bias=0 / direct=3 / weightb=1 / open_gop=0 / weightp=2 / keyint=240 / keyint_min=23 / scenecut=40 / intra_refresh=0 / rc_lookahead=50 / rc=2pass / mbtree=0 / bitrate=6000 / ratetol=1.0 / qcomp=0.60 / qpmin=0 / qpmax=69 / qpstep=4 / cplxblur=20.0 / qblur=0.5 / vbv_maxrate=50000 / vbv_bufsize=62500 / nal_hrd=none / filler=0 / ip_ratio=1.40 / pb_ratio=1.30 / aq=1:0.80
Language : English
Default : Yes
Forced : No
Audio #1
ID : 2
Format : AC-3
Format/Info : Audio Coding 3
Mode extension : CM (complete main)
Format settings, Endianness : Big
Codec ID : A_AC3
Duration : 2 h 14 min
Bit rate mode : Constant
Bit rate : 384 kb/s
Channel(s) : 6 channels
Channel positions : Front: L C R, Side: L R, LFE
Sampling rate : 48.0 kHz
Frame rate : 31.250 FPS (1536 spf)
Bit depth : 16 bits
Compression mode : Lossy
Stream size : 369 MiB (5%)
Title : iTunes
Language : Russian
Default : Yes
Forced : No
Audio #2
ID : 3
Format : DTS
Format/Info : Digital Theater Systems
Mode : 16
Format settings, Endianness : Big
Codec ID : A_DTS
Duration : 2 h 13 min
Bit rate mode : Constant
Bit rate : 1 509 kb/s
Channel(s) : 6 channels
Channel positions : Front: L C R, Side: L R, LFE
Sampling rate : 48.0 kHz
Frame rate : 93.750 FPS (512 spf)
Bit depth : 24 bits
Compression mode : Lossy
Stream size : 1.41 GiB (19%)
Title : Original
Language : English
Default : No
Forced : No
Text #1
ID : 4
Format : UTF-8
Codec ID : S_TEXT/UTF8
Codec ID/Info : UTF-8 Plain Text
Duration : 25 min 37 s
Bit rate : 1 b/s
Count of elements : 9
Stream size : 318 Bytes (0%)
Title : Forced
Language : Russian
Default : Yes
Forced : No
Text #2
ID : 5
Format : UTF-8
Codec ID : S_TEXT/UTF8
Codec ID/Info : UTF-8 Plain Text
Duration : 2 h 4 min
Bit rate : 78 b/s
Count of elements : 1507
Stream size : 71.5 KiB (0%)
Title : Full
Language : Russian
Default : No
Forced : No
Text #3
ID : 6
Format : UTF-8
Codec ID : S_TEXT/UTF8
Codec ID/Info : UTF-8 Plain Text
Duration : 2 h 4 min
Bit rate : 46 b/s
Count of elements : 1559
Stream size : 42.0 KiB (0%)
Title : Full
Language : English
Default : No
Forced : No
Text #4
ID : 7
Format : UTF-8
Codec ID : S_TEXT/UTF8
Codec ID/Info : UTF-8 Plain Text
Duration : 2 h 5 min
Bit rate : 52 b/s
Count of elements : 1826
Stream size : 48.6 KiB (0%)
Title : SDH
Language : English
Default : No
Forced : No
Text #5
ID : 8
Format : UTF-8
Codec ID : S_TEXT/UTF8
Codec ID/Info : UTF-8 Plain Text
Duration : 2 h 6 min
Bit rate : 66 b/s
Count of elements : 1804
Stream size : 61.3 KiB (0%)
Title : SDH Colored
Language : English
Default : No
Forced : No
Menu
00:00:00.000 : en:"He's Come For Us"
00:02:34.654 : en:Unfinished Business
00:07:46.466 : en:Jyn in Prison
00:08:42.814 : en:Ring of Kafrene
00:11:04.622 : en:An Urgent Message
00:12:21.199 : en:Wobani Prison Break
00:13:41.154 : en:Rebel Interrogation
00:17:19.914 : en:Mission Departure
00:20:09.542 : en:Saw Gerrera
00:21:54.772 : en:Krennic and Tarkin
00:23:47.092 : en:Jyn's Dream
00:24:31.386 : en:Scouting Jedha City
00:26:53.445 : en:Bor Gullet
00:27:46.623 : en:Guardians of The Whills
00:30:37.294 : en:Holy City Ambush
00:33:53.406 : en:"Let them Pass"
00:37:11.271 : en:Saw's Catacombs
00:42:30.089 : en:Galen's Message
00:47:16.125 : en:Jedha Escape
00:51:04.144 : en:Tarkin Commands
00:52:23.724 : en:Race to Eadu
00:55:53.266 : en:Eadu Crash
00:59:48.251 : en:Scouting Eadu
01:02:07.807 : en:Krennic and Galen
01:05:25.505 : en:Attack on Eadu
01:10:24.095 : en:Eadu Aftermath
01:12:49.532 : en:Mustafar
01:16:28.459 : en:Jyn Before the Council
01:19:04.323 : en:"May the Force Be With Us"
01:21:55.160 : en:Rogue One Launches
01:23:25.667 : en:Scarif Gate
01:25:58.987 : en:10 Men Like 100
01:27:34.958 : en:Imperial Inspection
01:29:57.308 : en:Ground Forces
01:31:53.841 : en:The Battle Begins
01:34:18.736 : en:Scrambling the Rebel Fleet
01:36:07.512 : en:Sowing Confusion
01:37:48.237 : en:Rebel Reinforcements
01:40:27.605 : en:Beach Battle
01:42:44.074 : en:Master Switch
01:45:26.779 : en:Stardust
01:47:55.010 : en:Data Vault
01:50:31.416 : en:Sacrifices
01:53:28.885 : en:"We Have the Plans"
01:55:46.272 : en:Final Confrontation
01:59:23.448 : en:Transmission Received
02:01:11.347 : en:Fire When Ready
02:03:15.596 : en:Hope
02:05:42.118 : en:End Credits

Трейлер

-     - - -

Theseus

Пост 22-Мар-2017 11:05

[Цитировать]

Изгой-один: Звёздные войны. Истории / Rogue One: A Star Wars Story-
Год выпуска: 2016
Страна: США
Жанр: фантастика, боевик, приключения
Продолжительность: 02:14:51
Перевод: Профессиональный (полное дублирование) [Чистый звук]
Режиссер: Гарет Эдвардс-В ролях: Фелисити Джонс, Диего Луна, Алан Тьюдик, Донни Йен, Цзян Вэнь, Бен Мендельсон, Форест Уитакер, Риз Ахмед, Мадс Миккельсен, Джимми Смитс-Описание: Сопротивление собирает отряд для выполнения особой миссии — надо выкрасть чертежи самого совершенного и смертоносного оружия Империи. Возглавляет бойцов неуправляемая и бесстрашная Джин Эрсо, у которой в этом самоубийственном задании есть и личные мотивы. Не всем суждено вернуться домой, но герои готовы к этому, ведь на кону судьба Галактики- -Качество: BDRip 1080p
Формат: MKV
Видео кодек: x.264
Аудио кодек: AC3
Видео: 1920x804, 23.976 fps, AVC/x.264, 11 Mbps avg
Аудио: 48 kHz, AC3 Dolby Digital, 2/0 (L,R) ch, ~448 kbps
- -

Трейлер

-   -

Theseus

Пост 22-Мар-2017 11:03

[Цитировать]

Изгой-один: Звёздные войны. Истории / Rogue One: A Star Wars Story-
Год выпуска: 2016
Страна: США
Жанр: фантастика, боевик, приключения
Продолжительность: 02:14:51
Перевод: Профессиональный (полное дублирование) [Чистый звук]
Режиссер: Гарет Эдвардс-В ролях: Фелисити Джонс, Диего Луна, Алан Тьюдик, Донни Йен, Цзян Вэнь, Бен Мендельсон, Форест Уитакер, Риз Ахмед, Мадс Миккельсен, Джимми Смитс-Описание: Сопротивление собирает отряд для выполнения особой миссии — надо выкрасть чертежи самого совершенного и смертоносного оружия Империи. Возглавляет бойцов неуправляемая и бесстрашная Джин Эрсо, у которой в этом самоубийственном задании есть и личные мотивы. Не всем суждено вернуться домой, но герои готовы к этому, ведь на кону судьба Галактики- -Качество: BDRip 720p
Формат: MKV
Видео кодек: x.264
Аудио кодек: AC3
Видео: 1280x536, 23.976 fps, AVC/x.264, 5595 kbps avg
Аудио: 48 kHz, AC3 Dolby Digital, 2/0 (L,R) ch, ~448 kbps
- -

Трейлер

-   -

RazBoyNik

Пост 15-Фев-2017 20:57

[Цитировать]

Невероятные приключения янки в Африке / Yankee Zulu - Производство: ЮАР / Distant Horizons, Koukus Troika, Toron Screen Corporation
Жанр: Комедия
Режиссер: Грей Хофмайр
Актеры: Леон Шустер, Джон Матшикиза, Уилсон Данстер, Терри Триз, Мишель Боус, Скай Свориник, Руан Мандельстам, Бобо Серитсани, Мари Майкл, Мбали Дладла
Описание:
Шалости друзей — мальчишек, белого африканера и черного зулу — сделали бы честь даже легендарному Кевину из комедии «Один дома».
Жизнь надолго разлучает их, но встретившись через 25 лет, они вспоминают детство — похищают полмиллиона долларов и, преобразившись в гримерной телевидения белый в черного, а черный в белого, скрываются от преследователей.

Рейтинг MPAA: PG (рекомендуется присутствие родителей)
Продолжительность: 01:29:42
Качество видео: WEB-DLRip
Перевод: Двуголосый закадровый, многоголосый закадровый
Язык субтитров: Русский
Вид субтитров: Вшитые отключаемые
Видео: AVC/H.264, 1920х1080, ~13 Mbps
Аудио: 1 AC3, 6 ch, 384 kbps - Русский, двуголосый (НТВ)
Аудио: 2 AC3, 2 ch, 192 kbps - Русский, многоголосый (Хлопушка)
Аудио: 3 EAC3, 2 ch, 224 kbps - Английский оригинальный

Mediainfo:

Complete name               : H:\Yankee Zulu.(1993).WEBRip.1080p.mkv
Format : Matroska
Format version : Version 2
File size : 8.78 GiB
Duration : 1 h 29 min
Overall bit rate mode : Variable
Overall bit rate : 14.0 Mb/s
Movie name : Yankee Zulu.(1993).WEBRip.1080p_ Atomsk_
Encoded date : UTC 2017-02-14 18:27:15
Writing application : mkvmerge v5.8.0 ('No Sleep / Pillow') built on Sep 2 2012 15:37:04
Writing library : libebml v1.2.3 + libmatroska v1.3.0
Video
ID : 1
Format : AVC
Format/Info : Advanced Video Codec
Format profile : High@L4
Format settings, CABAC : Yes
Format settings, ReFrames : 4 frames
Codec ID : V_MPEG4/ISO/AVC
Duration : 1 h 29 min
Bit rate mode : Variable
Bit rate : 12.9 Mb/s
Maximum bit rate : 15.0 Mb/s
Width : 1 920 pixels
Height : 1 080 pixels
Display aspect ratio : 16:9
Frame rate mode : Constant
Frame rate : 23.976 (24000/1001) FPS
Color space : YUV
Chroma subsampling : 4:2:0
Bit depth : 8 bits
Scan type : Progressive
Bits/(Pixel*Frame) : 0.259
Stream size : 8.07 GiB (92%)
Title : Yankee Zulu.(1993).WEBRip.1080p
Writing library : x264 core 148 r2623 d5b2374
Encoding settings : cabac=1 / ref=4 / deblock=1:-1:-1 / analyse=0x3:0x133 / me=umh / subme=9 / psy=1 / psy_rd=1.00:0.15 / mixed_ref=1 / me_range=24 / chroma_me=1 / trellis=2 / 8x8dct=1 / cqm=0 / deadzone=21,11 / fast_pskip=1 / chroma_qp_offset=-3 / threads=34 / lookahead_threads=5 / sliced_threads=0 / nr=150 / decimate=1 / interlaced=0 / bluray_compat=0 / constrained_intra=0 / bframes=8 / b_pyramid=2 / b_adapt=2 / b_bias=0 / direct=3 / weightb=1 / open_gop=0 / weightp=2 / keyint=120 / keyint_min=61 / scenecut=0 / intra_refresh=0 / rc_lookahead=120 / rc=crf / mbtree=1 / crf=18.0 / qcomp=0.60 / qpmin=0 / qpmax=69 / qpstep=4 / vbv_maxrate=15000 / vbv_bufsize=31250 / crf_max=0.0 / nal_hrd=vbr / filler=0 / ip_ratio=1.40 / aq=3:1.00
Language : English
Default : Yes
Forced : No
Color range : Limited
Color primaries : BT.709
Transfer characteristics : BT.709
Matrix coefficients : BT.709
Audio #1
ID : 2
Format : AC-3
Format/Info : Audio Coding 3
Mode extension : CM (complete main)
Format settings, Endianness : Big
Codec ID : A_AC3
Duration : 1 h 29 min
Bit rate mode : Constant
Bit rate : 384 kb/s
Channel(s) : 6 channels
Channel positions : Front: L C R, Side: L R, LFE
Sampling rate : 48.0 kHz
Frame rate : 31.250 FPS (1536 spf)
Bit depth : 16 bits
Compression mode : Lossy
Stream size : 246 MiB (3%)
Title : AC3 5.1 @ 384 kbps - DVO, НТВ
Language : Russian
Default : No
Forced : No
Audio #2
ID : 3
Format : AC-3
Format/Info : Audio Coding 3
Mode extension : CM (complete main)
Format settings, Endianness : Big
Codec ID : A_AC3
Duration : 1 h 29 min
Bit rate mode : Constant
Bit rate : 256 kb/s
Channel(s) : 2 channels
Channel positions : Front: L R
Sampling rate : 48.0 kHz
Frame rate : 31.250 FPS (1536 spf)
Bit depth : 16 bits
Compression mode : Lossy
Stream size : 164 MiB (2%)
Title : AC3 2.0 @ 192 kbps - MVO, Хлопушка
Language : Russian
Default : No
Forced : No
Audio #3
ID : 4
Format : E-AC-3
Format/Info : Enhanced Audio Coding 3
Format settings, Endianness : Big
Codec ID : A_EAC3
Duration : 1 h 29 min
Bit rate mode : Constant
Bit rate : 224 kb/s
Channel(s) : 2 channels
Channel positions : Front: L R
Sampling rate : 48.0 kHz
Frame rate : 187.500 FPS (256 spf)
Compression mode : Lossy
Stream size : 144 MiB (2%)
Title : E-AC3 2.0 @ 224 kbps - Original
Language : English
Default : No
Forced : No
Text
ID : 5
Format : UTF-8
Codec ID : S_TEXT/UTF8
Codec ID/Info : UTF-8 Plain Text
Language : Russian
Default : No
Forced : No
Скриншоты:
       

RazBoyNik

Пост 15-Фев-2017 20:51

[Цитировать]

Майна / Maïna - Производство: Канада / Equinoxe
Жанр: Приключения
Режиссер: Мишель Полетт
Актеры: Ренетта Арлук, Танту Кардинал, Грэм Грин, Пакак Иннуксук, Ипилье Оотова, Эрик Швейг, Роузэнн Супернаульт, Уапшкусс Терниш, Люси Тулугарджук, Нуувия Тулугарджук
Описание:
Юная девушка Майна родилась и выросла в племени северо-американских индейцев, которые испокон веков живут на лоне природы, верят в силы духов и почитают старые традиции, и обычаи. Родила девочку Такаэра, но вскормила и вырастила девочку другая женщина, ставшая спутницей отца — вождя племени. Такаэра не смогла простить ему измену. Она покинула племя и стала вести уединенную жизнь, оставаясь при этом шаманом племени.
После смерти отца, отравленного членом враждующего племени Саиту, Майна вынуждена противостоять одержимому ею Саиту, а также отправиться в далекое путешествие, чтобы разыскать похищенного одиннадцатилетнего мальчишку из племени, по имени Нипки. На пути бесстрашную девушку ждет множество приключений, опасных ситуаций и знакомств с новыми интересными людьми.

Продолжительность: 01:38:06
Качество видео: BDRip
Перевод: Авторский (П. Морозов/PashaUp)
Язык субтитров: Русский (полные), Английский (на диалоги индейцев)
Вид субтитров: Вшитые, отключаемые
Видео: AVC/H.264, 1920x1032, ~11.2 Mbps
Аудио 1: AC3, 6 ch, 640 kbps, Русский (AVO, П. Морозов/PashaUp)
Аудио 2: AC3, 6 ch, 640 kbps, Английский (Оригинал)

MediaIinfo:

Общее
Формат : Matroska
Версия формата : Version 4 / Version 2
Размер файла : 8,56 Гбайт
Продолжительность : 1 ч. 38 м.
Общий поток : 12,5 Мбит/сек
Название фильма : Maina (2013) BDRip by Lexandros
Дата кодирования : UTC 2017-02-15 03:17:38
Программа кодирования : mkvmerge v9.8.0 ('Kuglblids') 64bit
Библиотека кодирования : libebml v1.3.4 + libmatroska v1.4.5
Видео
Идентификатор : 1
Формат : AVC
Формат/Информация : Advanced Video Codec
Профиль формата : [url=mailto:High@L4.1]High@L4.1[/url]
Параметр CABAC формата : Да
Параметр ReFrames формата : 4 кадра
Идентификатор кодека : V_MPEG4/ISO/AVC
Продолжительность : 1 ч. 38 м.
Битрейт : 11,2 Мбит/сек
Ширина : 1920 пикселей
Высота : 1032 пикселя
Соотношение сторон : 1,85:1
Режим частоты кадров : Постоянный
Частота кадров : 25,000 кадров/сек
Цветовое пространство : YUV
Субдискретизация насыщенности : 4:2:0
Битовая глубина : 8 бит
Тип развёртки : Прогрессивная
Бит/(Пиксели*Кадры) : 0.226
Размер потока : 7,68 Гбайт (90%)
Библиотека кодирования : x264 core 148 r2638 7599210
Настройки программы : cabac=1 / ref=4 / deblock=1:-1:-1 / analyse=0x3:0x133 / me=umh / subme=9 / psy=1 / psy_rd=1.05:0.00 / mixed_ref=1 / me_range=32 / chroma_me=1 / trellis=2 / 8x8dct=1 / cqm=0 / deadzone=21,11 / fast_pskip=0 / chroma_qp_offset=-2 / threads=6 / lookahead_threads=1 / sliced_threads=0 / nr=0 / decimate=0 / interlaced=0 / bluray_compat=0 / constrained_intra=0 / bframes=8 / b_pyramid=2 / b_adapt=2 / b_bias=0 / direct=3 / weightb=1 / open_gop=0 / weightp=2 / keyint=250 / keyint_min=25 / scenecut=40 / intra_refresh=0 / rc_lookahead=60 / rc=2pass / mbtree=0 / bitrate=11200 / ratetol=1.0 / qcomp=0.70 / qpmin=10 / qpmax=51 / qpstep=4 / cplxblur=20.0 / qblur=0.5 / vbv_maxrate=50000 / vbv_bufsize=50000 / nal_hrd=none / filler=0 / ip_ratio=1.40 / pb_ratio=1.30 / aq=1:0.85
Язык : English
Default : Да
Forced : Нет
Цветовой диапазон : Limited
Основные цвета : BT.709
Характеристики трансфера : BT.709
Коэффициенты матрицы : BT.709
Аудио #1
Идентификатор : 2
Формат : AC-3
Формат/Информация : Audio Coding 3
Расширение режима : CM (complete main)
Параметр Endianness формата : Big
Идентификатор кодека : A_AC3
Продолжительность : 1 ч. 38 м.
Вид битрейта : Постоянный
Битрейт : 640 Кбит/сек
Каналы : 6 каналов
Расположение каналов : Front: L C R, Side: L R, LFE
Частота : 48,0 КГц
Частота кадров : 31,250 кадров/сек (1536 spf)
Битовая глубина : 16 бит
Метод сжатия : С потерями
Размер потока : 449 Мбайт (5%)
Заголовок : AVO, PashaUp
Язык : Russian
Default : Да
Forced : Нет
Аудио #2
Идентификатор : 3
Формат : AC-3
Формат/Информация : Audio Coding 3
Расширение режима : CM (complete main)
Параметр Endianness формата : Big
Идентификатор кодека : A_AC3
Продолжительность : 1 ч. 38 м.
Вид битрейта : Постоянный
Битрейт : 640 Кбит/сек
Каналы : 6 каналов
Расположение каналов : Front: L C R, Side: L R, LFE
Частота : 48,0 КГц
Частота кадров : 31,250 кадров/сек (1536 spf)
Битовая глубина : 16 бит
Метод сжатия : С потерями
Размер потока : 449 Мбайт (5%)
Язык : English
Default : Нет
Forced : Нет
Текст #1
Идентификатор : 4
Формат : UTF-8
Идентификатор кодека : S_TEXT/UTF8
Идентификатор кодека/Информация : UTF-8 Plain Text
Продолжительность : 1 ч. 34 м.
Битрейт : 32 бит/сек
Count of elements : 464
Размер потока : 22,7 Кбайт (0%)
Язык : Russian
Default : Нет
Forced : Нет
Текст #2
Идентификатор : 5
Формат : UTF-8
Идентификатор кодека : S_TEXT/UTF8
Идентификатор кодека/Информация : UTF-8 Plain Text
Продолжительность : 1 ч. 31 м.
Битрейт : 12 бит/сек
Count of elements : 336
Размер потока : 8,24 Кбайт (0%)
Язык : English
Default : Нет
Forced : Нет
Меню
00:00:00.000 : en:00:00:00.000
00:10:05.000 : en:00:10:05.000
00:24:56.800 : en:00:24:56.800
00:36:28.000 : en:00:36:28.000
00:50:02.120 : en:00:50:02.120
01:01:05.200 : en:01:01:05.200
01:13:18.000 : en:01:13:18.000
01:25:19.000 : en:01:25:19.000
Скриншоты:
       

RazBoyNik

Пост 15-Фев-2017 20:47

[Цитировать]

Майна / Maïna - Производство: Канада / Equinoxe
Жанр: Приключения
Режиссер: Мишель Полетт
Актеры: Ренетта Арлук, Танту Кардинал, Грэм Грин, Пакак Иннуксук, Ипилье Оотова, Эрик Швейг, Роузэнн Супернаульт, Уапшкусс Терниш, Люси Тулугарджук, Нуувия Тулугарджук
Описание:
Юная девушка Майна родилась и выросла в племени северо-американских индейцев, которые испокон веков живут на лоне природы, верят в силы духов и почитают старые традиции, и обычаи. Родила девочку Такаэра, но вскормила и вырастила девочку другая женщина, ставшая спутницей отца — вождя племени. Такаэра не смогла простить ему измену. Она покинула племя и стала вести уединенную жизнь, оставаясь при этом шаманом племени.
После смерти отца, отравленного членом враждующего племени Саиту, Майна вынуждена противостоять одержимому ею Саиту, а также отправиться в далекое путешествие, чтобы разыскать похищенного одиннадцатилетнего мальчишку из племени, по имени Нипки. На пути бесстрашную девушку ждет множество приключений, опасных ситуаций и знакомств с новыми интересными людьми.

Продолжительность: 01:38:06
Качество видео: BDRip
Перевод: Авторский (П. Морозов/PashaUp)
Язык субтитров: Русский (полные), Английский (на диалоги индейцев)
Вид субтитров: Вшитые, отключаемые
Видео: AVC/H.264, 1280x688, ~5 Mbps
Аудио 1: AC3, 6 ch, 640 kbps, Русский (AVO, П. Морозов/PashaUp)
Аудио 2: AC3, 6 ch, 640 kbps, Английский (Оригинал)

MediaIinfo:

Общее
Формат : Matroska
Версия формата : Version 4 / Version 2
Размер файла : 4,30 Гбайт
Продолжительность : 1 ч. 38 м.
Общий поток : 6277 Кбит/сек
Название фильма : Maina (2013) BDRip by Lexandros
Дата кодирования : UTC 2017-02-13 07:45:19
Программа кодирования : mkvmerge v9.8.0 ('Kuglblids') 64bit
Библиотека кодирования : libebml v1.3.4 + libmatroska v1.4.5
Видео
Идентификатор : 1
Формат : AVC
Формат/Информация : Advanced Video Codec
Профиль формата : [url=mailto:High@L4.1]High@L4.1[/url]
Параметр CABAC формата : Да
Параметр ReFrames формата : 9 кадров
Идентификатор кодека : V_MPEG4/ISO/AVC
Продолжительность : 1 ч. 38 м.
Битрейт : 5000 Кбит/сек
Ширина : 1280 пикселей
Высота : 688 пикселей
Соотношение сторон : 1,85:1
Режим частоты кадров : Постоянный
Частота кадров : 25,000 кадров/сек
Цветовое пространство : YUV
Субдискретизация насыщенности : 4:2:0
Битовая глубина : 8 бит
Тип развёртки : Прогрессивная
Бит/(Пиксели*Кадры) : 0.227
Размер потока : 3,42 Гбайт (80%)
Библиотека кодирования : x264 core 148 r2638 7599210
Настройки программы : cabac=1 / ref=9 / deblock=1:-1:-1 / analyse=0x3:0x133 / me=umh / subme=9 / psy=1 / psy_rd=1.05:0.00 / mixed_ref=1 / me_range=32 / chroma_me=1 / trellis=2 / 8x8dct=1 / cqm=0 / deadzone=21,11 / fast_pskip=0 / chroma_qp_offset=-2 / threads=6 / lookahead_threads=1 / sliced_threads=0 / nr=0 / decimate=0 / interlaced=0 / bluray_compat=0 / constrained_intra=0 / bframes=11 / b_pyramid=2 / b_adapt=2 / b_bias=0 / direct=3 / weightb=1 / open_gop=0 / weightp=2 / keyint=250 / keyint_min=25 / scenecut=40 / intra_refresh=0 / rc_lookahead=60 / rc=2pass / mbtree=0 / bitrate=5000 / ratetol=1.0 / qcomp=0.70 / qpmin=10 / qpmax=51 / qpstep=4 / cplxblur=20.0 / qblur=0.5 / vbv_maxrate=50000 / vbv_bufsize=50000 / nal_hrd=none / filler=0 / ip_ratio=1.40 / pb_ratio=1.30 / aq=1:0.85
Язык : English
Default : Да
Forced : Нет
Цветовой диапазон : Limited
Основные цвета : BT.709
Характеристики трансфера : BT.709
Коэффициенты матрицы : BT.709
Аудио #1
Идентификатор : 2
Формат : AC-3
Формат/Информация : Audio Coding 3
Расширение режима : CM (complete main)
Параметр Endianness формата : Big
Идентификатор кодека : A_AC3
Продолжительность : 1 ч. 38 м.
Вид битрейта : Постоянный
Битрейт : 640 Кбит/сек
Каналы : 6 каналов
Расположение каналов : Front: L C R, Side: L R, LFE
Частота : 48,0 КГц
Частота кадров : 31,250 кадров/сек (1536 spf)
Битовая глубина : 16 бит
Метод сжатия : С потерями
Размер потока : 449 Мбайт (10%)
Заголовок : AVO, PashaUp
Язык : Russian
Default : Да
Forced : Нет
Аудио #2
Идентификатор : 3
Формат : AC-3
Формат/Информация : Audio Coding 3
Расширение режима : CM (complete main)
Параметр Endianness формата : Big
Идентификатор кодека : A_AC3
Продолжительность : 1 ч. 38 м.
Вид битрейта : Постоянный
Битрейт : 640 Кбит/сек
Каналы : 6 каналов
Расположение каналов : Front: L C R, Side: L R, LFE
Частота : 48,0 КГц
Частота кадров : 31,250 кадров/сек (1536 spf)
Битовая глубина : 16 бит
Метод сжатия : С потерями
Размер потока : 449 Мбайт (10%)
Язык : English
Default : Нет
Forced : Нет
Текст #1
Идентификатор : 4
Формат : UTF-8
Идентификатор кодека : S_TEXT/UTF8
Идентификатор кодека/Информация : UTF-8 Plain Text
Продолжительность : 1 ч. 34 м.
Битрейт : 32 бит/сек
Count of elements : 464
Размер потока : 22,7 Кбайт (0%)
Язык : Russian
Default : Да
Forced : Нет
Текст #2
Идентификатор : 5
Формат : UTF-8
Идентификатор кодека : S_TEXT/UTF8
Идентификатор кодека/Информация : UTF-8 Plain Text
Продолжительность : 1 ч. 31 м.
Битрейт : 12 бит/сек
Count of elements : 336
Размер потока : 8,24 Кбайт (0%)
Язык : English
Default : Нет
Forced : Нет
Меню
00:00:00.000 : en:00:00:00.000
00:10:05.000 : en:00:10:05.000
00:24:56.800 : en:00:24:56.800
00:36:28.000 : en:00:36:28.000
00:50:02.120 : en:00:50:02.120
01:01:05.200 : en:01:01:05.200
01:13:18.000 : en:01:13:18.000
01:25:19.000 : en:01:25:19.000
Скриншоты:
       
 

Текущее время: Сегодня 15:47

Часовой пояс: GMT + 3