Сегодня идет свободное скачивание без начисления Download

Результатов поиска: 4

Автор Сообщение

XP1971

Пост 07-Сен-2016 23:35

[Цитировать]

Deep Purple - Perfect Strangers (Live 1984) (2013) DVDRip - Жанр: Rock, Classic Rock
Актеры: Ian Gillan (вокал), Ritchie Blackmore (гитара), Roger Glover (бас-гитара), Ian Paice (барабаны), Jon Lord (клавишные)
Описание:
1984 год увидел долгожданное воссоединение классического 2го состава Deep Purple – Ричи Блэкмор, Ян Гиллан, Роджер Гловер, Джон Лорд, Ян Пэйс (1-й состав: Род Эванс, Джон Лорд, Ричи Блэкмор, Ник Симпер, Ян Пэйс ). Это первый раз с тех пор, когда они были вместе с 1973 года. Они записали новый студийный альбом, "Perfect Strangers", и отправились в с ним в тур. Концерт группы в Австралийском Мельбурне был профессионально заснят на плёнку и является единственной полнометражной записью группы на данный момент.
Программа концерта перемежает новые треки группы со старыми фаворитами ранних 70-х с потрясающей кульминационной "Smoke On The Water" в финале. Это без сомнения один из лучших когда-либо снимавшихся концертов Deep Purple и «must have» для легионов фанатов этой группы.
Треклист:
01. Highway Star
02. Nobody’s Home
03. Strange Kind Of Woman
04. A Gypsy’s Kiss
05. Perfect Strangers
06. Under The Gun
07. Knocking At Your Back Door
08. Lazy (including Ian Paice drum solo)
09. Child In Time
10. Difficult To Cure
11. Jon Lord Keyboard Solo
12. Space Truckin' (with Ritchie Blackmore guitar solo)
13. Black Night
14. Speed King
15. Smoke On The Water
Продолжительность: 01:58:24
Качество видео: DVDRip
Видео: AVC/H.264, 696x480@696x540, ~1 600 Kbps avg
Аудио: AC3, 6 ch, 448 kbps

Mediainfo:

Код:
General
Complete name                    : Deep Purple - Perfect Strangers Live.mkv
Format                           : Matroska
Format version                   : Version 2
File size                        : 1.70 GiB
Duration                         : 1h 58mn
Overall bit rate                 : 2 050 Kbps
Writing application              : HandBrake 0.9.9
Writing library                  : libmkv 0.6.5
Video
ID                               : 1
Format                           : AVC
Format/Info                      : Advanced Video Codec
Format profile                   : [url=mailto:High@L4.1]High@L4.1[/url]
Format settings, CABAC           : Yes
Format settings, ReFrames        : 4 frames
Codec ID                         : V_MPEG4/ISO/AVC
Duration                         : 1h 58mn
Bit rate                         : 1 600 Kbps
Width                            : 696 pixels
Height                           : 480 pixels
Display aspect ratio             : 1.288
Original display aspect ratio    : 1.289
Frame rate                       : 29.970 fps
Color space                      : YUV
Chroma subsampling               : 4:2:0
Bit depth                        : 8 bits
Scan type                        : Progressive
Bits/(Pixel*Frame)               : 0.160
Stream size                      : 1.29 GiB (76%)
Writing library                  : x264 core 130 r2273 b3065e6
Encoding settings                : cabac=1 / ref=3 / deblock=1:-1:-1 / analyse=0x3:0x113 / me=hex / subme=7 / psy=1 / psy_rd=1.00:0.15 / mixed_ref=1 / me_range=16 / chroma_me=1 / trellis=1 / 8x8dct=1 / cqm=0 / deadzone=21,11 / fast_pskip=1 / chroma_qp_offset=-3 / threads=3 / lookahead_threads=1 / sliced_threads=0 / nr=0 / decimate=1 / interlaced=0 / bluray_compat=0 / constrained_intra=0 / bframes=3 / b_pyramid=2 / b_adapt=1 / b_bias=0 / direct=1 / weightb=1 / open_gop=0 / weightp=2 / keyint=300 / keyint_min=30 / scenecut=40 / intra_refresh=0 / rc_lookahead=40 / rc=abr / mbtree=1 / bitrate=1600 / ratetol=1.0 / qcomp=0.60 / qpmin=0 / qpmax=69 / qpstep=4 / vbv_maxrate=62500 / vbv_bufsize=78125 / nal_hrd=none / ip_ratio=1.40 / aq=1:1.00
Language                         : English
Color primaries                  : BT.601-6 525, BT.1358 525, BT.1700 NTSC, SMPTE 170M
Transfer characteristics         : BT.709-5, BT.1361
Matrix coefficients              : BT.601-6 525, BT.1358 525, BT.1700 NTSC, SMPTE 170M
Audio
ID                               : 2
Format                           : AC-3
Format/Info                      : Audio Coding 3
Mode extension                   : CM (complete main)
Codec ID                         : A_AC3
Duration                         : 1h 58mn
Bit rate mode                    : Constant
Bit rate                         : 448 Kbps
Channel(s)                       : 6 channels
Channel positions                : Front: L C R, Side: L R, LFE
Sampling rate                    : 48.0 KHz
Bit depth                        : 16 bits
Compression mode                 : Lossy
Stream size                      : 380 MiB (22%)
Скриншоты:
       
Время раздачи: 24/7

XP1971

Пост 30-Авг-2016 15:16

[Цитировать]

ABBA – Number Ones (2006) DVDRip - Год: 2006
Жанр: Europop, Disco
Издание: Polar – 0602517097155
Продолжительность: 01:35:00
Источник (релизер): blandrew®
Треклист:
01. Gimme! Gimme! Gimme! (A Man After Midnight)
02. Mamma Mia
03. Dancing Queen
04. Super Trouper
05. SOS
06. Summer Night City
07. Money, Money, Money
08. The Winner Takes It All
09. Chiquitita
10. One Of Us
11. Knowing Me, Knowing You
12. Voulez-Vous
13. Fernando
14. Waterloo
15. Ring Ring
16. The Name Of The Game
17. I Do, I Do, I Do, I Do, I Do
18. Take A Chance On Me
19. I Have A Dream
Extras:
20. Waterloo (From Top Of The Pops, England 1974)
21. I Do, I Do, I Do, I Do, I Do, SOS & Waterloo (From Hei Sveis!, Norway 1975)
22. I Have A Dream & Under Attack (From The Late Late Breakfast Show, England 1982)
23. Number Ones Scrapbook
Качество видео: DVDRip
Перевод: Отсутствует
Видео: AVC/H.264, 720х480, ~ 4,35 Mbps
Аудио: AAC, 2 ch, 125 Kbps, CBR
Аудио: PCM, 2 ch, 1411 Kbps, CBR

Mediainfo:

Код:
General
Unique ID                   : 181161217195012241474842351528530126637 (0x884A619C992E50E399522EDD99D3A72D)
Complete name               : D:\Video&Music&Books\2006 - ABBA – Number Ones\2006 - ABBA – Number Ones.mkv
Format                      : Matroska
Format version              : Version 4 / Version 2
File size                   : 3.79 GiB
Duration                    : 1h 37mn
Overall bit rate            : 5 574 Kbps
Encoded date                : UTC 2016-01-26 22:10:18
Writing application         : mkvmerge v8.8.0 ('Wind at my back') 64bit
Writing library             : libebml v1.3.3 + libmatroska v1.4.4
DURATION                    : 01:37:20.335000000
NUMBER_OF_FRAMES            : 29202
NUMBER_OF_BYTES             : 1030235072
_STATISTICS_WRITING_APP     : mkvmerge v8.8.0 ('Wind at my back') 64bit
_STATISTICS_WRITING_DATE_UT : 2016-01-26 22:10:18
_STATISTICS_TAGS            : BPS DURATION NUMBER_OF_FRAMES NUMBER_OF_BYTES
Video
ID                          : 1
Format                      : AVC
Format/Info                 : Advanced Video Codec
Format profile              : Main@L3
Format settings, CABAC      : Yes
Format settings, ReFrames   : 2 frames
Codec ID                    : V_MPEG4/ISO/AVC
Duration                    : 1h 37mn
Width                       : 720 pixels
Height                      : 480 pixels
Display aspect ratio        : 4:3
Frame rate mode             : Constant
Frame rate                  : 29.970 fps
Standard                    : NTSC
Color space                 : YUV
Chroma subsampling          : 4:2:0
Bit depth                   : 8 bits
Scan type                   : Progressive
Language                    : English
Default                     : Yes
Forced                      : No
Audio #1
ID                          : 2
Format                      : AAC
Format/Info                 : Advanced Audio Codec
Format profile              : LC
Codec ID                    : A_AAC
Duration                    : 1h 37mn
Channel(s)                  : 2 channels
Channel positions           : Front: L R
Sampling rate               : 48.0 KHz
Compression mode            : Lossy
Title                       : AAC
Language                    : English
Default                     : Yes
Forced                      : No
Audio #2
ID                          : 3
Format                      : PCM
Codec ID                    : A_PCM/INT/LIT
Duration                    : 1h 37mn
Bit rate mode               : Constant
Channel(s)                  : 2 channels
Sampling rate               : 44.1 KHz
Bit depth                   : 16 bits
Title                       : PCM
Language                    : English
Default                     : No
Forced                      : No
Text
ID                          : 4
Format                      : VobSub
Muxing mode                 : zlib
Codec ID                    : S_VOBSUB
Codec ID/Info               : Picture based subtitle format used on DVDs
Language                    : English
Default                     : Yes
Forced                      : No
Menu
00:00:00.000                : en:
00:03:28.633                : en:
00:07:06.933                : en:
00:11:05.600                : en:
00:15:26.233                : en:
00:18:53.199                : en:
00:22:47.165                : en:
00:26:01.965                : en:
00:31:05.165                : en:
00:36:35.298                : en:
00:40:39.264                : en:
00:44:46.730                : en:
00:49:08.196                : en:
00:53:29.996                : en:
00:56:23.929                : en:
00:59:36.229                : en:
01:04:39.862                : en:
01:08:03.928                : en:
01:12:17.061                : en:
01:16:45.694                : en:
General
Unique ID                   : 217853504897675444704881058178727886717 (0xA3E50F114433306299643501B5073F7D)
Complete name               : D:\Video&Music&Books\2006 - ABBA – Number Ones\2006 - ABBA – Number Ones_Scrapbook.mkv
Format                      : Matroska
Format version              : Version 4 / Version 2
File size                   : 696 MiB
Duration                    : 17mn 27s
Overall bit rate            : 5 574 Kbps
Encoded date                : UTC 2016-01-26 22:26:03
Writing application         : mkvmerge v8.8.0 ('Wind at my back') 64bit
Writing library             : libebml v1.3.3 + libmatroska v1.4.4
DURATION                    : 00:17:27.613000000
NUMBER_OF_FRAMES            : 5239
NUMBER_OF_BYTES             : 184798984
_STATISTICS_WRITING_APP     : mkvmerge v8.8.0 ('Wind at my back') 64bit
_STATISTICS_WRITING_DATE_UT : 2016-01-26 22:26:03
_STATISTICS_TAGS            : BPS DURATION NUMBER_OF_FRAMES NUMBER_OF_BYTES
Video
ID                          : 1
Format                      : AVC
Format/Info                 : Advanced Video Codec
Format profile              : Main@L3
Format settings, CABAC      : Yes
Format settings, ReFrames   : 2 frames
Codec ID                    : V_MPEG4/ISO/AVC
Duration                    : 17mn 27s
Width                       : 720 pixels
Height                      : 480 pixels
Display aspect ratio        : 4:3
Frame rate mode             : Constant
Frame rate                  : 29.970 fps
Standard                    : NTSC
Color space                 : YUV
Chroma subsampling          : 4:2:0
Bit depth                   : 8 bits
Scan type                   : Progressive
Language                    : English
Default                     : Yes
Forced                      : No
Audio #1
ID                          : 2
Format                      : AAC
Format/Info                 : Advanced Audio Codec
Format profile              : LC
Codec ID                    : A_AAC
Duration                    : 17mn 27s
Channel(s)                  : 2 channels
Channel positions           : Front: L R
Sampling rate               : 48.0 KHz
Compression mode            : Lossy
Title                       : AAC
Language                    : English
Default                     : Yes
Forced                      : No
Audio #2
ID                          : 3
Format                      : PCM
Codec ID                    : A_PCM/INT/LIT
Duration                    : 17mn 27s
Bit rate mode               : Constant
Channel(s)                  : 2 channels
Sampling rate               : 44.1 KHz
Bit depth                   : 16 bits
Title                       : PCM
Default                     : No
Forced                      : No
Text
ID                          : 4
Format                      : VobSub
Muxing mode                 : zlib
Codec ID                    : S_VOBSUB
Codec ID/Info               : Picture based subtitle format used on DVDs
Language                    : English
Default                     : Yes
Forced                      : No
Menu
00:00:00.000                : en:
00:01:04.633                : en:
00:02:14.533                : en:
00:03:24.633                : en:
00:04:12.966                : en:
00:05:01.599                : en:
00:05:45.699                : en:
00:06:41.566                : en:
00:07:27.566                : en:
00:08:22.133                : en:
00:09:26.000                : en:
00:10:18.367                : en:
00:10:58.300                : en:
00:11:58.967                : en:
00:12:51.100                : en:
00:13:40.267                : en:
00:14:36.734                : en:
00:15:09.901                : en:
00:16:14.934                : en:
Скриншоты:
       

Дополнительные скриншоты:

Скриншоты:
       

Дополнительная информация:

http://www.discogs.com/ABBA-Number-Ones/release/3122536

-

-

Region_13

Пост 17-Ноя-2015 19:14

[Цитировать]

с 27 раза создал раздачу ,и то,не так как хотелось...Считал специально)))))конкретно Глюканы на Трекере

Region_13

Пост 17-Ноя-2015 19:12

[Цитировать]

VA - Осенний марафон № 204 / (Дискотека с размахом № 3-1080p)
Год выпуска: 2015
Страна: Россия/America
Жанр: Pop, Dance, Latino, Country, House, Chill Out, Rap, Indie, Rock
Продолжительность: 01:28:05
Перевод: Не требуется
Описание: Осенние (12.11.2015) поп. новинки зарубежной и русской эстрады. В сборник вошло девять премьер российской эстрады, такие например как новый клип на песню Юрия Шатунова "И я под гитару". Не пропустите, держите новые треки.
Качество: HDTVRip
Формат: MKV
Видео кодек:MPEG-4 AVC/H.264
Аудио кодек: AC3
Видео: 1920x1080 (16:9), 25.000 fps, AVC, Main@L4, 4803 ~ 4198 kbps avg, 0.093 ~ 0.081 bit.pixel
Аудио: 48.0 KHz, 6 ch, AC3, CBR (постоянный), 320 Kbps avg

MI

Общее
Полное имя : E:\VA - Осенний марафон № 204 (Дискотека с размахом № 3)\02. Alexander Rybak ft. Pernille Hogstad Stene - Venner fra fortellingen om Trolle (Official Video).mp4
Формат : MPEG-4
Профиль формата : Base Media
Идентификатор кодека : isom
Размер файла : 116 Мбайт
Продолжительность : 3 м. 29 с.
Общий поток : 4635 Кбит/сек
Дата кодирования : UTC 2015-11-09 04:27:25
Дата пометки : UTC 2015-11-09 04:27:25
Программа кодирования : Lavf54.63.104
Видео
Идентификатор : 1
Формат : AVC
Формат/Информация : Advanced Video Codec
Профиль формата : Main@L4
Параметр CABAC формата : Да
Параметр ReFrames формата : 1 кадр
Идентификатор кодека : avc1
Идентификатор кодека/Информация : Advanced Video Coding
Продолжительность : 3 м. 29 с.
Битрейт : 4496 Кбит/сек
Ширина : 1920 пикселей
Высота : 1080 пикселей
Соотношение сторон : 16:9
Режим частоты кадров : Постоянный
Частота кадров : 25,000 кадров/сек
Цветовое пространство : YUV
Субдискретизация насыщенности : 4:2:0
Битовая глубина : 8 бит
Тип развёртки : Прогрессивная
Бит/(Пиксели*Кадры) : 0.087
Размер потока : 108 Мбайт (93%)
Библиотека кодирования : x264 core 129
Настройки программы : cabac=1 / ref=1 / deblock=1:0:0 / analyse=0x1:0x131 / me=dia / subme=2 / psy=1 / psy_rd=1.00:0.00 / mixed_ref=0 / me_range=16 / chroma_me=1 / trellis=0 / 8x8dct=0 / cqm=0 / deadzone=21,11 / fast_pskip=1 / chroma_qp_offset=0 / threads=2 / lookahead_threads=1 / sliced_threads=0 / nr=0 / decimate=1 / interlaced=0 / bluray_compat=0 / constrained_intra=0 / bframes=0 / weightp=2 / keyint=250 / keyint_min=25 / scenecut=40 / intra_refresh=0 / rc_lookahead=40 / rc=abr / mbtree=1 / bitrate=4496 / ratetol=1.0 / qcomp=0.60 / qpmin=10 / qpmax=51 / qpstep=4 / ip_ratio=1.41 / aq=1:1.00
Дата кодирования : UTC 2015-11-09 04:27:25
Дата пометки : UTC 2015-11-09 04:27:25
Аудио
Идентификатор : 2
Формат : AC-3
Формат/Информация : Audio Coding 3
Расширение режима : CM (complete main)
Параметр Endianness формата : Big
Идентификатор кодека : ac-3
Продолжительность : 3 м. 29 с.
Вид битрейта : Постоянный
Битрейт : 320 Кбит/сек
Каналы : 6 каналов
Расположение каналов : Front: L C R, Side: L R, LFE
Частота : 48,0 КГц
Битовая глубина : 16 бит
Метод сжатия : С потерями
Размер потока : 7,98 Мбайт (7%)
Дата кодирования : UTC 2015-11-09 04:27:25
Дата пометки : UTC 2015-11-09 04:27:25

Скрины

                     

ТрекЛист

01. Alesha Dixon - Do It For Love (Official Video) (00:03:11)
02. Alexander Rybak ft. Pernille Hogstad Stene - Venner fra fortellingen om Trolle (Official Video) (00:03:29)
03. Betta - Maria Magdalena (Official Video) (00:03:49)
04. Chris Largo ft. Orry Jackson - I Want U Now (Official Video) (00:03:36)
05. Dallas Smith - Kids With Cars (Official Video) (00:03:02)
06. Elizabeth Rose - Shoulda Coulda Woulda (Official Video) (00:03:48)
07. Flo Rida ft. Gutta Twins - Miami (Official Video) (00:03:46)
08. Izzy Bizu - White Tiger (Official Video) (00:02:55)
09. Little Mix - Love Me Like You (Radio 1's Teen Awards 2015) (Official Video) (00:03:24)
10. Lost Kings ft. Jessame - Bad (Official Video) (00:03:18)
11. Mischa Daniels ft. U-Jean - That Girl (Official Video) (00:02:59)
12. Pentatonix - Sing (Official Video) (00:04:19)
13. Rod Stewart - Way Back Home (Official Video) (00:04:38)
14. Sonique – Sky Madson Remix (Official Video) (00:05:09)
15. Алина Гросу - Ревную (Премьера!) (00:03:17)
16. Анна Семенович ft. Артём Пиндюра – Boys (Премьера!) (00:03:31)
17. Винтаж ft. Smash - Город, Где Сбываются Мечты (Премьера!) (00:03:53)
18. Инфинити - Как тебя звать (Премьера!) (00:03:34)
19. Март Бабаян ft. Galkina - Сумасшедшие (Премьера!) (00:03:06)
20. Сати Казанова - Спит мое счастье (Премьера!) (00:04:13)
21. Сергей Грей'С - Любить тебя, любить (Премьера!) (00:03:20)
22. Тамерлан и Алена - Я Буду (Official Video) (00:03:32)
23. Татьяна Котова - Я буду сильней (Премьера!) (00:03:33)
24. Тина Кароль - Сдаться Ты Всегда Успеешь (Премьера!) (00:05:33)
25. Юрий Шатунов - И я под гитару (Премьера!) (00:03:50)
 

Текущее время: Сегодня 03:19

Часовой пояс: GMT + 3