Сегодня идет свободное скачивание без начисления Download

Результатов поиска: 500

Автор Сообщение

Varius

Пост 02-Янв-2017 16:46

[Цитировать]

Любовь без правил (2016) WEB-DL [H.264/720p-LQ] - Производство: Россия | Беларусьфильм, Каскад
Жанр: Комедия
Режиссер: Дмитрий Астрахан
Актеры: Виктор Васильев, Анна Горшкова, Олег Васильков, Ирина Погодина, Анна Назарова, Иван Щетко, Софья Синицына, Наталья Барановская, Людмила Баталова, Георгий Малявский
Описание:
В городе Зареченске жены часто отказывали мужьям. Когда же проблема накрыла и мэра города, Сергей Николаевич не стал терпеть и начал действовать. С родственником жены, местным олигархом, они решают перепрофилировать построенный на противоположном берегу реки санаторий в «Оздоровительный центр». Для чего бизнесмен приглашает из столицы специально обученный «медицинский персонал». И вот уже на другую сторону реки пришвартовывается катер с симпатичными, молодыми и очень профессиональными «медсестрами» и «санитарками». Вооружившись биноклями зареченские жены придирчиво рассматривают конкуренток. А что-же мужья? Надев парадные костюмы и галстуки они садятся в лодки и через несколько минут оказываются на другом берегу, среди молодых, красивых, покладистых и совсем не стервозных девушек. Другие правила или наоборот, любовь без правил?

Возраст: 16+ (зрителям, достигшим 16 лет)
Дата российской премьеры: 10 ноября 2016, «Каропрокат»
Продолжительность: 01:30:02
Качество видео: WEB-DL 720p-LQ
Перевод: Не требуется (русский) iTunes
Субтитры: Отсутствуют
Видео: AVC/H.264, 960x534@1280x534, ~ 4015 kbps
Аудио: AC3, 2 ch, 384 kbps
Навигация по главам: 11 глав (не именные)

Mediainfo:

Общее
Уникальный идентификатор : 186414665004164339459395958210255753798 (0x8C3E28961B441C0F84958582E65D9246)
Полное имя : D:\Загрузки uTorrent\Любовь без правил.2016.WEB-DL.720p-LQ.mkv
Формат : Matroska
Версия формата : Version 2
Размер файла : 2,77 Гбайт
Продолжительность : 1 ч. 30 м.
Общий поток : 4401 Кбит/сек
Дата кодирования : UTC 2016-12-25 21:17:58
Программа кодирования : mkvmerge v8.3.0 ('Over the Horizon') 64bit
Библиотека кодирования : libebml v1.3.1 + libmatroska v1.4.2
Видео
Идентификатор : 1
Формат : AVC
Формат/Информация : Advanced Video Codec
Профиль формата : [url=mailto:Main@L3.1]Main@L3.1[/url]
Параметр CABAC формата : Нет
Параметр ReFrames формата : 2 кадра
Идентификатор кодека : V_MPEG4/ISO/AVC
Продолжительность : 1 ч. 30 м.
Битрейт : 4015 Кбит/сек
Ширина : 960 пикселей
Высота : 534 пикселя
Соотношение сторон : 2,40:1
Режим частоты кадров : Постоянный
Частота кадров : 25,000 кадров/сек
Цветовое пространство : YUV
Субдискретизация насыщенности : 4:2:0
Битовая глубина : 8 бит
Тип развёртки : Прогрессивная
Бит/(Пиксели*Кадры) : 0.313
Размер потока : 2,52 Гбайт (91%)
Язык : English
Default : Да
Forced : Нет
Цветовой диапазон : Limited
Основные цвета : BT.709
Характеристики трансфера : BT.709
Коэффициенты матрицы : BT.709
Аудио
Идентификатор : 2
Формат : AC-3
Формат/Информация : Audio Coding 3
Расширение режима : CM (complete main)
Параметр Endianness формата : Big
Идентификатор кодека : A_AC3
Продолжительность : 1 ч. 30 м.
Вид битрейта : Постоянный
Битрейт : 384 Кбит/сек
Каналы : 2 канала
Расположение каналов : Front: L R
Частота : 48,0 КГц
Частота кадров : 31,250 кадров/сек (1536 spf)
Битовая глубина : 16 бит
Метод сжатия : С потерями
Размер потока : 247 Мбайт (9%)
Язык : Russian
Default : Да
Forced : Нет
Меню
00:00:00.000 : en:Глава 1
00:06:32.680 : en:Глава 2
00:13:28.280 : en:Глава 3
00:20:55.240 : en:Глава 4
00:29:03.960 : en:Глава 5
00:36:43.040 : en:Глава 6
00:45:01.000 : en:Глава 7
00:52:50.480 : en:Глава 8
01:01:55.960 : en:Глава 9
01:10:54.120 : en:Глава 10
01:19:16.720 : en:Глава 11
Скриншоты:
       

Russian Mafia

Пост 18-Сен-2016 11:14

[Цитировать]

Резня в бикини / Bikini Mayhem (2015) WEB-DLRip - Производство: США / 95Forty Productions
Жанр: Триллер
Режиссер: Эрик Уиллфорд
Актеры: Christy Chandler, Кори Коллинз, Mark Anthony Cox, Меган Денис, King Eddy, Daniel Florenzano, Jason Garcia, Paul Geantil, Mike Hammer, Кэрол Хэннан
Описание:
Две подруги мечтают стать моделями. И, вдруг, неожиданно, они проходят кастинг в мало известном агентстве. Первая корпоративная вечеринка оборачивается кошмаром, который влечет за собой психоз, состояние смещенного сознания и полное изменение личности...

Возраст: 18+ (зрителям, достигшим 18 лет. запрещено для детей)
Продолжительность: 01:18:40
Качество видео: WEB-DLRip
Перевод: Двухголосый закадровый
Автор перевода: den904 & DeadSno
Реклама: присутствует
Видео: 720x400 (1.80:1), 23.976 fps, XviD build 73 ~2445 kbps, 0.35 bit/pixel
Аудио: 48 kHz, AC3 Dolby Digital, 2/0 (L,R) ch, ~192 kbps

Mediainfo:

Код:
Формат                                   : AVI
Формат/Информация                        : Audio Video Interleave
Размер файла                             : 1,45 Гбайт
Продолжительность                        : 1 ч. 18 м.
Общий поток                              : 2646 Кбит/сек
Программа кодирования                    : VirtualDubMod 1.5.10.3 | [url=http://www.virtualdub-fr.org]www.virtualdub-fr.org[/url] || (build 2550/release)
Библиотека кодирования                   : VirtualDubMod build 2550/release
Видео
Идентификатор                            : 0
Формат                                   : MPEG-4 Visual
Профиль формата                          : Advanced Simple@L5
Параметр BVOP формата                    : 1
Параметр QPel формата                    : Нет
Параметр GMC формата                     : Без точки перехода
Параметр матрицы формата                 : Выборочная
Идентификатор кодека                     : XVID
Идентификатор кодека/Подсказка           : XviD
Продолжительность                        : 1 ч. 18 м.
Битрейт                                  : 2445 Кбит/сек
Ширина                                   : 720 пикселей
Высота                                   : 400 пикселей
Соотношение сторон                       : 16:9
Частота кадров                           : 23,976 кадра/сек
Цветовое пространство                    : YUV
Субдискретизация насыщенности            : 4:2:0
Битовая глубина                          : 8 бит
Тип развёртки                            : Прогрессивная
Метод сжатия                             : С потерями
Бит/(Пиксели*Кадры)                      : 0.354
Размер потока                            : 1,34 Гбайт (92%)
Библиотека кодирования                   : XviD 73
Аудио
Идентификатор                            : 1
Формат                                   : AC-3
Формат/Информация                        : Audio Coding 3
Расширение режима                        : CM (complete main)
Параметр Endianness формата              : Big
Идентификатор кодека                     : 2000
Продолжительность                        : 1 ч. 18 м.
Вид битрейта                             : Постоянный
Битрейт                                  : 192 Кбит/сек
Каналы                                   : 2 канала
Расположение каналов                     : Front: L R
Частота                                  : 48,0 КГц
Битовая глубина                          : 16 бит
Метод сжатия                             : С потерями
Размер потока                            : 108 Мбайт (7%)
Выравнивание                             : Разделение по промежуткам
Продолжительность промежутка             : 42  мс. (1,00 видеокадр)
Время предзагрузки промежутка            : 500  мс.

Скриншоты

       

Russian Mafia

Пост 24-Авг-2016 18:42

[Цитировать]

Производство: Россия, кинокомпания "Сибирь"
Жанр: Боевик, Криминал
Режиссер: Сергей Грозных
Актеры: Равиль Валиев, Евгений Писанков, Олег Захаров, Михаил Попов, Николай Устинов, Иван Кулик, Александр Некрасов.
Описание:
Специальный отдел полиции вышел на след опасной преступной группировки, которая промышляет в этих краях. Но при задержании что-то пошло не так. В результате полиция несет потери. К тому же сотрудники отдела вскоре начали бесследно исчезать. Вышестоящее руководство ставит четкую задачу: поймать преступников в течение недели. Но как найти лидера группировки, чтобы обезвредить его? За помощью обращаются к отставному офицеру Руслану Бероеву. Ведь его опыт просто неоценим. Но ввязавшись в это дело, Бероев не мог представить, что под угрозой окажется не только его жизнь, но и жизни всех его близких...

Продолжительность: 01:29:18
Качество видео: WEB-DLRip Сэмпл
Видео: Xvid, 720x304, ~1989 Kbps
Аудио: AC3, 2 ch, 192 Kbps, CBR

Mediainfo:

Код:
Общее
Полное имя                               : J:\Sibirskii.Trafic.avi
Формат                                   : AVI
Формат/Информация                        : Audio Video Interleave
Размер файла                             : 1,37 Гбайт
Продолжительность                        : 1 ч. 29 м.
Общий поток                              : 2190 Кбит/сек
Программа кодирования                    : VirtualDubMod 1.5.10.3 | [url=http://www.virtualdub-fr.org]www.virtualdub-fr.org[/url] || (build 2550/release)
Библиотека кодирования                   : VirtualDubMod build 2550/release
Видео
Идентификатор                            : 0
Формат                                   : MPEG-4 Visual
Профиль формата                          : Advanced Simple@L5
Параметр BVOP формата                    : 2
Параметр QPel формата                    : Нет
Параметр GMC формата                     : Без точки перехода
Параметр матрицы формата                 : Default (MPEG)
Идентификатор кодека                     : XVID
Идентификатор кодека/Подсказка           : XviD
Продолжительность                        : 1 ч. 29 м.
Битрейт                                  : 1989 Кбит/сек
Ширина                                   : 720 пикселей
Высота                                   : 304 пикселя
Соотношение сторон                       : 2,35:1
Частота кадров                           : 25,000 кадров/сек
Цветовое пространство                    : YUV
Субдискретизация насыщенности            : 4:2:0
Битовая глубина                          : 8 бит
Тип развёртки                            : Прогрессивная
Метод сжатия                             : С потерями
Бит/(Пиксели*Кадры)                      : 0.363
Размер потока                            : 1,24 Гбайт (91%)
Библиотека кодирования                   : XviD 1.2.1 (UTC 2008-12-04)
Аудио
Идентификатор                            : 1
Формат                                   : AC-3
Формат/Информация                        : Audio Coding 3
Расширение режима                        : CM (complete main)
Параметр Endianness формата              : Big
Идентификатор кодека                     : 2000
Продолжительность                        : 1 ч. 29 м.
Вид битрейта                             : Постоянный
Битрейт                                  : 192 Кбит/сек
Каналы                                   : 2 канала
Расположение каналов                     : Front: L R
Частота                                  : 48,0 КГц
Частота кадров                           : 31,250 кадров/сек (1536 spf)
Метод сжатия                             : С потерями
Размер потока                            : 123 Мбайт (9%)
Выравнивание                             : Разделение по промежуткам
Продолжительность промежутка             : 40  мс. (1,00 видеокадр)
Время предзагрузки промежутка            : 500  мс.

Скриншоты

       

Russian Mafia

Пост 12-Авг-2016 08:24

[Цитировать]

Производство: Россия
Жанр: Криминал
Режиссер: Стас Мохначев
Актеры: Григорий Сиятвинда, Павел Майков, Максим Коновалов, Мария Горбань, Мария Кунах, Сергей Апрельский, Артурс Пуполс
Описание:
«Лихие девяностые». Два отвязных киллера Валя и Покер, профессионально выполняя черную работу, нещадно прожигают свою жизнь.
Наши дни. В стремлении покончить с криминальным прошлым и начать все с чистого листа, ребята находят себе новую работу - могильщиками на кладбище. Но тут появляется их прежний «работодатель» Сергей с весьма заманчивым предложением. Их ждет большой куш, но Покер против, а вот Валя - за. Чье же желание окажется сильнее и что из этого выйдет?

Продолжительность: 01:28:05
Качество видео: WEB-DLRip Сэмпл
Видео: Xvid, 720x320, ~2022 Kbps
Аудио: AC3, 2 ch, 192 Kbps, CBR

Mediainfo:

Код:
Общее
Полное имя                               : J:\Pil.Kuril.WEB-DLRip.avi
Формат                                   : AVI
Формат/Информация                        : Audio Video Interleave
Размер файла                             : 1,37 Гбайт
Продолжительность                        : 1 ч. 28 м.
Общий поток                              : 2222 Кбит/сек
Видео
Идентификатор                            : 0
Формат                                   : MPEG-4 Visual
Профиль формата                          : Advanced Simple@L5
Параметр BVOP формата                    : 1
Параметр QPel формата                    : Нет
Параметр GMC формата                     : Без точки перехода
Параметр матрицы формата                 : Выборочная
Идентификатор кодека                     : XVID
Идентификатор кодека/Подсказка           : XviD
Продолжительность                        : 1 ч. 28 м.
Битрейт                                  : 2022 Кбит/сек
Ширина                                   : 720 пикселей
Высота                                   : 320 пикселей
Соотношение сторон                       : 2,25:1
Частота кадров                           : 25,000 кадров/сек
Цветовое пространство                    : YUV
Субдискретизация насыщенности            : 4:2:0
Битовая глубина                          : 8 бит
Тип развёртки                            : Прогрессивная
Метод сжатия                             : С потерями
Бит/(Пиксели*Кадры)                      : 0.351
Размер потока                            : 1,24 Гбайт (91%)
Библиотека кодирования                   : XviD 73
Аудио
Идентификатор                            : 1
Формат                                   : AC-3
Формат/Информация                        : Audio Coding 3
Расширение режима                        : CM (complete main)
Параметр Endianness формата              : Big
Идентификатор кодека                     : 2000
Продолжительность                        : 1 ч. 28 м.
Вид битрейта                             : Постоянный
Битрейт                                  : 192 Кбит/сек
Каналы                                   : 2 канала
Расположение каналов                     : Front: L R
Частота                                  : 48,0 КГц
Частота кадров                           : 31,250 кадров/сек (1536 spf)
Метод сжатия                             : С потерями
Размер потока                            : 121 Мбайт (9%)
Выравнивание                             : Соединение по промежуткам
Продолжительность промежутка             : 64  мс. (1,60 видеокадра)
Время предзагрузки промежутка            : 192  мс.
Заголовок                                : P

Скриншоты

       

Dracula

Пост 13-Апр-2016 16:14

[Цитировать]

Топик был перенесен из форума Фильмы 2011-2015 в форум Фильмы 2011-2015


Геннадич

Region_13

Пост 13-Апр-2016 09:44

[Цитировать]

Хардкор / Hardcore Год выпуска: 2015
Производство: Россия, США
Жанр: боевик, фантастика,
Длительность: 01:36:25
Перевод: Дублированное [Чистый звук]
Примечание: Присутствуют вшитые корейские субтитры
Режиссер: Илья Найшуллер
Актеры: Шарлто Копли, Тим Рот , Данила Козловский, Хейли Беннетт, Андрей Дементьев, Сергей Шнуров, Кирилл Серебренников, Александр Паль, Светлана Устинова, Даша Чаруша, Равшана Куркова
ОПИСАНИЕ
Прекрасная супружеская жизнь рядом с очаровательной Эстель — это все, что помнит главный герой после того, как просыпается в неизвестной научной лаборатории, где в чувства его приводит собственная жена. Но супруга тут же оказывается похищенной, и ничего не понимающий главный герой Генри уже вынужден преследовать монстра Акана, который украл его жену.
Теперь ради достижения цели Генри готов на многое. Но позже оказывается, что не только он один является врагом для Акана. У подозрительного Джимми тоже свои планы на злодея. Теперь вместе ребятам предстоит спасти Эстель и предотвратить попытку задействовать армию киборгов в борьбе с человечеством. Им предстоит бороться с самим воплощением зла.


Качество: WEBRip
Формат: AVI
Видео: XviD, 1627 Кбит/с, 720x400
Аудио #1:48.0 KHz, AC3, 2 ch, 384 Кбит/с

MEDIAINFO

Код:
Общее
Полное имя                               : C:\Users\ghdf\Desktop\HardKor.2O16.D.WEBRip.14OOMB.KOSHERA.avi
Формат                                   : AVI
Формат/Информация                        : Audio Video Interleave
Размер файла                             : 1,36 Гбайт
Продолжительность                        : 1 ч. 36 м.
Общий поток                              : 2024 Кбит/сек
Программа кодирования                    : VirtualDubMod 1.5.10.2 (build 2540/release)
Библиотека кодирования                   : VirtualDubMod build 2540/release
Видео
Идентификатор                            : 0
Формат                                   : MPEG-4 Visual
Профиль формата                          : Advanced Simple@L5
Параметр BVOP формата                    : 2
Параметр QPel формата                    : Нет
Параметр GMC формата                     : Без точки перехода
Параметр матрицы формата                 : Default (MPEG)
Идентификатор кодека                     : XVID
Идентификатор кодека/Подсказка           : XviD
Продолжительность                        : 1 ч. 36 м.
Битрейт                                  : 1628 Кбит/сек
Ширина                                   : 720 пикселей
Высота                                   : 400 пикселей
Соотношение сторон                       : 16:9
Частота кадров                           : 29,970 (30000/1001) кадров/сек
Цветовое пространство                    : YUV
Субдискретизация насыщенности            : 4:2:0
Битовая глубина                          : 8 бит
Тип развёртки                            : Прогрессивная
Метод сжатия                             : С потерями
Бит/(Пиксели*Кадры)                      : 0.189
Размер потока                            : 1,10 Гбайт (80%)
Библиотека кодирования                   : XviD 1.2.1 (UTC 2008-12-04)
Аудио
Идентификатор                            : 1
Формат                                   : AC-3
Формат/Информация                        : Audio Coding 3
Расширение режима                        : CM (complete main)
Параметр Endianness формата              : Big
Идентификатор кодека                     : 2000
Продолжительность                        : 1 ч. 36 м.
Вид битрейта                             : Постоянный
Битрейт                                  : 384 Кбит/сек
Каналы                                   : 2 канала
Расположение каналов                     : Front: L R
Частота                                  : 48,0 КГц
Частота кадров                           : 31,250 кадров/сек (1536 spf)
Метод сжатия                             : С потерями
Размер потока                            : 265 Мбайт (19%)
Выравнивание                             : Разделение по промежуткам
Продолжительность промежутка             : 33  мс. (1,00 видеокадр)
Время предзагрузки промежутка            : 500  мс.

скриншоты

     
Имеется реклама от спонсора показа.

Omen

Пост 09-Мар-2016 15:47

[Цитировать]

--Ёлки 5--«Начинаем отмечать»-- Производство: Россия, Базелевс Продакшн
Год выпуска: 2016 г.
Жанр: семейный, комедия
Продолжительность: 01:27:44--Мировая премьера: 29 декабря 2016
Российская премьера: 22 декабря 2016, «Bazelevs Distribution»--Режиссер: Тимур Бекмамбетов, Вадим Перельман, Индар Джендубаев--В ролях: Иван Ургант, Сергей Светлаков, Гоша Куценко, Мария Шукшина, Александр Головин, Анна Хилькевич, Александр Домогаров мл., Кирилл Плетнёв, Александр Робак, Анастасия Сметанина--Описание: В этот новый год любимые герои «Ёлок» всё также делают глупости и надеются на чудо. Боре нужно как-то восстановить семейное счастье и ради этого он готов украсть у лучшего друга Жени пингвина. Лыжник и Сноубордист, так и не повзрослевшие, устраивают сумасшедшую погоню за ёлкой. Баба Маня осваивает интернет в надежде найти старую любовь. Профессор из Екатеринбурга остепенился, но теперь сам сходит с ума от ревности. На далеком Севере инженер по технике безопасности должен рискнуть и, наконец, признаться в любви. Ну а пингвину просто очень нужно сесть на яйцо…----Качество видео: WEB-DLRip
Контейнер: MKV
Видео кодек: AVC/H.264
Аудио кодек: AC3
Видео: XviD, 720x304, 1838 kbps
Аудио: 48 kHz, AC3 Dolby Digital, 3/2 (L,C,R,l,r) + LFE ch, ~384 kbps
Cубтитры: отсутствуют

Media Info

Общее
Полное имя : D:\DD\Elki.5.2016.WEB-DLRip.1.46Gb.MegaPeer.avi
Формат : AVI
Формат/Информация : Audio Video Interleave
Размер файла : 1,37 Гбайт
Продолжительность : 1 ч. 27 м.
Общий поток : 2231 Кбит/сек
Программа кодирования : VirtualDubMod 1.5.10.2 (build 2540/release)
Библиотека кодирования : VirtualDubMod build 2540/release
Видео
Идентификатор : 0
Формат : MPEG-4 Visual
Профиль формата : Advanced Simple@L5
Параметр BVOP формата : 2
Параметр QPel формата : Нет
Параметр GMC формата : Без точки перехода
Параметр матрицы формата : Default (MPEG)
Идентификатор кодека : XVID
Идентификатор кодека/Подсказка : XviD
Продолжительность : 1 ч. 27 м.
Битрейт : 1838 Кбит/сек
Ширина : 720 пикселей
Высота : 304 пикселя
Соотношение сторон : 2,35:1
Частота кадров : 24,000 кадра/сек
Цветовое пространство : YUV
Субдискретизация насыщенности : 4:2:0
Битовая глубина : 8 бит
Тип развёртки : Прогрессивная
Метод сжатия : С потерями
Бит/(Пиксели*Кадры) : 0.350
Размер потока : 1,13 Гбайт (82%)
Библиотека кодирования : XviD 1.2.1 (UTC 2008-12-04)
Аудио
Идентификатор : 1
Формат : AC-3
Формат/Информация : Audio Coding 3
Расширение режима : CM (complete main)
Параметр Endianness формата : Big
Идентификатор кодека : 2000
Продолжительность : 1 ч. 27 м.
Вид битрейта : Постоянный
Битрейт : 384 Кбит/сек
Каналы : 6 каналов
Расположение каналов : Front: L C R, Side: L R, LFE
Частота : 48,0 КГц
Метод сжатия : С потерями
Размер потока : 241 Мбайт (17%)
Выравнивание : Разделение по промежуткам
Продолжительность промежутка : 42 мс. (1,00 видеокадр)
Время предзагрузки промежутка : 500 мс.

Скриншоты

     
     

Трейлер

Omen

Пост 09-Мар-2016 15:46

[Цитировать]

-Дед Мороз. Битва Магов-- Производство: Россия
Режиссер: Александр Войтинский
Жанр: Фэнтези, семейный, приключения, 6+
Год выпуска: 2016 г.
Продолжительность: 01:56:26
Российская премьера: 24 декабря 2016, «Двадцатый Век Фокс СНГ»
В ролях: Фёдор Бондарчук, Алексей Кравченко, Таисия Вилкова, Никита Волков, Владимир Гостюхин, Егор Бероев, Ксения Алфёрова, Сергей Бадюк, Ян Цапник, Светлана Пермякова-Описание: Юную Машу мучают видения летающих огненных монстров. Мама переживает за дочь, одноклассники посмеиваются. Но однажды в самом центре Москвы Маша видит наяву сражение крылатых огненных чудовищ с молодыми людьми, которые называют себя магами. Один из них в последний момент, спасает Машу от нападения химеры. Так Маша попадает в секретную корпорацию, где узнаёт, что Дед Мороз реально существует и, возглавляя армию магов, способных управлять снегом и льдом, охраняет Землю от вторжения темных сил.
А новогодний праздник — это магический ритуал, который каждый год совершают люди на всей планете, даже не подозревая, что участвуют в самой масштабной битве добра и зла. Дед Мороз сообщает Маше, что судьба нашего мира висит на волоске, и от Маши зависит, кто победит — свет или тьма.-
Качество видео: WEB-DLRip
Контейнер: AVI
Видео кодек: XVID
Аудио кодек: AC3
Видео: 720x304 (2.37:1), 24 fps, XviD build 50 ~2133 kbps avg, 0.41 bit/pixel
Аудио: 48 kHz, AC3 Dolby Digital, 2/0 (L,R) ch, 384 kbps
Cубтитры: отсутствуют

Доп. информация

Над созданием атмосферы реального волшебства работала большая творческая команда. Художники по костюмам сшили более 50 сложных костюмов: только у Деда Мороза было 8 образов, у злодея Карачуна — 3 образа. Художники-гримеры каждый день тратили по 2-3 часа на создание образа злодея Карачуна и около 4 часов на всех братьев Деда Мороза — очень сложно сделать максимально естественными бороды, усы и парики. За визуальные эффекты в фильме отвечала компания Main Road|Post, которая делала графику для таких фильмов как «Сталинград», «Метро», «Дуэлянт», «Притяжение».
Для полного погружения зрителя в волшебную историю художники-постановщики и специалисты по графике придумали и построили настоящие новые миры: Корпорацию Деда Мороза с тайными комнатами, архивом, где хранятся все письма к Деду Морозу, тренировочными залами, где юные маги оттачивают свое мастерство; штаб-квартиру братьев Мороза на северном полюсе; логово злодея Карачуна. А еще создали множество «волшебных» предметов и существ: летающие сани и посох Деда Мороза, сферы — оружие с помощью которого маги управляют снежной стихией, Лунный меч, которым можно разрезать небо и которым хочет завладеть Карачун, огненные химеры, снежные совы и многое другое.
Специально для фильма был придуман особый язык, язык «Бессмертных», на котором в фильме общаются семеро волшебников — братья морозы. Александр Войтинский с командой разработали уникальный алфавит (на нем написаны магические письмена в фильме) и придумали звуки, на основе которых строились все реплики.
В течение почти 2 лет работы над сценарием создатели придумали и проработали целую мифологию, базирующуюся на ритуалах празднования Нового года разных периодов российской истории. «Самое интересное нововведение, которые мы сделали в этом фильме — мы рассказали о празднике Новый год в контексте волшебного магического ритуала, который превращает всех в нем участвующих… в волшебников. Мы рассказываем о том, что все знают, но с той стороны, которая ранее была неизвестна», — рассказывает режиссер фильма Александр Войтинский.

Трейлер

Рецензия

Этот Новый год запомнится надолго!
Каждый из нас с особым трепетом ожидает волшебную новогоднюю пору. Нарядные елки, праздно разгуливающие по улицам прохожие, нарядные витрины — все это согревает сердце и душу теплом, от которого улыбка без раздумий появляется на лице… А ведь мало кто подозревал, что за ширмой любимого зимнего торжества может скрываться извечное противостояние добра и зла! Именно об этом повествует зрелищное отечественное фэнтези от режиссера Александра Войтинского, озаглавленное как «Дед Мороз. Битва магов». Понимая, что современного зрителя традиционными семейными фильмами уже не пронять, создатели магической феерии с Дедом Морозом во главе, сделали все от себя зависящее, чтобы на экране разразилась истинная новогодняя феерия в лучших традициях зрелищного кино.
Что же касается непосредственно сюжета, то он знакомит нас с молодой девушкой по имени Маша (Таисия Вилкова), которой суждено стать ключевой фигурой в противостоянии добрых и злого волшебника, сошедшихся в битве в канун Нового года. И если ранее Маша могла лишь в своем воображении лицезреть всевозможных химер и прочих диковинных чудес, то этой зимой ей придется столкнуться с ними лицом к лицу в реальности. Чудом избежав беды, девушка попадает в волшебную корпорацию самого Деда Мороза (Федор Бондарчук), последнего защитника Земли от напасти, ведомой злостным Карачуном (Алексей Кравченко). С каждым приближающим Новый год часом зло крепнет все сильнее и силам Света необходимо собрать под своими знаменами абсолютно всех приспешников, иначе эта зима станет для всех нас последней.
Вместе с картиной Александра Войтинского мы попадаем в дивный волшебный мир, чем-то схожий на Вселенную Гарри Поттера, «Хроники Нарнии» и даже «Властелин колец». Однако к чести создателей, они выстроили на основе известных произведений полностью оригинальный мир, исследующий давнюю русскую мифологию, что само по себе уже заслуживает пристального внимания. Таким образом, многие из чудес, показанных в кадре, были некогда придуманы в старинных преданиях, что только увеличивает градус интереса при просмотре. Кроме того, наверное впервые в истории нашего кино на экраны пробрался злобный противник Деда Мороза, таинственный злодей Карачун, наличие которого обеспечило истории воистину глобальный масштаб и драматизм. В некотором роде вечная битва Деда Мороза и Карачуна схожа с противостоянием западных Санта Клауса и Крампуса, только с несколько иной мотивацией и смыслом.
Также хочу отметить отменный визуальный ряд картины, исполненный при помощи высококлассных спецэффектов. Как известно, отечественное кино не особо ладить с компьютерной графикой, однако «Дед Мороз. Битва магов» является примером того, как необходимо делать по-настоящему запоминающееся, невероятно красивое кино, практически ничем не уступающее голливудским аналогам. Особенно порадовала проработка волшебного мира, в котором обитают добрые и злые волшебники. Заметно, что авторы постарались на славу, наполним выдуманный мир массой уникальных деталей, которые позволяют поверить в происходящее на экране.
В итоге хочу сказать, что «Дед Мороз. Битва магов» раскрывает таинство празднования Нового года с необычайной стороны. Картина Александра Войтинского смогла оживить сказку и доказывает, что наша мифология способна похвастаться не меньшим количеством всевозможных диковинок, нежели западная, а кое в чем даже превосходит ее. Приятного просмотра!
8 из 10

Media Info

Общее
Полное имя : J:\DD\Ded.moroz.Bitva.Magov.2016.WEB-DLRip.1.46Gb.MegaPeer.avi
Формат : AVI
Формат/Информация : Audio Video Interleave
Профиль формата : OpenDML
Размер файла : 2,05 Гбайт
Продолжительность : 1 ч. 56 м.
Общий поток : 2524 Кбит/сек
Программа кодирования : VirtualDubMod 1.5.10.2 (build 2540/release)
Библиотека кодирования : VirtualDubMod build 2540/release
Видео
Идентификатор : 0
Формат : MPEG-4 Visual
Профиль формата : Advanced Simple@L5
Параметр BVOP формата : 2
Параметр QPel формата : Нет
Параметр GMC формата : Без точки перехода
Параметр матрицы формата : Default (MPEG)
Идентификатор кодека : XVID
Идентификатор кодека/Подсказка : XviD
Продолжительность : 1 ч. 56 м.
Битрейт : 2128 Кбит/сек
Ширина : 720 пикселей
Высота : 304 пикселя
Соотношение сторон : 2,35:1
Частота кадров : 24,000 кадра/сек
Цветовое пространство : YUV
Субдискретизация насыщенности : 4:2:0
Битовая глубина : 8 бит
Тип развёртки : Прогрессивная
Метод сжатия : С потерями
Бит/(Пиксели*Кадры) : 0.405
Размер потока : 1,73 Гбайт (84%)
Библиотека кодирования : XviD 1.2.1 (UTC 2008-12-04)
Аудио
Идентификатор : 1
Формат : AC-3
Формат/Информация : Audio Coding 3
Расширение режима : CM (complete main)
Параметр Endianness формата : Big
Идентификатор кодека : 2000
Продолжительность : 1 ч. 56 м.
Вид битрейта : Постоянный
Битрейт : 384 Кбит/сек
Каналы : 2 канала
Расположение каналов : Front: L R
Частота : 48,0 КГц
Частота кадров : 31,250 кадров/сек (1536 spf)
Метод сжатия : С потерями
Размер потока : 320 Мбайт (15%)
Выравнивание : Разделение по промежуткам
Продолжительность промежутка : 42 мс. (1,00 видеокадр)
Время предзагрузки промежутка : 500 мс.

Скриншот c названием фильма

 

Скриншоты

           

Omen

Пост 09-Мар-2016 15:45

[Цитировать]

--Жених--«У моей жены есть жених...»-- Производство: Россия, Solaris Promo Production, ТНТ
Год выпуска: 2016 г.
Жанр: комедия
Продолжительность: 01:32:43--Мировая премьера: 16 сентября 2016
Российская премьера: 15 сентября 2016, «Каропрокат»--Режиссер: Александр Незлобин--В ролях: Сергей Светлаков, Светлана Смирнова-Марцинкевич, Филипп Рейнхардт, Ольга Картункова, Дмитрий Никулин, Наталья Паршенкова, Сергей Бурунов, Александр Демидов, Георгий Дронов, Тимофей Зайцев--Описание: Как немец в Россию 9 мая приезжал жениться на русской красавице Алене, с которой они познакомились в Берлине. Счастливая пара едет в деревню — знакомиться с родственниками невесты. Однако туда же приезжает и бывший муж Алены — Толя, который неожиданно решил вернуть жену. Все оборачивается романтическим соперничеством, в которое кроме Толи и Гельмута, вмешиваются их друзья, родственники, а также другие жители деревни — бизнесмен Ерофеев, купивший дом по соседству, заблудившийся танкист и даже змея.----Качество видео: HDRip
Контейнер: AVI
Видео кодек: XviD
Аудио кодек: AC3
Видео: 720x400 (1.80:1), 23.976 fps, XviD build 50 ~1658 kbps avg, 0.24 bit/pixel
Аудио: 48 kHz, AC3 Dolby Digital, 3/2 (L,C,R,l,r) + LFE ch, ~448 kbps
Cубтитры: отсутствуют

Media Info

Общее
Полное имя : H:\Torrent2\Ch3Hux.2016.O.HDRip.1400Mb.avi
Формат : AVI
Формат/Информация : Audio Video Interleave
Размер файла : 1,37 Гбайт
Продолжительность : 1 ч. 32 м.
Общий поток : 2115 Кбит/сек
Программа кодирования : VirtualDubMod 1.5.10.2 (build 2540/release)
Библиотека кодирования : VirtualDubMod build 2540/release
Видео
Идентификатор : 0
Формат : MPEG-4 Visual
Профиль формата : Advanced Simple@L5
Параметр BVOP формата : 2
Параметр QPel формата : Нет
Параметр GMC формата : Без точки перехода
Параметр матрицы формата : Default (MPEG)
Идентификатор кодека : XVID
Идентификатор кодека/Подсказка : XviD
Продолжительность : 1 ч. 32 м.
Битрейт : 1658 Кбит/сек
Ширина : 720 пикселей
Высота : 400 пикселей
Соотношение сторон : 16:9
Частота кадров : 23,976 (24000/1001) кадра/сек
Цветовое пространство : YUV
Субдискретизация насыщенности : 4:2:0
Битовая глубина : 8 бит
Тип развёртки : Прогрессивная
Метод сжатия : С потерями
Бит/(Пиксели*Кадры) : 0.240
Размер потока : 1,07 Гбайт (78%)
Библиотека кодирования : XviD 1.2.1 (UTC 2008-12-04)
Аудио
Идентификатор : 1
Формат : AC-3
Формат/Информация : Audio Coding 3
Расширение режима : CM (complete main)
Параметр Endianness формата : Big
Идентификатор кодека : 2000
Продолжительность : 1 ч. 32 м.
Вид битрейта : Постоянный
Битрейт : 448 Кбит/сек
Каналы : 6 каналов
Расположение каналов : Front: L C R, Side: L R, LFE
Частота : 48,0 КГц
Частота кадров : 31,250 кадров/сек (1536 spf)
Метод сжатия : С потерями
Размер потока : 297 Мбайт (21%)
Выравнивание : Разделение по промежуткам
Продолжительность промежутка : 42 мс. (1,00 видеокадр)
Время предзагрузки промежутка : 500 мс.

Скриншоты

     
     

Трейлер

Omen

Пост 09-Мар-2016 15:44

[Цитировать]

Землетрясение- Производство: Россия, Армения, Марс Медиа Энтертейнмент
Жанр: Драма
Режиссер: Сарик Андреасян
Актеры: Константин Лавроненко, Мария Миронова мл., Виктор Степанян, Татев Овакимян, Михаил Погосян, Грант Тохатян, Даниил Изотов, Микаэль Джанибекян, Сос Джанибекян, Арсен Григорян
Описание:
7 декабря 1988 года в Армении произошло землетрясение, охватившее почти половину территории республики. Были разрушены города Спитак, Ленинакан, Кировакан, Степанаван и ещё более 300 населённых пунктов. 25 тысяч человек погибли, 19 тысяч стали инвалидами, больше полумиллиона остались без крыши над головой.На фоне природной катастрофы разворачивается история двух героев — 45-летнего Константина Бережного и 20-летнего Роберта Мелконяна. Судьба сталкивает их не впервые — много лет назад в автокатастрофе по вине Бережного погибли родители Роберта. Константин провел несколько лет в тюрьме, а маленького Роберта приютили родственники. По странному стечению обстоятельств Бережной возвращается к своей семье в день страшного землетрясения: его ждут жена, дочь, сын... и Роберт, который так и не простил ему гибели своих родителей. По иронии судьбы, герои оказываются в одном спасательном отряде, но узнают друг друга не сразу.

Дата мировой премьеры: 13 сентября 2016
Дата российской премьеры: 1 декабря 2016, «Каропрокат»
Продолжительность: 01:40:03
Качество видео: WEB-DLRip Сэмпл
Перевод: Не требуется (русский) iTunes
Вид субтитров: Отсутствуют
Видео: Xvid, 720x304, ~1688 Kbps
Аудио: AC3, 2 ch, 384 Kbps

Mediainfo:

Код:
Общее
Полное имя                               : F:\ZemLetrysenye.2016.O.WEB-DLRip.avi
Формат                                   : AVI
Формат/Информация                        : Audio Video Interleave
Размер файла                             : 1,45 Гбайт
Продолжительность                        : 1 ч. 40 м.
Общий поток                              : 2082 Кбит/сек
Программа кодирования                    : VirtualDubMod 1.5.10.2 (build 2540/release)
Библиотека кодирования                   : VirtualDubMod build 2540/release
Видео
Идентификатор                            : 0
Формат                                   : MPEG-4 Visual
Профиль формата                          : Advanced Simple@L5
Параметр BVOP формата                    : 2
Параметр QPel формата                    : Нет
Параметр GMC формата                     : Без точки перехода
Параметр матрицы формата                 : Default (MPEG)
Идентификатор кодека                     : XVID
Идентификатор кодека/Подсказка           : XviD
Продолжительность                        : 1 ч. 40 м.
Битрейт                                  : 1688 Кбит/сек
Ширина                                   : 720 пикселей
Высота                                   : 304 пикселя
Соотношение сторон                       : 2,35:1
Частота кадров                           : 25,000 кадров/сек
Цветовое пространство                    : YUV
Субдискретизация насыщенности            : 4:2:0
Битовая глубина                          : 8 бит
Тип развёртки                            : Прогрессивная
Метод сжатия                             : С потерями
Бит/(Пиксели*Кадры)                      : 0.308
Размер потока                            : 1,18 Гбайт (81%)
Библиотека кодирования                   : XviD 1.2.1 (UTC 2008-12-04)
Аудио
Идентификатор                            : 1
Формат                                   : AC-3
Формат/Информация                        : Audio Coding 3
Расширение режима                        : CM (complete main)
Параметр Endianness формата              : Big
Идентификатор кодека                     : 2000
Продолжительность                        : 1 ч. 40 м.
Вид битрейта                             : Постоянный
Битрейт                                  : 384 Кбит/сек
Каналы                                   : 2 канала
Расположение каналов                     : Front: L R
Частота                                  : 48,0 КГц
Частота кадров                           : 31,250 кадров/сек (1536 spf)
Метод сжатия                             : С потерями
Размер потока                            : 275 Мбайт (18%)
Выравнивание                             : Разделение по промежуткам
Продолжительность промежутка             : 40  мс. (1,00 видеокадр)
Время предзагрузки промежутка            : 500  мс.
Скриншоты:
       

Omen

Пост 09-Мар-2016 15:43

[Цитировать]

--Молот--«The will to win when all is lost»-- Производство: Россия, Всемирные Русские Студии
Год выпуска: 2016 г.
Жанр: драма, спорт
Продолжительность: 01:45:59--Мировая премьера: 11 ноября 2016
Российская премьера: 3 ноября 2016, «Централ Партнершип»--Режиссер: Нурбек Эген--В ролях: Алексей Чадов, Антон Шагин, Оксана Акиньшина, Сергей Чирков, Игорь Скляр, Евгений Евдокимов, Олег Посполитак, Александр Симкин, Никита Панфилов--Описание: В шаге от чемпионского титула карьеру «Молота» перечеркивает страшная авария. Отныне любой поединок может стать для него последним. Но когда под угрозой оказывается его любовь, он доказывает, что «Молотом» его прозвали не только за сокрушительный удар. Настоящий боец на ринге и в жизни, он продолжает борьбу даже в центре паутины лжи и предательства. Рискуя всем, он идет напролом, чтобы спасти себя и свою возлюбленную.----Качество видео: WEB-DLRip
Контейнер: AVI
Видео кодек: XviD
Аудио кодек: AC3
Видео: 720x304 (2,35:1), 25 fps, XviD build 73 ~1582 kbps avg, 0.289 bit/pixel
Аудио: 48 kHz, AC3 Dolby Digital, 3/2 (L,C,R,l,r) + LFE ch, ~384 kbps
Cубтитры: отсутствуют

Media Info

Общее
Полное имя : H:\Torrent2\Molot.2016.WEB-DLRip.1.46Gb.avi
Формат : AVI
Формат/Информация : Audio Video Interleave
Размер файла : 1,46 Гбайт
Продолжительность : 1 ч. 45 м.
Общий поток : 1974 Кбит/сек
Видео
Идентификатор : 0
Формат : MPEG-4 Visual
Профиль формата : Advanced Simple@L5
Параметр BVOP формата : 1
Параметр QPel формата : Нет
Параметр GMC формата : Без точки перехода
Параметр матрицы формата : Выборочная
Идентификатор кодека : XVID
Идентификатор кодека/Подсказка : XviD
Продолжительность : 1 ч. 45 м.
Битрейт : 1582 Кбит/сек
Ширина : 720 пикселей
Высота : 304 пикселя
Соотношение сторон : 2,35:1
Частота кадров : 25,000 кадров/сек
Цветовое пространство : YUV
Субдискретизация насыщенности : 4:2:0
Битовая глубина : 8 бит
Тип развёртки : Прогрессивная
Метод сжатия : С потерями
Бит/(Пиксели*Кадры) : 0.289
Размер потока : 1,17 Гбайт (80%)
Библиотека кодирования : XviD 73
Аудио
Идентификатор : 1
Формат : AC-3
Формат/Информация : Audio Coding 3
Расширение режима : CM (complete main)
Параметр Endianness формата : Big
Идентификатор кодека : 2000
Продолжительность : 1 ч. 45 м.
Вид битрейта : Постоянный
Битрейт : 384 Кбит/сек
Каналы : 6 каналов
Расположение каналов : Front: L C R, Side: L R, LFE
Частота : 48,0 КГц
Частота кадров : 31,250 кадров/сек (1536 spf)
Метод сжатия : С потерями
Размер потока : 291 Мбайт (19%)
Выравнивание : Соединение по промежуткам
Продолжительность промежутка : 64 мс. (1,60 видеокадра)
Время предзагрузки промежутка : 192 мс.
Заголовок : iTunes

Скриншоты

     
     

Трейлер

Omen

Пост 09-Мар-2016 15:42

[Цитировать]

--Хороший мальчик--«Вырастешь - поймешь!»-- Производство: Россия, 2D Целлулоид, Art Pictures Studio
Год выпуска: 2016 г.
Жанр: комедия
Продолжительность: 01:35:07--Мировая премьера: 3 ноября 2016
Российская премьера: 10 ноября 2016, «WDSSPR»--Режиссер: Оксана Карас--В ролях: Семён Трескунов, Константин Хабенский, Михаил Ефремов, Александр Паль, Анастасия Богатырева, Василий Буткевич, Иева Андреевайте, Ирина Денисова, Татьяна Догилева, Ирина Пегова--Описание: Обычная, казалось бы, неделя из жизни ничем не примечательного школьника Коли Смирнова превращается в череду невероятных происшествий: Коля влюбляется в учительницу английского, кто-то поджигает школьную пристройку с новыми компьютерами, а папа Коли заявляет семье о необходимости отказа от ночного сна, из-за чего никому в доме не удается выспаться и собраться с мыслями. Вдобавок в самого Колю влюбляется дочка директора, старшеклассница Ксюша, решившая, что это именно он поджёг школу. Остаётся всего несколько дней до субботнего праздника школы, где должны встретиться все действующие лица этого водоворота событий, и теперь хорошему мальчику Коле необходимо успеть разобраться со своей личной жизнью, расследовать поджог и наладить взаимоотношения с родителями.----Качество видео: WEB-DLRip
Контейнер: AVI
Видео кодек: XviD
Аудио кодек: AC3
Видео: 720x320 (2.25:1), 24.000 fps, XviD build 73 ~1793 kbps avg, 0.32 bit/pixel
Аудио: 48 kHz, AC3 Dolby Digital, 3/2 (L,C,R,l,r) + LFE ch, ~384 kbps
Cубтитры: отсутствуют

Media Info

Общее
Полное имя : H:\Torrent2\Horoshij.Maljchikr.2016.XviD.WEB-DLRip.avi
Формат : AVI
Формат/Информация : Audio Video Interleave
Размер файла : 1,45 Гбайт
Продолжительность : 1 ч. 35 м.
Общий поток : 2187 Кбит/сек
Программа кодирования : VirtualDubMod 1.5.10.3 | www.virtualdub-fr.org || (build 2550/release)
Библиотека кодирования : VirtualDubMod build 2550/release
Видео
Идентификатор : 0
Формат : MPEG-4 Visual
Профиль формата : Advanced Simple@L5
Параметр BVOP формата : 1
Параметр QPel формата : Нет
Параметр GMC формата : Без точки перехода
Параметр матрицы формата : Выборочная
Идентификатор кодека : XVID
Идентификатор кодека/Подсказка : XviD
Продолжительность : 1 ч. 35 м.
Битрейт : 1793 Кбит/сек
Ширина : 720 пикселей
Высота : 320 пикселей
Соотношение сторон : 2,25:1
Частота кадров : 24,000 кадра/сек
Цветовое пространство : YUV
Субдискретизация насыщенности : 4:2:0
Битовая глубина : 8 бит
Тип развёртки : Прогрессивная
Метод сжатия : С потерями
Бит/(Пиксели*Кадры) : 0.324
Размер потока : 1,19 Гбайт (82%)
Библиотека кодирования : XviD 73
Аудио
Идентификатор : 1
Формат : AC-3
Формат/Информация : Audio Coding 3
Расширение режима : CM (complete main)
Параметр Endianness формата : Big
Идентификатор кодека : 2000
Продолжительность : 1 ч. 35 м.
Вид битрейта : Постоянный
Битрейт : 384 Кбит/сек
Каналы : 6 каналов
Расположение каналов : Front: L C R, Side: L R, LFE
Частота : 48,0 КГц
Частота кадров : 31,250 кадров/сек (1536 spf)
Метод сжатия : С потерями
Размер потока : 261 Мбайт (18%)
Выравнивание : Разделение по промежуткам
Продолжительность промежутка : 42 мс. (1,00 видеокадр)
Время предзагрузки промежутка : 500 мс.

Скриншоты

     
     

Трейлер

Omen

Пост 09-Мар-2016 15:40

[Цитировать]

--Ледокол-- Производство: Россия, Профит
Год выпуска: 2016 г.
Жанр: драма
Продолжительность: 02:03:58--Мировая премьера: 4 ноября 2016
Российская премьера: 20 октября 2016, «Наше Кино»--Режиссер: Николай Хомерики--В ролях: Пётр Фёдоров, Сергей Пускепалис, Анна Михалкова, Ольга Филимонова, Александр Яценко, Александр Паль, Виталий Хаев, Алексей Барабаш, Дмитрий Муляр, Артур Чиргадзе--Описание: Основано на реальных событиях. 1985 год. Навстречу ледоколу «Михаил Громов» движется огромный айсберг. Уходя от столкновения с ним, судно попадает в ледовый плен и оказывается в вынужденном дрейфе вблизи побережья Антарктиды. Вокруг зловещая тишина и жуткий холод. Горючее на исходе… Нервы на пределе… И даже если можно было бы уйти — деваться все равно некуда. У командования ледокола нет права на ошибку. Одно неверное решение — и тяжелые льды раздавят судно…----Качество видео: BDRip
Контейнер: AVI
Видео кодек: XviD
Аудио кодек: AC3
Видео: 720x304 (2.37:1), 24 fps, XviD build 65 ~2060 kbps avg, 0.39 bit/pixel
Аудио: 48 kHz, AC3 Dolby Digital, 3/2 (L,C,R,l,r) + LFE ch, ~448 kbps
Cубтитры: отсутствуют

Media Info

Общее
Полное имя : H:\Torrent2\Ledokol.2016.RUS.BDRip.XviD.AC3.avi
Формат : AVI
Формат/Информация : Audio Video Interleave
Профиль формата : OpenDML
Размер файла : 2,18 Гбайт
Продолжительность : 2 ч. 3 м.
Общий поток : 2520 Кбит/сек
Программа кодирования : V
Видео
Идентификатор : 0
Формат : MPEG-4 Visual
Профиль формата : Advanced Simple@L5
Параметр BVOP формата : 1
Параметр QPel формата : Нет
Параметр GMC формата : Без точки перехода
Параметр матрицы формата : Выборочная
Идентификатор кодека : XVID
Идентификатор кодека/Подсказка : XviD
Продолжительность : 2 ч. 3 м.
Битрейт : 2060 Кбит/сек
Ширина : 720 пикселей
Высота : 304 пикселя
Соотношение сторон : 2,35:1
Частота кадров : 24,000 кадра/сек
Цветовое пространство : YUV
Субдискретизация насыщенности : 4:2:0
Битовая глубина : 8 бит
Тип развёртки : Прогрессивная
Метод сжатия : С потерями
Бит/(Пиксели*Кадры) : 0.392
Размер потока : 1,78 Гбайт (82%)
Библиотека кодирования : XviD 65
Аудио
Идентификатор : 1
Формат : AC-3
Формат/Информация : Audio Coding 3
Расширение режима : CM (complete main)
Параметр Endianness формата : Big
Идентификатор кодека : 2000
Продолжительность : 2 ч. 3 м.
Вид битрейта : Постоянный
Битрейт : 448 Кбит/сек
Каналы : 6 каналов
Расположение каналов : Front: L C R, Side: L R, LFE
Частота : 48,0 КГц
Частота кадров : 31,250 кадров/сек (1536 spf)
Метод сжатия : С потерями
Размер потока : 397 Мбайт (18%)
Выравнивание : Разделение по промежуткам
Продолжительность промежутка : 42 мс. (1,00 видеокадр)
Время предзагрузки промежутка : 500 мс.

Скриншоты

     
     

Трейлер

Omen

Пост 09-Мар-2016 15:39

[Цитировать]

--Эластико-- Производство: Россия, Enjoy Movies
Год выпуска: 2016 г.
Жанр: спорт, мелодрама, криминал
Продолжительность: 01:21:25--Российская премьера: 24 ноября 2016, «Наше Кино»--Режиссер: Михаил Расходников--В ролях: Дмитрий Власкин, Ирина Антоненко, Алексей Маклаков, Александр Фролов, Владимир Епифанцев, Никита Волков, Никита Павленко, Ирина Безряднова, Максим Сорочинский, Петр Прозоровский--Описание: Матвей — простой парень из провинциального города. Он вырос с друзьями «на районе», здесь же встретил свою любовь — Дашу. От других Матвея отличают уникальные физические данные — крепкие ноги, мощная дыхалка, поразительная выносливость. Свой талант он использует, выигрывая со своей командой всех в дворовом футболе… и в мелких криминальных авантюрах, которые ему подгоняет друг Каша. Любимую девушку Дашу это очень беспокоит, и она всячески пытается оградить своего парня от необратимой ошибки. А подруги пытаются убедить Дашу бросить Матвея, ведь у нее даже есть перспективный вариант — обеспеченный ухажер Вадим. Неожиданно у Матвея появляется просто сказочная возможность поехать на смотр в Москву в футбольный клуб Премьер-лиги, но он не хочет оставлять Дашу, когда рядом «вьется» Вадим. А для того, чтобы взять её с собой, нужно достать деньги.----Качество видео: WEB-DLRip
Контейнер: AVI
Видео кодек: XviD
Аудио кодек: AC3
Видео: 720x304 (2.37:1), 25 fps, XviD build 73 ~2558 kbps avg, 0.47 bit/pixel
Аудио: AC-3, 384 Кбит/сек, 6 каналов, 48,0 КГц
Cубтитры: отсутствуют

Media Info

Общее
Полное имя : E:\Эластико (2016)\Elastiko.2016.WEB-DLRip.avi
Формат : AVI
Формат/Информация : Audio Video Interleave
Размер файла : 1,46 Гбайт
Продолжительность : 1 ч. 21 м.
Общий поток : 2566 Кбит/сек
Видео
Идентификатор : 0
Формат : MPEG-4 Visual
Профиль формата : Advanced Simple@L5
Параметр BVOP формата : 1
Параметр QPel формата : Нет
Параметр GMC формата : Без точки перехода
Параметр матрицы формата : Выборочная
Идентификатор кодека : XVID
Идентификатор кодека/Подсказка : XviD
Продолжительность : 1 ч. 21 м.
Битрейт : 2174 Кбит/сек
Ширина : 720 пикселей
Высота : 304 пикселя
Соотношение сторон : 2,35:1
Частота кадров : 25,000 кадров/сек
Цветовое пространство : YUV
Субдискретизация насыщенности : 4:2:0
Битовая глубина : 8 бит
Тип развёртки : Прогрессивная
Метод сжатия : С потерями
Бит/(Пиксели*Кадры) : 0.397
Размер потока : 1,24 Гбайт (85%)
Библиотека кодирования : XviD 73
Аудио
Идентификатор : 1
Формат : AC-3
Формат/Информация : Audio Coding 3
Расширение режима : CM (complete main)
Параметр Endianness формата : Big
Идентификатор кодека : 2000
Продолжительность : 1 ч. 21 м.
Вид битрейта : Постоянный
Битрейт : 384 Кбит/сек
Каналы : 6 каналов
Расположение каналов : Front: L C R, Side: L R, LFE
Частота : 48,0 КГц
Частота кадров : 31,250 кадров/сек (1536 spf)
Метод сжатия : С потерями
Размер потока : 224 Мбайт (15%)
Выравнивание : Соединение по промежуткам
Продолжительность промежутка : 64 мс. (1,60 видеокадра)
Время предзагрузки промежутка : 192 мс.
Заголовок : iTunes

Скриншоты

         

Трейлер

Omen

Пост 09-Мар-2016 15:38

[Цитировать]

-Держи удар, детка-- Производство: Россия, Level Films
Режиссер: Ара Оганесян
Жанр: Комедия, Мелодрама
Год выпуска: 2016 г.
Продолжительность: 01:41:18
Российская премьера: 6 октября 2016, «Каропрокат»
В ролях: Екатерина Владимирова, Михаил Пореченков, Игорь Верник, Ольга Бузова, Настасья Самбурская, Даниил Вахрушев, Виктор Хориняк, Теймураз Тания, Анна Цуканова, Виталий Гогунский-Описание: Близняшек Свету и Таню внешне отличить не может никто, но на этом их сходство заканчивается. Света — это женственность и стервозность. Она хочет построить карьеру на телевидении. Таня готовится попасть в сборную России по боксу. Тайсон в юбке. Ее жизнь — это тренировки и спортивный режим.
Таня получает травму. Таня уговаривает сестру поменяться местами, чтобы пройти за нее медкомиссию и ходить на тренировки. Света готова на это с условием, что Таня пройдет за нее практику на телеканале. Свете предстоит поменять свой характер, чтобы довести сестру до боя. Тане — подумать мозгами, а не кулаками, чтобы стать Светой.-
Качество видео: WEB-DLRip
Контейнер: AVI
Видео кодек: XviD
Аудио кодек: AC3
Видео: 720x304 (2.37:1), 25 fps, XviD build 50 ~1537 kbps avg, 0.28 bit/pixel
Аудио: 48 kHz, AC3 Dolby Digital, 2/0 (L,R) ch, ~384 kbps
Cубтитры: отсутствуют

Трейлер

Рецензия

Такие разные близнецы
Новая российская комедия «Держи удар, детка!» от режиссера Ара Оганесяна выстраивает свою историю вокруг абсолютной непохожести сестер-близняшек, попавших в весьма нестандартную ситуацию. Взяв за основу на удивление прилежный и совершенно не раздражающий юмор, создатели фильма в кои то веки порадовали нас по-настоящему веселой, жизнеутверждающей комедией, несущей в себе пускай простую, но действенную мораль.
Что касается непосредственно сюжета фильма, то он знакомит нас с двумя близняшками, которые внешне совершенно неотличимы друг от друга, а вот по характеру они — полные противоположности… Очаровательная Света привыкла всегда находиться в центре внимания, она не представляет жизни без вечеринок и новых знакомств. С такими приоритетами ей была уготовлена прямая дорога на телевидение! В свою очередь, вторая сестра, Таня, выбрала для себя бокс, что повлекло за собой бесконечные тренировки и соблюдение режима.
Две сестры живут в разных мирах, пересекаясь лишь на домашней кухне в обществе любимого папы. Но когда Таню настигает беда, Света просто не в состоянии отказать в помощи… Досадная оплошность приводит к травме, мешая планам Тани пройти медкомиссию перед самым главным боем в ее карьере. Посчитав, что она все равно успеет прийти в форму к нужному бою, девушка просит сестру подменить ее на подготовительном этапе. В свою очередь Свете необходимо пройти практику на телеканале, с чем по идее должна справится Таня! После недолгих споров и сомнений девчонки таки решаются на авантюру и тогда как раз и начинается самое интересное!
Скажу честно и без прикрас — фильм получился смешным, в меру трогательным и привлекательным. Ну как не посмеяться над тем, как гламурная ведущая будет вести себя в тренировочном зале, и каково это пропускать удары от спарринг-партнеров?! Одновременно с этим мы видим, как заправский боец Таня пробует хотя бы на время отказаться от своих пацанских замашек, чтобы преждевременно не похоронить удачно начинающийся карьеру сестры. Согласитесь, что это уже само по себе смешно! Но с другой стороны, фильм учит нас стоять горой за близких людей и никогда не отказывать им в помощи.
Екатерина Владимирова стала для меня настоящим открытием. Конечно, местами актриса переигрывала, но по большей части Света и Таня в ее исполнении выглядят как два по-настоящему разных человека, что и требовалось от этой истории. Второстепенный актерский состав тоже не подкачал. Чего только стоит один Михаил Пореченков. А ведь помимо него звезд в этом фильме очень много и все они играют с искоркой, что очень приятно.
Как итог скажу, что «Держи удар, детка», это в первую очередь хорошее развлечение. На просмотре фильма отдыхаешь душой и ни о чем не задумываешься. Фильм не претендует ни на что возвышенное, а просто хочет нас неплохо развлечь. А большего и не нужно. Приятного просмотра!
7 из 10

Media Info

Общее
Полное имя : J:\Держи удар, детка (2016)\Держи удар детка.2016.WEB-DLRip.avi
Формат : AVI
Формат/Информация : Audio Video Interleave
Размер файла : 1,37 Гбайт
Продолжительность : 1 ч. 41 м.
Общий поток : 1932 Кбит/сек
Программа кодирования : VirtualDubMod 1.5.10.2 (build 2540/release)
Библиотека кодирования : VirtualDubMod build 2540/release
Видео
Идентификатор : 0
Формат : MPEG-4 Visual
Профиль формата : Advanced Simple@L5
Параметр BVOP формата : 2
Параметр QPel формата : Нет
Параметр GMC формата : Без точки перехода
Параметр матрицы формата : Default (MPEG)
Идентификатор кодека : XVID
Идентификатор кодека/Подсказка : XviD
Продолжительность : 1 ч. 41 м.
Битрейт : 1538 Кбит/сек
Ширина : 720 пикселей
Высота : 304 пикселя
Соотношение сторон : 2,35:1
Частота кадров : 25,000 кадров/сек
Цветовое пространство : YUV
Субдискретизация насыщенности : 4:2:0
Битовая глубина : 8 бит
Тип развёртки : Прогрессивная
Метод сжатия : С потерями
Бит/(Пиксели*Кадры) : 0.281
Размер потока : 1,09 Гбайт (80%)
Библиотека кодирования : XviD 1.2.1 (UTC 2008-12-04)
Аудио
Идентификатор : 1
Формат : AC-3
Формат/Информация : Audio Coding 3
Расширение режима : CM (complete main)
Параметр Endianness формата : Big
Идентификатор кодека : 2000
Продолжительность : 1 ч. 41 м.
Вид битрейта : Постоянный
Битрейт : 384 Кбит/сек
Каналы : 2 канала
Расположение каналов : Front: L R
Частота : 48,0 КГц
Частота кадров : 31,250 кадров/сек (1536 spf)
Метод сжатия : С потерями
Размер потока : 278 Мбайт (20%)
Выравнивание : Разделение по промежуткам
Продолжительность промежутка : 40 мс. (1,00 видеокадр)
Время предзагрузки промежутка : 500 мс.

Скриншоты

       
 

Текущее время: Сегодня 21:41

Часовой пояс: GMT + 3