Сегодня идет свободное скачивание без начисления Download

Результатов поиска: 500

Автор Сообщение

}{@R0N

Пост 13-Мар-2019 18:12

[Цитировать]

Джама Джурабаев | Основы 3D рисования / 3d painting basics - Автор (режиссер): Джама Джурабаев / Jama Jurabaev
Производство: Gumroad
Жанр: Рисование, Photoshop
Описание:
В этом курсе я покажу, как с нуля создавать 3D рисунки в Photoshop.
Я расскажу о 3D возможностях в Photoshop и объясню основные принципы рисования в 3D.
Продолжительность: 01:10:19
Качество видео: PCRec
Перевод: Отсутствует
Язык озвучки: Английский
Видео: AVC/H.264, 1920x1080, ~5004 Kbps
Аудио: AAC, 2 ch, 192 Kbps, VBR

Mediainfo:

Код:
General
Complete name                            : C:\Torrents\Jama Jurabaev - 3d painting basics\02_3D_painting_Photoshop_3D.mp4
Format                                   : MPEG-4
Codec ID                                 : M4V
File size                                : 288 MiB
Duration                                 : 7mn 44s
Overall bit rate mode                    : Variable
Overall bit rate                         : 5 197 Kbps
Encoded date                             : UTC 2017-11-19 23:39:33
Tagged date                              : UTC 2017-11-19 23:39:38
©TIM                                     : 00:00:00:00
©TSC                                     : 30
©TSZ                                     : 1
Video
ID                                       : 1
Format                                   : AVC
Format/Info                              : Advanced Video Codec
Format profile                           : [url=mailto:Main@L4.1]Main@L4.1[/url]
Format settings, CABAC                   : No
Format settings, ReFrames                : 2 frames
Format settings, GOP                     : M=1, N=30
Codec ID                                 : avc1
Codec ID/Info                            : Advanced Video Coding
Duration                                 : 7mn 44s
Bit rate                                 : 5 004 Kbps
Width                                    : 1 920 pixels
Height                                   : 1 080 pixels
Display aspect ratio                     : 16:9
Frame rate mode                          : Constant
Frame rate                               : 30.000 fps
Standard                                 : NTSC
Color space                              : YUV
Chroma subsampling                       : 4:2:0
Bit depth                                : 8 bits
Scan type                                : Progressive
Bits/(Pixel*Frame)                       : 0.080
Stream size                              : 277 MiB (96%)
Language                                 : English
Encoded date                             : UTC 2017-11-19 23:39:33
Tagged date                              : UTC 2017-11-19 23:39:33
Color primaries                          : BT.709
Transfer characteristics                 : BT.709
Matrix coefficients                      : BT.709
Audio
ID                                       : 2
Format                                   : AAC
Format/Info                              : Advanced Audio Codec
Format profile                           : LC
Codec ID                                 : 40
Duration                                 : 7mn 44s
Source duration                          : 7mn 44s
Bit rate mode                            : Variable
Bit rate                                 : 192 Kbps
Maximum bit rate                         : 279 Kbps
Channel(s)                               : 2 channels
Channel positions                        : Front: L R
Sampling rate                            : 48.0 KHz
Compression mode                         : Lossy
Stream size                              : 10.5 MiB (4%)
Source stream size                       : 10.5 MiB (4%)
Language                                 : English
Encoded date                             : UTC 2017-11-19 23:39:33
Tagged date                              : UTC 2017-11-19 23:39:33

Дополнительная информация:

В RAR архиве находятся файлы проектов для Photoshop и OctaneRender.

Трейлер:

Скриншоты:
     

Дополнительные скриншоты:

   

}{@R0N

Пост 09-Мар-2019 10:16

[Цитировать]

Dylan Werner | Plasticity: Fascial Stretching - Автор (режиссер): Dylan Werner
Производство: США
Жанр: Фитнес, йога
Описание:
Фасция - это соединительная ткань, которая сплетается по всему телу. Она составляет наши сухожилия, связки и более 30 процентов наших мышц. Большая часть нашей гибкости и ограничений в передвижении проистекает из ограничений нашей фасции, и этот план предназначен именно для этого.
Продолжительность: 02:24:16
Качество видео: HDTVRip
Перевод: Отсутствует
Язык озвучки: Английский
Видео: AVC/H.264, 1280х720, ~1980 Kbps
Аудио: AAC, 2 ch, 192 Kbps

Mediainfo:

Dylan Werner - 1. SF Front Line  Deep Front Arm Line (Mobility RX).mp4
Format : MPEG-4
Format profile : Base Media
Codec ID : isom (isom/iso2/avc1/mp41)
File size : 343 MiB
Duration : 21 min 58 s
Overall bit rate : 2 179 kb/s
Writing application : Lavf58.20.100
Video
ID : 1
Format : AVC
Format/Info : Advanced Video Codec
Format profile : [url=mailto:High@L3.1]High@L3.1[/url]
Format settings : CABAC / 4 Ref Frames
Format settings, CABAC : Yes
Format settings, ReFrames : 4 frames
Codec ID : avc1
Codec ID/Info : Advanced Video Coding
Duration : 21 min 58 s
Bit rate : 1 980 kb/s
Width : 1 280 pixels
Height : 720 pixels
Display aspect ratio : 16:9
Frame rate mode : Constant
Frame rate : 23.976 (24000/1001) FPS
Color space : YUV
Chroma subsampling : 4:2:0
Bit depth : 8 bits
Scan type : Progressive
Bits/(Pixel*Frame) : 0.090
Stream size : 311 MiB (91%)
Writing library : x264 core 157
Encoding settings : cabac=1 / ref=2 / deblock=1:0:0 / analyse=0x3:0x113 / me=hex / subme=6 / psy=1 / psy_rd=1.00:0.00 / mixed_ref=1 / me_range=16 / chroma_me=1 / trellis=1 / 8x8dct=1 / cqm=0 / deadzone=21,11 / fast_pskip=1 / chroma_qp_offset=-2 / threads=6 / lookahead_threads=1 / sliced_threads=0 / nr=0 / decimate=1 / interlaced=0 / bluray_compat=0 / constrained_intra=0 / bframes=3 / b_pyramid=2 / b_adapt=1 / b_bias=0 / direct=1 / weightb=1 / open_gop=0 / weightp=1 / keyint=250 / keyint_min=23 / scenecut=40 / intra_refresh=0 / rc_lookahead=30 / rc=cbr / mbtree=1 / bitrate=1980 / ratetol=1.0 / qcomp=0.60 / qpmin=0 / qpmax=69 / qpstep=4 / vbv_maxrate=1980 / vbv_bufsize=3960 / nal_hrd=none / filler=0 / ip_ratio=1.40 / aq=1:1.00
Codec configuration box : avcC
Audio
ID : 2
Format : AAC LC
Format/Info : Advanced Audio Codec Low Complexity
Codec ID : mp4a-40-2
Duration : 21 min 58 s
Duration_LastFrame : -3 ms
Bit rate mode : Constant
Bit rate : 192 kb/s
Channel(s) : 2 channels
Channel layout : L R
Sampling rate : 44.1 kHz
Frame rate : 43.066 FPS (1024 SPF)
Compression mode : Lossy
Stream size : 30.2 MiB (9%)
Default : Yes
Alternate group : 1

Дополнительная информация:

Пластичность означает, что фасция меняет свою длину и сохраняет свою форму. Когда фасция растягивается мимо ее упругих свойств в течение более длительных периодов времени, связи, которые удерживают фасцию вместе, изменяются, и образуются новые связи. Это изменение фасции способствует улучшению мобильности за счет снижения напряжения и жесткости.
Большинство традиционных растяжений имеют тенденцию фокусироваться на одном суставе или группе мышц. Это похоже на растяжение пластикового пакета, но только в середине пакета. Однако работать над пластичностью - это все равно, что держать пластиковый пакет с обоих концов и равномерно растягивать его по всей сумке, а не просто посередине. Если вы работаете над растяжением фасции в целом по всей фасциальной линии, вы увеличиваете свой потенциал, чтобы быть более гибким.
Каждый из пяти классов в этой серии проходит через одну из пяти основных фасциальных линий. Разделяя видео на разные фасциальные листы.

В комплекте:

Dylan Werner - 1. SF Front Line Deep Front Arm Line (00:21:58)
Dylan Werner - 2. SF Back Line Deep Back Arm Line (00:29:29)
Dylan Werner - 3. Lateral Lines SF Arm Lines (00:31:33)
Dylan Werner - 4. Spiral Lines Finctional Lines (00:31:33)
Dylan Werner - 5. Deep Front Line (00:29:42)
Скриншоты:
       

}{@R0N

Пост 08-Мар-2019 10:59

[Цитировать]

ITVDN | ASP.NET WEB API2 (2018) - Автор (режиссер): Ярослав Кучук
Производство: ITVDN
Жанр: Программирование
Описание:
Курс ASP.NET WEB API 2 состоит из 5-ти логически взаимосвязанных уроков, на которых учащиеся изучают теоретические основы для создания, работы с Web API, и затем применяют их на практике. В рамках данного курса слушатели ознакомятся с теорией, необходимой для последующей практики в создании собственных Web API.
Продолжительность: 02:36:11
Качество видео: PCRec
Видео: AVC/H.264, 1920х1080, ~137 Kbps
Аудио: AAC, 2 ch, 137 Kbps

Mediainfo:

Общее
Полное имя : C:\Users\Admin\Desktop\ASP.NET WEB API2\ASP.NET WEB API2 Lesson 4.mp4
Формат : MPEG-4
Профиль формата : Base Media / Version 2
Идентификатор кодека : mp42 (mp42/mp41/isom/avc1)
Размер файла : 126 Мбайт
Продолжительность : 35 м. 43 с.
Режим общего битрейта : Переменный
Общий поток : 494 Кбит/сек
Дата кодирования : UTC 2018-11-26 13:46:20
Дата пометки : UTC 2018-11-26 13:46:20
Видео
Идентификатор : 1
Формат : AVC
Формат/Информация : Advanced Video Codec
Профиль формата : High@L4
Настройки формата : CABAC / 5 Ref Frames
Параметр CABAC формата : Да
Параметр RefFrames формата : 5 кадров
Идентификатор кодека : avc1
Идентификатор кодека/Информация : Advanced Video Coding
Продолжительность : 35 м. 43 с.
Битрейт : 353 Кбит/сек
Ширина : 1920 пикселей
Высота : 1080 пикселей
Соотношение сторон : 16:9
Режим частоты кадров : Постоянный
Частота кадров : 30,000 кадров/сек
Цветовое пространство : YUV
Субдискретизация насыщенности : 4:2:0
Битовая глубина : 8 бит
Тип развёртки : Прогрессивная
Бит/(Пиксели*Кадры) : 0.006
Размер потока : 90,1 Мбайт (71%)
Библиотека кодирования : x264 core 157 r10 545de2f
Настройки программы : cabac=1 / ref=5 / deblock=1:0:0 / analyse=0x3:0x113 / me=hex / subme=8 / psy=1 / psy_rd=1.00:0.00 / mixed_ref=1 / me_range=16 / chroma_me=1 / trellis=2 / 8x8dct=1 / cqm=0 / deadzone=21,11 / fast_pskip=1 / chroma_qp_offset=-2 / threads=34 / lookahead_threads=5 / sliced_threads=0 / nr=0 / decimate=1 / interlaced=0 / bluray_compat=0 / stitchable=1 / constrained_intra=0 / bframes=3 / b_pyramid=2 / b_adapt=2 / b_bias=0 / direct=3 / weightb=1 / open_gop=0 / weightp=2 / keyint=infinite / keyint_min=30 / scenecut=40 / intra_refresh=0 / rc_lookahead=50 / rc=crf / mbtree=1 / crf=20.0 / qcomp=0.60 / qpmin=5 / qpmax=69 / qpstep=4 / vbv_maxrate=5500 / vbv_bufsize=15000 / crf_max=0.0 / nal_hrd=none / filler=0 / ip_ratio=1.40 / aq=1:1.00
Дата кодирования : UTC 2018-11-26 13:46:20
Дата пометки : UTC 2018-11-26 13:46:20
Цветовой диапазон : Limited
Основные цвета : BT.709
Характеристики трансфера : BT.709
Коэффициенты матрицы : BT.709
Codec configuration box : avcC
Аудио
Идентификатор : 2
Формат : AAC LC
Формат/Информация : Advanced Audio Codec Low Complexity
Идентификатор кодека : mp4a-40-2
Продолжительность : 35 м. 43 с.
Вид битрейта : Переменный
Битрейт : 137 Кбит/сек
Каналы : 2 канала
Channel layout : L R
Частота : 48,0 КГц
Частота кадров : 46,875 кадров/сек (1024 SPF)
Метод сжатия : С потерями
Размер потока : 35,0 Мбайт (28%)
Дата кодирования : UTC 2018-11-26 13:46:20
Дата пометки : UTC 2018-11-26 13:46:20
Общее
Полное имя : C:\Users\Admin\Desktop\ASP.NET WEB API2\ASP.NET WEB API2 Lesson 5.mp4
Формат : MPEG-4
Профиль формата : Base Media / Version 2
Идентификатор кодека : mp42 (mp42/mp41/isom/avc1)
Размер файла : 106 Мбайт
Продолжительность : 29 м. 47 с.
Режим общего битрейта : Переменный
Общий поток : 499 Кбит/сек
Дата кодирования : UTC 2019-01-11 13:17:06
Дата пометки : UTC 2019-01-11 13:17:06
Видео
Идентификатор : 1
Формат : AVC
Формат/Информация : Advanced Video Codec
Профиль формата : High@L4
Настройки формата : CABAC / 5 Ref Frames
Параметр CABAC формата : Да
Параметр RefFrames формата : 5 кадров
Идентификатор кодека : avc1
Идентификатор кодека/Информация : Advanced Video Coding
Продолжительность : 29 м. 47 с.
Битрейт : 357 Кбит/сек
Ширина : 1920 пикселей
Высота : 1080 пикселей
Соотношение сторон : 16:9
Режим частоты кадров : Постоянный
Частота кадров : 30,000 кадров/сек
Цветовое пространство : YUV
Субдискретизация насыщенности : 4:2:0
Битовая глубина : 8 бит
Тип развёртки : Прогрессивная
Бит/(Пиксели*Кадры) : 0.006
Размер потока : 76,1 Мбайт (72%)
Библиотека кодирования : x264 core 157 r10 545de2f
Настройки программы : cabac=1 / ref=5 / deblock=1:0:0 / analyse=0x3:0x113 / me=hex / subme=8 / psy=1 / psy_rd=1.00:0.00 / mixed_ref=1 / me_range=16 / chroma_me=1 / trellis=2 / 8x8dct=1 / cqm=0 / deadzone=21,11 / fast_pskip=1 / chroma_qp_offset=-2 / threads=34 / lookahead_threads=5 / sliced_threads=0 / nr=0 / decimate=1 / interlaced=0 / bluray_compat=0 / stitchable=1 / constrained_intra=0 / bframes=3 / b_pyramid=2 / b_adapt=2 / b_bias=0 / direct=3 / weightb=1 / open_gop=0 / weightp=2 / keyint=infinite / keyint_min=30 / scenecut=40 / intra_refresh=0 / rc_lookahead=50 / rc=crf / mbtree=1 / crf=20.0 / qcomp=0.60 / qpmin=5 / qpmax=69 / qpstep=4 / vbv_maxrate=5500 / vbv_bufsize=15000 / crf_max=0.0 / nal_hrd=none / filler=0 / ip_ratio=1.40 / aq=1:1.00
Дата кодирования : UTC 2019-01-11 13:17:06
Дата пометки : UTC 2019-01-11 13:17:06
Цветовой диапазон : Limited
Основные цвета : BT.709
Характеристики трансфера : BT.709
Коэффициенты матрицы : BT.709
Codec configuration box : avcC
Аудио
Идентификатор : 2
Формат : AAC LC
Формат/Информация : Advanced Audio Codec Low Complexity
Идентификатор кодека : mp4a-40-2
Продолжительность : 29 м. 47 с.
Вид битрейта : Переменный
Битрейт : 137 Кбит/сек
Каналы : 2 канала
Channel layout : L R
Частота : 48,0 КГц
Частота кадров : 46,875 кадров/сек (1024 SPF)
Метод сжатия : С потерями
Размер потока : 29,2 Мбайт (27%)
Дата кодирования : UTC 2019-01-11 13:17:06
Дата пометки : UTC 2019-01-11 13:17:06
Общее
Полное имя : C:\Users\Admin\Desktop\ASP.NET WEB API2\ASP.NET WEB API2 Lesson 1.mp4
Формат : MPEG-4
Профиль формата : Base Media / Version 2
Идентификатор кодека : mp42 (mp42/mp41/isom/avc1)
Размер файла : 105 Мбайт
Продолжительность : 32 м. 5 с.
Режим общего битрейта : Переменный
Общий поток : 458 Кбит/сек
Дата кодирования : UTC 2018-11-26 13:42:26
Дата пометки : UTC 2018-11-26 13:42:26
Видео
Идентификатор : 1
Формат : AVC
Формат/Информация : Advanced Video Codec
Профиль формата : High@L4
Настройки формата : CABAC / 5 Ref Frames
Параметр CABAC формата : Да
Параметр RefFrames формата : 5 кадров
Идентификатор кодека : avc1
Идентификатор кодека/Информация : Advanced Video Coding
Продолжительность : 32 м. 5 с.
Битрейт : 316 Кбит/сек
Ширина : 1920 пикселей
Высота : 1080 пикселей
Соотношение сторон : 16:9
Режим частоты кадров : Постоянный
Частота кадров : 30,000 кадров/сек
Цветовое пространство : YUV
Субдискретизация насыщенности : 4:2:0
Битовая глубина : 8 бит
Тип развёртки : Прогрессивная
Бит/(Пиксели*Кадры) : 0.005
Размер потока : 72,6 Мбайт (69%)
Библиотека кодирования : x264 core 157 r10 545de2f
Настройки программы : cabac=1 / ref=5 / deblock=1:0:0 / analyse=0x3:0x113 / me=hex / subme=8 / psy=1 / psy_rd=1.00:0.00 / mixed_ref=1 / me_range=16 / chroma_me=1 / trellis=2 / 8x8dct=1 / cqm=0 / deadzone=21,11 / fast_pskip=1 / chroma_qp_offset=-2 / threads=34 / lookahead_threads=5 / sliced_threads=0 / nr=0 / decimate=1 / interlaced=0 / bluray_compat=0 / stitchable=1 / constrained_intra=0 / bframes=3 / b_pyramid=2 / b_adapt=2 / b_bias=0 / direct=3 / weightb=1 / open_gop=0 / weightp=2 / keyint=infinite / keyint_min=30 / scenecut=40 / intra_refresh=0 / rc_lookahead=50 / rc=crf / mbtree=1 / crf=20.0 / qcomp=0.60 / qpmin=5 / qpmax=69 / qpstep=4 / vbv_maxrate=5500 / vbv_bufsize=15000 / crf_max=0.0 / nal_hrd=none / filler=0 / ip_ratio=1.40 / aq=1:1.00
Дата кодирования : UTC 2018-11-26 13:42:26
Дата пометки : UTC 2018-11-26 13:42:26
Цветовой диапазон : Limited
Основные цвета : BT.709
Характеристики трансфера : BT.709
Коэффициенты матрицы : BT.709
Codec configuration box : avcC
Аудио
Идентификатор : 2
Формат : AAC LC
Формат/Информация : Advanced Audio Codec Low Complexity
Идентификатор кодека : mp4a-40-2
Продолжительность : 32 м. 5 с.
Вид битрейта : Переменный
Битрейт : 137 Кбит/сек
Каналы : 2 канала
Channel layout : L R
Частота : 48,0 КГц
Частота кадров : 46,875 кадров/сек (1024 SPF)
Метод сжатия : С потерями
Размер потока : 31,4 Мбайт (30%)
Дата кодирования : UTC 2018-11-26 13:42:26
Дата пометки : UTC 2018-11-26 13:42:26
Общее
Полное имя : C:\Users\Admin\Desktop\ASP.NET WEB API2\ASP.NET WEB API2 Lesson 2.mp4
Формат : MPEG-4
Профиль формата : Base Media / Version 2
Идентификатор кодека : mp42 (mp42/mp41/isom/avc1)
Размер файла : 106 Мбайт
Продолжительность : 31 м. 35 с.
Режим общего битрейта : Переменный
Общий поток : 468 Кбит/сек
Дата кодирования : UTC 2018-11-26 13:44:35
Дата пометки : UTC 2018-11-26 13:44:35
Видео
Идентификатор : 1
Формат : AVC
Формат/Информация : Advanced Video Codec
Профиль формата : High@L4
Настройки формата : CABAC / 5 Ref Frames
Параметр CABAC формата : Да
Параметр RefFrames формата : 5 кадров
Идентификатор кодека : avc1
Идентификатор кодека/Информация : Advanced Video Coding
Продолжительность : 31 м. 35 с.
Битрейт : 326 Кбит/сек
Ширина : 1920 пикселей
Высота : 1080 пикселей
Соотношение сторон : 16:9
Режим частоты кадров : Постоянный
Частота кадров : 30,000 кадров/сек
Цветовое пространство : YUV
Субдискретизация насыщенности : 4:2:0
Битовая глубина : 8 бит
Тип развёртки : Прогрессивная
Бит/(Пиксели*Кадры) : 0.005
Размер потока : 73,6 Мбайт (70%)
Библиотека кодирования : x264 core 157 r10 545de2f
Настройки программы : cabac=1 / ref=5 / deblock=1:0:0 / analyse=0x3:0x113 / me=hex / subme=8 / psy=1 / psy_rd=1.00:0.00 / mixed_ref=1 / me_range=16 / chroma_me=1 / trellis=2 / 8x8dct=1 / cqm=0 / deadzone=21,11 / fast_pskip=1 / chroma_qp_offset=-2 / threads=34 / lookahead_threads=5 / sliced_threads=0 / nr=0 / decimate=1 / interlaced=0 / bluray_compat=0 / stitchable=1 / constrained_intra=0 / bframes=3 / b_pyramid=2 / b_adapt=2 / b_bias=0 / direct=3 / weightb=1 / open_gop=0 / weightp=2 / keyint=infinite / keyint_min=30 / scenecut=40 / intra_refresh=0 / rc_lookahead=50 / rc=crf / mbtree=1 / crf=20.0 / qcomp=0.60 / qpmin=5 / qpmax=69 / qpstep=4 / vbv_maxrate=5500 / vbv_bufsize=15000 / crf_max=0.0 / nal_hrd=none / filler=0 / ip_ratio=1.40 / aq=1:1.00
Дата кодирования : UTC 2018-11-26 13:44:35
Дата пометки : UTC 2018-11-26 13:44:35
Цветовой диапазон : Limited
Основные цвета : BT.709
Характеристики трансфера : BT.709
Коэффициенты матрицы : BT.709
Codec configuration box : avcC
Аудио
Идентификатор : 2
Формат : AAC LC
Формат/Информация : Advanced Audio Codec Low Complexity
Идентификатор кодека : mp4a-40-2
Продолжительность : 31 м. 35 с.
Вид битрейта : Переменный
Битрейт : 137 Кбит/сек
Каналы : 2 канала
Channel layout : L R
Частота : 48,0 КГц
Частота кадров : 46,875 кадров/сек (1024 SPF)
Метод сжатия : С потерями
Размер потока : 31,0 Мбайт (29%)
Дата кодирования : UTC 2018-11-26 13:44:35
Дата пометки : UTC 2018-11-26 13:44:35
Общее
Полное имя : C:\Users\Admin\Desktop\ASP.NET WEB API2\ASP.NET WEB API2 Lesson 3.mp4
Формат : MPEG-4
Профиль формата : Base Media / Version 2
Идентификатор кодека : mp42 (mp42/mp41/isom/avc1)
Размер файла : 92,7 Мбайт
Продолжительность : 27 м. 0 с.
Режим общего битрейта : Переменный
Общий поток : 480 Кбит/сек
Дата кодирования : UTC 2018-12-26 12:06:01
Дата пометки : UTC 2018-12-26 12:06:01
Видео
Идентификатор : 1
Формат : AVC
Формат/Информация : Advanced Video Codec
Профиль формата : High@L4
Настройки формата : CABAC / 5 Ref Frames
Параметр CABAC формата : Да
Параметр RefFrames формата : 5 кадров
Идентификатор кодека : avc1
Идентификатор кодека/Информация : Advanced Video Coding
Продолжительность : 27 м. 0 с.
Битрейт : 338 Кбит/сек
Ширина : 1920 пикселей
Высота : 1080 пикселей
Соотношение сторон : 16:9
Режим частоты кадров : Постоянный
Частота кадров : 30,000 кадров/сек
Цветовое пространство : YUV
Субдискретизация насыщенности : 4:2:0
Битовая глубина : 8 бит
Тип развёртки : Прогрессивная
Бит/(Пиксели*Кадры) : 0.005
Размер потока : 65,3 Мбайт (70%)
Библиотека кодирования : x264 core 157 r10 545de2f
Настройки программы : cabac=1 / ref=5 / deblock=1:0:0 / analyse=0x3:0x113 / me=hex / subme=8 / psy=1 / psy_rd=1.00:0.00 / mixed_ref=1 / me_range=16 / chroma_me=1 / trellis=2 / 8x8dct=1 / cqm=0 / deadzone=21,11 / fast_pskip=1 / chroma_qp_offset=-2 / threads=34 / lookahead_threads=5 / sliced_threads=0 / nr=0 / decimate=1 / interlaced=0 / bluray_compat=0 / stitchable=1 / constrained_intra=0 / bframes=3 / b_pyramid=2 / b_adapt=2 / b_bias=0 / direct=3 / weightb=1 / open_gop=0 / weightp=2 / keyint=infinite / keyint_min=30 / scenecut=40 / intra_refresh=0 / rc_lookahead=50 / rc=crf / mbtree=1 / crf=20.0 / qcomp=0.60 / qpmin=5 / qpmax=69 / qpstep=4 / vbv_maxrate=5500 / vbv_bufsize=15000 / crf_max=0.0 / nal_hrd=none / filler=0 / ip_ratio=1.40 / aq=1:1.00
Дата кодирования : UTC 2018-12-26 12:06:01
Дата пометки : UTC 2018-12-26 12:06:01
Цветовой диапазон : Limited
Основные цвета : BT.709
Характеристики трансфера : BT.709
Коэффициенты матрицы : BT.709
Codec configuration box : avcC
Аудио
Идентификатор : 2
Формат : AAC LC
Формат/Информация : Advanced Audio Codec Low Complexity
Идентификатор кодека : mp4a-40-2
Продолжительность : 27 м. 0 с.
Вид битрейта : Переменный
Битрейт : 137 Кбит/сек
Каналы : 2 канала
Channel layout : L R
Частота : 48,0 КГц
Частота кадров : 46,875 кадров/сек (1024 SPF)
Метод сжатия : С потерями
Размер потока : 26,5 Мбайт (29%)
Дата кодирования : UTC 2018-12-26 12:06:01
Дата пометки : UTC 2018-12-26 12:06:01

Продолжение описания:

В рамках практических занятий будет создано API для интернет-магазина, включающее в себя управление каталогом товаров, а также их категорированным отображением. Каждое занятие кроме теории включает в себя практические кейсы и итерационное наращивание функционала вышеупомянутого API. После прохождения курса Вы сможете создавать свои (а также поддерживать существующие) Web API.
Скриншоты:
       

}{@R0N

Пост 06-Мар-2019 21:20

[Цитировать]

Ярослав Брин | Фитнес модель за 4 месяца - 5.0 - Автор (режиссер): Ярослав Брин
Производство: Россия
Жанр: Видеотренинг по жиросжиганию
Описание:
Пошаговый Видео - Тренинг по Вашему Преображению.
За 4 месяца произойдет самая Яркая и Адски Тяжелая трансформация вашего тела и сознания.
Никаких соплей из Рубрики Полюби себя такой, какая ты есть, Хорошего человека должно быть много, Главное Внутренний мир.
Это мы оставим психологам, торговцам шаурмой и продавцам из магазина одежды больших размеров.
Продолжительность: 69:33:44
Качество видео: HDRip
Видео: AVC/H.264, ~1280x720,3840-2160, ~730-25000 Kbps
Аудио: AAC, 2 ch, ~124-317 Kbps

Mediainfo:

Общее
Полное имя : Z:\ФМ4М - 5.0\1_FM5-1-29\001_Урок-1.mp4
Формат : MPEG-4
Профиль формата : Base Media
Идентификатор кодека : isom (isom/iso2/avc1/mp41)
Размер файла : 4,89 Гбайт
Продолжительность : 3 ч. 44 м.
Режим общего битрейта : Переменный
Общий поток : 3117 Кбит/сек
Программа кодирования : Lavf56.15.102
Видео
Идентификатор : 1
Формат : AVC
Формат/Информация : Advanced Video Codec
Профиль формата : [url=mailto:High@L4.1]High@L4.1[/url]
Настройки формата : CABAC / 4 Ref Frames
Параметр CABAC формата : Да
Параметр RefFrames формата : 4 кадра
Идентификатор кодека : avc1
Идентификатор кодека/Информация : Advanced Video Coding
Продолжительность : 3 ч. 44 м.
Битрейт : 2981 Кбит/сек
Ширина : 3840 пикселей
Высота : 1080 пикселей
Соотношение сторон : 3,556
Режим частоты кадров : Переменный
Частота кадров : 29,674 кадров/сек
Минимальная частота кадров : 10,004 кадров/сек
Максимальная частота кадров : 30,000 кадров/сек
Цветовое пространство : YUV
Субдискретизация насыщенности : 4:2:0
Битовая глубина : 8 бит
Тип развёртки : Прогрессивная
Бит/(Пиксели*Кадры) : 0.024
Размер потока : 4,68 Гбайт (96%)
Библиотека кодирования : x264 core 148 r2638 7599210
Настройки программы : cabac=1 / ref=1 / deblock=1:-1:-1 / analyse=0x3:0x113 / me=umh / subme=2 / psy=1 / psy_rd=1.00:0.00 / mixed_ref=0 / me_range=24 / chroma_me=1 / trellis=1 / 8x8dct=1 / cqm=0 / deadzone=21,11 / fast_pskip=1 / chroma_qp_offset=0 / threads=12 / lookahead_threads=4 / sliced_threads=0 / nr=0 / decimate=1 / interlaced=0 / bluray_compat=0 / constrained_intra=0 / bframes=3 / b_pyramid=2 / b_adapt=1 / b_bias=0 / direct=1 / weightb=1 / open_gop=0 / weightp=1 / keyint=50 / keyint_min=5 / scenecut=0 / intra_refresh=0 / rc_lookahead=10 / rc=crf / mbtree=1 / crf=23.0 / qcomp=0.60 / qpmin=0 / qpmax=69 / qpstep=4 / ip_ratio=1.40 / aq=1:1.00
Codec configuration box : avcC
Аудио
Идентификатор : 2
Формат : AAC LC
Формат/Информация : Advanced Audio Codec Low Complexity
Идентификатор кодека : mp4a-40-2
Продолжительность : 3 ч. 44 м.
Вид битрейта : Переменный
Битрейт : 124 Кбит/сек
Максимальный битрейт : 129 Кбит/сек
Каналы : 2 канала
Channel layout : L R
Частота : 44,1 КГц
Частота кадров : 43,066 кадра/сек (1024 SPF)
Метод сжатия : С потерями
Размер потока : 200 Мбайт (4%)
Default : Да
AlternateGroup/String : 1

Дополнительная информация:

Мы не будем говорить о "Теории" или "Как надо было бы сделать" или "Как было бы хорошо", всё, что мы будем делать и изучать, будет на конкретном практическом примере и опыте.
Для данного формата, я специально разжираюсь до 2-й степени ожирения, чтобы всю теорию и практику показывать на себе.
Я не рассказываю методики из учебников и не пересказываю интернет мусор, я использую научно-спортивные разработки в области БИОХИМИИ, ДИЕТОЛОГИИ и ПСИХОЛОГИИ, упрощаю насколько возможно и показываю НА СЕБЕ!
Я не просто покажу, как сжигать жирок, я покажу, как создать идеальные пропорции под ваш тип телосложения, мы максимально, насколько возможно приблизим вас к эталону красоты тела.
Будет Ежедневная работа ДО РЕЗУЛЬТАТА!
Скриншоты:
       

}{@R0N

Пост 03-Мар-2019 21:01

[Цитировать]

OTUS | Разработчик на Spring Framework - Автор (режиссер): Юрий Дворжецкий
Производство: OTUS
Жанр: Программирование, Java, Spring
Описание:
Курс будет полезен всем. От Junior Java-программистов, не имеющих опыта работы со Spring, с минимальным опытом с IoC-контейнером Spring или испытывающих трудности с ним до архитекторов и тех.лидов, желающих узнать про современные возможности Spring для решения высокоуровневых задач.
Продолжительность: 50:27:38
Качество видео: PCRec
Видео: AVC/H.264, 640x360-1280x720, ~69-710 Kbps
Аудио: AAC, 2 ch, 93-128 Kbps

Программа курса:

Модуль 1 Введение
В данном модуле будут рассматриваться понятия и функциональности, на которых базируются все проекты Spring: Inversion of Control (Spring Context), аспектное программирование (Spring AOP), Spring Expression Language (SpEL).
Слушатели смогут правильно и эффективно конфигурировать Spring-приложения различными средствами и способами, а также будет рассмотрена "чёрная магия" Spring Boot - автоконфигурации.-Модуль 2 Работа с базами данных
В данном разделе будет рассмотрены проекты Spring для работы как с реляционными базами данных, так и с NoSQL базами данных.
Spring JDBC, Spring ORM, Spring Data Repositories и, разумеется, работа с транзакциями.
Помимо проектов Spring, участники смогут разбираться в особенностях различных баз данных, а также использовать специальные embedded-базы даных.-Модуль 3 Разработка Web-приложений
В данном модуле будут рассматриваться возможности Spring для разработки Web-приложений: Spring MVC и современный Reactive-ориентированный Spring WebFlux.
Разумеется, будут рассмотрены популярные технологии View и разработка современных SPA-приложений.
И, конечно, различные "плюшки" Spring Boot, максимально ускоряющие разработку Web-приложений.-Модуль 4 "Около" и "Дзен"
В данном модуле рассматриваются продвинутые проекты Spring решающие специфичные задачи, связанные с авторизацией и аутентификацией, размещения сервисов в облаках и работой с БД, а также облегчающие создание больших монолитов и систем на микросервисной архитектуре.-Модуль 5 Проектная работа
Заключительный месяц курса посвящен проектной работе. Свой проект - это то, что интересно писать студенту. То, что можно создать на основе знаний, полученных на курсе.
При этом не обязательно закончить его за месяц. В процессе написания по проекту можно получить консультации преподавателей.
Проект должен стать примером кода, который можно показывать потенциальным работодателям.
Проект должен быть сделан на основе Spring Boot, включать работу с DB с ипользованием Spring Data репозиториев и/или Spring JDBC.
Проект должен иметь UI построенный на современных принципах разработки Web-приложений (AJAX и/или SPA).
Приложение должно содержать механизмы аутентификации и авторизации с использованием Spring Security
Асинхронные части могут быть реализованы с помощью Spring Integration.
Пектные обработки, утилиты поддержки должны быть реализованы с помощью Spring Batch + Spring Shell.
Проект должен быть cloud-ready.
Примеры тем:
- Онлайн-библиотека
- Блог с админкой/регистрацией пользователей
Предлагаемые темы выпускного проекта:
- Онлайн-библиотека
- Блог с админкой/регистрацией пользователей
- Всё что угодно, к чему "душа лежит"

Mediainfo:

Общее
Полное имя : .\4. Около и Дзен\32. Обзор дополнительных технологий Spring, выбор архитектуры и технологий\32 - Обзор дополнительных технологий Spring (часть 2).mp4
Формат : MPEG-4
Профиль формата : Base Media / Version 2
Идентификатор кодека : mp42 (isom/mp42)
Размер файла : 118 Мбайт
Продолжительность : 58 м. 52 с.
Режим общего битрейта : Переменный
Общий поток : 281 Кбит/сек
Дата кодирования : UTC 2018-10-31 20:39:46
Дата пометки : UTC 2018-10-31 20:39:46
Видео
Идентификатор : 1
Формат : AVC
Формат/Информация : Advanced Video Codec
Профиль формата : Baseline@L3
Настройки формата : 1 Ref Frames
Параметр CABAC формата : Нет
Параметр RefFrames формата : 1 кадр
Параметр GOP формата : M=1, N=60
Идентификатор кодека : avc1
Идентификатор кодека/Информация : Advanced Video Coding
Продолжительность : 58 м. 52 с.
Битрейт : 182 Кбит/сек
Ширина : 640 пикселей
Высота : 360 пикселей
Соотношение сторон : 16:9
Режим частоты кадров : Постоянный
Частота кадров : 30,000 кадров/сек
Цветовое пространство : YUV
Субдискретизация насыщенности : 4:2:0
Битовая глубина : 8 бит
Тип развёртки : Прогрессивная
Бит/(Пиксели*Кадры) : 0.026
Размер потока : 76,8 Мбайт (65%)
Заголовок : ISO Media file produced by Google Inc. Created on: 10/31/2018.
Дата кодирования : UTC 2018-10-31 20:39:46
Дата пометки : UTC 2018-10-31 20:39:46
Цветовой диапазон : Limited
Основные цвета : BT.709
Характеристики трансфера : BT.709
Коэффициенты матрицы : BT.709
Codec configuration box : avcC
Аудио
Идентификатор : 2
Формат : AAC LC
Формат/Информация : Advanced Audio Codec Low Complexity
Идентификатор кодека : mp4a-40-2
Продолжительность : 58 м. 52 с.
Вид битрейта : Переменный
Битрейт : 96,0 Кбит/сек
Каналы : 2 канала
Channel layout : L R
Частота : 44,1 КГц
Частота кадров : 43,066 кадра/сек (1024 SPF)
Метод сжатия : С потерями
Размер потока : 40,4 Мбайт (34%)
Заголовок : ISO Media file produced by Google Inc. Created on: 10/31/2018.
Дата кодирования : UTC 2018-10-31 20:39:46
Дата пометки : UTC 2018-10-31 20:39:46
Общее
Полное имя : .\2. Работа с базами данных\8. JPQL, Spring ORM, DAO на основе Spring ORM + JPA\8 - JPQL, Spring ORM, DAO на основе Spring ORM + JPA.mp4
Формат : MPEG-4
Профиль формата : Base Media / Version 2
Идентификатор кодека : mp42 (isom/mp42)
Размер файла : 580 Мбайт
Продолжительность : 1 ч. 56 м.
Режим общего битрейта : Переменный
Общий поток : 697 Кбит/сек
Дата кодирования : UTC 2018-07-20 21:13:23
Дата пометки : UTC 2018-07-20 21:13:23
gsst : 0
gstd : 6986025
Видео
Идентификатор : 1
Формат : AVC
Формат/Информация : Advanced Video Codec
Профиль формата : [url=mailto:High@L3.1]High@L3.1[/url]
Настройки формата : CABAC / 1 Ref Frames
Параметр CABAC формата : Да
Параметр RefFrames формата : 1 кадр
Идентификатор кодека : avc1
Идентификатор кодека/Информация : Advanced Video Coding
Продолжительность : 1 ч. 56 м.
Битрейт : 598 Кбит/сек
Максимальный битрейт : 3036 Кбит/сек
Ширина : 1260 пикселей
Высота : 720 пикселей
Соотношение сторон : 16:9
Режим частоты кадров : Постоянный
Частота кадров : 25,000 кадров/сек
Цветовое пространство : YUV
Субдискретизация насыщенности : 4:2:0
Битовая глубина : 8 бит
Тип развёртки : Прогрессивная
Бит/(Пиксели*Кадры) : 0.026
Размер потока : 498 Мбайт (86%)
Дата пометки : UTC 2018-07-20 21:13:52
Цветовой диапазон : Limited
Основные цвета : BT.709
Характеристики трансфера : BT.709
Коэффициенты матрицы : BT.709
Codec configuration box : avcC
Аудио
Идентификатор : 2
Формат : AAC LC
Формат/Информация : Advanced Audio Codec Low Complexity
Идентификатор кодека : mp4a-40-2
Продолжительность : 1 ч. 56 м.
Вид битрейта : Переменный
Битрейт : 96,0 Кбит/сек
Максимальный битрейт : 101 Кбит/сек
Каналы : 1 канал
Channel layout : C
Частота : 44,1 КГц
Частота кадров : 43,066 кадра/сек (1024 SPF)
Метод сжатия : С потерями
Размер потока : 79,9 Мбайт (14%)
Заголовок : IsoMedia File Produced by Google, 5-11-2011
Дата кодирования : UTC 2018-07-20 21:13:40
Дата пометки : UTC 2018-07-20 21:13:52
Общее
Полное имя : .\4. Около и Дзен\20. Spring Security_ Авторизация\20. Spring Security - Авторизация (часть 3).mp4
Формат : MPEG-4
Профиль формата : Base Media / Version 2
Идентификатор кодека : mp42 (isom/mp42)
Размер файла : 26,9 Мбайт
Продолжительность : 20 м. 55 с.
Режим общего битрейта : Переменный
Общий поток : 180 Кбит/сек
Дата кодирования : UTC 2018-09-14 05:44:36
Дата пометки : UTC 2018-09-14 05:44:36
gsst : 0
gstd : 1255177
Видео
Идентификатор : 1
Формат : AVC
Формат/Информация : Advanced Video Codec
Профиль формата : [url=mailto:Main@L3.1]Main@L3.1[/url]
Настройки формата : CABAC / 3 Ref Frames
Параметр CABAC формата : Да
Параметр RefFrames формата : 3 кадра
Идентификатор кодека : avc1
Идентификатор кодека/Информация : Advanced Video Coding
Продолжительность : 20 м. 55 с.
Битрейт : 82,7 Кбит/сек
Ширина : 1280 пикселей
Высота : 686 пикселей
Соотношение сторон : 1,85:1
Режим частоты кадров : Постоянный
Частота кадров : 25,000 кадров/сек
Цветовое пространство : YUV
Субдискретизация насыщенности : 4:2:0
Битовая глубина : 8 бит
Тип развёртки : Прогрессивная
Бит/(Пиксели*Кадры) : 0.004
Размер потока : 12,4 Мбайт (46%)
Заголовок : ISO Media file produced by Google Inc. Created on: 09/13/2018.
Дата кодирования : UTC 2018-09-14 05:44:36
Дата пометки : UTC 2018-09-14 05:44:36
Цветовой диапазон : Limited
Основные цвета : BT.709
Характеристики трансфера : BT.709
Коэффициенты матрицы : BT.709
Codec configuration box : avcC
Аудио
Идентификатор : 2
Формат : AAC LC
Формат/Информация : Advanced Audio Codec Low Complexity
Идентификатор кодека : mp4a-40-2
Продолжительность : 20 м. 55 с.
Вид битрейта : Переменный
Битрейт : 93,6 Кбит/сек
Каналы : 1 канал
Channel layout : C
Частота : 44,1 КГц
Частота кадров : 43,066 кадра/сек (1024 SPF)
Метод сжатия : С потерями
Размер потока : 14,0 Мбайт (52%)
Заголовок : ISO Media file produced by Google Inc. Created on: 09/13/2018.
Дата кодирования : UTC 2018-09-14 05:44:36
Дата пометки : UTC 2018-09-14 05:44:36
Общее
Полное имя : .\4. Около и Дзен\32. Обзор дополнительных технологий Spring, выбор архитектуры и технологий\32 - Обзор дополнительных технологий Spring (часть 1).mp4
Формат : MPEG-4
Профиль формата : Base Media / Version 2
Идентификатор кодека : mp42 (isom/mp42)
Размер файла : 110 Мбайт
Продолжительность : 41 м. 12 с.
Режим общего битрейта : Переменный
Общий поток : 372 Кбит/сек
Дата кодирования : UTC 2018-10-31 20:30:50
Дата пометки : UTC 2018-10-31 20:30:50
gsst : 0
gstd : 2472623
Видео
Идентификатор : 1
Формат : AVC
Формат/Информация : Advanced Video Codec
Профиль формата : [url=mailto:Main@L3.1]Main@L3.1[/url]
Настройки формата : CABAC / 3 Ref Frames
Параметр CABAC формата : Да
Параметр RefFrames формата : 3 кадра
Идентификатор кодека : avc1
Идентификатор кодека/Информация : Advanced Video Coding
Продолжительность : 41 м. 12 с.
Битрейт : 240 Кбит/сек
Ширина : 1280 пикселей
Высота : 720 пикселей
Соотношение сторон : 16:9
Режим частоты кадров : Постоянный
Частота кадров : 30,000 кадров/сек
Цветовое пространство : YUV
Субдискретизация насыщенности : 4:2:0
Битовая глубина : 8 бит
Тип развёртки : Прогрессивная
Бит/(Пиксели*Кадры) : 0.009
Размер потока : 70,7 Мбайт (65%)
Заголовок : ISO Media file produced by Google Inc. Created on: 10/31/2018.
Дата кодирования : UTC 2018-10-31 20:30:50
Дата пометки : UTC 2018-10-31 20:30:50
Цветовой диапазон : Limited
Основные цвета : BT.709
Характеристики трансфера : BT.709
Коэффициенты матрицы : BT.709
Codec configuration box : avcC
Аудио
Идентификатор : 2
Формат : AAC LC
Формат/Информация : Advanced Audio Codec Low Complexity
Идентификатор кодека : mp4a-40-2
Продолжительность : 41 м. 12 с.
Вид битрейта : Переменный
Битрейт : 128 Кбит/сек
Каналы : 2 канала
Channel layout : L R
Частота : 44,1 КГц
Частота кадров : 43,066 кадра/сек (1024 SPF)
Метод сжатия : С потерями
Размер потока : 37,7 Мбайт (34%)
Заголовок : ISO Media file produced by Google Inc. Created on: 10/31/2018.
Дата кодирования : UTC 2018-10-31 20:30:50
Дата пометки : UTC 2018-10-31 20:30:50
Скриншоты:
       

}{@R0N

Пост 03-Мар-2019 21:00

[Цитировать]

Константин Шереметьев | Программирование баз данных на SQLite- Автор (режиссер): Константин Шереметьев
Жанр: Программирование, Базы данных, SQLite
Описание:
Данный курс - отличное руководство для тех, кто хочет программировать за деньги. Минимум воды и теории, в курс вошли только те приёмы, которые реально используются на практике. Константин рассказывает не только о том, как написать программу, но и как взаимодействовать с заказчиком (получить заказ и затем оплату).
Продолжительность: 05:35:59
Качество видео: PCRec
Видео: AVC/H.264, 1920x1080, ~509-524 Kbps
Аудио: AAC, 2 ch, 96-161 Kbps

Mediainfo:

Общее
Полное имя : .\01 Основы баз данных\1.1 Настройка Среды Codeblocks.mp4
Формат : MPEG-4
Профиль формата : Base Media / Version 2
Идентификатор кодека : mp42 (isom/iso2/avc1/mp41)
Размер файла : 44,1 Мбайт
Продолжительность : 10 м. 4 с.
Режим общего битрейта : Переменный
Общий поток : 612 Кбит/сек
Дата кодирования : UTC 2018-10-09 20:52:14
Дата пометки : UTC 2018-10-09 20:52:14
Программа кодирования : HandBrake 1.0.7 2017040900
Видео
Идентификатор : 1
Формат : AVC
Формат/Информация : Advanced Video Codec
Профиль формата : Main@L4
Настройки формата : CABAC / 4 Ref Frames
Параметр CABAC формата : Да
Параметр RefFrames формата : 4 кадра
Идентификатор кодека : avc1
Идентификатор кодека/Информация : Advanced Video Coding
Продолжительность : 10 м. 4 с.
Битрейт : 512 Кбит/сек
Ширина : 1920 пикселей
Высота : 1080 пикселей
Соотношение сторон : 16:9
Режим частоты кадров : Постоянный
Частота кадров : 30,000 кадров/сек
Цветовое пространство : YUV
Субдискретизация насыщенности : 4:2:0
Битовая глубина : 8 бит
Тип развёртки : Прогрессивная
Бит/(Пиксели*Кадры) : 0.008
Размер потока : 36,7 Мбайт (83%)
Библиотека кодирования : x264 core 148 r2708 86b7198
Настройки программы : cabac=1 / ref=4 / deblock=1:0:0 / analyse=0x1:0x131 / me=umh / subme=9 / psy=1 / psy_rd=1.00:0.00 / mixed_ref=1 / me_range=16 / chroma_me=1 / trellis=2 / 8x8dct=0 / cqm=0 / deadzone=21,11 / fast_pskip=1 / chroma_qp_offset=-2 / threads=6 / lookahead_threads=1 / sliced_threads=0 / nr=0 / decimate=1 / interlaced=0 / bluray_compat=0 / constrained_intra=0 / bframes=3 / b_pyramid=2 / b_adapt=2 / b_bias=0 / direct=3 / weightb=1 / open_gop=0 / weightp=2 / keyint=300 / keyint_min=30 / scenecut=40 / intra_refresh=0 / rc_lookahead=60 / rc=2pass / mbtree=1 / bitrate=512 / ratetol=1.0 / qcomp=0.60 / qpmin=0 / qpmax=69 / qpstep=4 / cplxblur=20.0 / qblur=0.5 / vbv_maxrate=20000 / vbv_bufsize=25000 / nal_hrd=none / filler=0 / ip_ratio=1.40 / aq=1:1.00
Дата кодирования : UTC 2018-10-09 20:52:14
Дата пометки : UTC 2018-10-09 20:52:14
Цветовой диапазон : Limited
Основные цвета : BT.709
Характеристики трансфера : BT.709
Коэффициенты матрицы : BT.709
Codec configuration box : avcC
Аудио
Идентификатор : 2
Формат : AAC LC
Формат/Информация : Advanced Audio Codec Low Complexity
Идентификатор кодека : mp4a-40-2
Продолжительность : 10 м. 4 с.
Вид битрейта : Переменный
Битрейт : 96,0 Кбит/сек
Каналы : 2 канала
Channel layout : L R
Частота : 44,1 КГц
Частота кадров : 43,066 кадра/сек (1024 SPF)
Метод сжатия : С потерями
Размер потока : 6,94 Мбайт (16%)
Заголовок : Stereo / Stereo
Язык : English
Default : Да
AlternateGroup/String : 1
Дата кодирования : UTC 2018-10-09 20:52:14
Дата пометки : UTC 2018-10-09 20:52:14

Дополнительная информация:

В раздаче имеются архивы! В них содержится исходники.
Скриншоты:
       

}{@R0N

Пост 03-Мар-2019 21:00

[Цитировать]

Алексей Кондратьев | Курс эффективной визуализации экстерьера в Coronapic- Автор (режиссер): Алексей Кондратьев
Производство: Ravelin School
Жанр: Обучающее видео
Описание:
Курс нацелен на максимально эффективную работу. Мы не собираемся копировать картинки из журналов, как это делают на других курсах. Мы будем работать только с реальными проектами.
Продолжительность: 12:21:52
Качество видео: PCRec
Видео: AVC/H.264, 1920-1280x720-1080 Kbps
Аудио: AAC, 2 ch, 192 Kbps

Mediainfo:

Общее
Полное имя : L:\Курс эффективной визуализации экстерьера в Corona (2018)\Урок 1\01_01_Интерфейс.mp4
Формат : MPEG-4
Профиль формата : Base Media
Идентификатор кодека : isom (isom/iso2/avc1/mp41)
Размер файла : 163 Мбайт
Продолжительность : 7 м. 57 с.
Режим общего битрейта : Постоянный
Общий поток : 2862 Кбит/сек
Программа кодирования : Lavf57.71.100
Видео
Идентификатор : 1
Формат : AVC
Формат/Информация : Advanced Video Codec
Профиль формата : [url=mailto:Main@L3.1]Main@L3.1[/url]
Настройки формата : CABAC / 1 Ref Frames
Параметр CABAC формата : Да
Параметр RefFrames формата : 1 кадр
Параметр GOP формата : M=1, N=25
Идентификатор кодека : avc1
Идентификатор кодека/Информация : Advanced Video Coding
Продолжительность : 7 м. 57 с.
Duration_FirstFrame : 33 мс.
Вид битрейта : Постоянный
Битрейт : 2660 Кбит/сек
Номинальный битрейт : 4240 Кбит/сек
Ширина : 1280 пикселей
Высота : 720 пикселей
Соотношение сторон : 16:9
Режим частоты кадров : Постоянный
Частота кадров : 30,000 кадров/сек
Цветовое пространство : YUV
Субдискретизация насыщенности : 4:2:0
Битовая глубина : 8 бит
Тип развёртки : Прогрессивная
Бит/(Пиксели*Кадры) : 0.096
Размер потока : 151 Мбайт (93%)
Codec configuration box : avcC
Аудио
Идентификатор : 2
Формат : AAC LC
Формат/Информация : Advanced Audio Codec Low Complexity
Идентификатор кодека : mp4a-40-2
Продолжительность : 7 м. 57 с.
Вид битрейта : Постоянный
Битрейт : 192 Кбит/сек
Каналы : 2 канала
Channel layout : L R
Частота : 44,1 КГц
Частота кадров : 43,066 кадра/сек (1024 SPF)
Метод сжатия : С потерями
Размер потока : 11,1 Мбайт (7%)
Язык : unk
Default : Да
AlternateGroup/String : 1
Общее
Полное имя : L:\Курс эффективной визуализации экстерьера в Corona (2018)\Урок 1\01_02_Сopy paste - копипастим объекты.mp4
Формат : MPEG-4
Профиль формата : Base Media
Идентификатор кодека : isom (isom/iso2/avc1/mp41)
Размер файла : 23,9 Мбайт
Продолжительность : 6 м. 8 с.
Общий поток : 545 Кбит/сек
Программа кодирования : Lavf57.71.100
Видео
Идентификатор : 1
Формат : AVC
Формат/Информация : Advanced Video Codec
Профиль формата : [url=mailto:High@L3.2]High@L3.2[/url]
Настройки формата : CABAC / 4 Ref Frames
Параметр CABAC формата : Да
Параметр RefFrames формата : 4 кадра
Идентификатор кодека : avc1
Идентификатор кодека/Информация : Advanced Video Coding
Продолжительность : 6 м. 8 с.
Битрейт : 283 Кбит/сек
Ширина : 1280 пикселей
Высота : 720 пикселей
Соотношение сторон : 16:9
Режим частоты кадров : Постоянный
Частота кадров : 30,000 кадров/сек
Цветовое пространство : YUV
Субдискретизация насыщенности : 4:2:0
Битовая глубина : 8 бит
Тип развёртки : Прогрессивная
Бит/(Пиксели*Кадры) : 0.010
Размер потока : 12,4 Мбайт (52%)
Библиотека кодирования : x264 core 146 r2555 0c21480
Настройки программы : cabac=1 / ref=3 / deblock=1:0:0 / analyse=0x3:0x133 / me=hex / subme=7 / psy=1 / psy_rd=1.00:0.00 / mixed_ref=1 / me_range=16 / chroma_me=1 / trellis=1 / 8x8dct=1 / cqm=0 / deadzone=21,11 / fast_pskip=1 / chroma_qp_offset=-2 / threads=6 / lookahead_threads=1 / sliced_threads=0 / nr=0 / decimate=1 / interlaced=0 / bluray_compat=0 / constrained_intra=0 / bframes=3 / b_pyramid=2 / b_adapt=1 / b_bias=0 / direct=1 / weightb=1 / open_gop=0 / weightp=2 / keyint=250 / keyint_min=25 / scenecut=40 / intra_refresh=0 / rc_lookahead=40 / rc=crf / mbtree=1 / crf=20.0 / qcomp=0.60 / qpmin=10 / qpmax=51 / qpstep=4 / ip_ratio=1.40 / aq=1:1.00
Codec configuration box : avcC
Аудио
Идентификатор : 2
Формат : AAC LC
Формат/Информация : Advanced Audio Codec Low Complexity
Идентификатор кодека : mp4a-40-2
Продолжительность : 6 м. 8 с.
Вид битрейта : Постоянный
Битрейт : 254 Кбит/сек
Каналы : 2 канала
Channel layout : L R
Частота : 44,1 КГц
Частота кадров : 43,066 кадра/сек (1024 SPF)
Метод сжатия : С потерями
Размер потока : 11,1 Мбайт (47%)
Язык : unk
Default : Да
AlternateGroup/String : 1
Общее
Полное имя : L:\Курс эффективной визуализации экстерьера в Corona (2018)\Урок 1\01_03_Glue - приземляем объекты на поверхность.mp4
Формат : MPEG-4
Профиль формата : Base Media
Идентификатор кодека : isom (isom/iso2/avc1/mp41)
Размер файла : 48,5 Мбайт
Продолжительность : 6 м. 4 с.
Общий поток : 1117 Кбит/сек
Программа кодирования : Lavf56.40.101
Видео
Идентификатор : 1
Формат : AVC
Формат/Информация : Advanced Video Codec
Профиль формата : High@L4
Настройки формата : CABAC / 2 Ref Frames
Параметр CABAC формата : Да
Параметр RefFrames формата : 2 кадра
Идентификатор кодека : avc1
Идентификатор кодека/Информация : Advanced Video Coding
Продолжительность : 6 м. 4 с.
Duration_FirstFrame : -34 мс.
Битрейт : 981 Кбит/сек
Ширина : 1920 пикселей
Высота : 1080 пикселей
Соотношение сторон : 16:9
Режим частоты кадров : Переменный
Частота кадров : 29,415 кадров/сек
Минимальная частота кадров : 29,412 кадров/сек
Максимальная частота кадров : 29,530 кадров/сек
Цветовое пространство : YUV
Субдискретизация насыщенности : 4:2:0
Битовая глубина : 8 бит
Тип развёртки : Прогрессивная
Бит/(Пиксели*Кадры) : 0.016
Размер потока : 42,6 Мбайт (88%)
Цветовой диапазон : Limited
Основные цвета : BT.709
Характеристики трансфера : BT.709
Коэффициенты матрицы : BT.470 System B/G
Codec configuration box : avcC
Аудио
Идентификатор : 2
Формат : AAC LC
Формат/Информация : Advanced Audio Codec Low Complexity
Идентификатор кодека : mp4a-40-2
Продолжительность : 6 м. 4 с.
Вид битрейта : Постоянный
Битрейт : 128 Кбит/сек
Каналы : 2 канала
Channel layout : L R
Частота : 44,1 КГц
Частота кадров : 43,066 кадра/сек (1024 SPF)
Метод сжатия : С потерями
Размер потока : 5,56 Мбайт (11%)
Default : Да
AlternateGroup/String : 1
Общее
Полное имя : L:\Курс эффективной визуализации экстерьера в Corona (2018)\Урок 1\01_04_Как превратить скрипт в кнопку. Скрипт random select..mp4
Формат : MPEG-4
Профиль формата : Base Media
Идентификатор кодека : isom (isom/iso2/avc1/mp41)
Размер файла : 14,6 Мбайт
Продолжительность : 2 м. 55 с.
Общий поток : 697 Кбит/сек
Программа кодирования : Lavf56.40.101
Видео
Идентификатор : 1
Формат : AVC
Формат/Информация : Advanced Video Codec
Профиль формата : High@L4
Настройки формата : CABAC / 2 Ref Frames
Параметр CABAC формата : Да
Параметр RefFrames формата : 2 кадра
Идентификатор кодека : avc1
Идентификатор кодека/Информация : Advanced Video Coding
Продолжительность : 2 м. 55 с.
Duration_FirstFrame : -34 мс.
Битрейт : 561 Кбит/сек
Ширина : 1920 пикселей
Высота : 1080 пикселей
Соотношение сторон : 16:9
Режим частоты кадров : Переменный
Частота кадров : 29,418 кадров/сек
Минимальная частота кадров : 29,412 кадров/сек
Максимальная частота кадров : 29,530 кадров/сек
Цветовое пространство : YUV
Субдискретизация насыщенности : 4:2:0
Битовая глубина : 8 бит
Тип развёртки : Прогрессивная
Бит/(Пиксели*Кадры) : 0.009
Размер потока : 11,8 Мбайт (80%)
Цветовой диапазон : Limited
Основные цвета : BT.709
Характеристики трансфера : BT.709
Коэффициенты матрицы : BT.470 System B/G
Codec configuration box : avcC
Аудио
Идентификатор : 2
Формат : AAC LC
Формат/Информация : Advanced Audio Codec Low Complexity
Идентификатор кодека : mp4a-40-2
Продолжительность : 2 м. 55 с.
Вид битрейта : Постоянный
Битрейт : 128 Кбит/сек
Каналы : 2 канала
Channel layout : L R
Частота : 44,1 КГц
Частота кадров : 43,066 кадра/сек (1024 SPF)
Метод сжатия : С потерями
Размер потока : 2,68 Мбайт (18%)
Default : Да
AlternateGroup/String : 1
Общее
Полное имя : L:\Курс эффективной визуализации экстерьера в Corona (2018)\Урок 1\01_05_Corona proxy.mp4
Формат : MPEG-4
Профиль формата : Base Media
Идентификатор кодека : isom (isom/iso2/avc1/mp41)
Размер файла : 43,0 Мбайт
Продолжительность : 4 м. 40 с.
Общий поток : 1285 Кбит/сек
Программа кодирования : Lavf56.40.101
Видео
Идентификатор : 1
Формат : AVC
Формат/Информация : Advanced Video Codec
Профиль формата : High@L4
Настройки формата : CABAC / 2 Ref Frames
Параметр CABAC формата : Да
Параметр RefFrames формата : 2 кадра
Идентификатор кодека : avc1
Идентификатор кодека/Информация : Advanced Video Coding
Продолжительность : 4 м. 40 с.
Duration_FirstFrame : -34 мс.
Битрейт : 1149 Кбит/сек
Ширина : 1920 пикселей
Высота : 1080 пикселей
Соотношение сторон : 16:9
Режим частоты кадров : Переменный
Частота кадров : 29,416 кадров/сек
Минимальная частота кадров : 29,412 кадров/сек
Максимальная частота кадров : 29,530 кадров/сек
Цветовое пространство : YUV
Субдискретизация насыщенности : 4:2:0
Битовая глубина : 8 бит
Тип развёртки : Прогрессивная
Бит/(Пиксели*Кадры) : 0.019
Размер потока : 38,4 Мбайт (89%)
Цветовой диапазон : Limited
Основные цвета : BT.709
Характеристики трансфера : BT.709
Коэффициенты матрицы : BT.470 System B/G
Codec configuration box : avcC
Аудио
Идентификатор : 2
Формат : AAC LC
Формат/Информация : Advanced Audio Codec Low Complexity
Идентификатор кодека : mp4a-40-2
Продолжительность : 4 м. 40 с.
Вид битрейта : Постоянный
Битрейт : 128 Кбит/сек
Каналы : 2 канала
Channel layout : L R
Частота : 44,1 КГц
Частота кадров : 43,066 кадра/сек (1024 SPF)
Метод сжатия : С потерями
Размер потока : 4,28 Мбайт (10%)
Default : Да
AlternateGroup/String : 1
Общее
Полное имя : L:\Курс эффективной визуализации экстерьера в Corona (2018)\Урок 1\01_06_Corona proxy lister - ускоряем работу с прокси.mp4
Формат : MPEG-4
Профиль формата : Base Media
Идентификатор кодека : isom (isom/iso2/avc1/mp41)
Размер файла : 12,5 Мбайт
Продолжительность : 2 м. 32 с.
Общий поток : 684 Кбит/сек
Программа кодирования : Lavf56.40.101
Видео
Идентификатор : 1
Формат : AVC
Формат/Информация : Advanced Video Codec
Профиль формата : High@L4
Настройки формата : CABAC / 2 Ref Frames
Параметр CABAC формата : Да
Параметр RefFrames формата : 2 кадра
Идентификатор кодека : avc1
Идентификатор кодека/Информация : Advanced Video Coding
Продолжительность : 2 м. 32 с.
Duration_FirstFrame : -34 мс.
Битрейт : 548 Кбит/сек
Ширина : 1920 пикселей
Высота : 1080 пикселей
Соотношение сторон : 16:9
Режим частоты кадров : Переменный
Частота кадров : 29,419 кадров/сек
Минимальная частота кадров : 29,412 кадров/сек
Максимальная частота кадров : 29,530 кадров/сек
Цветовое пространство : YUV
Субдискретизация насыщенности : 4:2:0
Битовая глубина : 8 бит
Тип развёртки : Прогрессивная
Бит/(Пиксели*Кадры) : 0.009
Размер потока : 9,98 Мбайт (80%)
Цветовой диапазон : Limited
Основные цвета : BT.709
Характеристики трансфера : BT.709
Коэффициенты матрицы : BT.470 System B/G
Codec configuration box : avcC
Аудио
Идентификатор : 2
Формат : AAC LC
Формат/Информация : Advanced Audio Codec Low Complexity
Идентификатор кодека : mp4a-40-2
Продолжительность : 2 м. 32 с.
Вид битрейта : Постоянный
Битрейт : 128 Кбит/сек
Каналы : 2 канала
Channel layout : L R
Частота : 44,1 КГц
Частота кадров : 43,066 кадра/сек (1024 SPF)
Метод сжатия : С потерями
Размер потока : 2,33 Мбайт (19%)
Default : Да
AlternateGroup/String : 1
Общее
Полное имя : L:\Курс эффективной визуализации экстерьера в Corona (2018)\Урок 1\01_07_Advanced painter.mp4
Формат : MPEG-4
Профиль формата : Base Media
Идентификатор кодека : isom (isom/iso2/avc1/mp41)
Размер файла : 78,3 Мбайт
Продолжительность : 8 м. 49 с.
Общий поток : 1241 Кбит/сек
Программа кодирования : Lavf56.40.101
Видео
Идентификатор : 1
Формат : AVC
Формат/Информация : Advanced Video Codec
Профиль формата : High@L4
Настройки формата : CABAC / 2 Ref Frames
Параметр CABAC формата : Да
Параметр RefFrames формата : 2 кадра
Идентификатор кодека : avc1
Идентификатор кодека/Информация : Advanced Video Coding
Продолжительность : 8 м. 49 с.
Duration_FirstFrame : -33 мс.
Битрейт : 1105 Кбит/сек
Ширина : 1920 пикселей
Высота : 1080 пикселей
Соотношение сторон : 16:9
Режим частоты кадров : Переменный
Частота кадров : 30,000 кадров/сек
Минимальная частота кадров : 30,000 кадров/сек
Максимальная частота кадров : 30,118 кадров/сек
Цветовое пространство : YUV
Субдискретизация насыщенности : 4:2:0
Битовая глубина : 8 бит
Тип развёртки : Прогрессивная
Бит/(Пиксели*Кадры) : 0.018
Размер потока : 69,7 Мбайт (89%)
Цветовой диапазон : Limited
Основные цвета : BT.709
Характеристики трансфера : BT.709
Коэффициенты матрицы : BT.470 System B/G
Codec configuration box : avcC
Аудио
Идентификатор : 2
Формат : AAC LC
Формат/Информация : Advanced Audio Codec Low Complexity
Идентификатор кодека : mp4a-40-2
Продолжительность : 8 м. 49 с.
Вид битрейта : Постоянный
Битрейт : 128 Кбит/сек
Каналы : 2 канала
Channel layout : L R
Частота : 44,1 КГц
Частота кадров : 43,066 кадра/сек (1024 SPF)
Метод сжатия : С потерями
Размер потока : 8,08 Мбайт (10%)
Default : Да
AlternateGroup/String : 1
Скриншоты:
       

}{@R0N

Пост 03-Мар-2019 21:00

[Цитировать]

PHP Academy | Курс PHP Developer - Автор (режиссер): PHP Academy
Жанр: Программирование, PHP
Описание:
Курс PHP Developer - это курс, который за 5 месяцев сделает из вас профессионала back end разработки на языке PHP и плюс к этому даст важные сопутствующие знания. В данном курсе мы построили программу таким образом, чтобы выпускник был полностью подготовлен к работе с реальными проектами, которые предлагают работодатели.
Продолжительность: 75:06:29
Качество видео: PCRec
Видео: AVC/H.264, 1280x720, ~218-320 Kbps
Аудио: AAC, 2 ch, 64 Kbps

Mediainfo:

Общее
Полное имя : .\02 PHP\lesson_3 (Массивы, циклы).mp4
Формат : MPEG-4
Профиль формата : Base Media
Идентификатор кодека : isom (isom/iso2/avc1/mp41)
Размер файла : 518 Мбайт
Продолжительность : 4 ч. 10 м.
Общий поток : 289 Кбит/сек
Программа кодирования : Lavf54.29.104
Видео
Идентификатор : 1
Формат : AVC
Формат/Информация : Advanced Video Codec
Профиль формата : [url=mailto:High@L3.1]High@L3.1[/url]
Настройки формата : CABAC / 4 Ref Frames
Параметр CABAC формата : Да
Параметр RefFrames формата : 4 кадра
Идентификатор кодека : avc1
Идентификатор кодека/Информация : Advanced Video Coding
Продолжительность : 4 ч. 10 м.
Битрейт : 218 Кбит/сек
Номинальный битрейт : 384 Кбит/сек
Ширина : 1280 пикселей
Высота : 720 пикселей
Соотношение сторон : 16:9
Режим частоты кадров : Постоянный
Частота кадров : 20,000 кадров/сек
Цветовое пространство : YUV
Субдискретизация насыщенности : 4:2:0
Битовая глубина : 8 бит
Тип развёртки : Прогрессивная
Бит/(Пиксели*Кадры) : 0.012
Размер потока : 391 Мбайт (75%)
Библиотека кодирования : x264 core 132
Настройки программы : cabac=1 / ref=1 / deblock=1:0:0 / analyse=0x3:0x113 / me=hex / subme=2 / psy=1 / psy_rd=1.00:0.00 / mixed_ref=0 / me_range=16 / chroma_me=1 / trellis=0 / 8x8dct=1 / cqm=0 / deadzone=21,11 / fast_pskip=1 / chroma_qp_offset=0 / threads=4 / lookahead_threads=1 / sliced_threads=0 / nr=0 / decimate=1 / interlaced=0 / bluray_compat=0 / constrained_intra=0 / bframes=3 / b_pyramid=2 / b_adapt=1 / b_bias=0 / direct=1 / weightb=1 / open_gop=0 / weightp=1 / keyint=80 / keyint_min=8 / scenecut=40 / intra_refresh=0 / rc_lookahead=10 / rc=cbr / mbtree=1 / bitrate=384 / ratetol=1.0 / qcomp=0.60 / qpmin=0 / qpmax=69 / qpstep=4 / vbv_maxrate=384 / vbv_bufsize=512 / nal_hrd=none / ip_ratio=1.40 / aq=1:1.00
Codec configuration box : avcC
Аудио
Идентификатор : 2
Формат : AAC LC
Формат/Информация : Advanced Audio Codec Low Complexity
Идентификатор кодека : mp4a-40-2
Продолжительность : 4 ч. 10 м.
Вид битрейта : Постоянный
Битрейт : 64,0 Кбит/сек
Каналы : 2 канала
Channel layout : L R
Частота : 44,1 КГц
Частота кадров : 43,066 кадра/сек (1024 SPF)
Метод сжатия : С потерями
Размер потока : 115 Мбайт (22%)
Default : Да
AlternateGroup/String : 1

Дополнительная информация:

В раздаче имеются архивы! В них содержится исходники.
Скриншоты:
       

}{@R0N

Пост 03-Мар-2019 20:59

[Цитировать]

ProfIT | Ликбез будущего программиста- Автор (режиссер): Степанцев Альберт
Производство: ProfIT
Жанр: Программирование
Описание:
Курс, с которого вам стоит начать, если вы хотите "войти в IT".
Продолжительность: 07:29:32
Качество видео: PCRec
Видео: AVC/H.264, 1920x1040-2304x1440, ~384-898 Kbps
Аудио: AAC, 2 ch, 136-137 Kbps

Программа курса:

  • Вспоминаем азы школьной математики, которые понадобятся нам в дальнейшем обучении;
  • Учимся элементарной логике;
  • Разбираемся - как считать биты и байты;
  • Вспоминаем - что такое "файл", "путь" и изучаем, как устроены файловые системы;
  • Узнаем тайны текстовых кодировок;
  • Сравниваем между собой Windows и Linux, изучаем главные отличия;
  • Рассматриваем протокол HTTP и понимаем, как он устроен (спойлер - очень просто!);
  • Заканчиваем знакомством с понятиями "значение", "тип", "переменная" в одном из несложных языков программирования.
Подготовительный курс, строго рекомендуемый каждому к прохождению до того, как вы решитесь на покупку любого профессионального курса.

Mediainfo:

Общее
Полное имя : .\1. Биты и байты.mp4
Формат : MPEG-4
Профиль формата : Base Media / Version 2
Идентификатор кодека : mp42 (mp42/mp41/isom/avc1)
Размер файла : 518 Мбайт
Продолжительность : 1 ч. 46 м.
Режим общего битрейта : Переменный
Общий поток : 682 Кбит/сек
Дата кодирования : UTC 2018-12-19 20:10:59
Дата пометки : UTC 2018-12-19 20:10:59
Видео
Идентификатор : 1
Формат : AVC
Формат/Информация : Advanced Video Codec
Профиль формата : High@L4
Настройки формата : CABAC / 5 Ref Frames
Параметр CABAC формата : Да
Параметр RefFrames формата : 5 кадров
Идентификатор кодека : avc1
Идентификатор кодека/Информация : Advanced Video Coding
Продолжительность : 1 ч. 46 м.
Битрейт : 541 Кбит/сек
Ширина : 1920 пикселей
Высота : 1040 пикселей
Соотношение сторон : 1,85:1
Режим частоты кадров : Постоянный
Частота кадров : 25,000 кадров/сек
Цветовое пространство : YUV
Субдискретизация насыщенности : 4:2:0
Битовая глубина : 8 бит
Тип развёртки : Прогрессивная
Бит/(Пиксели*Кадры) : 0.011
Размер потока : 411 Мбайт (79%)
Библиотека кодирования : x264 core 157 r10 545de2f
Настройки программы : cabac=1 / ref=5 / deblock=1:0:0 / analyse=0x3:0x113 / me=hex / subme=8 / psy=1 / psy_rd=1.00:0.00 / mixed_ref=1 / me_range=16 / chroma_me=1 / trellis=2 / 8x8dct=1 / cqm=0 / deadzone=21,11 / fast_pskip=1 / chroma_qp_offset=-2 / threads=32 / lookahead_threads=5 / sliced_threads=0 / nr=0 / decimate=1 / interlaced=0 / bluray_compat=0 / stitchable=1 / constrained_intra=0 / bframes=3 / b_pyramid=2 / b_adapt=2 / b_bias=0 / direct=3 / weightb=1 / open_gop=0 / weightp=2 / keyint=infinite / keyint_min=25 / scenecut=40 / intra_refresh=0 / rc_lookahead=50 / rc=crf / mbtree=1 / crf=20.0 / qcomp=0.60 / qpmin=5 / qpmax=69 / qpstep=4 / vbv_maxrate=5500 / vbv_bufsize=15000 / crf_max=0.0 / nal_hrd=none / filler=0 / ip_ratio=1.40 / aq=1:1.00
Дата кодирования : UTC 2018-12-19 20:10:59
Дата пометки : UTC 2018-12-19 20:10:59
Цветовой диапазон : Limited
Основные цвета : BT.709
Характеристики трансфера : BT.709
Коэффициенты матрицы : BT.709
Codec configuration box : avcC
Аудио
Идентификатор : 2
Формат : AAC LC
Формат/Информация : Advanced Audio Codec Low Complexity
Идентификатор кодека : mp4a-40-2
Продолжительность : 1 ч. 46 м.
Вид битрейта : Переменный
Битрейт : 137 Кбит/сек
Каналы : 2 канала
Channel layout : L R
Частота : 48,0 КГц
Частота кадров : 46,875 кадров/сек (1024 SPF)
Метод сжатия : С потерями
Размер потока : 104 Мбайт (20%)
Дата кодирования : UTC 2018-12-19 20:10:59
Дата пометки : UTC 2018-12-19 20:10:59
Общее
Полное имя : .\5. HTTP - основа интернета.mp4
Формат : MPEG-4
Профиль формата : Base Media / Version 2
Идентификатор кодека : mp42 (mp42/mp41/isom/avc1)
Размер файла : 442 Мбайт
Продолжительность : 59 м. 14 с.
Режим общего битрейта : Переменный
Общий поток : 1043 Кбит/сек
Дата кодирования : UTC 2019-01-24 10:44:16
Дата пометки : UTC 2019-01-24 10:44:16
Видео
Идентификатор : 1
Формат : AVC
Формат/Информация : Advanced Video Codec
Профиль формата : [url=mailto:High@L5.1]High@L5.1[/url]
Настройки формата : CABAC / 5 Ref Frames
Параметр CABAC формата : Да
Параметр RefFrames формата : 5 кадров
Идентификатор кодека : avc1
Идентификатор кодека/Информация : Advanced Video Coding
Продолжительность : 59 м. 14 с.
Битрейт : 899 Кбит/сек
Ширина : 2304 пикселя
Высота : 1440 пикселей
Соотношение сторон : 16:10
Режим частоты кадров : Постоянный
Частота кадров : 59,940 (60000/1001) кадров/сек
Цветовое пространство : YUV
Субдискретизация насыщенности : 4:2:0
Битовая глубина : 8 бит
Тип развёртки : Прогрессивная
Бит/(Пиксели*Кадры) : 0.005
Размер потока : 381 Мбайт (86%)
Библиотека кодирования : x264 core 157 r10 545de2f
Настройки программы : cabac=1 / ref=5 / deblock=1:0:0 / analyse=0x3:0x113 / me=hex / subme=8 / psy=1 / psy_rd=1.00:0.00 / mixed_ref=1 / me_range=16 / chroma_me=1 / trellis=2 / 8x8dct=1 / cqm=0 / deadzone=21,11 / fast_pskip=1 / chroma_qp_offset=-2 / threads=45 / lookahead_threads=7 / sliced_threads=0 / nr=0 / decimate=1 / interlaced=0 / bluray_compat=0 / stitchable=1 / constrained_intra=0 / bframes=3 / b_pyramid=2 / b_adapt=2 / b_bias=0 / direct=3 / weightb=1 / open_gop=0 / weightp=2 / keyint=infinite / keyint_min=59 / scenecut=40 / intra_refresh=0 / rc_lookahead=50 / rc=crf / mbtree=1 / crf=20.0 / qcomp=0.60 / qpmin=5 / qpmax=69 / qpstep=4 / vbv_maxrate=13200 / vbv_bufsize=36000 / crf_max=0.0 / nal_hrd=none / filler=0 / ip_ratio=1.40 / aq=1:1.00
Дата кодирования : UTC 2019-01-24 10:44:16
Дата пометки : UTC 2019-01-24 10:44:16
Цветовой диапазон : Limited
Основные цвета : BT.709
Характеристики трансфера : BT.709
Коэффициенты матрицы : BT.709
Codec configuration box : avcC
Аудио
Идентификатор : 2
Формат : AAC LC
Формат/Информация : Advanced Audio Codec Low Complexity
Идентификатор кодека : mp4a-40-2
Продолжительность : 59 м. 14 с.
Вид битрейта : Переменный
Битрейт : 137 Кбит/сек
Каналы : 2 канала
Channel layout : L R
Частота : 48,0 КГц
Частота кадров : 46,875 кадров/сек (1024 SPF)
Метод сжатия : С потерями
Размер потока : 58,1 Мбайт (13%)
Дата кодирования : UTC 2019-01-24 10:44:16
Дата пометки : UTC 2019-01-24 10:44:16
Скриншоты:
       

}{@R0N

Пост 03-Мар-2019 20:51

[Цитировать]

Udemy | Полный Курс Python С Нуля До Героя - Автор (режиссер): Jose Portilla
Производство: Udemy
Жанр: Программирование, Python
Описание:
Это наиболее полный курс по языку программирования Ptyhon на Udemy! Если ранее вы никогда не занимались программированием, знаете базовый синтаксис, или хотите изучить продвинутые возможности Python, то этот курс для Вас! В этом курсе мы обучим Вас обеим версиям Python (2 и 3), чтобы вы легко смогли адаптировать свои навыки к любой версии!
Продолжительность: 12:52:45
Качество видео: PCRec
Видео: AVC/H.264, 1920x1080, ~490-764 Kbps
Аудио: AAC, 2 ch, 192 Kbps

Mediainfo:

Общее
Полное имя : .\Часть 1 из 9\Python 1.mp4
Формат : MPEG-4
Профиль формата : Base Media / Version 2
Идентификатор кодека : mp42 (mp42/isom)
Размер файла : 512 Мбайт
Продолжительность : 1 ч. 20 м.
Режим общего битрейта : Переменный
Общий поток : 888 Кбит/сек
Дата кодирования : UTC 2018-07-31 12:13:02
Дата пометки : UTC 2018-07-31 12:13:02
Видео
Идентификатор : 2
Формат : AVC
Формат/Информация : Advanced Video Codec
Профиль формата : Main@L4
Настройки формата : CABAC / 3 Ref Frames
Параметр CABAC формата : Да
Параметр RefFrames формата : 3 кадра
Параметр GOP формата : M=4, N=15
Идентификатор кодека : avc1
Идентификатор кодека/Информация : Advanced Video Coding
Продолжительность : 1 ч. 20 м.
Продолжительность оригинала : 1 ч. 20 м.
Вид битрейта : Переменный
Битрейт : 693 Кбит/сек
Максимальный битрейт : 768 Кбит/сек
Ширина : 1920 пикселей
Высота : 1080 пикселей
Соотношение сторон : 16:9
Режим частоты кадров : Постоянный
Частота кадров : 15,015 кадров/сек
Стандарт вещания : NTSC
Цветовое пространство : YUV
Субдискретизация насыщенности : 4:2:0
Битовая глубина : 8 бит
Тип развёртки : Прогрессивная
Бит/(Пиксели*Кадры) : 0.022
Размер потока : 399 Мбайт (78%)
Размер потока оригинала : 399 Мбайт (78%)
Язык : English
Дата кодирования : UTC 2018-07-31 12:13:02
Дата пометки : UTC 2018-07-31 12:13:02
Цветовой диапазон : Limited
Codec configuration box : avcC
Аудио
Идентификатор : 1
Формат : AAC LC
Формат/Информация : Advanced Audio Codec Low Complexity
Идентификатор кодека : mp4a-40-2
Продолжительность : 1 ч. 20 м.
Вид битрейта : Постоянный
Битрейт : 192 Кбит/сек
Каналы : 2 канала
Channel layout : L R
Частота : 44,1 КГц
Частота кадров : 43,066 кадра/сек (1024 SPF)
Метод сжатия : С потерями
Размер потока : 111 Мбайт (22%)
Язык : English
Дата кодирования : UTC 2018-07-31 12:13:02
Дата пометки : UTC 2018-07-31 12:13:02
Скриншоты:
       

}{@R0N

Пост 03-Мар-2019 20:51

[Цитировать]

Александр Васько | Java. От простого к сложному. - Автор (режиссер): Александр Васько
Производство: Udemy
Жанр: Программирование, Java
Описание:
С помощью данного курса вы сможете усвоить основные концепции самого популярного на данный момент объектно-ориентированного языка программирования. В процессе прохождения курса вы изучите принципы ООП, научитесь работать с коллекциями, усвоите основы многопоточности, поймете, как устроены Лямбда-выражения.
Продолжительность: 33:13:48
Качество видео: PCRec
Видео: AVC/H.264, 1920x1080, ~1029 Kbps
Аудио: AAC, 2 ch, 128 Kbps

Mediainfo:

Общее
Полное имя : 1. Установка Java JDK и Intellij Idea.mp4
Формат : MPEG-4
Профиль формата : Base Media
Идентификатор кодека : isom (isom/iso2/avc1/mp41)
Размер файла : 134 Мбайт
Продолжительность : 12 м. 39 с.
Общий поток : 1478 Кбит/сек
Программа кодирования : Lavf58.12.100
Видео
Идентификатор : 1
Формат : AVC
Формат/Информация : Advanced Video Codec
Профиль формата : Main@L4
Настройки формата : CABAC / 4 Ref Frames
Параметр CABAC формата : Да
Параметр RefFrames формата : 4 кадра
Идентификатор кодека : avc1
Идентификатор кодека/Информация : Advanced Video Coding
Продолжительность : 12 м. 39 с.
Битрейт : 1341 Кбит/сек
Номинальный битрейт : 5000 Кбит/сек
Ширина : 1920 пикселей
Высота : 1080 пикселей
Соотношение сторон : 16:9
Режим частоты кадров : Постоянный
Частота кадров : 30,000 кадров/сек
Цветовое пространство : YUV
Субдискретизация насыщенности : 4:2:0
Битовая глубина : 8 бит
Тип развёртки : Прогрессивная
Бит/(Пиксели*Кадры) : 0.022
Размер потока : 121 Мбайт (91%)
Библиотека кодирования : x264 core 148
Настройки программы : cabac=1 / ref=3 / deblock=1:-1:-1 / analyse=0x1:0x111 / me=umh / subme=6 / psy=1 / psy_rd=1.00:0.15 / mixed_ref=1 / me_range=16 / chroma_me=1 / trellis=1 / 8x8dct=0 / cqm=0 / deadzone=21,11 / fast_pskip=1 / chroma_qp_offset=-3 / threads=24 / lookahead_threads=4 / sliced_threads=0 / nr=0 / decimate=1 / interlaced=0 / bluray_compat=0 / constrained_intra=0 / bframes=3 / b_pyramid=2 / b_adapt=1 / b_bias=0 / direct=1 / weightb=1 / open_gop=0 / weightp=2 / keyint=60 / keyint_min=6 / scenecut=0 / intra_refresh=0 / rc_lookahead=60 / rc=cbr / mbtree=1 / bitrate=5000 / ratetol=1.0 / qcomp=0.60 / qpmin=0 / qpmax=69 / qpstep=4 / vbv_maxrate=5000 / vbv_bufsize=10000 / nal_hrd=none / filler=0 / ip_ratio=1.40 / aq=1:1.00
Codec configuration box : avcC
Аудио
Идентификатор : 2
Формат : AAC LC
Формат/Информация : Advanced Audio Codec Low Complexity
Идентификатор кодека : mp4a-40-2
Продолжительность : 12 м. 39 с.
Вид битрейта : Постоянный
Битрейт : 128 Кбит/сек
Каналы : 2 канала
Channel layout : L R
Частота : 44,1 КГц
Частота кадров : 43,066 кадра/сек (1024 SPF)
Метод сжатия : С потерями
Размер потока : 11,6 Мбайт (9%)
Default : Да
AlternateGroup/String : 1

Продолжение описания:

Мы с Вами так же научимся работать с файлами и познакомимся с некоторыми другими темами. Курс построен таким образом, что вы можете проходить разделы независимо друг от друга. Большинство разделов устроены так, что первые несколько видео рассказывают основы, а последние дают углубленное понимание темы. Материал подается с целью дать достаточно глубокое понимание темы, чтобы студент мог внятно отвечать на поставленные вопросы в процессе прохождения собеседования.

Содержание:

1) Подготовка рабочей среды. 37:23
• Установка Java JDK и Intellij Idea (Опционально). 12:39
• Создание первой программы - HelloWorld. 24:44
2) Базовые конструкции языка Java. 03:59:59
• Примитивные типы данных 09:55
• Переменные в Java. Часть 1. 19:24
• Переменные в Java. Часть 2. 20:43
• Приведение типов данных. 19:27
• Операторы языка Java. Часть 1. 26:16
• Операторы языка Java. Часть 2. 22:07
• Условные операторы if - else 18:25
• Циклический оператор While 17:34
• Циклический оператор for 11:16
• Оператор Switch 23:09
• Методы в Java. 24:38
• Работа с типом String 26:31
• Домашнее задание по первому модулю 00:34
3) Основы ООП. Часть 1. 02:29:11
• Линк на GitHub с примерами из лекций. 00:03
• Классы и объекты 12:50
• Методы get() и set() 16:01
• Ключевое слово static. Статические поля и методы. 20:50
• Модификаторы доступа. 23:54
• Константы. Перечисления (Enum) 19:43
• Перечисления. Часть 2. 11:59
• Конструкторы классов. Ключевое слово import. 25:19
• Конструкторы. Часть 2. Инициализация объектов. 18:32
4) ООП. Часть 2. 03:22:52
• Наследование. Часть 1. 20:39
• Наследование. Часть 2. 22:58
• Наследование. Часть 3. 20:20
• Композиция 21:14
• Полиморфизм 15:11
• Абстрактные классы 17:18
• Интерфейсы. Часть 1. 24:17
• Интерфейсы. Часть 2. 12:23
• Вложенные (Nested) классы. 23:05
• Локальные и анонимные классы 25:27
5) Обработка исключений (Exception handling) 01:25:15
• Основы. try-catch блоки. 22:50
• Checked vs. Unchecked исключения. 25:52
• Блок finally. Подавление исключений. 21:33
• Создание классов исключений. Try-with-resources. 15:00
6) Коллекции в Java 07:56:44
• Одномерный массив 14:51
• Сортировка одномерного массива. 15:59
• Индексы массивов. 17:04
• Двумерные массивы. 20:32
• Динамический массив (ArrayList). Часть 1. 21:03
• Динамический массив (ArrayList). Часть 2. 23:03
• Динамический массив (ArrayList). Часть 3. 19:43
• Связный список. Часть 1. 15:09
• Связный список. Часть 2. 17:55
• Интерфейс Collection и его наследники. 22:52
• Класс Collection. Часть 1. Интерфейс Comparable. 24:12
• Класс Collection. Часть 2. Интерфейс Comparator. 23:45
• Класс Collection. Часть 3. Дополнительные методы (опционально). 31:01
• Класс Stack. 11:03
• Интерфейс Queue. Класс Priority Queue. 17:41
• Интерфейс Deque. 08:43
• Интерфейс Set. 10:13
• Класс HashSet. Метод equals. 22:24
• Методы equals и hashCode. 15:00
• Операции с множествами. 13:57
• Класс TreeSet 25:00
• Интерфейс Map. 14:28
• Класс HashMap. Часть 1. 22:17
• Класс HashMap. Часть 2. 17:02
• Класс TreeMap. Часть 1. 18:12
• Класс TreeMap. Часть 2 13:35
7) Работа с файлами в Java. Потоки ввода-вывода. 04:41:19
• Запись в файл с помощью FileWriter класса. 17:02
• Чтение из файла с помощью класса FileReader. 14:46
• Байтовый поток (ByteStream). 14:34
• Сохранение объектов используя ObjectOutputStream. Часть 1. 16:44
• Сохранение объектов используя ObjectOutputStream. Часть 2. 20:37
• Использование java.io.File для работы с файлами. 18:19
• Работа с Java NIO. Классы Paths и Files. 25:29
• Чтение и запись файлов с помощью Java NIO 21:42
• Java NIO Каналы и Буферы. Часть 1. 17:13
• Java NIO Каналы и Буферы. Часть 2. 16:11
• Работа с файлами со случайным доступом (Random Access files). 18:37
• Работа с директориями. 16:24
• Атрибуты файла. 24:39
• Файл визитор. 25:12
• Рекурсивное копирование файлов. 13:50
8) Параметризированные (generic) типы в Java. 01:15:05
• Зачем нужны generic типы? 10:54
• Параметризованные методы. 14:11
• Наследование параметризованных типов. 19:20
• Подстановка (wildcarding) типов. 30:40
9) Лямбда выражения (Lambda-expressions) и стримы (Streams) 04:19:48
• Lambda-expressions. Основы, синтаксис. 22:43
• Функциональные интерфейсы в Lambda выражениях. 28:57
• Method reference. 16:27
• Область видимости переменных в Lambda. 11:14
• Интерфейсы пакета java.util.Function. Predicate, Function, etc. 34:06
• Static и default методы в интерфейсах. 19:49
• Функции высшего порядка. 27:18
• Обзор интерфейса Stream. 20:34
• Методы интерфейса стрим. Часть 1. 29:24
• Методы интерфейса стрим. Часть 2. 17:42
• Parallel Stream. 31:34
10) Многопоточность (Multithreading) в Java 03:06:13
• Создание потоков. 19:09
• Ключевое слово Volatile. 15:43
• Synchronized методы и блоки. 23:08
• Daemon потоки. 22:46
• Executor service. 15:28
• Producer-consumer шаблон. 14:17
• Wait и Notify методы. 15:59
• ReentrantLock класс. 20:26
• Класс Semaphore. 19:53
• Интерфейсы Callable and Future 19:24
Скриншоты:
       

}{@R0N

Пост 26-Фев-2019 18:49

[Цитировать]

Джама Джурабаев | Руководство по Grease Pencil в Blender / Blender Grease Pencil Tutorial (2018) - Автор (режиссер): Джама Джурабаев / Jama Jurabaev
Производство: Gumroad
Жанр: 3D моделирование, Рисование, Blender, Grease Pencil
Описание:
Это руководство охватывает различные методы работы с Grease Pencil в Blender, которые я использую, чтобы ускорить мой 2D-3D рабочий процесс.
Я использую Grease Pencil в моей профессиональной работе над фильмами в течение довольно долгого времени.
И это ПОТРЯСАЮЩИЙ инструмент.
Продолжительность: 01:42:35
Качество видео: PCRec
Перевод: Отсутствует
Язык озвучки: Английский
Видео: AVC/H.264, 1920x1080, ~2094 Kbps
Аудио: AAC, 2 ch, 192 Kbps, VBR

Mediainfo:

Код:
General
Complete name                            : С:\Torrents\Jama Jurabaev - Blender Grease Pencil Tutorial\02_GreasePencils_Intro.mp4
Format                                   : MPEG-4
Codec ID                                 : M4V
File size                                : 332 MiB
Duration                                 : 20mn 19s
Overall bit rate mode                    : Variable
Overall bit rate                         : 2 286 Kbps
Encoded date                             : UTC 2018-09-05 21:30:23
Tagged date                              : UTC 2018-09-05 21:30:26
©TIM                                     : 00:00:00:00
©TSC                                     : 30
©TSZ                                     : 1
Video
ID                                       : 1
Format                                   : AVC
Format/Info                              : Advanced Video Codec
Format profile                           : [url=mailto:Main@L4.1]Main@L4.1[/url]
Format settings, CABAC                   : No
Format settings, ReFrames                : 2 frames
Format settings, GOP                     : M=1, N=30
Codec ID                                 : avc1
Codec ID/Info                            : Advanced Video Coding
Duration                                 : 20mn 19s
Bit rate                                 : 2 094 Kbps
Width                                    : 1 920 pixels
Height                                   : 1 080 pixels
Display aspect ratio                     : 16:9
Frame rate mode                          : Constant
Frame rate                               : 30.000 fps
Standard                                 : NTSC
Color space                              : YUV
Chroma subsampling                       : 4:2:0
Bit depth                                : 8 bits
Scan type                                : Progressive
Bits/(Pixel*Frame)                       : 0.034
Stream size                              : 304 MiB (92%)
Language                                 : English
Encoded date                             : UTC 2018-09-05 21:30:23
Tagged date                              : UTC 2018-09-05 21:30:23
Color primaries                          : BT.709
Transfer characteristics                 : BT.709
Matrix coefficients                      : BT.709
Audio
ID                                       : 2
Format                                   : AAC
Format/Info                              : Advanced Audio Codec
Format profile                           : LC
Codec ID                                 : 40
Duration                                 : 20mn 19s
Source duration                          : 20mn 19s
Bit rate mode                            : Variable
Bit rate                                 : 192 Kbps
Maximum bit rate                         : 290 Kbps
Channel(s)                               : 2 channels
Channel positions                        : Front: L R
Sampling rate                            : 48.0 KHz
Compression mode                         : Lossy
Stream size                              : 27.5 MiB (8%)
Source stream size                       : 27.5 MiB (8%)
Language                                 : English
Encoded date                             : UTC 2018-09-05 21:30:23
Tagged date                              : UTC 2018-09-05 21:30:23

Дополнительная информация:

Если вы пытаетесь ускорить свой 2D-рабочий процесс, например, используя 3D-блоки для перспективы или 3D-манекены для референсов, Grease Pencil поможет вам.
Если вы пытаетесь рисовать поверх своих проектов, чтобы ускорить работу в 3D, Grease Pencil - это то, что вам нужно.
Это инструмент который плавно закрывает пробел между работой в 2D и 3D.
Темы:
- Основы Grease Pencil
- Штрихи Grease Pencil
- Использование дополниния boxcutter с Grease Pencil
- Режим скульпинга для Grease Pencil
- Использование манекена как референса позы
- Комбинация Mixamo + Grease Pencil
- Ортогональная проекция Grease Pencil

Трейлер:

Скриншоты:
       

Дополнительные скриншоты:

       
       
     

}{@R0N

Пост 25-Фев-2019 10:02

[Цитировать]

Илья Зернов | Всё о Premiere Pro за 10 часов - Автор (режиссер): Илья Зернов
Жанр: Обработка и монтаж видео
Описание:
Курс по Premiere Pro от Илья Зернов.
Инструменты и хоткеи. Звук. Монтаж Визуальные эффекты. Цветокоррекция
Продолжительность: 11:08:13
Качество видео: PCRec
Видео: AVC/H.264, 1804x1080, ~930 Kbps
Аудио: AAC, 2 ch, 137 Kbps

Mediainfo:

Код:
Общее
Полное имя                               : E:\photo\Илья Зернов - Всё о Premiere Pro за 10 часов (2018)\Часть 3\029 Работа со звуком. Audio Gain.mp4
Формат                                   : MPEG-4
Профиль формата                          : Base Media / Version 2
Идентификатор кодека                     : mp42 (mp42/mp41/isom/avc1)
Размер файла                             : 62,2 Мбайт
Продолжительность                        : 8 м. 7 с.
Режим общего битрейта                    : Переменный
Общий поток                              : 1071 Кбит/сек
Дата кодирования                         : UTC 2018-12-02 11:44:03
Дата пометки                             : UTC 2018-12-02 11:44:03
Видео
Идентификатор                            : 1
Формат                                   : AVC
Формат/Информация                        : Advanced Video Codec
Профиль формата                          : High@L4
Настройки формата                        : CABAC / 5 Ref Frames
Параметр CABAC формата                   : Да
Параметр RefFrames формата               : 5 кадров
Идентификатор кодека                     : avc1
Идентификатор кодека/Информация          : Advanced Video Coding
Продолжительность                        : 8 м. 7 с.
Битрейт                                  : 930 Кбит/сек
Ширина                                   : 1804 пикселя
Высота                                   : 1080 пикселей
Соотношение сторон                       : 5:3
Режим частоты кадров                     : Постоянный
Частота кадров                           : 25,000 кадров/сек
Цветовое пространство                    : YUV
Субдискретизация насыщенности            : 4:2:0
Битовая глубина                          : 8 бит
Тип развёртки                            : Прогрессивная
Бит/(Пиксели*Кадры)                      : 0.019
Размер потока                            : 54,0 Мбайт (87%)
Библиотека кодирования                   : x264 core 157 r10 545de2f
Настройки программы                      : cabac=1 / ref=5 / deblock=1:0:0 / analyse=0x3:0x113 / me=hex / subme=8 / psy=1 / psy_rd=1.00:0.00 / mixed_ref=1 / me_range=16 / chroma_me=1 / trellis=2 / 8x8dct=1 / cqm=0 / deadzone=21,11 / fast_pskip=1 / chroma_qp_offset=-2 / threads=34 / lookahead_threads=5 / sliced_threads=0 / nr=0 / decimate=1 / interlaced=0 / bluray_compat=0 / stitchable=1 / constrained_intra=0 / bframes=3 / b_pyramid=2 / b_adapt=2 / b_bias=0 / direct=3 / weightb=1 / open_gop=0 / weightp=2 / keyint=infinite / keyint_min=25 / scenecut=40 / intra_refresh=0 / rc_lookahead=50 / rc=crf / mbtree=1 / crf=20.0 / qcomp=0.60 / qpmin=5 / qpmax=69 / qpstep=4 / vbv_maxrate=5500 / vbv_bufsize=15000 / crf_max=0.0 / nal_hrd=none / filler=0 / ip_ratio=1.40 / aq=1:1.00
Дата кодирования                         : UTC 2018-12-02 11:44:03
Дата пометки                             : UTC 2018-12-02 11:44:03
Цветовой диапазон                        : Limited
Основные цвета                           : BT.709
Характеристики трансфера                 : BT.709
Коэффициенты матрицы                     : BT.709
Аудио
Идентификатор                            : 2
Формат                                   : AAC
Формат/Информация                        : Advanced Audio Codec
Профиль формата                          : LC
Идентификатор кодека                     : mp4a-40-2
Продолжительность                        : 8 м. 7 с.
Вид битрейта                             : Переменный
Битрейт                                  : 137 Кбит/сек
Каналы                                   : 2 канала
Расположение каналов                     : Front: L R
Частота                                  : 48,0 КГц
Частота кадров                           : 46,875 кадров/сек (1024 SPF)
Метод сжатия                             : С потерями
Размер потока                            : 7,96 Мбайт (13%)
Дата кодирования                         : UTC 2018-12-02 11:44:03
Дата пометки                             : UTC 2018-12-02 11:44:03

Состав курса

1.Primere по вкладочкам
2.Монтаж
3.Работа со звуком
4.Работа с эффектами
5.Цвет, рендер, экспорт

Вы научитесь:

Premiere Pro CC подходит для монтажа материала, снятого на любую камеру: будь то видео с телефона или же 4K футажи с Arri или Red.
Плюс в премьере вы можете исправлять косяки по звуку, стабилизировать видео и создавать титры. Можете даже цветкорить. (тише-тише, фанаты Davinci — идите на страничку с другим курсом, не переживайте только
В общем, зная все тонкости работы в Premiere, вы можете загрузить весь свой материал и смонтировать фильм, рекламу или музыкальный клип.
“Да, многие видеографы отдают предпочтение премьеру потому что не нужно прыгать из программы в программу. Если вам не нужна сложная компьютерная графика уровня Трансформеров. Вы не занимаетесь цветокоррекцией профессионально, то ваш проект можно сделать в Premiere”.
— Александр Амбалов, цветокорректор, преподаватель и один из основателей Amlab.me
Но есть и обратная сторона всего этого многообразия.
Для того, чтобы Premiere стал программой с действительно широкими возможностями, адобовцы запихнули в него бесчисленное количество кнопочек, крутилочек, колёсиков, окошек. — В общем, черт ногу сломит!
А чтобы самостоятельно разобраться в них, нужно безвылазно просидеть над программой не одну бессонную неделю.
Поэтому мы решили сделать для вас этот курс — пошаговую инструкцию к Adobe Premiere Pro. Он состоит из уроков, длиной 5-10 минут и в каждом из них мы разбираем конкретные приёмы.
Мы собрали их в последовательность, пройдя которую с Premiere сможет разобраться даже ребенок.
Для создания такого курса мы пригласили гуру Premiere Pro —Илью Зернова. Потому что он сам много лет работает в Premiere над фильмами, телепередачами и потому что задрот.
Он и вам расскажет, как работает каждый инструмент Premiere Pro:
● Вы разберетесь с настройками таймлайна, импорта-экспорта,
● В форматах видео и секвенциях.
● Узнаете новые техники монтажа. Илья расскажет, что такое трехточечный монтаж, межкадровая интерполяция. Научит фишкам по изменению скорости, Time mapping работе с мультикамом.
● Вы освоите как базовую, так и многоканальную работу со звуком. Научитесь управлять громкостью, применять звуковые эффекты, чтобы ваши видео были атмосферными. Узнаете как улучшать качество звучания и тем самым спасти материал. Узнаете, что такое Audio track mixer и Submix Track.
● Дальше мы перейдем к блоку работы с эффектами. И вы научитесь делать “также как те чуваки замутили в After Effects”, только просто и в Premiere. Мы покажем как работать с масками и трекером. Как стабилизировать видео и делать титры. И как делать классные переходы прямо в рамках Premiere, без покупки дополнительных плагинов.
Ну и в качестве вишенки на торте, мы покажем как работать с инструментами цветокоррекции в Premiere, чтобы дальше вы уже могли цветкорить по хардкору, переходя к нашим Практикам цветокоррекции в Premiere Pro.
В результате, вы узнаете инструменты, фишки и хитрости Premiere Pro.
Сможете работать с ними быстро, чувствуя себя прокаченным молодцом, хакнувшим систему.
Полный список всех полезностей, которые вы освоите, смотрите ниже в уроках к курсу.
Курс длится чуть больше 10 часов.
Кажется, — много. Но по факту, это всего лишь полчаса по будням, и через месяц — вы мастер премьера.
Чем раньше начнете, тем раньше в вашем портфолио появятся проекты-конфетки.
Скриншоты:
       

}{@R0N

Пост 24-Фев-2019 19:19

[Цитировать]

Александр Куртеев | Joomla - Марафон- Автор (режиссер): Александр Куртеев
Жанр: Программирование, Joomla,Web
Описание:
Не знаете с чего начать создание сайта?
Не знаете с чего начать и что делать шаг за шагом.
Хотите выбрать движок для сайта и не пожалеть в будущем.
Не имеете четкого видения сайта и как он будет приносить доход.
Хотите узнать как работать с CMS и создать сайт.
7-ми дневный онлайн интенсив курс от Александра Куртеева
Продолжительность: 16:00:00
Качество видео: CamRip
Видео: AVC/H.264, 1280x720, ~271 Kbps
Аудио: AAC, 2 ch, 105-192 Kbps

Mediainfo:

Общее
Полное имя : Joomla! Марафон.mp4
Формат : MPEG-4
Профиль формата : Base Media / Version 2
Идентификатор кодека : mp42 (isom/mp42)
Размер файла : 394 Мбайт
Продолжительность : 2 ч. 17 м.
Режим общего битрейта : Переменный
Общий поток : 400 Кбит/сек
Дата кодирования : UTC 2017-02-27 19:26:12
Дата пометки : UTC 2017-02-27 19:26:12
gsst : 0
gstd : 8256249
Видео
Идентификатор : 1
Формат : AVC
Формат/Информация : Advanced Video Codec
Профиль формата : [url=mailto:Main@L3.1]Main@L3.1[/url]
Настройки формата : CABAC / 3 Ref Frames
Параметр CABAC формата : Да
Параметр RefFrames формата : 3 кадра
Идентификатор кодека : avc1
Идентификатор кодека/Информация : Advanced Video Coding
Продолжительность : 2 ч. 17 м.
Битрейт : 271 Кбит/сек
Ширина : 1280 пикселей
Высота : 720 пикселей
Соотношение сторон : 16:9
Режим частоты кадров : Постоянный
Частота кадров : 30,000 кадров/сек
Цветовое пространство : YUV
Субдискретизация насыщенности : 4:2:0
Битовая глубина : 8 бит
Тип развёртки : Прогрессивная
Бит/(Пиксели*Кадры) : 0.010
Размер потока : 266 Мбайт (68%)
Заголовок : ISO Media file produced by Google Inc.
Дата кодирования : UTC 2017-02-27 19:26:12
Дата пометки : UTC 2017-02-27 19:26:12
Цветовой диапазон : Limited
Основные цвета : BT.709
Характеристики трансфера : BT.709
Коэффициенты матрицы : BT.709
Codec configuration box : avcC
Аудио
Идентификатор : 2
Формат : AAC LC
Формат/Информация : Advanced Audio Codec Low Complexity
Идентификатор кодека : mp4a-40-2
Продолжительность : 2 ч. 17 м.
Вид битрейта : Переменный
Битрейт : 126 Кбит/сек
Каналы : 2 канала
Channel layout : L R
Частота : 44,1 КГц
Частота кадров : 43,066 кадра/сек (1024 SPF)
Метод сжатия : С потерями
Размер потока : 124 Мбайт (31%)
Заголовок : ISO Media file produced by Google Inc.
Дата кодирования : UTC 2017-02-27 19:26:12
Дата пометки : UTC 2017-02-27 19:26:12
Скриншоты:
       

}{@R0N

Пост 24-Фев-2019 19:18

[Цитировать]

Антон Жабин | Как поставить свет для кино и видеосъемки- Автор (режиссер): Антон Жабин
Жанр: Съемка
Описание:
Курс для тех, кто хочет научиться ставить киношный свет, но не знает с чего начать. Для тех видеографов, которые хотят стать профессиональными операторами-постановщиками и двигаться в рекламный и кинобизнес.
Продолжительность: 02:05:33
Качество видео: PCRec
Видео: AVC/H.264, 1280x720, ~12,0 Mbps
Аудио: AAC, 2 ch, 128 Kbps

Mediainfo:

Код:
Общее
Полное имя                               : E:\photo\Антон Жабин - Как поставить свет для кино и видеосъемки (2018)\Часть 1.mp4
Формат                                   : MPEG-4
Профиль формата                          : Base Media / Version 2
Идентификатор кодека                     : mp42 (mp41/mp42/isom)
Размер файла                             : 3,09 Гбайт
Продолжительность                        : 36 м. 23 с.
Режим общего битрейта                    : Переменный
Общий поток                              : 12,2 Мбит/сек
Название фильма                          : Мой фильм 3
Movie_More                               : Part 1
Дата кодирования                         : UTC 2018-11-15 12:16:58
Дата пометки                             : UTC 2018-11-15 12:24:06
thmb                                     : яШяа
Видео
Идентификатор                            : 2
Формат                                   : AVC
Формат/Информация                        : Advanced Video Codec
Профиль формата                          : [url=mailto:High@L3.1]High@L3.1[/url]
Настройки формата                        : CABAC / 2 Ref Frames
Параметр CABAC формата                   : Да
Параметр RefFrames формата               : 2 кадра
Параметр GOP формата                     : M=1, N=30
Идентификатор кодека                     : avc1
Идентификатор кодека/Информация          : Advanced Video Coding
Продолжительность                        : 36 м. 23 с.
Вид битрейта                             : Переменный
Битрейт                                  : 12,0 Мбит/сек
Максимальный битрейт                     : 768 Кбит/сек
Ширина                                   : 1280 пикселей
Высота                                   : 720 пикселей
Соотношение сторон                       : 16:9
Режим частоты кадров                     : Постоянный
Частота кадров                           : 23,976 (24000/1001) кадра/сек
Цветовое пространство                    : YUV
Субдискретизация насыщенности            : 4:2:0
Битовая глубина                          : 8 бит
Тип развёртки                            : Прогрессивная
Бит/(Пиксели*Кадры)                      : 0.545
Размер потока                            : 3,06 Гбайт (99%)
Заголовок                                : Core Media Video
Дата кодирования                         : UTC 2018-11-15 12:16:58
Дата пометки                             : UTC 2018-11-15 12:24:06
Цветовой диапазон                        : Limited
Основные цвета                           : BT.709
Характеристики трансфера                 : BT.709
Коэффициенты матрицы                     : BT.709
Аудио
Идентификатор                            : 1
Формат                                   : AAC
Формат/Информация                        : Advanced Audio Codec
Профиль формата                          : LC
Идентификатор кодека                     : mp4a-40-2
Продолжительность                        : 36 м. 23 с.
Продолжительность оригинала              : 36 м. 23 с.
Вид битрейта                             : Постоянный
Битрейт                                  : 128 Кбит/сек
Каналы                                   : 2 канала
Расположение каналов                     : Front: L R
Частота                                  : 48,0 КГц
Частота кадров                           : 46,875 кадров/сек (1024 SPF)
Метод сжатия                             : С потерями
Размер потока                            : 32,8 Мбайт (1%)
Размер потока оригинала                  : 32,8 Мбайт (1%)
Заголовок                                : Core Media Audio
Язык                                     : Russian
Дата кодирования                         : UTC 2018-11-15 12:16:58
Дата пометки                             : UTC 2018-11-15 12:24:06

Вы научитесь

  • Разбираться в световых приборах и аксессуарах;
  • Подбирать технику под задачу;
  • Выставлять следующие световые схемы на примере мужского и женского портрета: рисующий, заполняющий, контровой, светотональный и фоновый;
  • Узнаете, как имитировать солнечный дневной или пасмурный свет в темной студии;
  • Узнаете, что такое металлогалоген, лампы накаливания, грипы, фросты, рамы и как их использовать;
  • Узнаете какие альтернативные приборы существуют, чтобы проще находить решения задач по постановке света;
  • Увидите, как ставить свет для съемок женского и мужского портрета;
  • Научитесь ставить свет, чтобы передать: жаркий летний день, пасмурный день, вечерний свет и теплый вечерний свет;
  • Поймете алгоритм выставления света под любую задачу.
Скриншоты:
       
 

Текущее время: Сегодня 14:40

Часовой пояс: GMT + 3