Today is a free download without charge Download

Search found 500 matches

Author Message

Clavik

Post 14-Sep-2019 19:12

[Quote]

ProfIT | Про TDD, BDD и вот это всё (2019) PCRec [H.264/1080p-LQ] - Автор (режиссер): Ульянов Максим
Производство: ProfIT
Жанр: Тестирование
Описание:
Поговорим о том что такое тестирование и почему мы – фронтенд разработчики - должны это делать. Разберем типы тестов, когда они нужны, а когда не обязательны. Посмотрим на основные инструменты для тестирования и определим их области применения. Научимся писать тестовые сценарии и автоматизировать процесс на практике.
Продолжительность: 02:31:42
Качество видео: PCRec
Видео: AVC/H.264, 1920x1080, 393 Kbps
Аудио: AAC, 2 ch, 137 Kbps

MediaInfo:

Общее
Полное имя : .\Запись вебинара.mp4
Формат : MPEG-4
Профиль формата : Base Media / Version 2
Идентификатор кодека : mp42 (mp42/mp41/isom/avc1)
Размер файла : 580 Мбайт
Продолжительность : 2 ч. 31 м.
Режим общего битрейта : Переменный
Общий поток : 534 Кбит/сек
Дата кодирования : UTC 2019-05-23 07:40:35
Дата пометки : UTC 2019-05-23 07:40:35
Видео
Идентификатор : 1
Формат : AVC
Формат/Информация : Advanced Video Codec
Профиль формата : High@L4
Настройки формата : CABAC / 5 Ref Frames
Параметр CABAC формата : Да
Параметр RefFrames формата : 5 кадров
Идентификатор кодека : avc1
Идентификатор кодека/Информация : Advanced Video Coding
Продолжительность : 2 ч. 31 м.
Битрейт : 393 Кбит/сек
Ширина : 1920 пикселей
Высота : 1080 пикселей
Соотношение сторон : 16:9
Режим частоты кадров : Постоянный
Частота кадров : 29,970 (30000/1001) кадров/сек
Цветовое пространство : YUV
Субдискретизация насыщенности : 4:2:0
Битовая глубина : 8 бит
Тип развёртки : Прогрессивная
Бит/(Пиксели*Кадры) : 0.006
Размер потока : 426 Мбайт (73%)
Библиотека кодирования : x264 core 157 r10 d4099dd
Настройки программы : cabac=1 / ref=5 / deblock=1:0:0 / analyse=0x3:0x113 / me=hex / subme=8 / psy=1 / psy_rd=1.00:0.00 / mixed_ref=1 / me_range=16 / chroma_me=1 / trellis=2 / 8x8dct=1 / cqm=0 / deadzone=21,11 / fast_pskip=1 / chroma_qp_offset=-2 / threads=34 / lookahead_threads=5 / sliced_threads=0 / nr=0 / decimate=1 / interlaced=0 / bluray_compat=0 / stitchable=1 / constrained_intra=0 / bframes=3 / b_pyramid=2 / b_adapt=2 / b_bias=0 / direct=3 / weightb=1 / open_gop=0 / weightp=2 / keyint=infinite / keyint_min=29 / scenecut=40 / intra_refresh=0 / rc_lookahead=50 / rc=crf / mbtree=1 / crf=20.0 / qcomp=0.60 / qpmin=5 / qpmax=69 / qpstep=4 / vbv_maxrate=5500 / vbv_bufsize=15000 / crf_max=0.0 / nal_hrd=none / filler=0 / ip_ratio=1.40 / aq=1:1.00
Дата кодирования : UTC 2019-05-23 07:40:35
Дата пометки : UTC 2019-05-23 07:40:35
Цветовой диапазон : Limited
Основные цвета : BT.709
Характеристики трансфера : BT.709
Коэффициенты матрицы : BT.709
Codec configuration box : avcC
Аудио
Идентификатор : 2
Формат : AAC LC
Формат/Информация : Advanced Audio Codec Low Complexity
Идентификатор кодека : mp4a-40-2
Продолжительность : 2 ч. 31 м.
Вид битрейта : Переменный
Битрейт : 137 Кбит/сек
Каналы : 2 канала
ChannelLayout : L R
Частота : 48,0 КГц
Частота кадров : 46,875 кадров/сек (1024 SPF)
Метод сжатия : С потерями
Размер потока : 149 Мбайт (26%)
Дата кодирования : UTC 2019-05-23 07:40:35
Дата пометки : UTC 2019-05-23 07:40:35
Скриншоты:
       

Clavik

Post 14-Sep-2019 19:11

[Quote]

ProfIT | Введение в фреймворк Codeception (2019) PCRec [H.264] - Автор (режиссер): Степанцев Альберт
Производство: ProfIT
Жанр: Программирование, Рhp, Сodeception
Описание:
Вебинар, который позволит вам составить первое впечатление о фреймворке для тестирования Codeception и решить - пригодится ли он вам в ежедневной практике.
Продолжительность: 01:40:56
Качество видео: PCRec
Видео: AVC/H.264, 1920x1040, 608 Kbps
Аудио: AAC, 2 ch, 137 Kbps

MediaInfo:

Общее
Полное имя : .\[profit] Введение в фреймворк Codeception.mp4
Формат : MPEG-4
Профиль формата : Base Media / Version 2
Идентификатор кодека : mp42 (mp42/mp41/isom/avc1)
Размер файла : 541 Мбайт
Продолжительность : 1 ч. 40 м.
Режим общего битрейта : Переменный
Общий поток : 749 Кбит/сек
Дата кодирования : UTC 2019-06-13 19:17:33
Дата пометки : UTC 2019-06-13 19:17:33
Видео
Идентификатор : 1
Формат : AVC
Формат/Информация : Advanced Video Codec
Профиль формата : High@L4
Настройки формата : CABAC / 5 Ref Frames
Параметр CABAC формата : Да
Параметр RefFrames формата : 5 кадров
Идентификатор кодека : avc1
Идентификатор кодека/Информация : Advanced Video Coding
Продолжительность : 1 ч. 40 м.
Битрейт : 608 Кбит/сек
Ширина : 1920 пикселей
Высота : 1040 пикселей
Соотношение сторон : 1,85:1
Режим частоты кадров : Постоянный
Частота кадров : 25,934 кадров/сек
Цветовое пространство : YUV
Субдискретизация насыщенности : 4:2:0
Битовая глубина : 8 бит
Тип развёртки : Прогрессивная
Бит/(Пиксели*Кадры) : 0.012
Размер потока : 439 Мбайт (81%)
Библиотека кодирования : x264 core 157 r10 d4099dd
Настройки программы : cabac=1 / ref=5 / deblock=1:0:0 / analyse=0x3:0x113 / me=hex / subme=8 / psy=1 / psy_rd=1.00:0.00 / mixed_ref=1 / me_range=16 / chroma_me=1 / trellis=2 / 8x8dct=1 / cqm=0 / deadzone=21,11 / fast_pskip=1 / chroma_qp_offset=-2 / threads=32 / lookahead_threads=5 / sliced_threads=0 / nr=0 / decimate=1 / interlaced=0 / bluray_compat=0 / stitchable=1 / constrained_intra=0 / bframes=3 / b_pyramid=2 / b_adapt=2 / b_bias=0 / direct=3 / weightb=1 / open_gop=0 / weightp=2 / keyint=infinite / keyint_min=25 / scenecut=40 / intra_refresh=0 / rc_lookahead=50 / rc=crf / mbtree=1 / crf=20.0 / qcomp=0.60 / qpmin=5 / qpmax=69 / qpstep=4 / vbv_maxrate=5500 / vbv_bufsize=15000 / crf_max=0.0 / nal_hrd=none / filler=0 / ip_ratio=1.40 / aq=1:1.00
Дата кодирования : UTC 2019-06-13 19:17:33
Дата пометки : UTC 2019-06-13 19:17:33
Цветовой диапазон : Limited
Основные цвета : BT.709
Характеристики трансфера : BT.709
Коэффициенты матрицы : BT.709
Codec configuration box : avcC
Аудио
Идентификатор : 2
Формат : AAC LC
Формат/Информация : Advanced Audio Codec Low Complexity
Идентификатор кодека : mp4a-40-2
Продолжительность : 1 ч. 40 м.
Вид битрейта : Переменный
Битрейт : 137 Кбит/сек
Каналы : 2 канала
ChannelLayout : L R
Частота : 48,0 КГц
Частота кадров : 46,875 кадров/сек (1024 SPF)
Метод сжатия : С потерями
Размер потока : 98,9 Мбайт (18%)
Дата кодирования : UTC 2019-06-13 19:17:33
Дата пометки : UTC 2019-06-13 19:17:33
Скриншоты:
       

Clavik

Post 14-Sep-2019 19:10

[Quote]

ProfIT | MySQL 8 (2019) PCRec [H.264/720p-LQ] - Автор (режиссер): Степанцев Альберт
Производство: ProfIT
Жанр: Базы данных, Mysql
Описание:
Семинар посвящен не так давно вышедшей новой, восьмой версии популярнейшей базы данных MySQL. Что же так сильно изменилось, что потребовалось столь "круто" менять номер версии? Об это узнаете на вебинаре!
Продолжительность: 01:13:08
Качество видео: PCRec
Видео: AVC/H.264, 1280x720, 441 Kbps
Аудио: AAC, 2 ch, 253 Kbps

MediaInfo:

Общее
Полное имя : .\mysql.mp4
Формат : MPEG-4
Профиль формата : Base Media / Version 2
Идентификатор кодека : mp42 (mp42/mp41/isom/avc1)
Размер файла : 366 Мбайт
Продолжительность : 1 ч. 13 м.
Режим общего битрейта : Переменный
Общий поток : 699 Кбит/сек
Дата кодирования : UTC 2019-07-20 18:28:08
Дата пометки : UTC 2019-07-20 18:28:08
Видео
Идентификатор : 1
Формат : AVC
Формат/Информация : Advanced Video Codec
Профиль формата : [url=mailto:High@L3.2]High@L3.2[/url]
Настройки формата : CABAC / 5 Ref Frames
Параметр CABAC формата : Да
Параметр RefFrames формата : 5 кадров
Идентификатор кодека : avc1
Идентификатор кодека/Информация : Advanced Video Coding
Продолжительность : 1 ч. 13 м.
Битрейт : 441 Кбит/сек
Ширина : 1280 пикселей
Высота : 720 пикселей
Соотношение сторон : 16:9
Режим частоты кадров : Постоянный
Частота кадров : 30,000 кадров/сек
Цветовое пространство : YUV
Субдискретизация насыщенности : 4:2:0
Битовая глубина : 8 бит
Тип развёртки : Прогрессивная
Бит/(Пиксели*Кадры) : 0.016
Размер потока : 231 Мбайт (63%)
Библиотека кодирования : x264 core 157 r10 d4099dd
Настройки программы : cabac=1 / ref=5 / deblock=1:0:0 / analyse=0x3:0x113 / me=hex / subme=8 / psy=1 / psy_rd=1.00:0.00 / mixed_ref=1 / me_range=16 / chroma_me=1 / trellis=2 / 8x8dct=1 / cqm=0 / deadzone=21,11 / fast_pskip=1 / chroma_qp_offset=-2 / threads=22 / lookahead_threads=3 / sliced_threads=0 / nr=0 / decimate=1 / interlaced=0 / bluray_compat=0 / stitchable=1 / constrained_intra=0 / bframes=3 / b_pyramid=2 / b_adapt=2 / b_bias=0 / direct=3 / weightb=1 / open_gop=0 / weightp=2 / keyint=infinite / keyint_min=30 / scenecut=40 / intra_refresh=0 / rc_lookahead=50 / rc=crf / mbtree=1 / crf=20.0 / qcomp=0.60 / qpmin=5 / qpmax=69 / qpstep=4 / vbv_maxrate=2750 / vbv_bufsize=7500 / crf_max=0.0 / nal_hrd=none / filler=0 / ip_ratio=1.40 / aq=1:1.00
Дата кодирования : UTC 2019-07-20 18:28:08
Дата пометки : UTC 2019-07-20 18:28:08
Цветовой диапазон : Limited
Основные цвета : BT.709
Характеристики трансфера : BT.709
Коэффициенты матрицы : BT.709
Codec configuration box : avcC
Аудио
Идентификатор : 2
Формат : AAC LC
Формат/Информация : Advanced Audio Codec Low Complexity
Идентификатор кодека : mp4a-40-2
Продолжительность : 1 ч. 13 м.
Вид битрейта : Переменный
Битрейт : 253 Кбит/сек
Каналы : 2 канала
ChannelLayout : L R
Частота : 48,0 КГц
Частота кадров : 46,875 кадров/сек (1024 SPF)
Метод сжатия : С потерями
Размер потока : 133 Мбайт (36%)
Дата кодирования : UTC 2019-07-20 18:28:08
Дата пометки : UTC 2019-07-20 18:28:08
Скриншоты:
       

Clavik

Post 13-Sep-2019 22:13

[Quote]

Школа программирования | Python Разработка веб-приложений (2013) PCRec [H.264/720p-LQ]- Автор (режиссер): Школа программирования
Жанр: Программирование, Python
Продолжительность: 16:00:00
Качество видео: PCRec
Видеокодек: AVC
Битрейт видео: ~1677 kb/s 15,741 FPS
Размер кадра: 1280 x 720
Аудиокодек: AAC
Битрейт аудио: 256 kb/s (CBR), 2 Ch, 44100 Hz
Описание:
Курс предназначен как для начинающих программистов, так и для уже состоявшихся специалистов, желающих освоить новый язык программирования. Минимальный уровень подготовки слушателя может быть как практически нулевым, так и весьма высоким. Курс начинается с основ языка и шаг за шагом проводит слушателя по всем ступеням и особенностям Python.

Чему вы научитесь:

Разрабатывать программы на языке программирования Python
Писать программы на python как в процедурном, так и в объектно-ориентированно стиле
Разрабатывать системные скрипты
Использовать в своих скриптах стандартные и сторонние библиотеки
Использовать для установки сторонних библиотек виртуальное окружение virtualenv
Работать с файлами, базой данных MySQL и SQLite
Создавать веб-сайты на python

Программа курса:

Урок 1. Введение в программирование на языке Python
Установка и запуск интерпретатора Python
Что такое Python? Краткая история языка
Кто в настоящее время использует Python?
Cильные стороны Python
Философия Python
Версии Python 2.x и 3.x
Вычисления на Python: использование интерпретатора в качестве калькулятора
Знакомство и типами данных: числа, строки, списки, логический тип, None
Определение функций
Управление потоком выполнения: оператор if
Циклы for и while
Функции range и enumerate
Операторы break и continue
Оператор pass
Методы работы со строками
Методы работы со списками
Оператор del
Урок 2. Структуры данных
Дробные числа (Decimal и Fraction)
Дробные числа (Decimal и Fraction)
Словари (dict)
Множества (set и frozenset)
Работа с файлами - чтение, запись
Генераторы
Встроенные функции max, min, sum
Урок 3. Функциональное программирование
Ввод данных пользователем: input()
Встроенные функции: map, zip, filter, reduce
Встроенные функции: any, all
Лямбда-функции (lambda)
Функции-генераторы (yield вместо return)
Урок 4. Системное программирование
Регулярные выражения (модуль re)
Взаимодействие с операционной системой
Модули os, os.path, shutil, sys
Протоколы интернет (модуль urllib)
Урок 5. Модули, пакеты, классы и объекты
Модули
Импорт модуля (import и from)
Пространство имен модуля
Атрибуты модулей
Пакеты
Создание пакета
Классы и объекты
Синтаксис определения класса
Объекты классы
Объекты-экземпляры классов
Наследование
Метод-конструктор __init__
Множественное наследование
Приватные переменные класса
Консервация объектов. Модуль shelve
Урок 6. Декораторы, Исключения, Итераторы
Декораторы
Специальные декораторы для классов
@property, @staticmethod, @classmethod, @abstractmethod
Ошибки и исключения
Обработка исключений
Инструкция try/except
Инструкция try/else
Возбуждение исключений
Создание собственных исключений
Инструкция try/finally
Итераторы
Урок 7. Библиотеки
Работа с итераторами - itertools
Работа с коллекциями - collections
Работа с CSV
Работа с SQLite
Работа с JSON
Работа с XML
Урок 8. Django
Веб-фреймвок для перфекционистов с дедлайнами
Виртуальные окружения virtualenv
Установка pip и Django
Создание и запуск проекта
Создание блога на Django

Mediainfo:

Код:
Общее
Полное имя                               : C:\[Школа программирования] Python - Базовый курс
Формат                                   : MPEG-4
Профиль формата                          : QuickTime
Идентификатор кодека                     : qt
Размер файла                             : 374 Мбайт
Продолжительность                        : 26 м.
Режим общего битрейта                    : Переменный
Общий поток                              : 1939 Кбит/сек
Дата кодирования                         : UTC 2013-05-21 18:43:10
Дата пометки                             : UTC 2013-05-21 18:56:35
Программа кодирования                    : Mac OS X v10.8.3 (CMA 914, CM 926.87, x86_64)
Библиотека кодирования                   : Apple QuickTime
Видео
Идентификатор                            : 2
Формат                                   : AVC
Формат/Информация                        : Advanced Video Codec
Профиль формата                          : [url=mailto:Main@L3.2]Main@L3.2[/url]
Параметр CABAC формата                   : Да
Параметр ReFrames формата                : 2 кадра
Параметр GOP формата                     : M=2, N=30
Идентификатор кодека                     : avc1
Идентификатор кодека/Информация          : Advanced Video Coding
Продолжительность                        : 26 м.
Вид битрейта                             : Переменный
Битрейт                                  : 1677 Кбит/сек
Максимальный битрейт                     : 24,0 Мбит/сек
Ширина                                   : 1280 пикселей
Высота                                   : 720 пикселей
Соотношение сторон                       : 16:9
Режим частоты кадров                     : Переменный
Частота кадров                           : 15,741 кадров/сек
Частота кадров в оригинале               : 60,000 кадров/сек
Минимальная частота кадров               : 2,857 кадра/сек
Максимальная частота кадров              : 60,000 кадров/сек
Цветовое пространство                    : YUV
Субдискретизация насыщенности            : 4:2:0
Битовая глубина                          : 8 бит
Тип развёртки                            : Прогрессивная
Бит/(Пиксели*Кадры)                      : 0.116
Размер потока                            : 323 Мбайт (87%)
Заголовок                                : Core Media Video
Дата кодирования                         : UTC 2013-05-21 18:43:10
Дата пометки                             : UTC 2013-05-21 18:56:35
Основные цвета                           : BT.709
Характеристики трансфера                 : BT.709
Коэффициенты матрицы                     : BT.709
colour_range                             : Limited
Аудио
Идентификатор                            : 1
Формат                                   : AAC
Формат/Информация                        : Advanced Audio Codec
Профиль формата                          : LC
Идентификатор кодека                     : 40
Продолжительность                        : 26 м.
Продолжительность оригинала              : 26 м.
Вид битрейта                             : Постоянный
Битрейт                                  : 256 Кбит/сек
Каналы                                   : 2 канала
Расположение каналов                     : Front: L R
Частота                                  : 44,1 КГц
Метод сжатия                             : С потерями
Размер потока                            : 48,1 Мбайт (13%)
Размер потока оригинала                  : 48,1 Мбайт (13%)
Заголовок                                : Core Media Audio
Дата кодирования                         : UTC 2013-05-21 18:43:10
Дата пометки                             : UTC 2013-05-21 18:56:35
Скриншоты:
   
 

Clavik

Post 13-Sep-2019 20:32

[Quote]

скачиваю смогу раздавать до часу ночи по украинскому времени по рус вроде 2 часа ночи

Стась Богдан

Post 13-Sep-2019 10:45

[Quote]

Просто позарес нужно изучить паттерны. Срочно нужно, чтобы кто-то на ночь остался на раздаче.

WasHere Kilroy

Post 12-Sep-2019 01:20

[Quote]

Срочно нужно, чтобы кто-то на ночь остался на раздаче. Материал очень уникален, тяжело найти его в сети. Если у кого-то есть ссылка на торрент с большей раздачей, пожалуйста, отошлите в ЛС. Просто позарес нужно изучить паттерны.

Clavik

Post 13-Sep-2019 20:24

[Quote]

Специалист | Программирование на языке Python. Уровень 2. Продвинутый курс (2019) PCRec [H.264/720p-LQ]- Автор (режиссер): Игорь Олегович Борисов
Производство: https://www.specialist.ru/course/python2
Жанр: Программирование, Python
Описание:
По окончании курса Вы будете уметь:
создавать собственные классы;
оценивать сложность алгоритма;
использовать важнейшие стандартные структуры данных;
создавать собственные структуры данных на основе стандартных.
Специалисты, обладающие этими знаниями и навыками, в настоящее время крайне востребованы. Большинство выпускников наших курсов делают успешную карьеру и пользуются уважением работодателей.
Продолжительность курса - 40 ак. ч.
Эксклюзивно для nnmclub
Продолжительность: ~14:10:23
Качество видео: PCRec
Видео: AVC/H.264, 1280x720, ~228 Kbps
Аудио: AAC, 1 ch, 102 Kbps

MediaInfo:

General
Complete name : 1.mp4
Format : MPEG-4
Format profile : Base Media
Codec ID : isom (isom/iso2/avc1/mp41)
File size : 265 MiB
Duration : 1 h 50 min
Overall bit rate : 335 kb/s
Writing application : Lavf58.16.100
Video
ID : 1
Format : AVC
Format/Info : Advanced Video Codec
Format profile : [url=mailto:High@L3.2]High@L3.2[/url]
Format settings : CABAC / 5 Ref Frames
Format settings, CABAC : Yes
Format settings, ReFrames : 5 frames
Codec ID : avc1
Codec ID/Info : Advanced Video Coding
Duration : 1 h 50 min
Source duration : 1 h 50 min
Bit rate : 228 kb/s
Width : 1 280 pixels
Height : 720 pixels
Display aspect ratio : 16:9
Frame rate mode : Variable
Frame rate : 20.441 FPS
Minimum frame rate : 0.417 FPS
Maximum frame rate : 51 121.000 FPS
Color space : YUV
Chroma subsampling : 4:2:0
Bit depth : 8 bits
Scan type : Progressive
Bits/(Pixel*Frame) : 0.012
Stream size : 181 MiB (68%)
Source stream size : 181 MiB (68%)
Writing library : x264 core 157 r10 d4099dd
Encoding settings : cabac=1 / ref=5 / deblock=1:0:0 / analyse=0x3:0x113 / me=hex / subme=8 / psy=1 / psy_rd=1.00:0.00 / mixed_ref=1 / me_range=16 / chroma_me=1 / trellis=2 / 8x8dct=1 / cqm=0 / deadzone=21,11 / fast_pskip=1 / chroma_qp_offset=-2 / threads=22 / lookahead_threads=3 / sliced_threads=0 / nr=0 / decimate=1 / interlaced=0 / bluray_compat=0 / stitchable=1 / constrained_intra=0 / bframes=3 / b_pyramid=2 / b_adapt=2 / b_bias=0 / direct=3 / weightb=1 / open_gop=0 / weightp=2 / keyint=infinite / keyint_min=20 / scenecut=40 / intra_refresh=0 / rc_lookahead=50 / rc=crf / mbtree=1 / crf=20.0 / qcomp=0.60 / qpmin=5 / qpmax=69 / qpstep=4 / vbv_maxrate=2750 / vbv_bufsize=7500 / crf_max=0.0 / nal_hrd=none / filler=0 / ip_ratio=1.40 / aq=1:1.00
Color range : Limited
Color primaries : BT.709
Transfer characteristics : BT.709
Matrix coefficients : BT.709
Codec configuration box : avcC
Audio
ID : 2
Format : AAC LC
Format/Info : Advanced Audio Codec Low Complexity
Codec ID : mp4a-40-2
Duration : 1 h 50 min
Bit rate mode : Constant
Bit rate : 102 kb/s
Channel(s) : 1 channel
Channel layout : C
Sampling rate : 48.0 kHz
Frame rate : 46.875 FPS (1024 SPF)
Compression mode : Lossy
Stream size : 80.9 MiB (30%)
Default : Yes
Alternate group : 1

Дополнительная информация:

В раздачи присутствуют все необходимые файлы для обучения, в том числе и лабораторные занятия,
ссылка на конспект от Борисова находиться в файле link.txt
Модуль 1. Понятие класса. Инкапсуляция
Класс и экземпляр класса.
Данные экземпляра, методы экземпляра и свойства экземпляра.
Понятие атрибута.
Практикум: Создание класса и его экземпляров.
Модуль 2. Наследование
Принцип утиной типизации.
Понятия базового класса и производного класса.
Функция isinstance и ее применение.
Практикум: Создание производного класса, применение экземпляров базового и производного класса.
Модуль 3. Полиморфизм и абстракция
Подмена методов в производном классе.
Понятие абстрактного класса.
Практикум: Применение полиморфных классов.
Модуль 4. Практическая работа
Модуль 5. Алгоритмы сортировки и поиска
Основные алгоритмы сортировки и поиска.
Понятие сложности алгоритма.
Практикум. Поиск информации по заданному критерию.
Модуль 6. Алгоритмы поиска на графах
Поиск в ширину.
Поиск в глубину.
Практикум. Построение пути в графе.
Модуль 7. Структуры данных
Понятие о структуре данных.
Список и запись как основные структуры данных.
Таблица и другие практически важные структуры данных.
Практикум. Представление записей и таблиц в программе на языке Python.
Модуль 8. Стандартные абстрактные типы данных
Контейнерные типы.
Библиотечные модули collections и collections.abc
Практикум. Схема «Компонент-Контейнер» и ее применение.
Модуль 9. Хранение данных вне программы
Сохранение и восстановление данных. Библиотечный модуль pickle.
Понятие об объектно-реляционном соответствии.
Практикум. Применение модуля pickle для хранения и передачи данных.
Модуль 10. Практическая работа
Скриншоты:
       

Clavik

Post 13-Sep-2019 20:22

[Quote]

Специалист | Программирование на языке Python. Уровень 3. Разработка веб - приложений в Django (2019) HDTVRip [H.264/720p-LQ]- Автор (режиссер): Специалист
Производство: https://www.specialist.ru/course/python3
Жанр: Программирование, Python, Django
Описание:
Вы занимаетесь программированием и интересуетесь веб-разработкой? Возможно, имеете определенный практический опыт разработки с использованием РНР и СУБД?
На данном курсе Вы изучите создание веб-приложений на языке Python с использованием MVC-подхода на примере фреймворка Django.
Продолжительность: 25:00:08
Качество видео: HDTVRip
Видео: AVC/H.264, 1200x720, ~360 Kbps
Аудио: AAC, 2 ch, 157 Kbps

MediaInfo:

General
Complete name : E:\КурсDjango\dwhelper\1.mp4
Format : MPEG-4
Format profile : Base Media
Codec ID : isom (isom/iso2/avc1/mp41)
File size : 86.1 MiB
Duration : 33 min 26 s
Overall bit rate : 360 kb/s
Writing application : Lavf58.16.100
Video
ID : 1
Format : AVC
Format/Info : Advanced Video Codec
Format profile : [url=mailto:High@L3.2]High@L3.2[/url]
Format settings : CABAC / 5 Ref Frames
Format settings, CABAC : Yes
Format settings, ReFrames : 5 frames
Format settings, GOP : M=4, N=65
Codec ID : avc1
Codec ID/Info : Advanced Video Coding
Duration : 33 min 26 s
Source duration : 33 min 26 s
Bit rate : 198 kb/s
Width : 1 200 pixels
Height : 720 pixels
Display aspect ratio : 5:3
Frame rate mode : Variable
Frame rate : 21.635 FPS
Minimum frame rate : 1.968 FPS
Maximum frame rate : 21 639.000 FPS
Color space : YUV
Chroma subsampling : 4:2:0
Bit depth : 8 bits
Scan type : Progressive
Bits/(Pixel*Frame) : 0.011
Stream size : 47.4 MiB (55%)
Source stream size : 47.4 MiB (55%)
Writing library : x264 core 157 r10 d4099dd
Encoding settings : cabac=1 / ref=5 / deblock=1:0:0 / analyse=0x3:0x113 / me=hex / subme=8 / psy=1 / psy_rd=1.00:0.00 / mixed_ref=1 / me_range=16 / chroma_me=1 / trellis=2 / 8x8dct=1 / cqm=0 / deadzone=21,11 / fast_pskip=1 / chroma_qp_offset=-2 / threads=22 / lookahead_threads=3 / sliced_threads=0 / nr=0 / decimate=1 / interlaced=0 / bluray_compat=0 / stitchable=1 / constrained_intra=0 / bframes=3 / b_pyramid=2 / b_adapt=2 / b_bias=0 / direct=3 / weightb=1 / open_gop=0 / weightp=2 / keyint=infinite / keyint_min=21 / scenecut=40 / intra_refresh=0 / rc_lookahead=50 / rc=crf / mbtree=1 / crf=20.0 / qcomp=0.60 / qpmin=5 / qpmax=69 / qpstep=4 / vbv_maxrate=2750 / vbv_bufsize=7500 / crf_max=0.0 / nal_hrd=none / filler=0 / ip_ratio=1.40 / aq=1:1.00
Color range : Limited
Color primaries : BT.709
Transfer characteristics : BT.709
Matrix coefficients : BT.709
Audio
ID : 2
Format : AAC
Format/Info : Advanced Audio Codec
Format profile : LC
Codec ID : mp4a-40-2
Duration : 33 min 26 s
Bit rate mode : Constant
Bit rate : 157 kb/s
Channel(s) : 2 channels
Channel(s)_Original : 1 channel
Channel positions : Front: C
Sampling rate : 48.0 kHz
Frame rate : 46.875 FPS (1024 SPF)
Compression mode : Lossy
Stream size : 37.7 MiB (44%)
Default : Yes
Alternate group : 1

Дополнительная информация:

Модуль 1. Web-разработка с применением концепции MVC
История и развитие веб-программирования, различные подходы.
Идеи MVC-подхода: разделение логики, интерфейса и данных.
Установка Web-фреймворка Django.
Структура проекта.
Модуль 2. Основы использования шаблонов
Передача данных из приложения в шаблоны.
Использование циклов и выбора в шаблонах.
Модуль 3. Хранение и работа с данными
Способы хранения данных
Создание и администрирование БД.
Схема БД: таблицы, связи между ними, ключи.
Отображение данных в БД на объекты приложения (ORM).
Реализация операций выборки, создания, удаления и изменения объектов.
Модуль 4. Использование форм
Специальные средства создания форм.
Проверка параметров форм.
Модуль 5. Разграничение прав доступа пользователей
Авторизация пользователей и разграничение прав доступа.
Сессии, не требующие регистрации.
Безопасность.
Модуль 6. Сложные запросы к данным
Реализация сложных запросов.
Соединение запросов, подзапросы.
Вызов хранимых процедур.
Модуль 7. Расширенные возможности шаблонного механизма
Встроенные фильтры.
Создание своих фильтров.
Модуль 8. Выдача данных в форматах, отличных от HTML
Отделение статического контента от динамического.
Отправка почтовых уведомлений.
Отдача лент новостей.
Генерация PDF-документов
Модуль 9. Средства отладки и тестирования
Журналирование.
Встроенный интерфейс администрирования.
Модульное тестирование.
Модуль 10. Развертывание веб-приложений
Использование встроенного веб-сервера, CGI, FastCGI и mod_python.
Развертывание и миграция БД.
Скриншоты:
       

Clavik

Post 13-Sep-2019 17:02

[Quote]

Udemy | Git: Полный курс для начинающих и не только (2019) PCRec [H.264] - Автор (режиссер): Наиль Алишев
Производство: Udemy
Жанр: DevOps, git
Описание:
Этот курс подойдет для тех людей, кто не знает про GIT ничего и хотел бы изучить его "с нуля". Однако, курс также будет полезен тем людям, кто ежедневно использует GIT в своей работе, но хотел бы обрести большую уверенность в управлении этим инструментом. Зачастую разработчики, которые ежедневно используют GIT, не имеют глубокого понимания работы этой системы контроля версий. Поэтому в этом курсе все аспекты устройства GIT разбираются максимально доскональным и подробным образом.
Продолжительность: 04:47:42
Качество видео: PCRec
Видео: AVC/H.264, 1280x800, ~394-1631 Kbps
Аудио: AAC, 2 ch, 127-128 Kbps

MediaInfo:

Общее
Полное имя : .\2. Основы GIT\6. Команда git clean.mp4
Формат : MPEG-4
Профиль формата : Base Media
Идентификатор кодека : isom (isom/iso2/avc1/mp41)
Размер файла : 21,0 Мбайт
Продолжительность : 3 м. 41 с.
Общий поток : 797 Кбит/сек
Программа кодирования : Lavf58.12.100
IsTruncated : Yes
Видео
Идентификатор : 1
Формат : AVC
Формат/Информация : Advanced Video Codec
Профиль формата : [url=mailto:Main@L3.1]Main@L3.1[/url]
Настройки формата : CABAC / 4 Ref Frames
Параметр CABAC формата : Да
Параметр RefFrames формата : 4 кадра
Параметр GOP формата : M=4, N=60
Идентификатор кодека : avc1
Идентификатор кодека/Информация : Advanced Video Coding
Продолжительность : 3 м. 41 с.
Битрейт : 660 Кбит/сек
Номинальный битрейт : 3000 Кбит/сек
Ширина : 1280 пикселей
Высота : 800 пикселей
Соотношение сторон : 16:10
Режим частоты кадров : Постоянный
Частота кадров : 30,000 кадров/сек
Цветовое пространство : YUV
Субдискретизация насыщенности : 4:2:0
Битовая глубина : 8 бит
Тип развёртки : Прогрессивная
Бит/(Пиксели*Кадры) : 0.024
Размер потока : 17,4 Мбайт (83%)
Библиотека кодирования : x264 core 148
Настройки программы : cabac=1 / ref=3 / deblock=1:-1:-1 / analyse=0x1:0x111 / me=umh / subme=6 / psy=1 / psy_rd=1.00:0.15 / mixed_ref=1 / me_range=16 / chroma_me=1 / trellis=1 / 8x8dct=0 / cqm=0 / deadzone=21,11 / fast_pskip=1 / chroma_qp_offset=-3 / threads=22 / lookahead_threads=3 / sliced_threads=0 / nr=0 / decimate=1 / interlaced=0 / bluray_compat=0 / constrained_intra=0 / bframes=3 / b_pyramid=2 / b_adapt=1 / b_bias=0 / direct=1 / weightb=1 / open_gop=0 / weightp=2 / keyint=60 / keyint_min=6 / scenecut=0 / intra_refresh=0 / rc_lookahead=60 / rc=cbr / mbtree=1 / bitrate=3000 / ratetol=1.0 / qcomp=0.60 / qpmin=0 / qpmax=69 / qpstep=4 / vbv_maxrate=3000 / vbv_bufsize=6000 / nal_hrd=none / filler=0 / ip_ratio=1.40 / aq=1:1.00
Codec configuration box : avcC
Аудио
Идентификатор : 2
Формат : AAC LC
Формат/Информация : Advanced Audio Codec Low Complexity
Идентификатор кодека : mp4a-40-2
Продолжительность : 3 м. 41 с.
Duration_LastFrame : -17 мс.
Вид битрейта : Постоянный
Битрейт : 128 Кбит/сек
Каналы : 2 канала
ChannelLayout : L R
Частота : 44,1 КГц
Частота кадров : 43,066 кадра/сек (1024 SPF)
Метод сжатия : С потерями
Размер потока : 3,38 Мбайт (16%)
Default : Да
AlternateGroup/String : 1
Скриншоты:
       

Clavik

Post 09-Sep-2019 17:57

[Quote]

Владилен Минин | Angular 8 с нуля до профессионала. Полное руководство (2019) PCRec [H.264/720p-LQ] - Автор (режиссер): Владилен Минин
Производство: Udemy
Жанр: Программирование, JavaScript, TypeScript, Angular
Описание:
Данный курс не требует никаких предварительных знаний по Angular или другим фреймворкам. Из предварительных знаний только основы. Остальное в курсе рассказывается с самого нуля, включая TypeScript и RxJS.
Курс содержит в себе 14 часов обучающих материалов, которые последовательно и очень подробно научат вас самым актуальным знаниям по прекрасной Frontend технологии Angular от компании Google.
Продолжительность: 13:55:43
Качество видео: PCRec
Видео: AVC/H.264, 1280x720, ~522-2609 Kbps
Аудио: AAC, 2 ch, 127-128 Kbps

MediaInfo:

Общее
Полное имя : .\11. Дополнительные возможности\3. SEO. Работа с тегами.mp4
Формат : MPEG-4
Профиль формата : Base Media
Идентификатор кодека : isom (isom/iso2/avc1/mp41)
Размер файла : 36,9 Мбайт
Продолжительность : 4 м. 1 с.
Общий поток : 1282 Кбит/сек
Программа кодирования : Lavf58.12.100
Видео
Идентификатор : 1
Формат : AVC
Формат/Информация : Advanced Video Codec
Профиль формата : [url=mailto:Main@L3.1]Main@L3.1[/url]
Настройки формата : CABAC / 4 Ref Frames
Параметр CABAC формата : Да
Параметр RefFrames формата : 4 кадра
Идентификатор кодека : avc1
Идентификатор кодека/Информация : Advanced Video Coding
Продолжительность : 4 м. 1 с.
Битрейт : 1145 Кбит/сек
Номинальный битрейт : 3000 Кбит/сек
Ширина : 1280 пикселей
Высота : 720 пикселей
Соотношение сторон : 16:9
Режим частоты кадров : Постоянный
Частота кадров : 30,000 кадров/сек
Цветовое пространство : YUV
Субдискретизация насыщенности : 4:2:0
Битовая глубина : 8 бит
Тип развёртки : Прогрессивная
Бит/(Пиксели*Кадры) : 0.041
Размер потока : 33,0 Мбайт (89%)
Библиотека кодирования : x264 core 148
Настройки программы : cabac=1 / ref=3 / deblock=1:-1:-1 / analyse=0x1:0x111 / me=umh / subme=6 / psy=1 / psy_rd=1.00:0.15 / mixed_ref=1 / me_range=16 / chroma_me=1 / trellis=1 / 8x8dct=0 / cqm=0 / deadzone=21,11 / fast_pskip=1 / chroma_qp_offset=-3 / threads=22 / lookahead_threads=3 / sliced_threads=0 / nr=0 / decimate=1 / interlaced=0 / bluray_compat=0 / constrained_intra=0 / bframes=3 / b_pyramid=2 / b_adapt=1 / b_bias=0 / direct=1 / weightb=1 / open_gop=0 / weightp=2 / keyint=60 / keyint_min=6 / scenecut=0 / intra_refresh=0 / rc_lookahead=60 / rc=cbr / mbtree=1 / bitrate=3000 / ratetol=1.0 / qcomp=0.60 / qpmin=0 / qpmax=69 / qpstep=4 / vbv_maxrate=3000 / vbv_bufsize=6000 / nal_hrd=none / filler=0 / ip_ratio=1.40 / aq=1:1.00
Codec configuration box : avcC
Аудио
Идентификатор : 2
Формат : AAC LC
Формат/Информация : Advanced Audio Codec Low Complexity
Идентификатор кодека : mp4a-40-2
Продолжительность : 4 м. 1 с.
Вид битрейта : Постоянный
Битрейт : 128 Кбит/сек
Каналы : 2 канала
ChannelLayout : L R
Частота : 44,1 КГц
Частота кадров : 43,066 кадра/сек (1024 SPF)
Метод сжатия : С потерями
Размер потока : 3,69 Мбайт (10%)
Default : Да
AlternateGroup/String : 1

Дополнительная информация:

В раздаче имеются архивы! В них содержится дополнительные материалы.
Скриншоты:
       

Clavik

Post 09-Sep-2019 17:56

[Quote]

MonsterLessons | Разработка интернет-магазина на React/Redux (2019) PCRec [H.264/720p-LQ] - Автор (режиссер): Александр Кочергин
Производство: MonsterLessons
Жанр: программирование, JavaScript, React, Redux
Описание:
В этом курсе мы разработаем интернет магазин мобильных телефонов на React и Redux. Этот курс полностью сфокусирован на быстром и глубоком погружении в создание реальных приложений на React и Redux. Мы начнем с нуля и шаг за шагом создадим реальное и законченное приложение. Вы поймете как правильно структурировать приложение, создавать переиспользуемые React компоненты и как разбивать код на маленькие кусочки. Мы будем писать код вместе в функциональном стиле, чтобы сделать его иммутабельным и избежать сложности поддержки.
Продолжительность: 03:32:54
Качество видео: PCRec
Видео: AVC/H.264, 1280x720, ~676-1330 Kbps
Аудио: AAC, 2 ch, 127-128 Kbps

MediaInfo:

Общее
Полное имя : .\10 Домашнее задание\017 Домашнее задание.mp4
Формат : MPEG-4
Профиль формата : Base Media
Идентификатор кодека : isom (isom/iso2/avc1/mp41)
Размер файла : 19,8 Мбайт
Продолжительность : 1 м. 53 с.
Общий поток : 1463 Кбит/сек
Программа кодирования : Lavf58.12.100
Видео
Идентификатор : 1
Формат : AVC
Формат/Информация : Advanced Video Codec
Профиль формата : [url=mailto:Main@L3.1]Main@L3.1[/url]
Настройки формата : CABAC / 4 Ref Frames
Параметр CABAC формата : Да
Параметр RefFrames формата : 4 кадра
Идентификатор кодека : avc1
Идентификатор кодека/Информация : Advanced Video Coding
Продолжительность : 1 м. 53 с.
Битрейт : 1326 Кбит/сек
Номинальный битрейт : 3000 Кбит/сек
Ширина : 1280 пикселей
Высота : 720 пикселей
Соотношение сторон : 16:9
Режим частоты кадров : Постоянный
Частота кадров : 30,000 кадров/сек
Цветовое пространство : YUV
Субдискретизация насыщенности : 4:2:0
Битовая глубина : 8 бит
Тип развёртки : Прогрессивная
Бит/(Пиксели*Кадры) : 0.048
Размер потока : 17,9 Мбайт (91%)
Библиотека кодирования : x264 core 148
Настройки программы : cabac=1 / ref=3 / deblock=1:-1:-1 / analyse=0x1:0x111 / me=umh / subme=6 / psy=1 / psy_rd=1.00:0.15 / mixed_ref=1 / me_range=16 / chroma_me=1 / trellis=1 / 8x8dct=0 / cqm=0 / deadzone=21,11 / fast_pskip=1 / chroma_qp_offset=-3 / threads=22 / lookahead_threads=3 / sliced_threads=0 / nr=0 / decimate=1 / interlaced=0 / bluray_compat=0 / constrained_intra=0 / bframes=3 / b_pyramid=2 / b_adapt=1 / b_bias=0 / direct=1 / weightb=1 / open_gop=0 / weightp=2 / keyint=60 / keyint_min=6 / scenecut=0 / intra_refresh=0 / rc_lookahead=60 / rc=cbr / mbtree=1 / bitrate=3000 / ratetol=1.0 / qcomp=0.60 / qpmin=0 / qpmax=69 / qpstep=4 / vbv_maxrate=3000 / vbv_bufsize=6000 / nal_hrd=none / filler=0 / ip_ratio=1.40 / aq=1:1.00
Codec configuration box : avcC
Аудио
Идентификатор : 2
Формат : AAC LC
Формат/Информация : Advanced Audio Codec Low Complexity
Идентификатор кодека : mp4a-40-2
Продолжительность : 1 м. 53 с.
Вид битрейта : Постоянный
Битрейт : 128 Кбит/сек
Каналы : 2 канала
ChannelLayout : L R
Частота : 44,1 КГц
Частота кадров : 43,066 кадра/сек (1024 SPF)
Метод сжатия : С потерями
Размер потока : 1,73 Мбайт (9%)
Default : Да
AlternateGroup/String : 1

Дополнительная информация:

В раздаче имеются архивы! В них содержится дополнительные материалы.
Скриншоты:
       

Clavik

Post 04-Sep-2019 18:45

[Quote]

Udemy | Котлин - быстрый старт (2019) PCRec [H.264/720p-LQ] - Автор (режиссер): Андрей Сумин
Производство: Udemy
Жанр: программирование, Java, Kotlin
Описание:
В этом курсе мы изучим все, что нужно, чтобы перейти на новый язык. По его окончании, все, что вы до этого писали на Java, вы сможете написать на Kotlin. Шаг за шагом мы будем продвигаться к цели. Мы начнем со стандартного Hello World и постепенно изучим все основы, включая много новых вещей, которых не было в Java, таких как: extension-функции, функциональное программирование, data-классы и многое другое.
Продолжительность: 06:21:13
Качество видео: PCRec
Видео: AVC/H.264, 1329x720, ~478-1051 Kbps
Аудио: AAC, 2 ch, 127-128 Kbps

MediaInfo:

Общее
Полное имя : .\2. Основной синтаксис\9. Циклы.mp4
Формат : MPEG-4
Профиль формата : Base Media
Идентификатор кодека : isom (isom/iso2/avc1/mp41)
Размер файла : 71,4 Мбайт
Продолжительность : 13 м. 38 с.
Общий поток : 732 Кбит/сек
Программа кодирования : Lavf58.12.100
Видео
Идентификатор : 1
Формат : AVC
Формат/Информация : Advanced Video Codec
Профиль формата : [url=mailto:Main@L3.1]Main@L3.1[/url]
Настройки формата : CABAC / 4 Ref Frames
Параметр CABAC формата : Да
Параметр RefFrames формата : 4 кадра
Параметр GOP формата : M=4, N=60
Идентификатор кодека : avc1
Идентификатор кодека/Информация : Advanced Video Coding
Продолжительность : 13 м. 38 с.
Битрейт : 595 Кбит/сек
Номинальный битрейт : 3000 Кбит/сек
Ширина : 1329 пикселей
Высота : 720 пикселей
Соотношение сторон : 1,85:1
Соотношение сторон в оригинале : 1,85:1
Режим частоты кадров : Постоянный
Частота кадров : 30,000 кадров/сек
Цветовое пространство : YUV
Субдискретизация насыщенности : 4:2:0
Битовая глубина : 8 бит
Тип развёртки : Прогрессивная
Бит/(Пиксели*Кадры) : 0.022
Размер потока : 58,1 Мбайт (81%)
Библиотека кодирования : x264 core 148
Настройки программы : cabac=1 / ref=3 / deblock=1:-1:-1 / analyse=0x1:0x111 / me=umh / subme=6 / psy=1 / psy_rd=1.00:0.15 / mixed_ref=1 / me_range=16 / chroma_me=1 / trellis=1 / 8x8dct=0 / cqm=0 / deadzone=21,11 / fast_pskip=1 / chroma_qp_offset=-3 / threads=22 / lookahead_threads=3 / sliced_threads=0 / nr=0 / decimate=1 / interlaced=0 / bluray_compat=0 / constrained_intra=0 / bframes=3 / b_pyramid=2 / b_adapt=1 / b_bias=0 / direct=1 / weightb=1 / open_gop=0 / weightp=2 / keyint=60 / keyint_min=6 / scenecut=0 / intra_refresh=0 / rc_lookahead=60 / rc=cbr / mbtree=1 / bitrate=3000 / ratetol=1.0 / qcomp=0.60 / qpmin=0 / qpmax=69 / qpstep=4 / vbv_maxrate=3000 / vbv_bufsize=6000 / nal_hrd=none / filler=0 / ip_ratio=1.40 / aq=1:1.00
Codec configuration box : avcC
Аудио
Идентификатор : 2
Формат : AAC LC
Формат/Информация : Advanced Audio Codec Low Complexity
Идентификатор кодека : mp4a-40-2
Продолжительность : 13 м. 38 с.
Вид битрейта : Постоянный
Битрейт : 128 Кбит/сек
Каналы : 2 канала
ChannelLayout : L R
Частота : 44,1 КГц
Частота кадров : 43,066 кадра/сек (1024 SPF)
Метод сжатия : С потерями
Размер потока : 12,5 Мбайт (17%)
Default : Да
AlternateGroup/String : 1
Скриншоты:
       

Clavik

Post 04-Sep-2019 18:44

[Quote]

Udemy | Андроид разработка с нуля до Junior + Java для начинающих (2019) PCRec [H.264/720p-LQ] - Автор (режиссер): Андрей Сумин
Производство: Udemy
Жанр: Программирование, Java, Android
Описание:
Этот курс предназначен для людей, которые никогда не изучали языки программирования. Для того чтобы писать приложения, которые не просто хорошо выглядят, но и выполняют различные функции, необходимо знать язык Java, и первый раздел я полностью посвятил его изучению. Все что нужно от вас – это желание учиться и наличие компьютера. Лекции содержат домашние задания, чтобы вы не просто прослушали материал, но и закрепили его на практике.
Мы с вами полностью пройдем весь путь от установки среды разработки до загрузки вашего приложения в Google Play. Первые наши приложения будут очень простые, потом с каждым уроком мы будем их усложнять, добавлять все больше новых элементов.
Продолжительность: 24:18:18
Качество видео: PCRec
Видео: AVC/H.264, 1280x720, ~490-1498 Kbps
Аудио: AAC, 2 ch, 126-128 Kbps

Mediainfo:

Общее
Полное имя : .\2. Изучаем язык Java\3. Переменные.mp4
Формат : MPEG-4
Профиль формата : Base Media
Идентификатор кодека : isom (isom/iso2/avc1/mp41)
Размер файла : 75,4 Мбайт
Продолжительность : 13 м. 36 с.
Общий поток : 776 Кбит/сек
Программа кодирования : Lavf58.12.100
IsTruncated : Yes
Видео
Идентификатор : 1
Формат : AVC
Формат/Информация : Advanced Video Codec
Профиль формата : [url=mailto:Main@L3.1]Main@L3.1[/url]
Настройки формата : CABAC / 4 Ref Frames
Параметр CABAC формата : Да
Параметр RefFrames формата : 4 кадра
Параметр GOP формата : M=4, N=60
Идентификатор кодека : avc1
Идентификатор кодека/Информация : Advanced Video Coding
Продолжительность : 13 м. 35 с.
Битрейт : 639 Кбит/сек
Номинальный битрейт : 3000 Кбит/сек
Ширина : 1280 пикселей
Высота : 720 пикселей
Соотношение сторон : 16:9
Режим частоты кадров : Постоянный
Частота кадров : 30,000 кадров/сек
Цветовое пространство : YUV
Субдискретизация насыщенности : 4:2:0
Битовая глубина : 8 бит
Тип развёртки : Прогрессивная
Бит/(Пиксели*Кадры) : 0.023
Размер потока : 62,1 Мбайт (82%)
Библиотека кодирования : x264 core 148
Настройки программы : cabac=1 / ref=3 / deblock=1:-1:-1 / analyse=0x1:0x111 / me=umh / subme=6 / psy=1 / psy_rd=1.00:0.15 / mixed_ref=1 / me_range=16 / chroma_me=1 / trellis=1 / 8x8dct=0 / cqm=0 / deadzone=21,11 / fast_pskip=1 / chroma_qp_offset=-3 / threads=22 / lookahead_threads=3 / sliced_threads=0 / nr=0 / decimate=1 / interlaced=0 / bluray_compat=0 / constrained_intra=0 / bframes=3 / b_pyramid=2 / b_adapt=1 / b_bias=0 / direct=1 / weightb=1 / open_gop=0 / weightp=2 / keyint=60 / keyint_min=6 / scenecut=0 / intra_refresh=0 / rc_lookahead=60 / rc=cbr / mbtree=1 / bitrate=3000 / ratetol=1.0 / qcomp=0.60 / qpmin=0 / qpmax=69 / qpstep=4 / vbv_maxrate=3000 / vbv_bufsize=6000 / nal_hrd=none / filler=0 / ip_ratio=1.40 / aq=1:1.00
Codec configuration box : avcC
Аудио
Идентификатор : 2
Формат : AAC LC
Формат/Информация : Advanced Audio Codec Low Complexity
Идентификатор кодека : mp4a-40-2
Продолжительность : 13 м. 36 с.
Вид битрейта : Постоянный
Битрейт : 128 Кбит/сек
Каналы : 2 канала
Channel layout : L R
Частота : 44,1 КГц
Частота кадров : 43,066 кадра/сек (1024 SPF)
Метод сжатия : С потерями
Размер потока : 12,5 Мбайт (17%)
Default : Да
AlternateGroup/String : 1

Дополнительная информация:

В раздаче имеются архивы! В них содержится дополнительные материалы.

История обновлений:

04.09.2019 торрент файл обновлен
- добавлены все уроки из раздела "11. Курсовой проект My Movies"
- добавлен новый раздел "12. Android Advanced"
- добавлен новый раздел "13. Основы работы с Firebase"
- добавлен новый раздел "14. Бонусный раздел"

Раздача ведётся путём добавления новых файлов:

Раздача ведётся путём добавления новых файлов; при каждом добавлении создаётся новый торрент. Чтобы начать докачку новых файлов, пользователям необходимо сделать следующее:
(1) остановить скачивание,
(2) удалить старый торрент у себя из клиента (имеющиеся файлы удалять не надо),
(3) скачать новый торрент и запустить его у себя в клиенте вместо старого, при этом указать клиенту путь в старую папку, куда и должно происходить скачивание новых файлов.
Ваш клиент при этом должен произвести хеширование (проверку) старой папки (если не производит сам - помогите ему сделать это), и будет докачивать только те файлы, которых у вас ещё нет. Старые файлы при этом не удаляются, а продолжают раздаваться!
Eсли вы уже удалили старые файлы, то предотвратить повторную закачку старых файлов можно, отжав галочку в соответствующих местах при запуске нового торрента. По возможности, желательно не удалять старые файлы как можно дольше, чтобы релизёр не только продолжал раздавать старые файлы, а смог сконцентрироваться на новых.
Скриншоты:
       

Clavik

Post 04-Sep-2019 18:43

[Quote]

Udemy | Продвинутая Java (2018-2019) PCRec [H.264/720p-LQ] - Автор (режиссер): Udemy
Жанр: Программирование, Java
Описание:
Курс ориентирован на тех людей, кто уже знаком с языком программирования Java и хотел бы углубить свои знания и изучить продвинутые темы этого языка программирования. В курсе детально и подробно объясняются важнейшие темы Java и программирования в целом, которые необходимы для работы в индустрии. После прохождения этого курса вы узнаете много нового о Java и о компьютерных науках в целом.
Продолжительность: 13:30:43
Качество видео: PCRec
Видео: AVC/H.264, 1280x720, ~55-1400 Kbps
Аудио: AAC, 2 ch, 127-189 Kbps

Mediainfo:

Общее
Полное имя : .\02 Java Collections Framework Коллекции\002 Динамический массив ArrayList - Введение.mp4
Формат : MPEG-4
Профиль формата : Base Media
Идентификатор кодека : isom (isom/iso2/avc1/mp41)
Размер файла : 30,9 Мбайт
Продолжительность : 19 м. 42 с.
Режим общего битрейта : Переменный
Общий поток : 219 Кбит/сек
Название фильма : "Udemy Video Asset"
Программа кодирования : Lavf57.71.100
Видео
Идентификатор : 1
Формат : AVC
Формат/Информация : Advanced Video Codec
Профиль формата : [url=mailto:High@L3.1]High@L3.1[/url]
Настройки формата : CABAC / 4 Ref Frames
Параметр CABAC формата : Да
Параметр RefFrames формата : 4 кадра
Идентификатор кодека : avc1
Идентификатор кодека/Информация : Advanced Video Coding
Продолжительность : 19 м. 42 с.
Битрейт : 82,9 Кбит/сек
Ширина : 1280 пикселей
Высота : 720 пикселей
Соотношение сторон : 16:9
Режим частоты кадров : Постоянный
Частота кадров : 30,000 кадров/сек
Цветовое пространство : YUV
Субдискретизация насыщенности : 4:2:0
Битовая глубина : 8 бит
Тип развёртки : Прогрессивная
Бит/(Пиксели*Кадры) : 0.003
Размер потока : 11,7 Мбайт (38%)
Библиотека кодирования : x264 core 148
Настройки программы : cabac=1 / ref=2 / deblock=1:-1:-1 / analyse=0x3:0x113 / me=hex / subme=4 / psy=1 / psy_rd=1.00:0.15 / mixed_ref=0 / me_range=16 / chroma_me=1 / trellis=1 / 8x8dct=1 / cqm=0 / deadzone=21,11 / fast_pskip=1 / chroma_qp_offset=-1 / threads=2 / lookahead_threads=1 / sliced_threads=0 / nr=0 / decimate=1 / interlaced=0 / bluray_compat=0 / constrained_intra=0 / bframes=3 / b_pyramid=2 / b_adapt=1 / b_bias=0 / direct=1 / weightb=1 / open_gop=0 / weightp=1 / keyint=250 / keyint_min=25 / scenecut=40 / intra_refresh=0 / rc_lookahead=20 / rc=crf / mbtree=1 / crf=23.0 / qcomp=0.60 / qpmin=0 / qpmax=69 / qpstep=4 / vbv_maxrate=3000 / vbv_bufsize=2000 / crf_max=0.0 / nal_hrd=none / filler=0 / ip_ratio=1.40 / aq=1:1.00
Аудио
Идентификатор : 2
Формат : AAC
Формат/Информация : Advanced Audio Codec
Профиль формата : LC
Идентификатор кодека : mp4a-40-2
Продолжительность : 19 м. 42 с.
Вид битрейта : Переменный
Битрейт : 128 Кбит/сек
Каналы : 2 канала
Расположение каналов : Front: L R
Частота : 44,1 КГц
Частота кадров : 43,066 кадра/сек (1024 SPF)
Метод сжатия : С потерями
Размер потока : 17,9 Мбайт (58%)
Default : Да
AlternateGroup/String : 1

Учебный план этого курса:

Введение 00:09:00
Привет!
Java Collections Framework (Коллекции) 04:31:33
Динамический массив (ArrayList) - Введение
Динамический массив (ArrayList) - Как устроен?
Связный список (LinkedList) - Введение
Связный список (LinkedList) - Как устроен?
HashMap - Введение
LinkedHashMap и TreeMap
Множества (Set)
Методы hashcode() и equals()
Контракт hashcode() и equals()
HashMap - Как устроен?
Интерфейс Comparator
Интерфейс Comparable
Очередь (Queue)
Стек (Stack)
Интерфейс Iterable
Java Multithreading (Многопоточность) 04:25:44
Введение в многопоточность в Java
Ключевое слово volatile
Ключевое слово synchronized (I часть)
Ключевое слово synchronized (II часть)
Пул потоков (Thread pool)
Паттерн producer - consumer (I часть)
Методы wait() и notify()
Паттерн producer - consumer (II часть)
Класс CountDownLatch
Класс ReentrantLock
Семафор (Semaphore)
Взаимная блокировка (Deadlock)
Прерывание потоков
Callable и Future
Регулярные выражения (Regexp) 01:00:46
Регулярные выражения (часть I)
Регулярные выражения (часть II)
Классы Pattern и Matcher
Лямбда - выражения (Lambda expressions) 01:10:39
Лямбда - выражения (часть I)
Лямбда - выражения (часть II)
Maven 00:18:49
Maven (часть I)
Maven (часть II)
Тестирование (JUnit) 00:48:59
Введение в тестирование
JUnit (часть I)
JUnit (часть II)
Другие темы 01:13:47
Аннотации. Основы.
Аннотации. Создание своих аннотаций.
Рефлексия (Java Reflection API). Часть I.
Рефлексия (Java Reflection API). Часть II.

История обновлений:

04.09.2019 - Торрент файл обновлен.
Добавлены уроки
- Callable и Future
- Классы Pattern и Matcher
Добалены разделы
- Maven
- Тестирование (JUnit)
- Другие темы
Скриншоты:
       
 

The time now is: Today 10:07

All times are GMT + 3 Hours