Сегодня идет свободное скачивание без начисления Download

Результатов поиска: 500

Автор Сообщение

zvladss

Пост 08-Авг-2018 08:23

[Цитировать]

XP1971,
Спасибо уже скачал. Теперь буду раздавать по вечерам.

XP1971

Пост 07-Авг-2018 17:19

[Цитировать]

zvladss писал(а):
Зарегистрировался специально, чтобы скачать эту раздачу. Пожалуйста, дайте скачать!
сид есть по DHT, скорость маленькая, но качается, лично проверил

zvladss

Пост 07-Авг-2018 15:05

[Цитировать]

Зарегистрировался специально, чтобы скачать эту раздачу. Пожалуйста, дайте скачать!

XP1971

Пост 01-Июл-2018 01:24

[Цитировать]

Udemy | Взламываем соседский Wi-Fi (2017) PCRec [H.264/720p-LQ] - Производство: Udemy
Жанр: Тестирование на проникновение
Описание:
Данный курс рассчитан на новичков, которые никогда ранее не занимались тестированием на проникновение (пентестингом). Курс построен таким образом, что вы пройдетесь через основы сетей и познакомитесь с тем как клиенты обмениваются информацией друг с другом, затем речь пойдет о том как мы можем воспользоваться этим методом обмена информации в наших корыстных целях.
Продолжительность: 05:06:16
Качество видео: PCRec
Видео: AVC/H.264, 1280x720, ~1760 Kbps
Аудио: AAC, 2 ch, 127 Kbps, VBR

Mediainfo:

01 Введение в Kali Linux.mp4
Format : MPEG-4
Format profile : Base Media
Codec ID : isom (isom/avc1)
File size : 75.6 MiB
Duration : 6 min 0 s
Overall bit rate mode : Variable
Overall bit rate : 1 760 kb/s
Encoded date : UTC 2016-06-22 20:55:56
Tagged date : UTC 2016-06-22 20:55:56
Writing application : My MP4Box GUI 0.6.0.6
Video
ID : 1
Format : AVC
Format/Info : Advanced Video Codec
Format profile : [url=mailto:Baseline@L3.1]Baseline@L3.1[/url]
Format settings : 2 Ref Frames
Format settings, CABAC : No
Format settings, ReFrames : 2 frames
Format settings, GOP : M=1, N=12
Codec ID : avc1
Codec ID/Info : Advanced Video Coding
Duration : 6 min 0 s
Bit rate : 1 632 kb/s
Maximum bit rate : 2 949 kb/s
Width : 1 280 pixels
Height : 720 pixels
Display aspect ratio : 16:9
Frame rate mode : Constant
Frame rate : 15.000 FPS
Standard : NTSC
Color space : YUV
Chroma subsampling : 4:2:0
Bit depth : 8 bits
Scan type : Progressive
Bits/(Pixel*Frame) : 0.118
Stream size : 70.1 MiB (93%)
Title : 001 -Intro about Kali Linux and Install action Options_track1.h264
Encoded date : UTC 2016-06-22 20:55:56
Tagged date : UTC 2016-06-22 20:55:57
Color range : Full
Color primaries : BT.601 NTSC
Transfer characteristics : BT.601
Matrix coefficients : BT.601
Audio
ID : 2
Format : AAC
Format/Info : Advanced Audio Codec
Format profile : LC
Codec ID : mp4a-40-2
Duration : 6 min 0 s
Bit rate mode : Variable
Bit rate : 127 kb/s
Maximum bit rate : 166 kb/s
Channel(s) : 2 channels
Channel positions : Front: L R
Sampling rate : 44.1 kHz
Frame rate : 43.066 FPS (1024 SPF)
Compression mode : Lossy
Stream size : 5.46 MiB (7%)
Title : wifi1_MP3 Audio_192 Kbps, CD Transparent Audio[0].aac
Encoded date : UTC 2016-06-22 20:55:57
Tagged date : UTC 2016-06-22 20:55:57

Дополнительная информация:

Весь курс состоит из 3-х разделов:
До подключения: В этом разделе мы до сих пор почти ничего не знаем от пентестинге, все что у нас есть это наш компьютер и беспроводная сетевая карта, которая к нему подключена. Вы научитесь собирать информацию используя wi-fi карту. Так же вы познакомитесь с некоторыми типами атак, которые вы можете совершить не зная пароля от сети.
Получение Доступа: На данный момент вы собрали всю информацию о сетях, которые находятся рядом, вы определились с жертвой, вы научитесь взламывать пароли. В этом разделе вы научитесь как взламывать сети с шифрованием WEP/WPA/WPA2.
После подключения: Теперь у вас есть ключ интересующей вас сети и вы можете к ней подключиться. В этом разделе вы изучите очень мощные типы атак, которые позволят вам подключаться к устройствам клиентов данной сети, эти атаки позволят вам получить доступ к любому аккаунту, который использует любой из клиентов, подключенных к данной сети, просмотреть весь трафик, который проходит через этих клиентов (Изображения, видео, аудио, пароли и т.п.) и так же получить полный доступ к любому клиенту сети. После этого вы изучите способы обнаружения данных атак и узнаете как можно от них защититься.
Все атаки в данном курсе применимы на практике, они работают со всеми wi-fi устройствами. Не имеет значение смартфон это, планшет или что-то еще. Каждая атака объясняется довольно простым языком, так что вы сможете понять как она работает, сначала вы познакомитесь с теорией, которая объясняет данную атаку, а затем вы перейдете непосредственно к атакам, используя Kali Linux.
Скриншоты:
       

}{@R0N

Пост 01-Мар-2018 18:29

[Цитировать]

Обучаем монтажу видео - Автор (режиссер): Руслан Прояев
Производство: Highlights
Жанр: Видео монтаж
Описание:
Курс идеально подходит для новичков в теме монтажа видео. Всего за месяц мы научим вас обрабатывать и редактировать видео на основе сегодняшних трендов в монтаже и классических приемах из кино. Кроме того, вы будете тренироваться монтажу на материалах профессиональных режиссеров и операторов, которые сотрудничают с нашей школой. Если вы хотите научиться обрабатывать видео для себя или даже начать зарабатывать на этом - ждем вас на курсе.
Что вы будете уметь уже через 4 недели? - Освоите основные монтажные приемы, которыми пользуются даже в кино. - Научитесь создавать красивые трендовые переходы - Поймете, как работать с текстурами и создать свой стиль - Освоите обработку цвета и придадите "киношный" цвет своему видео - Узнаете, как создавать текстовые заставки, титры уровня видео-дизайнера - Научитесь обрабатывать звук, удалять лишние шумы. - Узнаете, как начать зарабатывать на монтаже.
Продолжительность: 14:21:15
Качество видео: PCRec
Видео: AVC/H.264, 720x576,1280x720,1920x1080, ~1500kbps
Аудио: AAC, 2 ch, 160kbps

Подробный план занятий

ЗАНЯТИЕ №1
ВВЕДЕНИЕ В ПРОФЕССИЮ. РЕЖИССУРА МОНТАЖА.
- Что такое монтаж и его виды
- Основные этапы монтажа на практике обработки видео.
- Тренды в монтаже
- Хороший-плохой монтаж
- Источники вдохновения и полезные ресурсы
ЗАНЯТИЕ №2
ЗНАКОМСТВО С ПРОГРАММОЙ Adobe Premiere. ОСНОВНЫЕ МОНТАЖНЫЕ ПРИЕМЫ.
- Основные правила монтажа
- 6 приемов монтажа
- Практика работы в программе на примере Travel видео, свадьбы и документального видео.
- Изучаем интерфейс программы, рабочие окна, таймлайн. - - Виды переходов, склейка видео.
- Работа с изображениями и ключами анимации
ЗАНЯТИЕ №3
ЭФФЕКТЫ
- Трендовые fx переходы
- Стилизация изображения
- Работа с качеством изображения (удаление шумов, повышение резкости)
- Работа с масками
- Визуальные эффекты (blur, glitch)
ЗАНЯТИЕ №4
ЦВЕТОКОРРЕКЦИЯ
- Сочетания цветов, гармонии.
- Как брать цвет из других фильмов.
- Полезные ресурсы и материалы
- Цветокоррекция изображения (Яркость, контраст, баланс белого)
- Цветообработка/color grading (тонирование, художественная обработка, придание атмосферы, стиля)
- Лучшие книги, документальные видео о цвете. (саморазвитие)
ЗАНЯТИЕ 5
РАБОТА С ТЕКСТОМ ( титрами )
- Виды текстовых заставок, титров.
- Основы композиции
- Где взять шрифты бесплатно?
- Основные инструменты для работы с текстом.
- Учимся простейшей анимации текста.
- Делаем титры и заставки из известных фильмов
ЗАНЯТИЕ №6
ПРАКТИКА РАБОТЫ СО ЗВУКОМ
- Панель Audio Mixer.
- Особенности добавления звука в Adobe Premiere.
- Звуковые переходы.
- Звуковые эффекты.
- Основы обработки звука.
- Где брать бесплатную музыку?
ЗАНЯТИЕ №7
КАК НАЧАТЬ ЗАРАБАТЫВАТЬ?
- Практические советы из личного опыта преподавателя.
- Рынок труда: продакшн студии, фриланс.
- Создаем свое портфолио
- Делаем Шоурил
- Знакомимся с рекламными площадками для размещения своих работ.

Бонусы

1) Neat Video 3.2 Pro for Adobe Premiere Pro CS6
Описание: Плагин представляет передовую технологию для удаления шумов с видео и изображений. Лучшее на сегодня соотношение характеристик в своем классе.
2) Плагин Twitch — это потрясающий плагин, предназначенный для создания различного рода помех.
3) FilmImpact.net Transition Packs v3.5.4 CE Bundle
Комплект из 30 красивых переходов от FilmImpact.net
4) Футажи 5dleaks ,Artbeats Film Clutter 2,Circle Burst,Free 4K Light Leaks,Gorilla Grain,Hollywood Grain in Resolve,LUSTER Film Burns [12 Pack],mDusts 100 Organic Dust Elements,mLeaks,MotionVFX mRays 2K-iW0RLD,mSmokes h264,Rampant_4K_Flash_Transitions_FREE,Rampant_4K_Light_Transitions_FREE,Rampant_4K_ShadowLight_FREE,Rampant_Studio_Mattes_FREE,RGrain Complete Pack
5) Книга - Александра Митта - кино между адом и раем
6) Книга - Павла Косенко живая цифра
7) Книга - Юрия Гордон - Книга про буквы от А до Я (2006)
8) Книга - Александра Королькова - Живая Типографика (2007)
9) Книга - Яна Чихольда «Новая типографика. Руководство для современного дизайнера» (2011)
10) Руководство по цветовой коррекции: профессиональные техники для видео и кино (Color Correction Handbook: Professional Techniques for Video and Cinema by Alexis Van Hurkman )
11) Документальный фильм "Гельветика" (2007) (Фильм о типографике, графическом дизайне и визуальной культуре в целом. Сквозь призму распространения одного шрифта, которому исполнилось 50 лет в 2007 году, в фильме рассматривается общий вопрос о том, как шрифт влияет на нашу жизнь. Фильм представляет собой исследование городского пространства и шрифтов, которые его наполняют, а также цикл бесед с известными дизайнерами об их работе, творческом процессе, выборе и эстетической составляющей шрифтов.)

Mediainfo:

Complete name                  : D:\Группа 1\Урок №1 Введение в профессию\Запись урока (прямой трансляции)\Урок №1 Введение пв профессию.mp4
Format : MPEG-4
Format profile : Base Media
Codec ID : isom (isom/iso2/avc1/mp41)
File size : 2.23 GiB
Duration : 3 h 11 min
Overall bit rate : 1 666 kb/s
Writing application : Lavf57.66.102
Video
ID : 1
Format : AVC
Format/Info : Advanced Video Codec
Format profile : [url=mailto:High@L3.1]High@L3.1[/url]
Format settings, CABAC : Yes
Format settings, ReFrames : 4 frames
Codec ID : avc1
Codec ID/Info : Advanced Video Coding
Duration : 3 h 11 min
Bit rate : 1 500 kb/s
Width : 1 280 pixels
Height : 720 pixels
Display aspect ratio : 16:9
Frame rate mode : Constant
Frame rate : 23.976 (24000/1001) FPS
Color space : YUV
Chroma subsampling : 4:2:0
Bit depth : 8 bits
Scan type : Progressive
Bits/(Pixel*Frame) : 0.068
Stream size : 2.01 GiB (90%)
Writing library : x264 core 148 r2762 90a61ec
Encoding settings : cabac=1 / ref=1 / deblock=1:0:0 / analyse=0x3:0x113 / me=hex / subme=2 / psy=1 / psy_rd=1.00:0.00 / mixed_ref=0 / me_range=16 / chroma_me=1 / trellis=0 / 8x8dct=1 / cqm=0 / deadzone=21,11 / fast_pskip=1 / chroma_qp_offset=0 / threads=12 / lookahead_threads=4 / sliced_threads=0 / nr=0 / decimate=1 / interlaced=0 / bluray_compat=0 / constrained_intra=0 / bframes=3 / b_pyramid=2 / b_adapt=1 / b_bias=0 / direct=1 / weightb=1 / open_gop=0 / weightp=1 / keyint=250 / keyint_min=23 / scenecut=40 / intra_refresh=0 / rc_lookahead=10 / rc=cbr / mbtree=1 / bitrate=1500 / ratetol=1.0 / qcomp=0.60 / qpmin=0 / qpmax=69 / qpstep=4 / vbv_maxrate=1500 / vbv_bufsize=1500 / nal_hrd=none / filler=1 / ip_ratio=1.40 / aq=1:1.00
Audio
ID : 2
Format : AAC
Format/Info : Advanced Audio Codec
Format profile : LC
Codec ID : 40
Duration : 3 h 11 min
Bit rate mode : Constant
Bit rate : 160 kb/s
Channel(s) : 2 channels
Channel positions : Front: L R
Sampling rate : 44.1 kHz
Frame rate : 43.066 FPS (1024 spf)
Compression mode : Lossy
Stream size : 220 MiB (10%)
Title : simple_aac
Default : Yes
Alternate group : 1
General
Complete name : D:\Группа 1\Урок №4 Цвет\Запись урока №4\Lesson 4 - Плагин Looks и работа с кожей.mp4
Format : MPEG-4
Format profile : Base Media
Codec ID : isom (isom/iso2/avc1/mp41)
File size : 99.3 MiB
Duration : 8 min 20 s
Overall bit rate : 1 666 kb/s
Writing application : Lavf57.66.102
Video
ID : 1
Format : AVC
Format/Info : Advanced Video Codec
Format profile : [url=mailto:High@L3.1]High@L3.1[/url]
Format settings, CABAC : Yes
Format settings, ReFrames : 4 frames
Codec ID : avc1
Codec ID/Info : Advanced Video Coding
Duration : 8 min 20 s
Bit rate : 1 500 kb/s
Width : 1 280 pixels
Height : 720 pixels
Display aspect ratio : 16:9
Frame rate mode : Constant
Frame rate : 23.976 (24000/1001) FPS
Color space : YUV
Chroma subsampling : 4:2:0
Bit depth : 8 bits
Scan type : Progressive
Bits/(Pixel*Frame) : 0.068
Stream size : 89.4 MiB (90%)
Writing library : x264 core 148 r2762 90a61ec
Encoding settings : cabac=1 / ref=1 / deblock=1:0:0 / analyse=0x3:0x113 / me=hex / subme=2 / psy=1 / psy_rd=1.00:0.00 / mixed_ref=0 / me_range=16 / chroma_me=1 / trellis=0 / 8x8dct=1 / cqm=0 / deadzone=21,11 / fast_pskip=1 / chroma_qp_offset=0 / threads=12 / lookahead_threads=4 / sliced_threads=0 / nr=0 / decimate=1 / interlaced=0 / bluray_compat=0 / constrained_intra=0 / bframes=3 / b_pyramid=2 / b_adapt=1 / b_bias=0 / direct=1 / weightb=1 / open_gop=0 / weightp=1 / keyint=250 / keyint_min=23 / scenecut=40 / intra_refresh=0 / rc_lookahead=10 / rc=cbr / mbtree=1 / bitrate=1500 / ratetol=1.0 / qcomp=0.60 / qpmin=0 / qpmax=69 / qpstep=4 / vbv_maxrate=1500 / vbv_bufsize=1500 / nal_hrd=none / filler=1 / ip_ratio=1.40 / aq=1:1.00
Audio
ID : 2
Format : AAC
Format/Info : Advanced Audio Codec
Format profile : LC
Codec ID : 40
Duration : 8 min 20 s
Bit rate mode : Constant
Bit rate : 160 kb/s
Channel(s) : 2 channels
Channel positions : Front: L R
Sampling rate : 44.1 kHz
Frame rate : 43.066 FPS (1024 spf)
Compression mode : Lossy
Stream size : 9.54 MiB (10%)
Title : simple_aac
Default : Yes
Alternate group : 1
General
Complete name : D:\Группа 1\Урок №4 Цвет\Запись урока №4\Lesson 4 - Про LUTs и лень.mp4
Format : MPEG-4
Format profile : Base Media
Codec ID : isom (isom/iso2/avc1/mp41)
File size : 40.3 MiB
Duration : 3 min 22 s
Overall bit rate : 1 666 kb/s
Writing application : Lavf57.66.102
Video
ID : 1
Format : AVC
Format/Info : Advanced Video Codec
Format profile : [url=mailto:High@L3.1]High@L3.1[/url]
Format settings, CABAC : Yes
Format settings, ReFrames : 4 frames
Codec ID : avc1
Codec ID/Info : Advanced Video Coding
Duration : 3 min 22 s
Bit rate : 1 500 kb/s
Width : 1 280 pixels
Height : 720 pixels
Display aspect ratio : 16:9
Frame rate mode : Constant
Frame rate : 23.976 (24000/1001) FPS
Color space : YUV
Chroma subsampling : 4:2:0
Bit depth : 8 bits
Scan type : Progressive
Bits/(Pixel*Frame) : 0.068
Stream size : 36.3 MiB (90%)
Writing library : x264 core 148 r2762 90a61ec
Encoding settings : cabac=1 / ref=1 / deblock=1:0:0 / analyse=0x3:0x113 / me=hex / subme=2 / psy=1 / psy_rd=1.00:0.00 / mixed_ref=0 / me_range=16 / chroma_me=1 / trellis=0 / 8x8dct=1 / cqm=0 / deadzone=21,11 / fast_pskip=1 / chroma_qp_offset=0 / threads=12 / lookahead_threads=4 / sliced_threads=0 / nr=0 / decimate=1 / interlaced=0 / bluray_compat=0 / constrained_intra=0 / bframes=3 / b_pyramid=2 / b_adapt=1 / b_bias=0 / direct=1 / weightb=1 / open_gop=0 / weightp=1 / keyint=250 / keyint_min=23 / scenecut=40 / intra_refresh=0 / rc_lookahead=10 / rc=cbr / mbtree=1 / bitrate=1500 / ratetol=1.0 / qcomp=0.60 / qpmin=0 / qpmax=69 / qpstep=4 / vbv_maxrate=1500 / vbv_bufsize=1500 / nal_hrd=none / filler=1 / ip_ratio=1.40 / aq=1:1.00
Audio
ID : 2
Format : AAC
Format/Info : Advanced Audio Codec
Format profile : LC
Codec ID : 40
Duration : 3 min 22 s
Bit rate mode : Constant
Bit rate : 160 kb/s
Channel(s) : 2 channels
Channel positions : Front: L R
Sampling rate : 44.1 kHz
Frame rate : 43.066 FPS (1024 spf)
Compression mode : Lossy
Stream size : 3.87 MiB (10%)
Title : simple_aac
Default : Yes
Alternate group : 1
General
Complete name : D:\Группа 1\Урок №4 Цвет\Запись урока №4\Запись урока №4.mp4
Format : MPEG-4
Format profile : Base Media
Codec ID : isom (isom/iso2/avc1/mp41)
File size : 1.87 GiB
Duration : 2 h 40 min
Overall bit rate : 1 666 kb/s
Writing application : Lavf57.66.102
Video
ID : 1
Format : AVC
Format/Info : Advanced Video Codec
Format profile : [url=mailto:High@L3.1]High@L3.1[/url]
Format settings, CABAC : Yes
Format settings, ReFrames : 4 frames
Codec ID : avc1
Codec ID/Info : Advanced Video Coding
Duration : 2 h 40 min
Bit rate : 1 500 kb/s
Width : 1 280 pixels
Height : 720 pixels
Display aspect ratio : 16:9
Frame rate mode : Constant
Frame rate : 23.976 (24000/1001) FPS
Color space : YUV
Chroma subsampling : 4:2:0
Bit depth : 8 bits
Scan type : Progressive
Bits/(Pixel*Frame) : 0.068
Stream size : 1.69 GiB (90%)
Writing library : x264 core 148 r2762 90a61ec
Encoding settings : cabac=1 / ref=1 / deblock=1:0:0 / analyse=0x3:0x113 / me=hex / subme=2 / psy=1 / psy_rd=1.00:0.00 / mixed_ref=0 / me_range=16 / chroma_me=1 / trellis=0 / 8x8dct=1 / cqm=0 / deadzone=21,11 / fast_pskip=1 / chroma_qp_offset=0 / threads=12 / lookahead_threads=4 / sliced_threads=0 / nr=0 / decimate=1 / interlaced=0 / bluray_compat=0 / constrained_intra=0 / bframes=3 / b_pyramid=2 / b_adapt=1 / b_bias=0 / direct=1 / weightb=1 / open_gop=0 / weightp=1 / keyint=250 / keyint_min=23 / scenecut=40 / intra_refresh=0 / rc_lookahead=10 / rc=cbr / mbtree=1 / bitrate=1500 / ratetol=1.0 / qcomp=0.60 / qpmin=0 / qpmax=69 / qpstep=4 / vbv_maxrate=1500 / vbv_bufsize=1500 / nal_hrd=none / filler=1 / ip_ratio=1.40 / aq=1:1.00
Audio
ID : 2
Format : AAC
Format/Info : Advanced Audio Codec
Format profile : LC
Codec ID : 40
Duration : 2 h 40 min
Bit rate mode : Constant
Bit rate : 160 kb/s
Channel(s) : 2 channels
Channel positions : Front: L R
Sampling rate : 44.1 kHz
Frame rate : 43.066 FPS (1024 spf)
Compression mode : Lossy
Stream size : 184 MiB (10%)
Title : simple_aac
Default : Yes
Скриншоты:
       

XP1971

Пост 01-Мар-2018 15:41

[Цитировать]

Александр Чалдрян | Adobe Photoshop: Быстрый старт (2018) TS - Автор (режиссер): Александр Чалдрян
Производство: Россия
Жанр: Видеоурок
Описание:
Уверенная работа с яркостью, контрастом и оттенками позволит вам выполнять такие важные и нужные операции, как изменение цвета объектов, придание фотографиям креативного вида и простое коллажирование.
Вы удивитесь, осознав, что стартового набора инструментов действительно достаточно, чтобы выполнять большинство операций, возникающих у вас в голове, когда вы слышите слово «фотошоп».
Продолжительность: 03:47:34
Качество видео: TS
Видео: AVC/H.264, 1280x720, ~2400 Kbps
Аудио: AAC, 2 ch, Lossy Kbps, 48.0 KHz

Mediainfo:

General
ID : 1 (0x1)
Complete name : I:Adobe Photoshop Быстрый старт (2018) Видеокурс\1 Операции с файлами.TS
Format : MPEG-TS
File size : 465 MiB
Duration : 23mn 23s
Overall bit rate mode : Variable
Overall bit rate : 2 777 Kbps
Video
ID : 211 (0xD3)
Menu ID : 1 (0x1)
Format : AVC
Format/Info : Advanced Video Codec
Format profile : [url=mailto:High@L3.1]High@L3.1[/url]
Format settings, CABAC : Yes
Format settings, ReFrames : 4 frames
Codec ID : 27
Duration : 23mn 23s
Nominal bit rate : 2 400 Kbps
Width : 1 280 pixels
Height : 720 pixels
Display aspect ratio : 16:9
Frame rate mode : Variable
Color space : YUV
Chroma subsampling : 4:2:0
Bit depth : 8 bits
Scan type : Progressive
Writing library : x264 core 148
Encoding settings : cabac=1 / ref=3 / deblock=1:0:0 / analyse=0x3:0x113 / me=hex / subme=7 / psy=1 / psy_rd=1.00:0.00 / mixed_ref=1 / me_range=16 / chroma_me=1 / trellis=1 / 8x8dct=1 / cqm=0 / deadzone=21,11 / fast_pskip=1 / chroma_qp_offset=-2 / threads=22 / lookahead_threads=3 / sliced_threads=0 / nr=0 / decimate=1 / interlaced=0 / bluray_compat=0 / constrained_intra=0 / bframes=3 / b_pyramid=2 / b_adapt=1 / b_bias=0 / direct=1 / weightb=1 / open_gop=0 / weightp=2 / keyint=90 / keyint_min=9 / scenecut=40 / intra_refresh=0 / rc_lookahead=40 / rc=abr / mbtree=1 / bitrate=2400 / ratetol=1.0 / qcomp=0.60 / qpmin=0 / qpmax=69 / qpstep=4 / ip_ratio=1.40 / aq=1:1.00
Color range : Limited
Color primaries : BT.709
Transfer characteristics : BT.709
Matrix coefficients : BT.709
Audio
ID : 221 (0xDD)
Menu ID : 1 (0x1)
Format : AAC
Format/Info : Advanced Audio Codec
Format version : Version 4
Format profile : LC
Muxing mode : ADTS
Codec ID : 15
Duration : 23mn 23s
Bit rate mode : Variable
Channel(s) : 2 channels
Channel positions : Front: L R
Sampling rate : 44.1 KHz
Frame rate : 43.066 fps (1024 spf)
Compression mode : Lossy
Delay relative to video : -46ms

Дополнительная информация:

Содержание:
1. Операции с файлами
2. Adobe Photoshop- быстрый старт
3. Палитры и меню
4. Инструменты ручного редактирования
5. Операции базовой цветокоррекции
6. Инструменты выделения
7. Слои
8. Простые геометрические трансформации
9. Корректирующие слои
10. Кривые
11. Маска слоя
Скриншоты:
       

XP1971

Пост 21-Фев-2018 22:49

[Цитировать]

kartoha писал(а):
Проверил на Линуксе - работает !!!! В чем причина хз .
да я вроде Вам сразу написал причину то...
XP1971 писал(а):
Установите кодеки или смените плеер

kartoha

Пост 21-Фев-2018 21:12

[Цитировать]

Смотрел в стандартном виндоус 10 . Проверил на Линуксе - работает !!!! В чем причина хз .

XP1971

Пост 21-Фев-2018 19:58

[Цитировать]

kartoha писал(а):
[qpost=undefined]
Нет звука в 4-той части !
Не просто озвучки вообще звука !!
в каком плеере смотрите? Установите кодеки или смените плеер

kartoha

Пост 21-Фев-2018 19:09

[Цитировать]

Нет звука в 4-той части !
Не просто озвучки вообще звука !!

GoPlay

Пост 26-Янв-2018 20:20

[Цитировать]

Офигенный курс. Всем советую. Очень помог ускорить обучение и вывести изучение любого материала на более высокий уровень. Ты просто лучше понимаешь материал.

XP1971

Пост 06-Дек-2017 13:50

[Цитировать]

Butyara писал(а):
Заявлено, что в раздаче есть первый сезон "Современные Танцы с Ильей Вяльцевым", но в самом торренте толь сезон 2. Очень жаль!
Кнопка Список файлов:
Цитата:
Современные танцы с Ильей Вяльцевым · 15.37 GB
Сезон 1 · 7.68 GB
01 Ragga.mp4 357.70 MB (375084466)
02 Ragga.mp4 357.73 MB (375112023)
03 Ragga.mp4 357.72 MB (375098226)
04 Ragga.mp4 357.72 MB (375105482)
05 Ragga.mp4 357.72 MB (375096611)
06 Jamaica social dance.mp4 357.72 MB (375096611)
07 Ragga.mp4 357.73 MB (375107642)
08 Ragga.mp4 357.73 MB (375109288)
09 Ragga.mp4 357.70 MB (375077097)
10 Ragga.mp4 357.70 MB (375075868)
11 Ragga.mp4 357.70 MB (375076292)
12 Hip-Hop.mp4 357.70 MB (375085243)
13 Hip-Hop.mp4 357.71 MB (375092014)
14 Hip-Hop.mp4 357.68 MB (375059708)
15 Hip-Hop.mp4 357.65 MB (375025150)
16 Hip-Hop.mp4 357.68 MB (375062177)
17 Hip-Hop.mp4 357.68 MB (375057081)
18 Hip-Hop.mp4 357.67 MB (375053294)
19 Hip-Hop.mp4 357.69 MB (375075418)
20 Hip-Hop.mp4 357.69 MB (375065908)
21 Hip-Hop.mp4 357.68 MB (375055195)
22 Hip-Hop.mp4 357.70 MB (375076324)
Сезон 2 · 7.68 GB
01 Танец C-walk.mp4 357.75 MB (375132853)
02 C-walk.mp4 357.80 MB (375181261)
03 C-walk.mp4 357.74 MB (375124063)
04 Клубные танцы.mp4 357.77 MB (375156345)
05 Клубные танцы.mp4 357.75 MB (375132846)
06 Клубные танцы.mp4 357.76 MB (375146891)
07 Хип-хоп. Основа.mp4 357.76 MB (375138998)
08 Хип-хоп. Основа.mp4 357.75 MB (375132070)
09 Хип-хоп. Основа.mp4 357.75 MB (375131906)
10 Брейк-данс.mp4 357.85 MB (375236144)
11 Брейк-данс.mp4 357.81 MB (375193305)
12 Брейк-данс.mp4 357.80 MB (375182733)
13 Джексон - стиль.mp4 357.78 MB (375169195)
14 Джексон - стиль.mp4 357.79 MB (375172812)
15 Джексон - стиль.mp4 357.71 MB (375092239)
16 Джоркинг.mp4 357.77 MB (375153039)
17 Джоркинг.mp4 357.77 MB (375154505)
18 Джоркинг.mp4 357.77 MB (375152580)
19 Хип-хоп LA.mp4 357.81 MB (375192031)
20 Хип-хоп LA.mp4 357.80 MB (375185645)
21 Хип-хоп LA.mp4 357.81 MB (375191334)
22 Хип-хоп LA.mp4 357.77 MB (375150192)

Butyara

Пост 06-Дек-2017 10:54

[Цитировать]

youleela писал(а):
Omen, раздааайте, очень хоочется)
или она не рабочая?)
Заявлено, что в раздаче есть первый сезон "Современные Танцы с Ильей Вяльцевым", но в самом торренте толь сезон 2. Очень жаль!

aybulat

Пост 25-Ноя-2017 21:03

[Цитировать]

Описание от другого курса [Удалено цензурой]

}{@R0N

Пост 07-Окт-2017 23:04

[Цитировать]

M20409В: Виртуализация серверов на основе Windows Server Hyper-V и System Center - Автор (режиссер): Специалист
Производство: Шевелёв Эдуард Викторович
Жанр: Windows Server Hyper-V, System Center, Системное администрирование
Описание:
Windows Server 2012 R2 - это новая серверная операционная система компании Microsoft. Она содержит в себе весь необходимый набор новейших технологий для создания легко масштабируемой, простой и эффективной серверной платформы.
Вы приобретете знания и навыки, необходимые для практической реализации виртуализации серверов на основе Windows Server Hyper-V 2012 R2 и System Center 2012 R2.
Курс предназначен для:
- Всех заинтересованных в получении информации о новейших технологиях виртуализации Microsoft;
- IT-профессионалов, отвечающих за разработку, внедрение, и поддержку виртуальной инфраструктуры.
Описание курса на официальном сайте Microsoft
Продолжительность: 22:12:31
Качество видео: PCRec
Видео: AVC/H.264, 960х720, ~200 Kbps
Аудио: AAC, 2 ch, 74 Kbps

Mediainfo:

General
Complete name : .\[Специалист] Виртуализация серверов на основе Windows Server Hyper-V и System Center (2015)\Module_1_1 (720p).mp4
Format : MPEG-4
Format profile : Base Media / Version 2
Codec ID : mp42 (mp42/mp41/isom/avc1)
File size : 170 MiB
Duration : 1 h 25 min
Overall bit rate mode : Variable
Overall bit rate : 277 kb/s
Encoded date : UTC 2015-12-17 18:03:03
Tagged date : UTC 2015-12-17 18:03:03
Video
ID : 1
Format : AVC
Format/Info : Advanced Video Codec
Format profile : [url=mailto:High@L3.1]High@L3.1[/url]
Format settings, CABAC : Yes
Format settings, ReFrames : 5 frames
Format settings, GOP : M=4, N=69
Codec ID : avc1
Codec ID/Info : Advanced Video Coding
Duration : 1 h 25 min
Bit rate : 200 kb/s
Width : 960 pixels
Height : 720 pixels
Display aspect ratio : 4:3
Frame rate mode : Constant
Frame rate : 22.917 FPS
Color space : YUV
Chroma subsampling : 4:2:0
Bit depth : 8 bits
Scan type : Progressive
Bits/(Pixel*Frame) : 0.013
Stream size : 122 MiB (72%)
Writing library : x264 core 148 r11 7599210
Encoding settings : cabac=1 / ref=5 / deblock=1:0:0 / analyse=0x3:0x113 / me=umh / subme=8 / psy=1 / psy_rd=1.00:0.00 / mixed_ref=1 / me_range=16 / chroma_me=1 / trellis=1 / 8x8dct=1 / cqm=0 / deadzone=21,11 / fast_pskip=1 / chroma_qp_offset=-2 / threads=22 / lookahead_threads=3 / sliced_threads=0 / nr=0 / decimate=1 / interlaced=0 / bluray_compat=0 / stitchable=1 / constrained_intra=0 / bframes=3 / b_pyramid=2 / b_adapt=2 / b_bias=0 / direct=3 / weightb=1 / open_gop=0 / weightp=2 / keyint=infinite / keyint_min=22 / scenecut=40 / intra_refresh=0 / rc_lookahead=50 / rc=2pass / mbtree=1 / bitrate=200 / ratetol=1.0 / qcomp=0.60 / qpmin=5 / qpmax=69 / qpstep=4 / cplxblur=20.0 / qblur=0.5 / vbv_maxrate=2750 / vbv_bufsize=7500 / nal_hrd=none / filler=0 / ip_ratio=1.40 / aq=1:1.00
Encoded date : UTC 2015-12-17 18:03:03
Tagged date : UTC 2015-12-17 18:03:03
Color range : Limited
Color primaries : BT.709
Transfer characteristics : BT.709
Matrix coefficients : BT.709
Audio
ID : 2
Format : AAC
Format/Info : Advanced Audio Codec
Format profile : LC
Codec ID : 40
Duration : 1 h 25 min
Bit rate mode : Variable
Bit rate : 73.5 kb/s
Channel(s) : 2 channels
Channel(s)_Original : 1 channel
Channel positions : Front: C
Sampling rate : 48.0 kHz
Frame rate : 46.875 FPS (1024 spf)
Compression mode : Lossy
Stream size : 45.0 MiB (27%)
Encoded date : UTC 2015-12-17 18:03:03
Tagged date : UTC 2015-12-17 18:03:03

Дополнительная информаиця:

По окончании курса Вы будете уметь:
- Устанавливать и настраивать роль Hyper-V.
- Создавать виртуальные машины, создавать и управлять виртуальными дисками и работать со снапшотами.
- Создавать и настраивать сети виртуальных машин в Hyper-V.
- Выполнять перемещение и репликацию виртуальных машин в Hyper-V.
- Обеспечивать высокую доступность среды Hyper-V на основе отказоустойчивых кластеров.
- Управлять виртуальной инфраструктурой с использованием System Center 2012 R2 Virtual Machine Manager.
- Управлять сетевой инфраструктурой и инфраструктурой хранения данных используя System Center 2012 R2 Virtual Machine Manager.
- Выполнять настройку и управление библиотекой System Center 2012 R2 Virtual Machine Manager и объектами библиотеки.
- Создавать и управлять виртуальными машинами с помощью System Center 2012 R2 Virtual Machine Manager.
- Создавать и управлять облаками в System Center 2012 R2 Virtual Machine Manager.
- Создавать и управлять службами в System Center 2012 R2 Virtual Machine Manager.
- Защищать виртуальную инфраструктуру с помощью Windows Server Backup и Data Protection Manager.
Скриншоты:
       
 

Текущее время: Сегодня 01:15

Часовой пояс: GMT + 3