Сегодня идет свободное скачивание без начисления Download

Результатов поиска: 500

Автор Сообщение

}{@R0N

Пост 01-Мар-2018 18:29

[Цитировать]

Обучаем монтажу видео - Автор (режиссер): Руслан Прояев
Производство: Highlights
Жанр: Видео монтаж
Описание:
Курс идеально подходит для новичков в теме монтажа видео. Всего за месяц мы научим вас обрабатывать и редактировать видео на основе сегодняшних трендов в монтаже и классических приемах из кино. Кроме того, вы будете тренироваться монтажу на материалах профессиональных режиссеров и операторов, которые сотрудничают с нашей школой. Если вы хотите научиться обрабатывать видео для себя или даже начать зарабатывать на этом - ждем вас на курсе.
Что вы будете уметь уже через 4 недели? - Освоите основные монтажные приемы, которыми пользуются даже в кино. - Научитесь создавать красивые трендовые переходы - Поймете, как работать с текстурами и создать свой стиль - Освоите обработку цвета и придадите "киношный" цвет своему видео - Узнаете, как создавать текстовые заставки, титры уровня видео-дизайнера - Научитесь обрабатывать звук, удалять лишние шумы. - Узнаете, как начать зарабатывать на монтаже.
Продолжительность: 14:21:15
Качество видео: PCRec
Видео: AVC/H.264, 720x576,1280x720,1920x1080, ~1500kbps
Аудио: AAC, 2 ch, 160kbps

Подробный план занятий

ЗАНЯТИЕ №1
ВВЕДЕНИЕ В ПРОФЕССИЮ. РЕЖИССУРА МОНТАЖА.
- Что такое монтаж и его виды
- Основные этапы монтажа на практике обработки видео.
- Тренды в монтаже
- Хороший-плохой монтаж
- Источники вдохновения и полезные ресурсы
ЗАНЯТИЕ №2
ЗНАКОМСТВО С ПРОГРАММОЙ Adobe Premiere. ОСНОВНЫЕ МОНТАЖНЫЕ ПРИЕМЫ.
- Основные правила монтажа
- 6 приемов монтажа
- Практика работы в программе на примере Travel видео, свадьбы и документального видео.
- Изучаем интерфейс программы, рабочие окна, таймлайн. - - Виды переходов, склейка видео.
- Работа с изображениями и ключами анимации
ЗАНЯТИЕ №3
ЭФФЕКТЫ
- Трендовые fx переходы
- Стилизация изображения
- Работа с качеством изображения (удаление шумов, повышение резкости)
- Работа с масками
- Визуальные эффекты (blur, glitch)
ЗАНЯТИЕ №4
ЦВЕТОКОРРЕКЦИЯ
- Сочетания цветов, гармонии.
- Как брать цвет из других фильмов.
- Полезные ресурсы и материалы
- Цветокоррекция изображения (Яркость, контраст, баланс белого)
- Цветообработка/color grading (тонирование, художественная обработка, придание атмосферы, стиля)
- Лучшие книги, документальные видео о цвете. (саморазвитие)
ЗАНЯТИЕ 5
РАБОТА С ТЕКСТОМ ( титрами )
- Виды текстовых заставок, титров.
- Основы композиции
- Где взять шрифты бесплатно?
- Основные инструменты для работы с текстом.
- Учимся простейшей анимации текста.
- Делаем титры и заставки из известных фильмов
ЗАНЯТИЕ №6
ПРАКТИКА РАБОТЫ СО ЗВУКОМ
- Панель Audio Mixer.
- Особенности добавления звука в Adobe Premiere.
- Звуковые переходы.
- Звуковые эффекты.
- Основы обработки звука.
- Где брать бесплатную музыку?
ЗАНЯТИЕ №7
КАК НАЧАТЬ ЗАРАБАТЫВАТЬ?
- Практические советы из личного опыта преподавателя.
- Рынок труда: продакшн студии, фриланс.
- Создаем свое портфолио
- Делаем Шоурил
- Знакомимся с рекламными площадками для размещения своих работ.

Бонусы

1) Neat Video 3.2 Pro for Adobe Premiere Pro CS6
Описание: Плагин представляет передовую технологию для удаления шумов с видео и изображений. Лучшее на сегодня соотношение характеристик в своем классе.
2) Плагин Twitch — это потрясающий плагин, предназначенный для создания различного рода помех.
3) FilmImpact.net Transition Packs v3.5.4 CE Bundle
Комплект из 30 красивых переходов от FilmImpact.net
4) Футажи 5dleaks ,Artbeats Film Clutter 2,Circle Burst,Free 4K Light Leaks,Gorilla Grain,Hollywood Grain in Resolve,LUSTER Film Burns [12 Pack],mDusts 100 Organic Dust Elements,mLeaks,MotionVFX mRays 2K-iW0RLD,mSmokes h264,Rampant_4K_Flash_Transitions_FREE,Rampant_4K_Light_Transitions_FREE,Rampant_4K_ShadowLight_FREE,Rampant_Studio_Mattes_FREE,RGrain Complete Pack
5) Книга - Александра Митта - кино между адом и раем
6) Книга - Павла Косенко живая цифра
7) Книга - Юрия Гордон - Книга про буквы от А до Я (2006)
8) Книга - Александра Королькова - Живая Типографика (2007)
9) Книга - Яна Чихольда «Новая типографика. Руководство для современного дизайнера» (2011)
10) Руководство по цветовой коррекции: профессиональные техники для видео и кино (Color Correction Handbook: Professional Techniques for Video and Cinema by Alexis Van Hurkman )
11) Документальный фильм "Гельветика" (2007) (Фильм о типографике, графическом дизайне и визуальной культуре в целом. Сквозь призму распространения одного шрифта, которому исполнилось 50 лет в 2007 году, в фильме рассматривается общий вопрос о том, как шрифт влияет на нашу жизнь. Фильм представляет собой исследование городского пространства и шрифтов, которые его наполняют, а также цикл бесед с известными дизайнерами об их работе, творческом процессе, выборе и эстетической составляющей шрифтов.)

Mediainfo:

Complete name                  : D:\Группа 1\Урок №1 Введение в профессию\Запись урока (прямой трансляции)\Урок №1 Введение пв профессию.mp4
Format : MPEG-4
Format profile : Base Media
Codec ID : isom (isom/iso2/avc1/mp41)
File size : 2.23 GiB
Duration : 3 h 11 min
Overall bit rate : 1 666 kb/s
Writing application : Lavf57.66.102
Video
ID : 1
Format : AVC
Format/Info : Advanced Video Codec
Format profile : [url=mailto:High@L3.1]High@L3.1[/url]
Format settings, CABAC : Yes
Format settings, ReFrames : 4 frames
Codec ID : avc1
Codec ID/Info : Advanced Video Coding
Duration : 3 h 11 min
Bit rate : 1 500 kb/s
Width : 1 280 pixels
Height : 720 pixels
Display aspect ratio : 16:9
Frame rate mode : Constant
Frame rate : 23.976 (24000/1001) FPS
Color space : YUV
Chroma subsampling : 4:2:0
Bit depth : 8 bits
Scan type : Progressive
Bits/(Pixel*Frame) : 0.068
Stream size : 2.01 GiB (90%)
Writing library : x264 core 148 r2762 90a61ec
Encoding settings : cabac=1 / ref=1 / deblock=1:0:0 / analyse=0x3:0x113 / me=hex / subme=2 / psy=1 / psy_rd=1.00:0.00 / mixed_ref=0 / me_range=16 / chroma_me=1 / trellis=0 / 8x8dct=1 / cqm=0 / deadzone=21,11 / fast_pskip=1 / chroma_qp_offset=0 / threads=12 / lookahead_threads=4 / sliced_threads=0 / nr=0 / decimate=1 / interlaced=0 / bluray_compat=0 / constrained_intra=0 / bframes=3 / b_pyramid=2 / b_adapt=1 / b_bias=0 / direct=1 / weightb=1 / open_gop=0 / weightp=1 / keyint=250 / keyint_min=23 / scenecut=40 / intra_refresh=0 / rc_lookahead=10 / rc=cbr / mbtree=1 / bitrate=1500 / ratetol=1.0 / qcomp=0.60 / qpmin=0 / qpmax=69 / qpstep=4 / vbv_maxrate=1500 / vbv_bufsize=1500 / nal_hrd=none / filler=1 / ip_ratio=1.40 / aq=1:1.00
Audio
ID : 2
Format : AAC
Format/Info : Advanced Audio Codec
Format profile : LC
Codec ID : 40
Duration : 3 h 11 min
Bit rate mode : Constant
Bit rate : 160 kb/s
Channel(s) : 2 channels
Channel positions : Front: L R
Sampling rate : 44.1 kHz
Frame rate : 43.066 FPS (1024 spf)
Compression mode : Lossy
Stream size : 220 MiB (10%)
Title : simple_aac
Default : Yes
Alternate group : 1
General
Complete name : D:\Группа 1\Урок №4 Цвет\Запись урока №4\Lesson 4 - Плагин Looks и работа с кожей.mp4
Format : MPEG-4
Format profile : Base Media
Codec ID : isom (isom/iso2/avc1/mp41)
File size : 99.3 MiB
Duration : 8 min 20 s
Overall bit rate : 1 666 kb/s
Writing application : Lavf57.66.102
Video
ID : 1
Format : AVC
Format/Info : Advanced Video Codec
Format profile : [url=mailto:High@L3.1]High@L3.1[/url]
Format settings, CABAC : Yes
Format settings, ReFrames : 4 frames
Codec ID : avc1
Codec ID/Info : Advanced Video Coding
Duration : 8 min 20 s
Bit rate : 1 500 kb/s
Width : 1 280 pixels
Height : 720 pixels
Display aspect ratio : 16:9
Frame rate mode : Constant
Frame rate : 23.976 (24000/1001) FPS
Color space : YUV
Chroma subsampling : 4:2:0
Bit depth : 8 bits
Scan type : Progressive
Bits/(Pixel*Frame) : 0.068
Stream size : 89.4 MiB (90%)
Writing library : x264 core 148 r2762 90a61ec
Encoding settings : cabac=1 / ref=1 / deblock=1:0:0 / analyse=0x3:0x113 / me=hex / subme=2 / psy=1 / psy_rd=1.00:0.00 / mixed_ref=0 / me_range=16 / chroma_me=1 / trellis=0 / 8x8dct=1 / cqm=0 / deadzone=21,11 / fast_pskip=1 / chroma_qp_offset=0 / threads=12 / lookahead_threads=4 / sliced_threads=0 / nr=0 / decimate=1 / interlaced=0 / bluray_compat=0 / constrained_intra=0 / bframes=3 / b_pyramid=2 / b_adapt=1 / b_bias=0 / direct=1 / weightb=1 / open_gop=0 / weightp=1 / keyint=250 / keyint_min=23 / scenecut=40 / intra_refresh=0 / rc_lookahead=10 / rc=cbr / mbtree=1 / bitrate=1500 / ratetol=1.0 / qcomp=0.60 / qpmin=0 / qpmax=69 / qpstep=4 / vbv_maxrate=1500 / vbv_bufsize=1500 / nal_hrd=none / filler=1 / ip_ratio=1.40 / aq=1:1.00
Audio
ID : 2
Format : AAC
Format/Info : Advanced Audio Codec
Format profile : LC
Codec ID : 40
Duration : 8 min 20 s
Bit rate mode : Constant
Bit rate : 160 kb/s
Channel(s) : 2 channels
Channel positions : Front: L R
Sampling rate : 44.1 kHz
Frame rate : 43.066 FPS (1024 spf)
Compression mode : Lossy
Stream size : 9.54 MiB (10%)
Title : simple_aac
Default : Yes
Alternate group : 1
General
Complete name : D:\Группа 1\Урок №4 Цвет\Запись урока №4\Lesson 4 - Про LUTs и лень.mp4
Format : MPEG-4
Format profile : Base Media
Codec ID : isom (isom/iso2/avc1/mp41)
File size : 40.3 MiB
Duration : 3 min 22 s
Overall bit rate : 1 666 kb/s
Writing application : Lavf57.66.102
Video
ID : 1
Format : AVC
Format/Info : Advanced Video Codec
Format profile : [url=mailto:High@L3.1]High@L3.1[/url]
Format settings, CABAC : Yes
Format settings, ReFrames : 4 frames
Codec ID : avc1
Codec ID/Info : Advanced Video Coding
Duration : 3 min 22 s
Bit rate : 1 500 kb/s
Width : 1 280 pixels
Height : 720 pixels
Display aspect ratio : 16:9
Frame rate mode : Constant
Frame rate : 23.976 (24000/1001) FPS
Color space : YUV
Chroma subsampling : 4:2:0
Bit depth : 8 bits
Scan type : Progressive
Bits/(Pixel*Frame) : 0.068
Stream size : 36.3 MiB (90%)
Writing library : x264 core 148 r2762 90a61ec
Encoding settings : cabac=1 / ref=1 / deblock=1:0:0 / analyse=0x3:0x113 / me=hex / subme=2 / psy=1 / psy_rd=1.00:0.00 / mixed_ref=0 / me_range=16 / chroma_me=1 / trellis=0 / 8x8dct=1 / cqm=0 / deadzone=21,11 / fast_pskip=1 / chroma_qp_offset=0 / threads=12 / lookahead_threads=4 / sliced_threads=0 / nr=0 / decimate=1 / interlaced=0 / bluray_compat=0 / constrained_intra=0 / bframes=3 / b_pyramid=2 / b_adapt=1 / b_bias=0 / direct=1 / weightb=1 / open_gop=0 / weightp=1 / keyint=250 / keyint_min=23 / scenecut=40 / intra_refresh=0 / rc_lookahead=10 / rc=cbr / mbtree=1 / bitrate=1500 / ratetol=1.0 / qcomp=0.60 / qpmin=0 / qpmax=69 / qpstep=4 / vbv_maxrate=1500 / vbv_bufsize=1500 / nal_hrd=none / filler=1 / ip_ratio=1.40 / aq=1:1.00
Audio
ID : 2
Format : AAC
Format/Info : Advanced Audio Codec
Format profile : LC
Codec ID : 40
Duration : 3 min 22 s
Bit rate mode : Constant
Bit rate : 160 kb/s
Channel(s) : 2 channels
Channel positions : Front: L R
Sampling rate : 44.1 kHz
Frame rate : 43.066 FPS (1024 spf)
Compression mode : Lossy
Stream size : 3.87 MiB (10%)
Title : simple_aac
Default : Yes
Alternate group : 1
General
Complete name : D:\Группа 1\Урок №4 Цвет\Запись урока №4\Запись урока №4.mp4
Format : MPEG-4
Format profile : Base Media
Codec ID : isom (isom/iso2/avc1/mp41)
File size : 1.87 GiB
Duration : 2 h 40 min
Overall bit rate : 1 666 kb/s
Writing application : Lavf57.66.102
Video
ID : 1
Format : AVC
Format/Info : Advanced Video Codec
Format profile : [url=mailto:High@L3.1]High@L3.1[/url]
Format settings, CABAC : Yes
Format settings, ReFrames : 4 frames
Codec ID : avc1
Codec ID/Info : Advanced Video Coding
Duration : 2 h 40 min
Bit rate : 1 500 kb/s
Width : 1 280 pixels
Height : 720 pixels
Display aspect ratio : 16:9
Frame rate mode : Constant
Frame rate : 23.976 (24000/1001) FPS
Color space : YUV
Chroma subsampling : 4:2:0
Bit depth : 8 bits
Scan type : Progressive
Bits/(Pixel*Frame) : 0.068
Stream size : 1.69 GiB (90%)
Writing library : x264 core 148 r2762 90a61ec
Encoding settings : cabac=1 / ref=1 / deblock=1:0:0 / analyse=0x3:0x113 / me=hex / subme=2 / psy=1 / psy_rd=1.00:0.00 / mixed_ref=0 / me_range=16 / chroma_me=1 / trellis=0 / 8x8dct=1 / cqm=0 / deadzone=21,11 / fast_pskip=1 / chroma_qp_offset=0 / threads=12 / lookahead_threads=4 / sliced_threads=0 / nr=0 / decimate=1 / interlaced=0 / bluray_compat=0 / constrained_intra=0 / bframes=3 / b_pyramid=2 / b_adapt=1 / b_bias=0 / direct=1 / weightb=1 / open_gop=0 / weightp=1 / keyint=250 / keyint_min=23 / scenecut=40 / intra_refresh=0 / rc_lookahead=10 / rc=cbr / mbtree=1 / bitrate=1500 / ratetol=1.0 / qcomp=0.60 / qpmin=0 / qpmax=69 / qpstep=4 / vbv_maxrate=1500 / vbv_bufsize=1500 / nal_hrd=none / filler=1 / ip_ratio=1.40 / aq=1:1.00
Audio
ID : 2
Format : AAC
Format/Info : Advanced Audio Codec
Format profile : LC
Codec ID : 40
Duration : 2 h 40 min
Bit rate mode : Constant
Bit rate : 160 kb/s
Channel(s) : 2 channels
Channel positions : Front: L R
Sampling rate : 44.1 kHz
Frame rate : 43.066 FPS (1024 spf)
Compression mode : Lossy
Stream size : 184 MiB (10%)
Title : simple_aac
Default : Yes
Скриншоты:
       

XP1971

Пост 01-Мар-2018 15:41

[Цитировать]

Александр Чалдрян | Adobe Photoshop: Быстрый старт (2018) TS - Автор (режиссер): Александр Чалдрян
Производство: Россия
Жанр: Видеоурок
Описание:
Уверенная работа с яркостью, контрастом и оттенками позволит вам выполнять такие важные и нужные операции, как изменение цвета объектов, придание фотографиям креативного вида и простое коллажирование.
Вы удивитесь, осознав, что стартового набора инструментов действительно достаточно, чтобы выполнять большинство операций, возникающих у вас в голове, когда вы слышите слово «фотошоп».
Продолжительность: 03:47:34
Качество видео: TS
Видео: AVC/H.264, 1280x720, ~2400 Kbps
Аудио: AAC, 2 ch, Lossy Kbps, 48.0 KHz

Mediainfo:

General
ID : 1 (0x1)
Complete name : I:Adobe Photoshop Быстрый старт (2018) Видеокурс\1 Операции с файлами.TS
Format : MPEG-TS
File size : 465 MiB
Duration : 23mn 23s
Overall bit rate mode : Variable
Overall bit rate : 2 777 Kbps
Video
ID : 211 (0xD3)
Menu ID : 1 (0x1)
Format : AVC
Format/Info : Advanced Video Codec
Format profile : [url=mailto:High@L3.1]High@L3.1[/url]
Format settings, CABAC : Yes
Format settings, ReFrames : 4 frames
Codec ID : 27
Duration : 23mn 23s
Nominal bit rate : 2 400 Kbps
Width : 1 280 pixels
Height : 720 pixels
Display aspect ratio : 16:9
Frame rate mode : Variable
Color space : YUV
Chroma subsampling : 4:2:0
Bit depth : 8 bits
Scan type : Progressive
Writing library : x264 core 148
Encoding settings : cabac=1 / ref=3 / deblock=1:0:0 / analyse=0x3:0x113 / me=hex / subme=7 / psy=1 / psy_rd=1.00:0.00 / mixed_ref=1 / me_range=16 / chroma_me=1 / trellis=1 / 8x8dct=1 / cqm=0 / deadzone=21,11 / fast_pskip=1 / chroma_qp_offset=-2 / threads=22 / lookahead_threads=3 / sliced_threads=0 / nr=0 / decimate=1 / interlaced=0 / bluray_compat=0 / constrained_intra=0 / bframes=3 / b_pyramid=2 / b_adapt=1 / b_bias=0 / direct=1 / weightb=1 / open_gop=0 / weightp=2 / keyint=90 / keyint_min=9 / scenecut=40 / intra_refresh=0 / rc_lookahead=40 / rc=abr / mbtree=1 / bitrate=2400 / ratetol=1.0 / qcomp=0.60 / qpmin=0 / qpmax=69 / qpstep=4 / ip_ratio=1.40 / aq=1:1.00
Color range : Limited
Color primaries : BT.709
Transfer characteristics : BT.709
Matrix coefficients : BT.709
Audio
ID : 221 (0xDD)
Menu ID : 1 (0x1)
Format : AAC
Format/Info : Advanced Audio Codec
Format version : Version 4
Format profile : LC
Muxing mode : ADTS
Codec ID : 15
Duration : 23mn 23s
Bit rate mode : Variable
Channel(s) : 2 channels
Channel positions : Front: L R
Sampling rate : 44.1 KHz
Frame rate : 43.066 fps (1024 spf)
Compression mode : Lossy
Delay relative to video : -46ms

Дополнительная информация:

Содержание:
1. Операции с файлами
2. Adobe Photoshop- быстрый старт
3. Палитры и меню
4. Инструменты ручного редактирования
5. Операции базовой цветокоррекции
6. Инструменты выделения
7. Слои
8. Простые геометрические трансформации
9. Корректирующие слои
10. Кривые
11. Маска слоя
Скриншоты:
       

XP1971

Пост 21-Фев-2018 22:49

[Цитировать]

kartoha писал(а):
Проверил на Линуксе - работает !!!! В чем причина хз .
да я вроде Вам сразу написал причину то...
XP1971 писал(а):
Установите кодеки или смените плеер

kartoha

Пост 21-Фев-2018 21:12

[Цитировать]

Смотрел в стандартном виндоус 10 . Проверил на Линуксе - работает !!!! В чем причина хз .

XP1971

Пост 21-Фев-2018 19:58

[Цитировать]

kartoha писал(а):
[qpost=undefined]
Нет звука в 4-той части !
Не просто озвучки вообще звука !!
в каком плеере смотрите? Установите кодеки или смените плеер

kartoha

Пост 21-Фев-2018 19:09

[Цитировать]

Нет звука в 4-той части !
Не просто озвучки вообще звука !!

GoPlay

Пост 26-Янв-2018 20:20

[Цитировать]

Офигенный курс. Всем советую. Очень помог ускорить обучение и вывести изучение любого материала на более высокий уровень. Ты просто лучше понимаешь материал.

XP1971

Пост 06-Дек-2017 13:50

[Цитировать]

Butyara писал(а):
Заявлено, что в раздаче есть первый сезон "Современные Танцы с Ильей Вяльцевым", но в самом торренте толь сезон 2. Очень жаль!
Кнопка Список файлов:
Цитата:
Современные танцы с Ильей Вяльцевым · 15.37 GB
Сезон 1 · 7.68 GB
01 Ragga.mp4 357.70 MB (375084466)
02 Ragga.mp4 357.73 MB (375112023)
03 Ragga.mp4 357.72 MB (375098226)
04 Ragga.mp4 357.72 MB (375105482)
05 Ragga.mp4 357.72 MB (375096611)
06 Jamaica social dance.mp4 357.72 MB (375096611)
07 Ragga.mp4 357.73 MB (375107642)
08 Ragga.mp4 357.73 MB (375109288)
09 Ragga.mp4 357.70 MB (375077097)
10 Ragga.mp4 357.70 MB (375075868)
11 Ragga.mp4 357.70 MB (375076292)
12 Hip-Hop.mp4 357.70 MB (375085243)
13 Hip-Hop.mp4 357.71 MB (375092014)
14 Hip-Hop.mp4 357.68 MB (375059708)
15 Hip-Hop.mp4 357.65 MB (375025150)
16 Hip-Hop.mp4 357.68 MB (375062177)
17 Hip-Hop.mp4 357.68 MB (375057081)
18 Hip-Hop.mp4 357.67 MB (375053294)
19 Hip-Hop.mp4 357.69 MB (375075418)
20 Hip-Hop.mp4 357.69 MB (375065908)
21 Hip-Hop.mp4 357.68 MB (375055195)
22 Hip-Hop.mp4 357.70 MB (375076324)
Сезон 2 · 7.68 GB
01 Танец C-walk.mp4 357.75 MB (375132853)
02 C-walk.mp4 357.80 MB (375181261)
03 C-walk.mp4 357.74 MB (375124063)
04 Клубные танцы.mp4 357.77 MB (375156345)
05 Клубные танцы.mp4 357.75 MB (375132846)
06 Клубные танцы.mp4 357.76 MB (375146891)
07 Хип-хоп. Основа.mp4 357.76 MB (375138998)
08 Хип-хоп. Основа.mp4 357.75 MB (375132070)
09 Хип-хоп. Основа.mp4 357.75 MB (375131906)
10 Брейк-данс.mp4 357.85 MB (375236144)
11 Брейк-данс.mp4 357.81 MB (375193305)
12 Брейк-данс.mp4 357.80 MB (375182733)
13 Джексон - стиль.mp4 357.78 MB (375169195)
14 Джексон - стиль.mp4 357.79 MB (375172812)
15 Джексон - стиль.mp4 357.71 MB (375092239)
16 Джоркинг.mp4 357.77 MB (375153039)
17 Джоркинг.mp4 357.77 MB (375154505)
18 Джоркинг.mp4 357.77 MB (375152580)
19 Хип-хоп LA.mp4 357.81 MB (375192031)
20 Хип-хоп LA.mp4 357.80 MB (375185645)
21 Хип-хоп LA.mp4 357.81 MB (375191334)
22 Хип-хоп LA.mp4 357.77 MB (375150192)

Butyara

Пост 06-Дек-2017 10:54

[Цитировать]

youleela писал(а):
Omen, раздааайте, очень хоочется)
или она не рабочая?)
Заявлено, что в раздаче есть первый сезон "Современные Танцы с Ильей Вяльцевым", но в самом торренте толь сезон 2. Очень жаль!

aybulat

Пост 25-Ноя-2017 21:03

[Цитировать]

Описание от другого курса [Удалено цензурой]

}{@R0N

Пост 07-Окт-2017 23:04

[Цитировать]

M20409В: Виртуализация серверов на основе Windows Server Hyper-V и System Center - Автор (режиссер): Специалист
Производство: Шевелёв Эдуард Викторович
Жанр: Windows Server Hyper-V, System Center, Системное администрирование
Описание:
Windows Server 2012 R2 - это новая серверная операционная система компании Microsoft. Она содержит в себе весь необходимый набор новейших технологий для создания легко масштабируемой, простой и эффективной серверной платформы.
Вы приобретете знания и навыки, необходимые для практической реализации виртуализации серверов на основе Windows Server Hyper-V 2012 R2 и System Center 2012 R2.
Курс предназначен для:
- Всех заинтересованных в получении информации о новейших технологиях виртуализации Microsoft;
- IT-профессионалов, отвечающих за разработку, внедрение, и поддержку виртуальной инфраструктуры.
Описание курса на официальном сайте Microsoft
Продолжительность: 22:12:31
Качество видео: PCRec
Видео: AVC/H.264, 960х720, ~200 Kbps
Аудио: AAC, 2 ch, 74 Kbps

Mediainfo:

General
Complete name : .\[Специалист] Виртуализация серверов на основе Windows Server Hyper-V и System Center (2015)\Module_1_1 (720p).mp4
Format : MPEG-4
Format profile : Base Media / Version 2
Codec ID : mp42 (mp42/mp41/isom/avc1)
File size : 170 MiB
Duration : 1 h 25 min
Overall bit rate mode : Variable
Overall bit rate : 277 kb/s
Encoded date : UTC 2015-12-17 18:03:03
Tagged date : UTC 2015-12-17 18:03:03
Video
ID : 1
Format : AVC
Format/Info : Advanced Video Codec
Format profile : [url=mailto:High@L3.1]High@L3.1[/url]
Format settings, CABAC : Yes
Format settings, ReFrames : 5 frames
Format settings, GOP : M=4, N=69
Codec ID : avc1
Codec ID/Info : Advanced Video Coding
Duration : 1 h 25 min
Bit rate : 200 kb/s
Width : 960 pixels
Height : 720 pixels
Display aspect ratio : 4:3
Frame rate mode : Constant
Frame rate : 22.917 FPS
Color space : YUV
Chroma subsampling : 4:2:0
Bit depth : 8 bits
Scan type : Progressive
Bits/(Pixel*Frame) : 0.013
Stream size : 122 MiB (72%)
Writing library : x264 core 148 r11 7599210
Encoding settings : cabac=1 / ref=5 / deblock=1:0:0 / analyse=0x3:0x113 / me=umh / subme=8 / psy=1 / psy_rd=1.00:0.00 / mixed_ref=1 / me_range=16 / chroma_me=1 / trellis=1 / 8x8dct=1 / cqm=0 / deadzone=21,11 / fast_pskip=1 / chroma_qp_offset=-2 / threads=22 / lookahead_threads=3 / sliced_threads=0 / nr=0 / decimate=1 / interlaced=0 / bluray_compat=0 / stitchable=1 / constrained_intra=0 / bframes=3 / b_pyramid=2 / b_adapt=2 / b_bias=0 / direct=3 / weightb=1 / open_gop=0 / weightp=2 / keyint=infinite / keyint_min=22 / scenecut=40 / intra_refresh=0 / rc_lookahead=50 / rc=2pass / mbtree=1 / bitrate=200 / ratetol=1.0 / qcomp=0.60 / qpmin=5 / qpmax=69 / qpstep=4 / cplxblur=20.0 / qblur=0.5 / vbv_maxrate=2750 / vbv_bufsize=7500 / nal_hrd=none / filler=0 / ip_ratio=1.40 / aq=1:1.00
Encoded date : UTC 2015-12-17 18:03:03
Tagged date : UTC 2015-12-17 18:03:03
Color range : Limited
Color primaries : BT.709
Transfer characteristics : BT.709
Matrix coefficients : BT.709
Audio
ID : 2
Format : AAC
Format/Info : Advanced Audio Codec
Format profile : LC
Codec ID : 40
Duration : 1 h 25 min
Bit rate mode : Variable
Bit rate : 73.5 kb/s
Channel(s) : 2 channels
Channel(s)_Original : 1 channel
Channel positions : Front: C
Sampling rate : 48.0 kHz
Frame rate : 46.875 FPS (1024 spf)
Compression mode : Lossy
Stream size : 45.0 MiB (27%)
Encoded date : UTC 2015-12-17 18:03:03
Tagged date : UTC 2015-12-17 18:03:03

Дополнительная информаиця:

По окончании курса Вы будете уметь:
- Устанавливать и настраивать роль Hyper-V.
- Создавать виртуальные машины, создавать и управлять виртуальными дисками и работать со снапшотами.
- Создавать и настраивать сети виртуальных машин в Hyper-V.
- Выполнять перемещение и репликацию виртуальных машин в Hyper-V.
- Обеспечивать высокую доступность среды Hyper-V на основе отказоустойчивых кластеров.
- Управлять виртуальной инфраструктурой с использованием System Center 2012 R2 Virtual Machine Manager.
- Управлять сетевой инфраструктурой и инфраструктурой хранения данных используя System Center 2012 R2 Virtual Machine Manager.
- Выполнять настройку и управление библиотекой System Center 2012 R2 Virtual Machine Manager и объектами библиотеки.
- Создавать и управлять виртуальными машинами с помощью System Center 2012 R2 Virtual Machine Manager.
- Создавать и управлять облаками в System Center 2012 R2 Virtual Machine Manager.
- Создавать и управлять службами в System Center 2012 R2 Virtual Machine Manager.
- Защищать виртуальную инфраструктуру с помощью Windows Server Backup и Data Protection Manager.
Скриншоты:
       

}{@R0N

Пост 07-Окт-2017 23:03

[Цитировать]

Интернет-магазин на React/Redux - Автор (режиссер): MonsterLessons
Жанр: Redux, React, Веб-программирование
Описание:
В этой серии мы с вами напишем интернет-магазин от начала и до конца используя React и Redux.
Чему вы научитесь:
- Структурировать и конфигурировать проект
- Писать хороший код в React и Redux на реальном проекте
- Создавать переиспользуемые селекторы и компоненты
- Отделять работу с данными от екшенов
- Использовать библиотеку Ramda для удобной работы с данными
- Получать данные от API
Продолжительность: 02:42:09
Качество видео: PCRec
Видео: AVC/H.264, 1280x720, ~999 Kbps
Аудио: AAC, 2 ch, 242 Kbps

Mediainfo:

General
Complete name : .\[MonsterLessons] Интернет-магазин на React+Redux (2017)\0\Интернет-магазин на ReactRedux.mp4
Format : MPEG-4
Format profile : Base Media / Version 2
Codec ID : mp42 (isom/iso2/avc1/mp41)
File size : 28.1 MiB
Duration : 3 min 9 s
Overall bit rate mode : Variable
Overall bit rate : 1 245 kb/s
Encoded date : UTC 2017-06-12 14:40:08
Tagged date : UTC 2017-06-12 14:41:31
Video
ID : 1
Format : AVC
Format/Info : Advanced Video Codec
Format profile : [url=mailto:Main@L3.1]Main@L3.1[/url]
Format settings, CABAC : Yes
Format settings, ReFrames : 5 frames
Codec ID : avc1
Codec ID/Info : Advanced Video Coding
Duration : 3 min 9 s
Bit rate : 999 kb/s
Width : 1 280 pixels
Height : 720 pixels
Display aspect ratio : 16:9
Frame rate mode : Constant
Frame rate : 30.000 FPS
Color space : YUV
Chroma subsampling : 4:2:0
Bit depth : 8 bits
Scan type : Progressive
Bits/(Pixel*Frame) : 0.036
Stream size : 22.6 MiB (80%)
Encoded date : UTC 2017-06-12 14:40:08
Tagged date : UTC 2017-06-12 14:41:30
Color primaries : BT.709
Transfer characteristics : BT.709
Matrix coefficients : BT.709
Audio
ID : 2
Format : AAC
Format/Info : Advanced Audio Codec
Format profile : LC
Codec ID : 40
Duration : 3 min 9 s
Bit rate mode : Variable
Bit rate : 242 kb/s
Maximum bit rate : 293 kb/s
Channel(s) : 2 channels
Channel positions : Front: L R
Sampling rate : 44.1 kHz
Frame rate : 43.066 FPS (1024 spf)
Compression mode : Lossy
Stream size : 5.46 MiB (19%)
Encoded date : UTC 2017-06-12 14:40:08
Tagged date : UTC 2017-06-12 14:40:17

Дополнительная информация:

Необходимые знания
- Javascript
- React
- Redux
Для кого этот курс
- Для всех, кто уже немного разобрался с React и Redux, но хочет реализовать реальный проект от начала и до конца и понять, как все работает.
Скриншоты:
       

}{@R0N

Пост 07-Окт-2017 23:03

[Цитировать]

VMware vSphere. Уровень 1. Внедрение и эксплуатация vSphere 6.5 - Автор (режиссер): Специалист
Жанр: VMware vSphere, Системное администрирование
Описание:
VMware vSphere – решение виртуализации масштаба предприятия, построенное на базе гипервизоров ESXi/ESX, и управляемое с помощью решения vCenter Server.
Курс предназначен для ИТ-специалистов, крупных и средних предприятий, которые желают получить знания и опыт работы с современными средствами виртуализации серверов на базе технологий компании VMware и новейшего продукта VMware vSphere 6.
Продолжительность: 25:58:18
Качество видео: PCRec
Видео: AVC/H.264, 900х720, ~242 Kbps
Аудио: AAC, 2 ch, 118 Kbps

Mediainfo:

General
Complete name : .\[Специалист] VMware vSphere. Уровень 1. Внедрение и эксплуатация vSphere 6.5 (2017)\2017-07-03_11_23_VMVARE1-G_03_07-07_07_u-d_RA.mp4
Format : MPEG-4
Format profile : Base Media / Version 2
Codec ID : mp42 (mp42/mp41/isom/avc1)
File size : 673 MiB
Duration : 4 h 18 min
Overall bit rate mode : Variable
Overall bit rate : 364 kb/s
Encoded date : UTC 2017-09-07 16:26:15
Tagged date : UTC 2017-09-07 16:26:15
Video
ID : 1
Format : AVC
Format/Info : Advanced Video Codec
Format profile : [url=mailto:High@L3.2]High@L3.2[/url]
Format settings, CABAC : Yes
Format settings, ReFrames : 5 frames
Format settings, GOP : M=4, N=73
Codec ID : avc1
Codec ID/Info : Advanced Video Coding
Duration : 4 h 18 min
Bit rate : 242 kb/s
Width : 900 pixels
Height : 720 pixels
Display aspect ratio : 5:4
Frame rate mode : Constant
Frame rate : 24.226 FPS
Color space : YUV
Chroma subsampling : 4:2:0
Bit depth : 8 bits
Scan type : Progressive
Bits/(Pixel*Frame) : 0.015
Stream size : 448 MiB (67%)
Writing library : x264 core 150 r10 df79067
Encoding settings : cabac=1 / ref=5 / deblock=1:0:0 / analyse=0x3:0x113 / me=hex / subme=8 / psy=1 / psy_rd=1.00:0.00 / mixed_ref=1 / me_range=16 / chroma_me=1 / trellis=2 / 8x8dct=1 / cqm=0 / deadzone=21,11 / fast_pskip=1 / chroma_qp_offset=-2 / threads=22 / lookahead_threads=3 / sliced_threads=0 / nr=0 / decimate=1 / interlaced=0 / bluray_compat=0 / stitchable=1 / constrained_intra=0 / bframes=3 / b_pyramid=2 / b_adapt=1 / b_bias=0 / direct=3 / weightb=1 / open_gop=0 / weightp=2 / keyint=infinite / keyint_min=24 / scenecut=40 / intra_refresh=0 / rc_lookahead=50 / rc=crf / mbtree=1 / crf=20.0 / qcomp=0.60 / qpmin=5 / qpmax=69 / qpstep=4 / vbv_maxrate=2750 / vbv_bufsize=7500 / crf_max=0.0 / nal_hrd=none / filler=0 / ip_ratio=1.40 / aq=1:1.00
Encoded date : UTC 2017-09-07 16:26:15
Tagged date : UTC 2017-09-07 16:26:15
Color range : Limited
Color primaries : BT.709
Transfer characteristics : BT.709
Matrix coefficients : BT.709
Audio
ID : 2
Format : AAC
Format/Info : Advanced Audio Codec
Format profile : LC
Codec ID : 40
Duration : 4 h 18 min
Bit rate mode : Variable
Bit rate : 118 kb/s
Channel(s) : 2 channels
Channel(s)_Original : 1 channel
Channel positions : Front: C
Sampling rate : 48.0 kHz
Frame rate : 46.875 FPS (1024 spf)
Compression mode : Lossy
Stream size : 218 MiB (32%)
Encoded date : UTC 2017-09-07 16:26:15
Tagged date : UTC 2017-09-07 16:26:15

Дополнительная информация:

Цель курса:
Научиться внедрять и поддерживать в работоспособном состоянии инфраструктуру виртуализации масштаба предприятия на основе Vmware vSphere: VMware ESXi /ESX и vCenter Server.
По окончании курса Вы будете уметь:
- Внедрять и конфигурировать гипервизоры ESXi
- Внедрять и конфигурировать vCenter Server
- Управлять сетевыми настройками и хранилищами данных с применением vCenter Server
- Создавать, управлять виртуальными машинами
- Управлять доступом
- Мониторить использование ресурсов
- Управлять масштабированием
- Обеспечивать высокую доступность
Скриншоты:
       

}{@R0N

Пост 07-Окт-2017 23:02

[Цитировать]

PHP. Уровень 1-4 - Автор (режиссер): Специалист
Преподаватель: Борисов Игорь Олегович
Жанр: PHP, Программирование
Описание:
Курсы PHP в Центре «Специалист» — превосходный старт, позволяющим быстро освоить и эффективно использовать РНР. На курсах PHP найдете все, что для этого необходимо: от описания настройки РНР, основ CGI и базовых конструкций языка, до работы с сессиями, каналами, сокетами и другими специальными технологиями РНР, Особое место в процессе обучения PHP занимает рассмотрение взаимодействия РНР с базами данных. На курсах PHP рассмотрены, как MySQL, так и SQLite, поддерживаемая РНР 7.
Продолжительность: 53:29:57
Качество видео: PCRec
Видео: AVC/H.264, 1280-1024х1024-768, ~90-128 Kbps
Аудио: AAC, 2 ch, 56 Kbps

Mediainfo:

General
Complete name : .\[Специалист] PHP. Уровень 1-4 (2016)\Уровень 1. Основы создания сайтов\День 2.mp4
Format : MPEG-4
Format profile : Base Media
Codec ID : isom (isom/mp42)
File size : 371 MiB
Duration : 4 h 32 min
Overall bit rate mode : Variable
Overall bit rate : 190 kb/s
Encoded date : UTC 2016-07-19 10:18:06
Tagged date : UTC 2016-07-19 10:18:06
Video
ID : 1
Format : AVC
Format/Info : Advanced Video Codec
Format profile : [url=mailto:High@L3.1]High@L3.1[/url]
Format settings, CABAC : Yes
Format settings, ReFrames : 8 frames
Codec ID : avc1
Codec ID/Info : Advanced Video Coding
Duration : 4 h 32 min
Source duration : 4 h 32 min
Bit rate : 128 kb/s
Width : 1 280 pixels
Height : 1 024 pixels
Display aspect ratio : 5:4
Frame rate mode : Constant
Frame rate : 10.000 FPS
Color space : YUV
Chroma subsampling : 4:2:0
Bit depth : 8 bits
Scan type : Progressive
Bits/(Pixel*Frame) : 0.010
Stream size : 254 MiB (68%)
Source stream size : 254 MiB (68%)
Writing library : x264 core 146 r2538 121396c
Encoding settings : cabac=1 / ref=8 / deblock=1:-1:-1 / analyse=0x3:0x113 / me=umh / subme=7 / psy=1 / psy_rd=1.00:0.20 / mixed_ref=1 / me_range=16 / chroma_me=1 / trellis=2 / 8x8dct=1 / cqm=0 / deadzone=21,11 / fast_pskip=0 / chroma_qp_offset=-3 / threads=6 / lookahead_threads=1 / sliced_threads=0 / nr=0 / decimate=0 / interlaced=0 / bluray_compat=0 / constrained_intra=0 / bframes=3 / b_pyramid=2 / b_adapt=2 / b_bias=0 / direct=3 / weightb=1 / open_gop=0 / weightp=2 / keyint=250 / keyint_min=10 / scenecut=40 / intra_refresh=0 / rc_lookahead=50 / rc=2pass / mbtree=1 / bitrate=128 / ratetol=1.0 / qcomp=0.60 / qpmin=0 / qpmax=69 / qpstep=4 / cplxblur=20.0 / qblur=0.5 / vbv_maxrate=14000 / vbv_bufsize=14000 / nal_hrd=none / filler=0 / ip_ratio=1.40 / aq=1:1.00
Language : English
Encoded date : UTC 2016-07-19 10:18:06
Tagged date : UTC 2016-07-19 10:18:06
mdhd_Duration : 16345459
Audio
ID : 2
Format : AAC
Format/Info : Advanced Audio Codec
Format profile : LC
Codec ID : 40
Duration : 4 h 32 min
Source duration : 4 h 32 min
Bit rate mode : Variable
Bit rate : 56.0 kb/s
Channel(s) : 2 channels
Channel positions : Front: L R
Sampling rate : 44.1 kHz
Frame rate : 43.066 FPS (1024 spf)
Compression mode : Lossy
Stream size : 109 MiB (29%)
Source stream size : 109 MiB (29%)
Language : English
Encoded date : UTC 2016-07-19 10:18:06
Tagged date : UTC 2016-07-19 10:18:06
mdhd_Duration : 16345780
----------------------------------------------------------------
General
Complete name : .\[Специалист] PHP. Уровень 1-4 (2016)\Уровень 4. Проектирование и разработка сложных веб-проектов на РНР 7\День 1.mp4
Format : MPEG-4
Format profile : Base Media
Codec ID : isom (isom/avc1/iso6)
File size : 321 MiB
Duration : 5 h 1 min
Overall bit rate mode : Variable
Overall bit rate : 149 kb/s
Encoded date : UTC 2016-07-11 22:21:09
Tagged date : UTC 2016-07-11 22:21:09
Video
ID : 1
Format : AVC
Format/Info : Advanced Video Codec
Format profile : [url=mailto:High@L3.1]High@L3.1[/url]
Format settings, CABAC : Yes
Format settings, ReFrames : 8 frames
Codec ID : avc1
Codec ID/Info : Advanced Video Coding
Duration : 5 h 1 min
Bit rate : 90.0 kb/s
Maximum bit rate : 2 919 kb/s
Width : 1 024 pixels
Height : 768 pixels
Display aspect ratio : 4:3
Frame rate mode : Constant
Frame rate : 10.000 FPS
Color space : YUV
Chroma subsampling : 4:2:0
Bit depth : 8 bits
Scan type : Progressive
Bits/(Pixel*Frame) : 0.011
Stream size : 194 MiB (61%)
Title : [url=mailto:264@GPAC0.5.2]264@GPAC0.5.2[/url]-DEV-rev248-g39d5978-master
Writing library : x264 core 146 r2538 121396c
Encoding settings : cabac=1 / ref=8 / deblock=1:-1:-1 / analyse=0x3:0x113 / me=umh / subme=7 / psy=1 / psy_rd=1.00:0.20 / mixed_ref=1 / me_range=16 / chroma_me=1 / trellis=2 / 8x8dct=1 / cqm=0 / deadzone=21,11 / fast_pskip=0 / chroma_qp_offset=-3 / threads=6 / lookahead_threads=1 / sliced_threads=0 / nr=0 / decimate=0 / interlaced=0 / bluray_compat=0 / constrained_intra=0 / bframes=3 / b_pyramid=2 / b_adapt=2 / b_bias=0 / direct=3 / weightb=1 / open_gop=0 / weightp=2 / keyint=250 / keyint_min=10 / scenecut=40 / intra_refresh=0 / rc_lookahead=50 / rc=2pass / mbtree=1 / bitrate=90 / ratetol=1.0 / qcomp=0.60 / qpmin=0 / qpmax=69 / qpstep=4 / cplxblur=20.0 / qblur=0.5 / vbv_maxrate=14000 / vbv_bufsize=14000 / nal_hrd=none / filler=0 / ip_ratio=1.40 / aq=1:1.00
Encoded date : UTC 2016-07-11 22:21:09
Tagged date : UTC 2016-07-11 22:21:18
Audio
ID : 2
Format : AAC
Format/Info : Advanced Audio Codec
Format profile : LC
Codec ID : 40
Duration : 5 h 1 min
Bit rate mode : Variable
Bit rate : 56.0 kb/s
Maximum bit rate : 59.3 kb/s
Channel(s) : 2 channels
Channel positions : Front: L R
Sampling rate : 48.0 kHz
Frame rate : 46.875 FPS (1024 spf)
Compression mode : Lossy
Stream size : 121 MiB (38%)
Encoded date : UTC 2016-07-11 20:33:00
Tagged date : UTC 2016-07-11 22:21:18

Дополнительная информация:

Курсы PHP в Центре «Специалист» максимально ориентированы на достижение реальных практических результатов. В деталях описано, как создать на РНР свою гостевую книгу, чат, форум, почтовую рассылку на сайте, новостную ленту и даже Интернет-магазин. Отдельно рассмотрена методика создания системы автоматического управления содержимым сайта ("движка"). Такая система позволит слушателям максимально упростить поддержку и обновление своего сайта. Кроме создания своих скриптов, приведено описание профессиональных продуктов (бесплатных и открытых): форума РНРВВ и системы PHP-Nuke. Эти продукты применяются на огромном количестве сайтов и позволяют "дважды не изобретать велосипед", а использовать уже готовые решения. Обучение PHP отличается простотой и ясностью изложения материала, благодаря опытным и известным преподавателям-гуру в области PHP.
Курсы в "Специалисте" позволят Вам также подготовиться к сертификации Zend. Центр «Специалист» — это первый учебный центр в России, в котором курсы по PHP преподают специалисты, сами прошедшие сертификацию ZCE (Zend Certified Engineer).
Язык PHP разрабатываются и совершенствуются компанией Zend. Учебный центр "Специалист" предоставляет возможность программистам получить статус сертифицированного специалиста Zend, который более известен как ZCE (Zend Certified Engineer). В нашем Центре Вы можете не только пройти подготовку к сертификации ZCE, но и сдать экзамен на получение статуса Zend Certified Engineer.

Описание курсов:

Уровень 1. Основы создания сайтов

Цель курса – дать слушателям первоначальные навыки создания веб-сайтов на PHP.
PHP как средство создания веб-сайтов необычайно популярно в России и в мире. С помощью PHP веб-мастера разрабатывают сложные сайты, имеющие развитые функции, активно взаимодействующие с пользователем.
На этом курсе слушатели получают начальные навыки разработки сайтов на PHP, что позволяет быстро начать использование PHP. Курс прежде всего предназначен для слушателей, ранее не имевшими дело с PHP-программированием и желающим начать использование PHP.
На курсе рассматривается последняя версия интерпретатора – PHP 7. В процессе обучения слушатели реализуют проект по созданию простого веб-сайта.
Данный курс является первым курсом в цепочке подготовки веб-мастера к получению сертификации ZCE (Zend Certified Engineer).
Программа курса соответствует требованиям профессионального стандарта «Программист».

Уровень 2. Разработка web - сайтов и взаимодействие с MySQL

На этом курсе слушатели продолжают знакомиться с PHP, и этот курс охватывает все необходимые темы для создания сложных сайтов: управление сессиями пользователя и файловой системой, работа с базами данных, работа с протоколом HTTP.
Данный курс является рекомендованным курсом в цепочке подготовки Веб-мастера к получению сертификации ZCE (Zend Certified Engineer).
На курсе рассматривается последняя версия интерпретатора – PHP 7.
Курс рекомендован слушателям, имеющим начальный опыт использования PHP, и желающим расширить свои знания и опыт. В ходе курса слушатели выполняют проект по созданию веб-сайта с интернет-магазином.
Программа курса соответствует требованиям профессионального стандарта «Программист».

Уровень 3. Профессиональная разработка на PHP

Данный курс является обязательным курсом в цепочке подготовки Веб-мастера к получению сертификации ZCE (Zend Certified Engineer).
Курс рекомендован слушателям, имеющим начальный опыт использования PHP, и желающим расширить свои знания и опыт.
В этом курсе рассматриваются сложные темы, такие как ООП, XML, Веб-сервисы, без которых немыслима профессиональная разработка приложений на PHP, что позволяет создавать сложные Интернет сайты, интегрированные с внешними данными.
На курсе рассматривается последняя версия интерпретатора – PHP 7. Для закрепления знаний слушателями будет реализован проект по созданию ленты новостей с RSS и SOAP и XML-RPC службами.
Программа курса соответствует требованиям профессионального стандарта «Программист».

Уровень 4. Проектирование и разработка сложных веб - проектов на РНР

Данный курс является обязательным курсом в цепочке подготовки веб-мастера к получению сертификации ZCE (Zend Certified Engineer).
Курс рекомендован слушателям, имеющим опыт использования PHP и желающим максимально расширить свои знания и опыт.
В этом курсе рассматриваются основы сложных тем, таких как шаблоны проектирования (Design patterns), отражения (Reflection), PDO, шаблон MVC (Model-View-Controller), без овладения которыми немыслима профессиональная разработка приложений на PHP.
На курсе рассматривается последняя версия интерпретатора.
Скриншоты:
       

moralis

Пост 07-Окт-2017 22:24

[Цитировать]

Специалист | Сертифицированный администратор Windows Server 2012 R2 (2014) PCRec [H.264]- Автор (режиссер): Специалист
Жанр: Windows Server 2012, Системное администрирование
Описание:
Представляем комплексную программу обучения «Сертифицированный администратор Windows Server 2012 R2 MCSA: Windows Server 2012 R2», состоящую из трех курсов, различного уровня сложности. Программа нацелена на подготовку квалифицированных специалистов международного уровня, претендующих на престижную должность и высокую оплату труда.
Продолжительность: 46:34:35
Качество видео: PCRec
Видео: AVC/H.264, 1280-1024x1024-768, ~98-120 Kbps
Аудио: MP3, 2 ch, 128 Kbps

Mediainfo:

General
Complete name : .\[Специалист] Сертифицированный администратор Windows Server 2012 R2 (MCSA Windows Server 2012 R2) (2014)\М20411D - Администрирование Windows Server 2012 R2 (2014)\m20411D_22.05.avi
Format : AVI
Format/Info : Audio Video Interleave
File size : 324 MiB
Duration : 2 h 55 min
Overall bit rate : 258 kb/s
Video
ID : 0
Format : AVC
Format/Info : Advanced Video Codec
Format profile : [url=mailto:High@L3.2]High@L3.2[/url]
Format settings, CABAC : Yes
Format settings, ReFrames : 4 frames
Codec ID : H264
Duration : 2 h 55 min
Bit rate : 120 kb/s
Width : 1 280 pixels
Height : 1 024 pixels
Display aspect ratio : 5:4
Frame rate : 25.000 FPS
Color space : YUV
Chroma subsampling : 4:2:0
Bit depth : 8 bits
Scan type : Progressive
Bits/(Pixel*Frame) : 0.004
Stream size : 151 MiB (47%)
Writing library : x264 core 146 r2538bm 121396c
Encoding settings : cabac=1 / ref=3 / deblock=1:0:0 / analyse=0x3:0x113 / me=hex / subme=7 / psy=1 / psy_rd=1.00:0.00 / mixed_ref=1 / me_range=16 / chroma_me=1 / trellis=1 / 8x8dct=1 / cqm=0 / deadzone=21,11 / fast_pskip=1 / chroma_qp_offset=-2 / threads=6 / lookahead_threads=1 / sliced_threads=0 / nr=0 / decimate=1 / interlaced=0 / bluray_compat=0 / constrained_intra=0 / bframes=3 / b_pyramid=2 / b_adapt=1 / b_bias=0 / direct=1 / weightb=1 / open_gop=0 / weightp=2 / keyint=250 / keyint_min=25 / scenecut=40 / intra_refresh=0 / rc_lookahead=40 / rc=crf / mbtree=1 / crf=20.0 / qcomp=0.60 / qpmin=0 / qpmax=69 / qpstep=4 / ip_ratio=1.40 / aq=1:1.00
Audio
ID : 1
Format : MPEG Audio
Format version : Version 1
Format profile : Layer 3
Codec ID : 55
Codec ID/Hint : MP3
Duration : 2 h 55 min
Bit rate mode : Constant
Bit rate : 128 kb/s
Channel(s) : 2 channels
Sampling rate : 44.1 kHz
Compression mode : Lossy
Stream size : 161 MiB (50%)
Alignment : Split accross interleaves
Interleave, duration : 40 ms (1.00 video frame)
Interleave, preload duration : 1909 ms
General
Complete name : .\[Специалист] Сертифицированный администратор Windows Server 2012 R2 (MCSA Windows Server 2012 R2) (2014)\М20410D - Установка и настройка Windows Server 2012 R2 (2014)\m20410D_14.05.avi
Format : AVI
Format/Info : Audio Video Interleave
File size : 372 MiB
Duration : 3 h 40 min
Overall bit rate : 236 kb/s
Video
ID : 0
Format : AVC
Format/Info : Advanced Video Codec
Format profile : [url=mailto:High@L3.1]High@L3.1[/url]
Format settings, CABAC : Yes
Format settings, ReFrames : 4 frames
Codec ID : H264
Duration : 3 h 40 min
Bit rate : 98.6 kb/s
Width : 1 024 pixels
Height : 768 pixels
Display aspect ratio : 4:3
Frame rate : 25.000 FPS
Color space : YUV
Chroma subsampling : 4:2:0
Bit depth : 8 bits
Scan type : Progressive
Bits/(Pixel*Frame) : 0.005
Stream size : 155 MiB (42%)
Writing library : x264 core 146 r2538bm 121396c
Encoding settings : cabac=1 / ref=3 / deblock=1:0:0 / analyse=0x3:0x113 / me=hex / subme=7 / psy=1 / psy_rd=1.00:0.00 / mixed_ref=1 / me_range=16 / chroma_me=1 / trellis=1 / 8x8dct=1 / cqm=0 / deadzone=21,11 / fast_pskip=1 / chroma_qp_offset=-2 / threads=6 / lookahead_threads=1 / sliced_threads=0 / nr=0 / decimate=1 / interlaced=0 / bluray_compat=0 / constrained_intra=0 / bframes=3 / b_pyramid=2 / b_adapt=1 / b_bias=0 / direct=1 / weightb=1 / open_gop=0 / weightp=2 / keyint=250 / keyint_min=25 / scenecut=40 / intra_refresh=0 / rc_lookahead=40 / rc=crf / mbtree=1 / crf=21.0 / qcomp=0.60 / qpmin=0 / qpmax=69 / qpstep=4 / ip_ratio=1.40 / aq=1:1.00
Audio
ID : 1
Format : MPEG Audio
Format version : Version 1
Format profile : Layer 3
Codec ID : 55
Codec ID/Hint : MP3
Duration : 3 h 40 min
Bit rate mode : Constant
Bit rate : 128 kb/s
Channel(s) : 2 channels
Sampling rate : 44.1 kHz
Compression mode : Lossy
Stream size : 202 MiB (54%)
Alignment : Split accross interleaves
Interleave, duration : 40 ms (1.01 video frame)
Interleave, preload duration : 1910 ms

Дополнительная информация:

В ходе обучения, Вы освоите начальное внедрение и настройку основных сервисов, включая доменные службы каталога, сетевые сервисы и настройку Microsoft Hyper-V Server 2012 R2. Затем продолжите совершенствовать умения и навыки, переходя к изучению более сложных вещей, таких как настройка и устранение неполадок процесса разрешения имен, управления пользователями и группами в Службе каталога, управления групповыми политиками, реализации решений удаленного доступа и доступа к сетевой среде, управления развертыванием сервера из образа, управления обновлениями и оптимизации производительности. А также сможете дополнить набор сервисов, установленных сразу после развертывания Windows Server 2012, научитесь администрировать доменную среду на базе Windows Server 2012.
Занятия проходят в виде лекций, демонстраций наглядных примеров, самостоятельных и лабораторных работ. Каждый теоретический блок обязательно закрепляется при помощи большого количества практики. Насыщенная программа, интереснейший учебный материал, системный подход к обучению – все это позволяет продуктивно усвоить сложную информацию, приобрести ценные знания и навыки и получить востребованную на международном рынке труда специальность.

Курс включает в себя:

Курс 20410D: Установка и настройка Windows Server 2012 R2

ПОДРОБНАЯ ИНФОРМАЦИЯ О КУРСЕ

Курс 20411D: Администрирование Windows Server 2012 R2

ПОДРОБНАЯ ИНФОРМАЦИЯ О КУРСЕ

Курс 20412D: Настройка дополнительных сервисов Windows Server 2012 R2

ПОДРОБНАЯ ИНФОРМАЦИЯ О КУРСЕ
Скриншоты:
       
 

Текущее время: Сегодня 05:11

Часовой пояс: GMT + 3