Сегодня идет свободное скачивание без начисления Download

Результатов поиска: 500

Автор Сообщение

}{@R0N

Пост 21-Янв-2019 14:49

[Цитировать]

ITVDN | Онлайн курс Bootstrap 4- Автор (режиссер): Илья Краевский
Производство: ITVDN
Жанр: Программирование,дизайн,front-end,Bootstrap
Описание:
Bootstrap 4 – это HTML, CSS, JS фреймворк для разработки кроссбраузерных веб ориентированных интерфейсов. Bootstrap представляет набор инструментов от Twitter, созданный для облегчения разработки web-приложений и сайтов, использует CSS и HTML для типографии, форм, кнопок, таблиц, сеток, навигации и т.д., а также дополнительные расширения JavaScript, упрощающие работу веб разработчика.
Продолжительность: 04:04:07
Качество видео: PCRec
Видео: AVC/H.264, 1920x1080, ~571 Kbps
Аудио: AAC, 2 ch, 256 Kbps

Mediainfo:

General
Complete name \\\Bootstrap 4\Bootstrap_V4\ВИДЕОУРОК №1. ЗНАКОМСТВО С BOOTSTRAP 4.MP4
Format : MPEG-4
Format profile : Base Media / Version 2
Codec ID : mp42 (mp42/mp41/isom/avc1)
File size : 250 MiB
Duration : 42 min 0 s
Overall bit rate mode : Variable
Overall bit rate : 831 kb/s
Encoded date : UTC 2018-01-30 10:57:46
Tagged date : UTC 2018-01-30 10:57:46
Video
ID : 1
Format : AVC
Format/Info : Advanced Video Codec
Format profile : High@L4
Format settings : CABAC / 4 Ref Frames
Format settings, CABAC : Yes
Format settings, ReFrames : 4 frames
Codec ID : avc1
Codec ID/Info : Advanced Video Coding
Duration : 42 min 0 s
Bit rate : 571 kb/s
Width : 1 920 pixels
Height : 1 080 pixels
Display aspect ratio : 16:9
Frame rate mode : Constant
Frame rate : 25.000 FPS
Color space : YUV
Chroma subsampling : 4:2:0
Bit depth : 8 bits
Scan type : Progressive
Bits/(Pixel*Frame) : 0.011
Stream size : 172 MiB (69%)
Writing library : x264 core 155 r10 b00bcaf
Encoding settings : cabac=1 / ref=4 / deblock=1:0:0 / analyse=0x3:0x113 / me=hex / subme=8 / psy=1 / psy_rd=1.00:0.00 / mixed_ref=1 / me_range=16 / chroma_me=1 / trellis=2 / 8x8dct=1 / cqm=0 / deadzone=21,11 / fast_pskip=1 / chroma_qp_offset=-2 / threads=34 / lookahead_threads=5 / sliced_threads=0 / nr=0 / decimate=1 / interlaced=0 / bluray_compat=0 / stitchable=1 / constrained_intra=0 / bframes=3 / b_pyramid=2 / b_adapt=2 / b_bias=0 / direct=3 / weightb=1 / open_gop=0 / weightp=2 / keyint=infinite / keyint_min=25 / scenecut=40 / intra_refresh=0 / rc_lookahead=50 / rc=crf / mbtree=1 / crf=20.0 / qcomp=0.60 / qpmin=5 / qpmax=69 / qpstep=4 / vbv_maxrate=5500 / vbv_bufsize=15000 / crf_max=0.0 / nal_hrd=none / filler=0 / ip_ratio=1.40 / aq=1:1.00
Encoded date : UTC 2018-01-30 10:57:46
Tagged date : UTC 2018-01-30 10:57:46
Color range : Limited
Color primaries : BT.709
Transfer characteristics : BT.709
Matrix coefficients : BT.709
Audio
ID : 2
Format : AAC
Format/Info : Advanced Audio Codec
Format profile : LC
Codec ID : mp4a-40-2
Duration : 42 min 0 s
Bit rate mode : Variable
Bit rate : 256 kb/s
Channel(s) : 2 channels
Channel positions : Front: L R
Sampling rate : 48.0 kHz
Frame rate : 46.875 FPS (1024 SPF)
Compression mode : Lossy
Stream size : 76.9 MiB (31%)
Encoded date : UTC 2018-01-30 10:57:46
Tagged date : UTC 2018-01-30 10:57:46

Дополнительная информация:

Присутствую учебные материалы, презентации...
Скриншоты:
       

}{@R0N

Пост 19-Янв-2019 11:48

[Цитировать]

ITVDN | Создание адаптивного сайта с Bootstrap 3 - Автор (режиссер): Александр Пономаренко
Производство: Itvdn.com
Жанр: Программирование,дизайн,front-end
Описание:
Данный видео курс предназначен для обучения современным приемам и подходам адаптивной верстки, в нем продемонстрирован простой процесс создания адаптивной версии сайтов при помощи возможностей Bootstrap. Кроме того, Вы увидите к каким проблемам можно прийти, если Вы захотите реализовать адаптивной дизайн без использования Bootstrap 3
Продолжительность: 03:22:24
Качество видео: PCRec
Видео: AVC/H.264, 1350х720 ~518 kbps
Аудио: AAC, 2 ch, 235 kbps

Mediainfo:

General
Complete name : \\Downloads\sozdanie-adaptivnogo-saita-s-bootstrap-3\sozdanie-adaptivnogo-saita-s-bootstrap-3\5-verstka-adaptivnogo-maketa-na-bootstrap-chast-3.mp4
Format : MPEG-4
Format profile : Base Media / Version 2
Codec ID : mp42 (mp42/mp41/isom/avc1)
File size : 206 MiB
Duration : 38 min 0 s
Overall bit rate mode : Variable
Overall bit rate : 758 kbps
Encoded date : UTC 2016-07-11 12:34:02
Tagged date : UTC 2016-07-11 12:34:02
Video
ID : 1
Format : AVC
Format/Info : Advanced Video Codec
Format profile : [url=mailto:High@L3.2]High@L3.2[/url]
Format settings : CABAC / 5 Ref Frames
Format settings, CABAC : Yes
Format settings, ReFrames : 5 frames
Codec ID : avc1
Codec ID/Info : Advanced Video Coding
Duration : 38 min 0 s
Bit rate : 518 kbps
Width : 1 350 pixels
Height : 720 pixels
Display aspect ratio : 1.85:1
Frame rate mode : Constant
Frame rate : 30.000 FPS
Color space : YUV
Chroma subsampling : 4:2:0
Bit depth : 8 bits
Scan type : Progressive
Bits/(Pixel*Frame) : 0.018
Stream size : 141 MiB (68%)
Writing library : x264 core 148 r11 3b70645
Encoding settings : cabac=1 / ref=5 / deblock=1:0:0 / analyse=0x3:0x113 / me=umh / subme=8 / psy=1 / psy_rd=1.00:0.00 / mixed_ref=1 / me_range=16 / chroma_me=1 / trellis=1 / 8x8dct=1 / cqm=0 / deadzone=21,11 / fast_pskip=1 / chroma_qp_offset=-2 / threads=22 / lookahead_threads=3 / sliced_threads=0 / nr=0 / decimate=1 / interlaced=0 / bluray_compat=0 / stitchable=1 / constrained_intra=0 / bframes=3 / b_pyramid=2 / b_adapt=2 / b_bias=0 / direct=3 / weightb=1 / open_gop=0 / weightp=2 / keyint=infinite / keyint_min=30 / scenecut=40 / intra_refresh=0 / rc_lookahead=50 / rc=crf / mbtree=1 / crf=20.0 / qcomp=0.60 / qpmin=5 / qpmax=69 / qpstep=4 / vbv_maxrate=2750 / vbv_bufsize=7500 / crf_max=0.0 / nal_hrd=none / filler=0 / ip_ratio=1.40 / aq=1:1.00
Encoded date : UTC 2016-07-11 12:34:02
Tagged date : UTC 2016-07-11 12:34:02
Color range : Limited
Color primaries : BT.709
Transfer characteristics : BT.709
Matrix coefficients : BT.709
Audio
ID : 2
Format : AAC
Format/Info : Advanced Audio Codec
Format profile : LC
Codec ID : mp4a-40-2
Duration : 38 min 0 s
Bit rate mode : Variable
Bit rate : 235 kbps
Channel(s) : 2 channels
Channel positions : Front: L R
Sampling rate : 48.0 kHz
Frame rate : 46.875 FPS (1024 SPF)
Compression mode : Lossy
Stream size : 64.0 MiB (31%)
Encoded date : UTC 2016-07-11 12:34:02
Tagged date : UTC 2016-07-11 12:34:02

Дополнительная информация:

Присутствую материалы.
Скриншоты:        

}{@R0N

Пост 19-Янв-2019 11:48

[Цитировать]

Itvdn | Ruby Essential - Автор (режиссер): Юля Гончаренко
Производство: Itvdn.com
Жанр: Программирование, RUBY
Описание:
Видео курс Ruby Essential предназначен как для совершенных новичков в программировании, так и для начинающих специалистов, которые уже сталкивались с основами программирования в других языках и хотят познакомиться с базовыми понятиями языка Ruby. Также данный курс будет полезен для тех, кто в дальнейшем хочет углубить свои знания и начать работу в веб-разработке с фреймворком Ruby on Rails. По завершению этого курса вы сможете полностью владеть базовым уровнем языка Ruby, то есть работать с базовыми типами данных и объектов, понимать структуру алгоритмов, применять их на практике, правильно применять методы, а также писать свои собственные методы, понимать основы ООП, создавать свои классы и работать с ними, а также писать программы различного функционала.
Продолжительность: 02:32:46
Качество видео: PCRec
Видео: AVC/H.264, 1280x720, ~330 kbps
Аудио: AAC, 2 ch, 256 kbps

Mediainfo:

Complete name               : \\Ruby-Essential\1-vvedenie-v-ruby.mp4
Format : MPEG-4
Format profile : Base Media / Version 2
Codec ID : mp42 (mp42/mp41/isom/avc1)
File size : 49.0 MiB
Duration : 11 min 37 s
Overall bit rate mode : Variable
Overall bit rate : 590 kbps
Encoded date : UTC 2017-09-08 10:35:04
Tagged date : UTC 2017-09-08 10:35:04
Video
ID : 1
Format : AVC
Format/Info : Advanced Video Codec
Format profile : [url=mailto:High@L3.2]High@L3.2[/url]
Format settings : CABAC / 5 Ref Frames
Format settings, CABAC : Yes
Format settings, ReFrames : 5 frames
Codec ID : avc1
Codec ID/Info : Advanced Video Coding
Duration : 11 min 37 s
Bit rate : 330 kbps
Width : 1 280 pixels
Height : 720 pixels
Display aspect ratio : 16:9
Frame rate mode : Constant
Frame rate : 15.000 FPS
Color space : YUV
Chroma subsampling : 4:2:0
Bit depth : 8 bits
Scan type : Progressive
Bits/(Pixel*Frame) : 0.024
Stream size : 27.5 MiB (56%)
Writing library : x264 core 150 r10 df79067
Encoding settings : cabac=1 / ref=5 / deblock=1:0:0 / analyse=0x3:0x113 / me=hex / subme=8 / psy=1 / psy_rd=1.00:0.00 / mixed_ref=1 / me_range=16 / chroma_me=1 / trellis=2 / 8x8dct=1 / cqm=0 / deadzone=21,11 / fast_pskip=1 / chroma_qp_offset=-2 / threads=22 / lookahead_threads=3 / sliced_threads=0 / nr=0 / decimate=1 / interlaced=0 / bluray_compat=0 / stitchable=1 / constrained_intra=0 / bframes=3 / b_pyramid=2 / b_adapt=1 / b_bias=0 / direct=3 / weightb=1 / open_gop=0 / weightp=2 / keyint=infinite / keyint_min=15 / scenecut=40 / intra_refresh=0 / rc_lookahead=50 / rc=crf / mbtree=1 / crf=20.0 / qcomp=0.60 / qpmin=5 / qpmax=69 / qpstep=4 / vbv_maxrate=2750 / vbv_bufsize=7500 / crf_max=0.0 / nal_hrd=none / filler=0 / ip_ratio=1.40 / aq=1:1.00
Encoded date : UTC 2017-09-08 10:35:04
Tagged date : UTC 2017-09-08 10:35:04
Color range : Limited
Color primaries : BT.709
Transfer characteristics : BT.709
Matrix coefficients : BT.709
Audio
ID : 2
Format : AAC
Format/Info : Advanced Audio Codec
Format profile : LC
Codec ID : mp4a-40-2
Duration : 11 min 37 s
Bit rate mode : Variable
Bit rate : 256 kbps
Channel(s) : 2 channels
Channel positions : Front: L R
Sampling rate : 48.0 kHz
Frame rate : 46.875 FPS (1024 SPF)
Compression mode : Lossy
Stream size : 21.3 MiB (43%)
Encoded date : UTC 2017-09-08 10:35:04
Tagged date : UTC 2017-09-08 10:35:04

Дополнительная информация:

В раздаче имеются архивы! В них содержится дополнительные материалы.
Скриншоты:
       

}{@R0N

Пост 14-Янв-2019 20:29

[Цитировать]

Дмитрий Лаврик | Javascript. Только для участников основного курса - Автор (режиссер): Дмитрий Лаврик
Жанр: Программирование, Javascript
Описание:
Цель курса - добить серьёзное ООП в javascript с прототипами, наследованием и т.п.
А также изучить AJAX для организации фонового общения клиента и сервера.
Продолжительность: 08:37:24
Качество видео: PCRec
Видео: AVC/H.264, 1680x1048, ~149-210 Kbps
Аудио: AAC, 2 ch, 157-158 Kbps

Mediainfo:

Общее
Полное имя : .\01 ООП на прототипах\js-progr-1.mp4
Формат : MPEG-4
Профиль формата : Base Media / Version 2
Идентификатор кодека : mp42 (isom/mp42)
Размер файла : 274 Мбайт
Продолжительность : 2 ч. 3 м.
Режим общего битрейта : Переменный
Общий поток : 310 Кбит/сек
Исполнитель : Dmitry Lavrik
Дата кодирования : UTC 2017-04-19 19:35:49
Дата пометки : UTC 2017-04-19 19:35:49
Видео
Идентификатор : 1
Формат : AVC
Формат/Информация : Advanced Video Codec
Профиль формата : Baseline@L4
Настройки формата : 3 Ref Frames
Параметр CABAC формата : Нет
Параметр RefFrames формата : 3 кадра
Идентификатор кодека : avc1
Идентификатор кодека/Информация : Advanced Video Coding
Продолжительность : 2 ч. 3 м.
Продолжительность оригинала : 2 ч. 3 м.
Битрейт : 150 Кбит/сек
Ширина : 1680 пикселей
Высота : 1048 пикселей
Соотношение сторон : 16:10
Режим частоты кадров : Переменный
Частота кадров : 30,000 кадров/сек
Минимальная частота кадров : 30,000 кадров/сек
Максимальная частота кадров : 30,030 кадров/сек
Стандарт вещания : NTSC
Цветовое пространство : YUV
Субдискретизация насыщенности : 4:2:0
Битовая глубина : 8 бит
Тип развёртки : Прогрессивная
Бит/(Пиксели*Кадры) : 0.003
Размер потока : 132 Мбайт (48%)
Размер потока оригинала : 132 Мбайт (48%)
Язык : English
Дата кодирования : UTC 2017-04-19 19:35:49
Дата пометки : UTC 2017-04-19 19:35:49
Цветовой диапазон : Limited
mdhd_Duration : 7414167
Codec configuration box : avcC
Аудио
Идентификатор : 2
Формат : AAC LC
Формат/Информация : Advanced Audio Codec Low Complexity
Идентификатор кодека : mp4a-40-2
Продолжительность : 2 ч. 3 м.
Продолжительность оригинала : 2 ч. 3 м.
Вид битрейта : Переменный
Битрейт : 158 Кбит/сек
Максимальный битрейт : 219 Кбит/сек
Каналы : 2 канала
Channel layout : L R
Частота : 44,1 КГц
Частота кадров : 43,066 кадра/сек (1024 SPF)
Метод сжатия : С потерями
Размер потока : 139 Мбайт (51%)
Размер потока оригинала : 139 Мбайт (51%)
Язык : English
Дата кодирования : UTC 2017-04-19 19:35:49
Дата пометки : UTC 2017-04-19 19:35:49
mdhd_Duration : 7414201

Программа:

урок 1. ООП на прототипах.
- Понятие прототипа объекта
- Порядок доступа к свойствам
- Преимущества работы с прототипами
- Наследование
- Полиморфизм
урок 2. ООП мышление.
- Разработка тренировочной игры
- Создание иерархии сущностей
- Выделение базовых классов
- Максимальная выгода от наследования
- Взаимодействие объектов друг с другом
урок 3. Основы AJAX.
- Основы фоновых запросов
- AJAX и JQuery
- Функции load, get, post, ajax
- Обработка результатов
- Контроль ошибочных запросов
урок 4. JSON, JSONP, CORS.
- Основные форматы передачи данных
- Запросы к своему серверу
- Способы обращений к другим доменам
- Костыль JSONP
- Разрешение CORS

Дополнительная информация:

В раздаче имеются архивы! В них содержится дополнительные материалы.
Скриншоты:
       

}{@R0N

Пост 14-Янв-2019 20:29

[Цитировать]

Udemy | Основы работы с Git и GitHub - Автор (режиссер): Денис Астахов
Производство: Udemy
Жанр: Программирование
Описание:
Самое важное что нужно знать о Git и GitHub для повседневной работы.
Продолжительность: 01:50:26
Качество видео: PCRec
Видео: AVC/H.264, 1280x720-1920x1080, ~934-3247 Kbps
Аудио: AAC, 2 ch, 125 Kbps

Mediainfo:

Общее
Полное имя : E:\Download\курсы\Release\[Udemy] Основы работы с Git и GitHub\06. История изменений, _gitignore, восстановление файлов.mp4
Формат : MPEG-4
Профиль формата : Base Media
Идентификатор кодека : isom (isom/iso2/avc1/mp41)
Размер файла : 43,7 Мбайт
Продолжительность : 13 м. 45 с.
Режим общего битрейта : Переменный
Общий поток : 445 Кбит/сек
Видео
Идентификатор : 1
Формат : AVC
Формат/Информация : Advanced Video Codec
Профиль формата : Main@L3
Настройки формата : CABAC / 4 Ref Frames
Параметр CABAC формата : Да
Параметр RefFrames формата : 4 кадра
Идентификатор кодека : avc1
Идентификатор кодека/Информация : Advanced Video Coding
Продолжительность : 13 м. 45 с.
Продолжительность оригинала : 13 м. 45 с.
Битрейт : 311 Кбит/сек
Номинальный битрейт : 700 Кбит/сек
Ширина : 632 пикселя
Ширина оригинала : 640 пикселей
Высота : 368 пикселей
Высота оригинала : 360 пикселей
Соотношение сторон : 1,717
Соотношение сторон в оригинале : 16:9
Режим частоты кадров : Переменный
Частота кадров : 30,000 кадров/сек
Минимальная частота кадров : 6,000 кадров/сек
Максимальная частота кадров : 120,000 кадров/сек
Цветовое пространство : YUV
Субдискретизация насыщенности : 4:2:0
Битовая глубина : 8 бит
Тип развёртки : Прогрессивная
Бит/(Пиксели*Кадры) : 0.045
Размер потока : 30,6 Мбайт (70%)
Размер потока оригинала : 30,6 Мбайт (70%)
Библиотека кодирования : x264 core 148
Настройки программы : cabac=1 / ref=3 / deblock=1:-1:-1 / analyse=0x1:0x111 / me=umh / subme=6 / psy=1 / psy_rd=1.00:0.15 / mixed_ref=1 / me_range=16 / chroma_me=1 / trellis=1 / 8x8dct=0 / cqm=0 / deadzone=21,11 / fast_pskip=1 / chroma_qp_offset=-3 / threads=11 / lookahead_threads=1 / sliced_threads=0 / nr=0 / decimate=1 / interlaced=0 / bluray_compat=0 / constrained_intra=0 / bframes=3 / b_pyramid=2 / b_adapt=1 / b_bias=0 / direct=1 / weightb=1 / open_gop=0 / weightp=2 / keyint=60 / keyint_min=6 / scenecut=0 / intra_refresh=0 / rc_lookahead=60 / rc=cbr / mbtree=1 / bitrate=700 / ratetol=1.0 / qcomp=0.60 / qpmin=0 / qpmax=69 / qpstep=4 / vbv_maxrate=700 / vbv_bufsize=1400 / nal_hrd=none / filler=0 / ip_ratio=1.40 / aq=1:1.00
mdhd_Duration : 825200
Codec configuration box : avcC
Аудио
Идентификатор : 2
Формат : AAC LC
Формат/Информация : Advanced Audio Codec Low Complexity
Идентификатор кодека : mp4a-40-2
Продолжительность : 13 м. 45 с.
Вид битрейта : Переменный
Битрейт : 125 Кбит/сек
Максимальный битрейт : 178 Кбит/сек
Каналы : 2 канала
Channel layout : L R
Частота : 48,0 КГц
Частота кадров : 46,875 кадров/сек (1024 SPF)
Метод сжатия : С потерями
Размер потока : 12,3 Мбайт (28%)
Общее
Полное имя : E:\Download\курсы\Release\[Udemy] Основы работы с Git и GitHub\01. Что такое Git и GitHub, и для чего они нужны.mp4
Формат : MPEG-4
Профиль формата : Base Media
Идентификатор кодека : isom (isom/iso2/avc1/mp41)
Размер файла : 123 Мбайт
Продолжительность : 12 м. 54 с.
Режим общего битрейта : Переменный
Общий поток : 1333 Кбит/сек
Видео
Идентификатор : 1
Формат : AVC
Формат/Информация : Advanced Video Codec
Профиль формата : [url=mailto:Main@L3.1]Main@L3.1[/url]
Настройки формата : CABAC / 4 Ref Frames
Параметр CABAC формата : Да
Параметр RefFrames формата : 4 кадра
Идентификатор кодека : avc1
Идентификатор кодека/Информация : Advanced Video Coding
Продолжительность : 12 м. 54 с.
Продолжительность оригинала : 12 м. 54 с.
Битрейт : 1200 Кбит/сек
Номинальный битрейт : 3000 Кбит/сек
Ширина : 1280 пикселей
Высота : 720 пикселей
Соотношение сторон : 16:9
Режим частоты кадров : Переменный
Частота кадров : 30,000 кадров/сек
Минимальная частота кадров : 7,500 кадров/сек
Максимальная частота кадров : 120,000 кадров/сек
Цветовое пространство : YUV
Субдискретизация насыщенности : 4:2:0
Битовая глубина : 8 бит
Тип развёртки : Прогрессивная
Бит/(Пиксели*Кадры) : 0.043
Размер потока : 111 Мбайт (90%)
Размер потока оригинала : 111 Мбайт (90%)
Библиотека кодирования : x264 core 148
Настройки программы : cabac=1 / ref=3 / deblock=1:-1:-1 / analyse=0x1:0x111 / me=umh / subme=6 / psy=1 / psy_rd=1.00:0.15 / mixed_ref=1 / me_range=16 / chroma_me=1 / trellis=1 / 8x8dct=0 / cqm=0 / deadzone=21,11 / fast_pskip=1 / chroma_qp_offset=-3 / threads=22 / lookahead_threads=3 / sliced_threads=0 / nr=0 / decimate=1 / interlaced=0 / bluray_compat=0 / constrained_intra=0 / bframes=3 / b_pyramid=2 / b_adapt=1 / b_bias=0 / direct=1 / weightb=1 / open_gop=0 / weightp=2 / keyint=60 / keyint_min=6 / scenecut=0 / intra_refresh=0 / rc_lookahead=60 / rc=cbr / mbtree=1 / bitrate=3000 / ratetol=1.0 / qcomp=0.60 / qpmin=0 / qpmax=69 / qpstep=4 / vbv_maxrate=3000 / vbv_bufsize=6000 / nal_hrd=none / filler=0 / ip_ratio=1.40 / aq=1:1.00
mdhd_Duration : 774500
Codec configuration box : avcC
Аудио
Идентификатор : 2
Формат : AAC LC
Формат/Информация : Advanced Audio Codec Low Complexity
Идентификатор кодека : mp4a-40-2
Продолжительность : 12 м. 54 с.
Вид битрейта : Переменный
Битрейт : 125 Кбит/сек
Максимальный битрейт : 174 Кбит/сек
Каналы : 2 канала
Channel layout : L R
Частота : 48,0 КГц
Частота кадров : 46,875 кадров/сек (1024 SPF)
Метод сжатия : С потерями
Размер потока : 11,6 Мбайт (9%)
Общее
Полное имя : E:\Download\курсы\Release\[Udemy] Основы работы с Git и GitHub\02. Установка Git на Linux.mp4
Формат : MPEG-4
Профиль формата : Base Media
Идентификатор кодека : isom (isom/iso2/avc1/mp41)
Размер файла : 45,0 Мбайт
Продолжительность : 2 м. 33 с.
Режим общего битрейта : Переменный
Общий поток : 2453 Кбит/сек
Видео
Идентификатор : 1
Формат : AVC
Формат/Информация : Advanced Video Codec
Профиль формата : Main@L4
Настройки формата : CABAC / 4 Ref Frames
Параметр CABAC формата : Да
Параметр RefFrames формата : 4 кадра
Идентификатор кодека : avc1
Идентификатор кодека/Информация : Advanced Video Coding
Продолжительность : 2 м. 33 с.
Битрейт : 2321 Кбит/сек
Номинальный битрейт : 5000 Кбит/сек
Ширина : 1912 пикселей
Ширина оригинала : 1920 пикселей
Высота : 1088 пикселей
Высота оригинала : 1080 пикселей
Соотношение сторон : 16:9
Соотношение сторон в оригинале : 16:9
Режим частоты кадров : Переменный
Частота кадров : 30,000 кадров/сек
Минимальная частота кадров : 6,000 кадров/сек
Максимальная частота кадров : 120,000 кадров/сек
Цветовое пространство : YUV
Субдискретизация насыщенности : 4:2:0
Битовая глубина : 8 бит
Тип развёртки : Прогрессивная
Бит/(Пиксели*Кадры) : 0.037
Размер потока : 42,6 Мбайт (95%)
Библиотека кодирования : x264 core 148
Настройки программы : cabac=1 / ref=3 / deblock=1:-1:-1 / analyse=0x1:0x111 / me=umh / subme=6 / psy=1 / psy_rd=1.00:0.15 / mixed_ref=1 / me_range=16 / chroma_me=1 / trellis=1 / 8x8dct=0 / cqm=0 / deadzone=21,11 / fast_pskip=1 / chroma_qp_offset=-3 / threads=24 / lookahead_threads=4 / sliced_threads=0 / nr=0 / decimate=1 / interlaced=0 / bluray_compat=0 / constrained_intra=0 / bframes=3 / b_pyramid=2 / b_adapt=1 / b_bias=0 / direct=1 / weightb=1 / open_gop=0 / weightp=2 / keyint=60 / keyint_min=6 / scenecut=0 / intra_refresh=0 / rc_lookahead=60 / rc=cbr / mbtree=1 / bitrate=5000 / ratetol=1.0 / qcomp=0.60 / qpmin=0 / qpmax=69 / qpstep=4 / vbv_maxrate=5000 / vbv_bufsize=10000 / nal_hrd=none / filler=0 / ip_ratio=1.40 / aq=1:1.00
mdhd_Duration : 153867
Codec configuration box : avcC
Аудио
Идентификатор : 2
Формат : AAC LC
Формат/Информация : Advanced Audio Codec Low Complexity
Идентификатор кодека : mp4a-40-2
Продолжительность : 2 м. 33 с.
Вид битрейта : Переменный
Битрейт : 125 Кбит/сек
Максимальный битрейт : 188 Кбит/сек
Каналы : 2 канала
Channel layout : L R
Частота : 48,0 КГц
Частота кадров : 46,875 кадров/сек (1024 SPF)
Метод сжатия : С потерями
Размер потока : 2,30 Мбайт (5%)

Программа:

- Что такое Git и что такое GitHub и для чего он так широко используется
- Как установить Git на Linux (Ubuntu, RedHat)
- Как установить Git на Windows
- Конфигурация файла .gitconfig
- Работа с Local Repository
- История изменений, игнорирование .gitignore и восстановление файлов
- Открытие бесплатного аккаунта GitHub
- Загрузка проекта в GitHub, git push
- Настройка логина в GitHub через SSH Key на Linux
- Настройка логина в GitHub через SSH Key на Windows
- Создание и работа с ветвлениями - git branch
- Возврат на предыдущие версии
- Полный рабочий цикл действий Git + GitHub

История обновлений:

13.01.2019 - Торрент файл обновлен.
- обновлен 6 урок;

Раздача ведётся путём добавления новых файлов:

Раздача ведётся путём добавления новых файлов; при каждом добавлении создаётся новый торрент. Чтобы начать докачку новых файлов, пользователям необходимо сделать следующее:
(1) остановить скачивание,
(2) удалить старый торрент у себя из клиента (имеющиеся файлы удалять не надо),
(3) скачать новый торрент и запустить его у себя в клиенте вместо старого, при этом указать клиенту путь в старую папку, куда и должно происходить скачивание новых файлов.
Ваш клиент при этом должен произвести хеширование (проверку) старой папки (если не производит сам - помогите ему сделать это), и будет докачивать только те файлы, которых у вас ещё нет. Старые файлы при этом не удаляются, а продолжают раздаваться!
Eсли вы уже удалили старые файлы, то предотвратить повторную закачку старых файлов можно, отжав галочку в соответствующих местах при запуске нового торрента. По возможности, желательно не удалять старые файлы как можно дольше, чтобы релизёр не только продолжал раздавать старые файлы, а смог сконцентрироваться на новых.
Скриншоты:
       

}{@R0N

Пост 14-Янв-2019 20:28

[Цитировать]

Дмитрий Лаврик | Javascript. Интенсивный курс для программистов - Автор (режиссер): Дмитрий Лаврик
Жанр: Программирование, JavaScrtipt
Описание:
Цель курса - улучшить знания в javascript – обобщить и укрепить классические темы, рассмотреть и осмыслить новшества стандартов после ES2015. А также выстроить систему написания кода и научиться взаимодействовать с серверной частью. Рассматриваемые темы будут соотноситься с их реализацией и применением во фреймворках React и Vue.
Продолжительность: 21:54:27
Качество видео: PCRec
Видео: AVC/H.264, 1680x1048-1920-1080, ~226-377 Kbps
Аудио: AAC, 2 ch, 125-126 Kbps

Mediainfo:

Общее
Полное имя : .\Урок 1\01 часть 1.mp4
Формат : MPEG-4
Профиль формата : Base Media / Version 2
Идентификатор кодека : mp42 (isom/mp42)
Размер файла : 248 Мбайт
Продолжительность : 1 ч. 26 м.
Режим общего битрейта : Переменный
Общий поток : 403 Кбит/сек
Дата кодирования : UTC 2018-11-29 18:32:02
Дата пометки : UTC 2018-11-29 18:32:02
Видео
Идентификатор : 1
Формат : AVC
Формат/Информация : Advanced Video Codec
Профиль формата : Baseline@L4
Настройки формата : 3 Ref Frames
Параметр CABAC формата : Нет
Параметр RefFrames формата : 3 кадра
Идентификатор кодека : avc1
Идентификатор кодека/Информация : Advanced Video Coding
Продолжительность : 1 ч. 26 м.
Продолжительность оригинала : 1 ч. 26 м.
Битрейт : 274 Кбит/сек
Ширина : 1680 пикселей
Высота : 1048 пикселей
Соотношение сторон : 16:10
Режим частоты кадров : Переменный
Частота кадров : 30,000 кадров/сек
Минимальная частота кадров : 30,000 кадров/сек
Максимальная частота кадров : 30,030 кадров/сек
Стандарт вещания : NTSC
Цветовое пространство : YUV
Субдискретизация насыщенности : 4:2:0
Битовая глубина : 8 бит
Тип развёртки : Прогрессивная
Бит/(Пиксели*Кадры) : 0.005
Размер потока : 169 Мбайт (68%)
Размер потока оригинала : 169 Мбайт (68%)
Язык : English
Дата кодирования : UTC 2018-11-29 18:32:02
Дата пометки : UTC 2018-11-29 18:32:02
Цветовой диапазон : Limited
mdhd_Duration : 5165500
Codec configuration box : avcC
Аудио
Идентификатор : 2
Формат : AAC LC
Формат/Информация : Advanced Audio Codec Low Complexity
Идентификатор кодека : mp4a-40-2
Продолжительность : 1 ч. 26 м.
Продолжительность оригинала : 1 ч. 26 м.
Вид битрейта : Переменный
Битрейт : 126 Кбит/сек
Максимальный битрейт : 167 Кбит/сек
Каналы : 2 канала
Channel layout : L R
Частота : 44,1 КГц
Частота кадров : 43,066 кадра/сек (1024 SPF)
Метод сжатия : С потерями
Размер потока : 77,4 Мбайт (31%)
Размер потока оригинала : 77,4 Мбайт (31%)
Язык : English
Дата кодирования : UTC 2018-11-29 18:32:02
Дата пометки : UTC 2018-11-29 18:32:02
mdhd_Duration : 5165535
Общее
Полное имя : .\Урок 3\03 часть 2.mp4
Формат : MPEG-4
Профиль формата : Base Media / Version 2
Идентификатор кодека : mp42 (isom/mp42)
Размер файла : 238 Мбайт
Продолжительность : 1 ч. 13 м.
Режим общего битрейта : Переменный
Общий поток : 451 Кбит/сек
Дата кодирования : UTC 2018-12-06 22:34:31
Дата пометки : UTC 2018-12-06 22:34:31
Видео
Идентификатор : 1
Формат : AVC
Формат/Информация : Advanced Video Codec
Профиль формата : Baseline@L4
Настройки формата : 3 Ref Frames
Параметр CABAC формата : Нет
Параметр RefFrames формата : 3 кадра
Идентификатор кодека : avc1
Идентификатор кодека/Информация : Advanced Video Coding
Продолжительность : 1 ч. 13 м.
Продолжительность оригинала : 1 ч. 13 м.
Битрейт : 323 Кбит/сек
Ширина : 1920 пикселей
Высота : 1080 пикселей
Соотношение сторон : 16:9
Режим частоты кадров : Переменный
Частота кадров : 30,000 кадров/сек
Минимальная частота кадров : 30,000 кадров/сек
Максимальная частота кадров : 30,030 кадров/сек
Стандарт вещания : NTSC
Цветовое пространство : YUV
Субдискретизация насыщенности : 4:2:0
Битовая глубина : 8 бит
Тип развёртки : Прогрессивная
Бит/(Пиксели*Кадры) : 0.005
Размер потока : 170 Мбайт (72%)
Размер потока оригинала : 170 Мбайт (72%)
Язык : English
Дата кодирования : UTC 2018-12-06 22:34:32
Дата пометки : UTC 2018-12-06 22:34:32
Цветовой диапазон : Limited
mdhd_Duration : 4425667
Codec configuration box : avcC
Аудио
Идентификатор : 2
Формат : AAC LC
Формат/Информация : Advanced Audio Codec Low Complexity
Идентификатор кодека : mp4a-40-2
Продолжительность : 1 ч. 13 м.
Продолжительность оригинала : 1 ч. 13 м.
Вид битрейта : Переменный
Битрейт : 126 Кбит/сек
Максимальный битрейт : 171 Кбит/сек
Каналы : 2 канала
Channel layout : L R
Частота : 44,1 КГц
Частота кадров : 43,066 кадра/сек (1024 SPF)
Метод сжатия : С потерями
Размер потока : 66,3 Мбайт (28%)
Размер потока оригинала : 66,3 Мбайт (28%)
Язык : English
Дата кодирования : UTC 2018-12-06 22:34:32
Дата пометки : UTC 2018-12-06 22:34:32
mdhd_Duration : 4425700

Программа:

Урок 1
- Этапы готовности новшеств stage [0, 4]
- Настройка Webpack + Babel
- Настройка VS Code + eslint
- Export и import vs require
- Итераторы и генераторы, Symbol
- Полифилы для новых классов
Урок 2
- Call, apply, bind, карринг
- Стрелочные функции
- Синтаксис классов в ES6 и ES7
- Идеи реактивности данных
- Обычные геттеры и сеттеры
- Proxy - перехват обращения к объекту
Урок 3
- Обработка ошибок и исключений
- Ужас цепочек из коллбеков
- Проблема коллбеков и исключений
- Promise: then, catch
- Промисификация кода
- Новые фишки: async, await
Урок 4
- Декораторы классов
- Настройка babel для декораторов
- Декораторы в react + mobx
- Идеи компонентного подхода
- Поток данных и генерация событий
- Небольшая пародия на javascript фреймворк
Урок 5
- Взаимодействие с сервером
- XMLHttpRequest vs fetch
- fetch + полифил vs axios
- Работа с fetch
- Передача данных в json-формате
- Идеи REST API
Урок 6
- Работа с axios
- Базовая настройка
- Отправка запросов и обработка ответов
- Интерцепторы
- Работа с токенами авторизации
- Взаимодействие с готовым REST API
Урок 7
- Применение изученных тем в React
- Настройка стартового шаблона
- Основы React и JSX
- Состояния компонентов
- Взаимодействие между компонентами
Урок 8
- Проблемы реактивности
- Проблемы взаимодействия компонентов
- React + Mobx
- Создание небольшого приложения
- Подведение итогов

Дополнительная информация:

В раздаче имеются архивы! В них содержится дополнительные материалы.
Скриншоты:
       

}{@R0N

Пост 14-Янв-2019 20:27

[Цитировать]

Udemy | Изучите HTML и CSS за несколько часов - Автор (режиссер): Сергей Никонов
Производство: Udemy
Жанр: HTML, CSS
Описание:
С помощью этого видеокурса вы научитесь верстать адаптивные HTML страницы. Вы самостоятельно создадите портал КиноМонстр, работающий как на компьютерах, так и в мобильных устройствах.
Продолжительность: 04:01:21
Качество видео: PCRec
Видео: AVC/H.264, 1280x720, ~682-1829 Kbps
Аудио: AAC, 2 ch, 127-128 Kbps

Mediainfo:

Общее
Полное имя : .\04 Главная страница. Создание верстки портала Kinomonster\015 Создание нижнего блока сайта - footer - часть 1.mp4
Формат : MPEG-4
Профиль формата : Base Media
Идентификатор кодека : isom (isom/iso2/avc1/mp41)
Размер файла : 38,7 Мбайт
Продолжительность : 4 м. 14 с.
Общий поток : 1275 Кбит/сек
Программа кодирования : Lavf57.71.100
Видео
Идентификатор : 1
Формат : AVC
Формат/Информация : Advanced Video Codec
Профиль формата : [url=mailto:Main@L3.1]Main@L3.1[/url]
Настройки формата : CABAC / 4 Ref Frames
Параметр CABAC формата : Да
Параметр RefFrames формата : 4 кадра
Идентификатор кодека : avc1
Идентификатор кодека/Информация : Advanced Video Coding
Продолжительность : 4 м. 14 с.
Битрейт : 1138 Кбит/сек
Номинальный битрейт : 3000 Кбит/сек
Ширина : 1280 пикселей
Высота : 720 пикселей
Соотношение сторон : 16:9
Режим частоты кадров : Постоянный
Частота кадров : 30,000 кадров/сек
Цветовое пространство : YUV
Субдискретизация насыщенности : 4:2:0
Битовая глубина : 8 бит
Тип развёртки : Прогрессивная
Бит/(Пиксели*Кадры) : 0.041
Размер потока : 34,5 Мбайт (89%)
Библиотека кодирования : x264 core 148
Настройки программы : cabac=1 / ref=3 / deblock=1:-1:-1 / analyse=0x1:0x111 / me=umh / subme=6 / psy=1 / psy_rd=1.00:0.15 / mixed_ref=1 / me_range=16 / chroma_me=1 / trellis=1 / 8x8dct=0 / cqm=0 / deadzone=21,11 / fast_pskip=1 / chroma_qp_offset=-3 / threads=3 / lookahead_threads=1 / sliced_threads=0 / nr=0 / decimate=1 / interlaced=0 / bluray_compat=0 / constrained_intra=0 / bframes=3 / b_pyramid=2 / b_adapt=1 / b_bias=0 / direct=1 / weightb=1 / open_gop=0 / weightp=2 / keyint=60 / keyint_min=6 / scenecut=0 / intra_refresh=0 / rc_lookahead=60 / rc=cbr / mbtree=1 / bitrate=3000 / ratetol=1.0 / qcomp=0.60 / qpmin=0 / qpmax=69 / qpstep=4 / vbv_maxrate=3000 / vbv_bufsize=6000 / nal_hrd=none / filler=0 / ip_ratio=1.40 / aq=1:1.00
Codec configuration box : avcC
Аудио
Идентификатор : 2
Формат : AAC LC
Формат/Информация : Advanced Audio Codec Low Complexity
Идентификатор кодека : mp4a-40-2
Продолжительность : 4 м. 14 с.
Вид битрейта : Постоянный
Битрейт : 128 Кбит/сек
Каналы : 2 канала
Channel layout : L R
Частота : 48,0 КГц
Частота кадров : 46,875 кадров/сек (1024 SPF)
Метод сжатия : С потерями
Размер потока : 3,89 Мбайт (10%)
Язык : English
Default : Да
AlternateGroup/String : 1

Дополнительная информация:

В раздаче имеются архивы! В них содержится дополнительные материалы.
Скриншоты:
       

}{@R0N

Пост 13-Янв-2019 18:02

[Цитировать]

Udemy | Андроид разработка с нуля до Junior + Java для начинающих - Автор (режиссер): Андрей Сумин
Производство: Udemy
Жанр: Программирование, Java, Android
Описание:
Этот курс предназначен для людей, которые никогда не изучали языки программирования. Для того чтобы писать приложения, которые не просто хорошо выглядят, но и выполняют различные функции, необходимо знать язык Java, и первый раздел я полностью посвятил его изучению. Все что нужно от вас – это желание учиться и наличие компьютера. Лекции содержат домашние задания, чтобы вы не просто прослушали материал, но и закрепили его на практике.
Мы с вами полностью пройдем весь путь от установки среды разработки до загрузки вашего приложения в Google Play. Первые наши приложения будут очень простые, потом с каждым уроком мы будем их усложнять, добавлять все больше новых элементов.
Продолжительность: 18:17:17
Качество видео: PCRec
Видео: AVC/H.264, 1280x720, ~490-1498 Kbps
Аудио: AAC, 2 ch, 126-128 Kbps

Mediainfo:

Общее
Полное имя : .\2. Изучаем язык Java\3. Переменные.mp4
Формат : MPEG-4
Профиль формата : Base Media
Идентификатор кодека : isom (isom/iso2/avc1/mp41)
Размер файла : 75,4 Мбайт
Продолжительность : 13 м. 36 с.
Общий поток : 776 Кбит/сек
Программа кодирования : Lavf58.12.100
IsTruncated : Yes
Видео
Идентификатор : 1
Формат : AVC
Формат/Информация : Advanced Video Codec
Профиль формата : [url=mailto:Main@L3.1]Main@L3.1[/url]
Настройки формата : CABAC / 4 Ref Frames
Параметр CABAC формата : Да
Параметр RefFrames формата : 4 кадра
Параметр GOP формата : M=4, N=60
Идентификатор кодека : avc1
Идентификатор кодека/Информация : Advanced Video Coding
Продолжительность : 13 м. 35 с.
Битрейт : 639 Кбит/сек
Номинальный битрейт : 3000 Кбит/сек
Ширина : 1280 пикселей
Высота : 720 пикселей
Соотношение сторон : 16:9
Режим частоты кадров : Постоянный
Частота кадров : 30,000 кадров/сек
Цветовое пространство : YUV
Субдискретизация насыщенности : 4:2:0
Битовая глубина : 8 бит
Тип развёртки : Прогрессивная
Бит/(Пиксели*Кадры) : 0.023
Размер потока : 62,1 Мбайт (82%)
Библиотека кодирования : x264 core 148
Настройки программы : cabac=1 / ref=3 / deblock=1:-1:-1 / analyse=0x1:0x111 / me=umh / subme=6 / psy=1 / psy_rd=1.00:0.15 / mixed_ref=1 / me_range=16 / chroma_me=1 / trellis=1 / 8x8dct=0 / cqm=0 / deadzone=21,11 / fast_pskip=1 / chroma_qp_offset=-3 / threads=22 / lookahead_threads=3 / sliced_threads=0 / nr=0 / decimate=1 / interlaced=0 / bluray_compat=0 / constrained_intra=0 / bframes=3 / b_pyramid=2 / b_adapt=1 / b_bias=0 / direct=1 / weightb=1 / open_gop=0 / weightp=2 / keyint=60 / keyint_min=6 / scenecut=0 / intra_refresh=0 / rc_lookahead=60 / rc=cbr / mbtree=1 / bitrate=3000 / ratetol=1.0 / qcomp=0.60 / qpmin=0 / qpmax=69 / qpstep=4 / vbv_maxrate=3000 / vbv_bufsize=6000 / nal_hrd=none / filler=0 / ip_ratio=1.40 / aq=1:1.00
Codec configuration box : avcC
Аудио
Идентификатор : 2
Формат : AAC LC
Формат/Информация : Advanced Audio Codec Low Complexity
Идентификатор кодека : mp4a-40-2
Продолжительность : 13 м. 36 с.
Вид битрейта : Постоянный
Битрейт : 128 Кбит/сек
Каналы : 2 канала
Channel layout : L R
Частота : 44,1 КГц
Частота кадров : 43,066 кадра/сек (1024 SPF)
Метод сжатия : С потерями
Размер потока : 12,5 Мбайт (17%)
Default : Да
AlternateGroup/String : 1

Дополнительная информация:

В раздаче имеются архивы! В них содержится дополнительные материалы.
Скриншоты:
       

}{@R0N

Пост 13-Янв-2019 18:02

[Цитировать]

Udemy | Kali Linux Для Начинающих - Автор (режиссер): Hackers Academy
Производство: Udemy
Жанр: Операционные системы, Linux
Описание:
Вас пугает командная строка и вы не знаете, что с ней делать? Если да, то этот курс отлично вам подойдет. В этом обучающем курсе начнем с самых азов, предположим, что вы ничего не знаете о Linux! Мы начнем с самых азов и постепенно будем учиться пользоваться Kali Linux. В итоге вы будете «как рыба в воде» при работе не только в Kali Linux, но и при работе с большинством Linux систем.
Продолжительность: 07:24:11
Качество видео: PCRec
Видео: AVC/H.264, 1280x720, ~1663-4002 Kbps
Аудио: AAC, 2 ch, 191-192 Kbps

Mediainfo:

Общее
Полное имя : .\03 Взламываем системы\005 - Сканируем уязвимости.mp4
Формат : MPEG-4
Профиль формата : Base Media / Version 2
Идентификатор кодека : mp42 (mp42/isom)
Размер файла : 101 Мбайт
Продолжительность : 5 м. 27 с.
Режим общего битрейта : Переменный
Общий поток : 2586 Кбит/сек
Дата кодирования : UTC 2018-10-20 15:09:33
Дата пометки : UTC 2018-10-20 15:09:33
Видео
Идентификатор : 2
Формат : AVC
Формат/Информация : Advanced Video Codec
Профиль формата : [url=mailto:Main@L3.2]Main@L3.2[/url]
Настройки формата : CABAC / 3 Ref Frames
Параметр CABAC формата : Да
Параметр RefFrames формата : 3 кадра
Параметр GOP формата : M=4, N=15
Идентификатор кодека : avc1
Идентификатор кодека/Информация : Advanced Video Coding
Продолжительность : 5 м. 27 с.
Вид битрейта : Переменный
Битрейт : 2389 Кбит/сек
Максимальный битрейт : 4000 Кбит/сек
Ширина : 1280 пикселей
Высота : 720 пикселей
Соотношение сторон : 16:9
Режим частоты кадров : Постоянный
Частота кадров : 30,000 кадров/сек
Стандарт вещания : NTSC
Цветовое пространство : YUV
Субдискретизация насыщенности : 4:2:0
Битовая глубина : 8 бит
Тип развёртки : Прогрессивная
Бит/(Пиксели*Кадры) : 0.086
Размер потока : 93,3 Мбайт (92%)
Язык : English
Дата кодирования : UTC 2018-10-20 15:09:33
Дата пометки : UTC 2018-10-20 15:09:33
Цветовой диапазон : Limited
Codec configuration box : avcC
Аудио
Идентификатор : 1
Формат : AAC LC
Формат/Информация : Advanced Audio Codec Low Complexity
Идентификатор кодека : mp4a-40-2
Продолжительность : 5 м. 27 с.
Вид битрейта : Постоянный
Битрейт : 192 Кбит/сек
Каналы : 2 канала
Channel layout : L R
Частота : 48,0 КГц
Частота кадров : 46,875 кадров/сек (1024 SPF)
Метод сжатия : С потерями
Размер потока : 7,50 Мбайт (7%)
Язык : English
Дата кодирования : UTC 2018-10-20 15:09:33
Дата пометки : UTC 2018-10-20 15:09:33
Скриншоты:
       

}{@R0N

Пост 13-Янв-2019 18:02

[Цитировать]

HTML Academy | Профессиональный JavaScript, уровень 2 - Автор (режиссер): Евгений Щепотьев, Олег Акинин, Игорь Алексеенко
Производство: HTML Academy
Жанр: Программирование, JavaScript
Описание:
Курс предназначен для тех, кто прошёл «Профессиональный JavaScript, уровень 1», или для разработчиков, желающих поднять свои навыки.
После прохождения курса вы будете уверенно создавать современные веб-приложения. Знать, как писать код на ES2015 (ES6), уметь его тестировать, а также умело применять паттерны проектирования.
Продолжительность: 18:21:34
Качество видео: PCRec
Видео: AVC/H.264, 1920x1080, ~523-1073 Kbps
Аудио: AAC, 2 ch, 137 Kbps

Mediainfo:

Общее
Полное имя : .\1 Знакомство\Лекция 1 — Профессиональный JavaScript, уровень 2 (поток #7).mp4
Формат : MPEG-4
Профиль формата : Base Media / Version 2
Идентификатор кодека : mp42 (mp42/mp41/isom/avc1)
Размер файла : 582 Мбайт
Продолжительность : 2 ч. 2 м.
Режим общего битрейта : Переменный
Общий поток : 664 Кбит/сек
Дата кодирования : UTC 2018-11-12 19:40:53
Дата пометки : UTC 2018-11-12 19:40:53
Видео
Идентификатор : 1
Формат : AVC
Формат/Информация : Advanced Video Codec
Профиль формата : High@L4
Настройки формата : CABAC / 5 Ref Frames
Параметр CABAC формата : Да
Параметр RefFrames формата : 5 кадров
Идентификатор кодека : avc1
Идентификатор кодека/Информация : Advanced Video Coding
Продолжительность : 2 ч. 2 м.
Битрейт : 523 Кбит/сек
Ширина : 1920 пикселей
Высота : 1080 пикселей
Соотношение сторон : 16:9
Режим частоты кадров : Постоянный
Частота кадров : 24,000 кадра/сек
Цветовое пространство : YUV
Субдискретизация насыщенности : 4:2:0
Битовая глубина : 8 бит
Тип развёртки : Прогрессивная
Бит/(Пиксели*Кадры) : 0.011
Размер потока : 458 Мбайт (79%)
Библиотека кодирования : x264 core 157 r10 545de2f
Настройки программы : cabac=1 / ref=5 / deblock=1:0:0 / analyse=0x3:0x113 / me=hex / subme=8 / psy=1 / psy_rd=1.00:0.00 / mixed_ref=1 / me_range=16 / chroma_me=1 / trellis=2 / 8x8dct=1 / cqm=0 / deadzone=21,11 / fast_pskip=1 / chroma_qp_offset=-2 / threads=34 / lookahead_threads=5 / sliced_threads=0 / nr=0 / decimate=1 / interlaced=0 / bluray_compat=0 / stitchable=1 / constrained_intra=0 / bframes=3 / b_pyramid=2 / b_adapt=2 / b_bias=0 / direct=3 / weightb=1 / open_gop=0 / weightp=2 / keyint=infinite / keyint_min=24 / scenecut=40 / intra_refresh=0 / rc_lookahead=50 / rc=crf / mbtree=1 / crf=20.0 / qcomp=0.60 / qpmin=5 / qpmax=69 / qpstep=4 / vbv_maxrate=5500 / vbv_bufsize=15000 / crf_max=0.0 / nal_hrd=none / filler=0 / ip_ratio=1.40 / aq=1:1.00
Дата кодирования : UTC 2018-11-12 19:40:53
Дата пометки : UTC 2018-11-12 19:40:53
Цветовой диапазон : Limited
Основные цвета : BT.709
Характеристики трансфера : BT.709
Коэффициенты матрицы : BT.709
Codec configuration box : avcC
Аудио
Идентификатор : 2
Формат : AAC LC
Формат/Информация : Advanced Audio Codec Low Complexity
Идентификатор кодека : mp4a-40-2
Продолжительность : 2 ч. 2 м.
Вид битрейта : Переменный
Битрейт : 137 Кбит/сек
Каналы : 2 канала
Channel layout : L R
Частота : 48,0 КГц
Частота кадров : 46,875 кадров/сек (1024 SPF)
Метод сжатия : С потерями
Размер потока : 120 Мбайт (21%)
Дата кодирования : UTC 2018-11-12 19:40:53
Дата пометки : UTC 2018-11-12 19:40:53
Скриншоты:
       

}{@R0N

Пост 13-Янв-2019 18:02

[Цитировать]

Udemy | Познавая вёрстку HTML, CSS и кое что ещё - Автор (режиссер): Глеб Чубаренко
Производство: Udemy
Жанр: HTML, CSS
Описание:
Курс создан на основе нескольких десятков онлайн групп по обучению на тему веб вёрстки.
Финальный результат: ясное понимание и уверенность в вёрстке. Это фундамент, на котором может строиться дальнейший путь в области веб-разработки.
Продолжительность: 17:55:26
Качество видео: PCRec
Видео: AVC/H.264, 1280x720, ~329-2610 Kbps
Аудио: AAC, 2 ch, 127-128 Kbps

Mediainfo:

Общее
Полное имя : .\2. Верстка бегло на примере очень простой страницы\2. Инструменты разработчика.mp4
Формат : MPEG-4
Профиль формата : Base Media
Идентификатор кодека : isom (isom/iso2/avc1/mp41)
Размер файла : 24,7 Мбайт
Продолжительность : 2 м. 15 с.
Общий поток : 1530 Кбит/сек
Программа кодирования : Lavf58.12.100
Видео
Идентификатор : 1
Формат : AVC
Формат/Информация : Advanced Video Codec
Профиль формата : [url=mailto:Main@L3.1]Main@L3.1[/url]
Настройки формата : CABAC / 4 Ref Frames
Параметр CABAC формата : Да
Параметр RefFrames формата : 4 кадра
Идентификатор кодека : avc1
Идентификатор кодека/Информация : Advanced Video Coding
Продолжительность : 2 м. 15 с.
Битрейт : 1394 Кбит/сек
Номинальный битрейт : 3000 Кбит/сек
Ширина : 1280 пикселей
Высота : 720 пикселей
Соотношение сторон : 16:9
Режим частоты кадров : Постоянный
Частота кадров : 30,000 кадров/сек
Цветовое пространство : YUV
Субдискретизация насыщенности : 4:2:0
Битовая глубина : 8 бит
Тип развёртки : Прогрессивная
Бит/(Пиксели*Кадры) : 0.050
Размер потока : 22,5 Мбайт (91%)
Библиотека кодирования : x264 core 148
Настройки программы : cabac=1 / ref=3 / deblock=1:-1:-1 / analyse=0x1:0x111 / me=umh / subme=6 / psy=1 / psy_rd=1.00:0.15 / mixed_ref=1 / me_range=16 / chroma_me=1 / trellis=1 / 8x8dct=0 / cqm=0 / deadzone=21,11 / fast_pskip=1 / chroma_qp_offset=-3 / threads=22 / lookahead_threads=3 / sliced_threads=0 / nr=0 / decimate=1 / interlaced=0 / bluray_compat=0 / constrained_intra=0 / bframes=3 / b_pyramid=2 / b_adapt=1 / b_bias=0 / direct=1 / weightb=1 / open_gop=0 / weightp=2 / keyint=60 / keyint_min=6 / scenecut=0 / intra_refresh=0 / rc_lookahead=60 / rc=cbr / mbtree=1 / bitrate=3000 / ratetol=1.0 / qcomp=0.60 / qpmin=0 / qpmax=69 / qpstep=4 / vbv_maxrate=3000 / vbv_bufsize=6000 / nal_hrd=none / filler=0 / ip_ratio=1.40 / aq=1:1.00
Codec configuration box : avcC
Аудио
Идентификатор : 2
Формат : AAC LC
Формат/Информация : Advanced Audio Codec Low Complexity
Идентификатор кодека : mp4a-40-2
Продолжительность : 2 м. 15 с.
Вид битрейта : Постоянный
Битрейт : 128 Кбит/сек
Каналы : 2 канала
Channel layout : L R
Частота : 48,0 КГц
Частота кадров : 46,875 кадров/сек (1024 SPF)
Метод сжатия : С потерями
Размер потока : 2,07 Мбайт (8%)
Default : Да
AlternateGroup/String : 1
Скриншоты:
       

}{@R0N

Пост 09-Янв-2019 16:34

[Цитировать]

CG Cookie - 2010 Blender Training Series (full parts 1 & 2) - Автор (режиссер): Jonathan Williamson
Название: CG Cookie - 2010 Blender Training Series (full parts 1 & 2) [2010, ENG]
Год выпуска: 2010
Жанр: Видеоуроки по Blender 2.5
Язык: Английский
Качество видео: PCRec
Продолжительность: более 23 часов
Видеокодек: H.264 / AVC
Битрейт видео: ~460kbps, 30fps
Размер кадра: 1280x720
Аудиокодек: MP3
Битрейт аудио: ~92kbps, 2ch, 44100Hz
Описание:
На официальном сайте вода, поэтому пишу отсебятину. Данный материал предназначен для начинающих изучать Blender или желающих перейти со старой версии на новый Blender 2.5-2.6. В первой части (главы 1-5) автор знакомит нас с основами работы в программе, а во второй части (главы 6-12) шаг за шагом моделируется, текстурируется, ригится и рендерится воинственная девица по имени Кара.

Дополнительная информация:

Видеоурок расценен как достаточно качественный, понятный и полезный, поэтому приобретен мной у производителя, приведен в божеский вид, и выложен на трекер для... ну например для увеличения собственного ЧСВ.
Скриншоты:
       

}{@R0N

Пост 09-Янв-2019 16:33

[Цитировать]

Blender Foundations | Blenderella, Моделирование Персонажа в Blender 2.5 / Blenderella, Character Modeling in Blender 2.5 - Автор (режиссер): Angela Guenette
Производство: Blender Foundations
Жанр: 3D моделирование
Описание:
Техники полигонального моделирования с акцентом на топологию: 100% моделирование четырехугольниками. Без скульпинга и треугольников.
В этих уроках Angela Guenette покажет вам свой метод по моделированию персонажа в Blender 2.5. Она демонстрирует инструменты, используемые в Blender, и методы создания эффективной топологии с чистым Edge Flow. Это упростит создание деформации лица и тела для риггинга и анимации.
Продолжительность: 06:21:44
Качество видео: PCRec
Язык озвучки: Английский
Видео: V Theora, 1440х900, ~2475 Kbps
Аудио: MP3, 2 ch, 80 Kbps, CBR

Mediainfo:

Код:
General
Unique ID                                : 182425528023933290125903280621844074650 (0x893DE0F2C212A7B9781378721F96909A)
Complete name                            : C:\Torrents\Blender DVD training - Blenderella\01_01_Head.MKV
Format                                   : Matroska
Format version                           : Version 2
File size                                : 111 MiB
Duration                                 : 5mn 57s
Overall bit rate                         : 2 607 Kbps
Writing application                      : Lavf52.61.0
Writing library                          : Lavf52.61.0
Video
ID                                       : 1
Format                                   : Theora
Codec ID                                 : V_THEORA
Bit rate                                 : 2 475 Kbps
Nominal bit rate                         : 3 000 Kbps
Width                                    : 1 440 pixels
Height                                   : 900 pixels
Display aspect ratio                     : 16:10
Frame rate mode                          : Variable
Original frame rate                      : 15.000 fps
Compression mode                         : Lossy
Bits/(Pixel*Frame)                       : 0.154
Writing library                          : Xiph.Org libtheora 1.1 20090822 (Thusnelda)
Default                                  : Yes
Forced                                   : No
Audio
ID                                       : 2
Format                                   : MPEG Audio
Format version                           : Version 1
Format profile                           : Layer 3
Mode                                     : Joint stereo
Mode extension                           : MS Stereo
Codec ID                                 : A_MPEG/L3
Codec ID/Hint                            : MP3
Duration                                 : 5mn 57s
Bit rate mode                            : Constant
Bit rate                                 : 80.0 Kbps
Channel(s)                               : 2 channels
Sampling rate                            : 44.1 KHz
Compression mode                         : Lossy
Stream size                              : 3.41 MiB (3%)
Writing library                          : LAME3.98.4
Default                                  : Yes
Forced                                   : No

Видео:

Скриншоты:
       

}{@R0N

Пост 09-Янв-2019 16:33

[Цитировать]

CG Masters | Моделирование и Текстурирование Автомобиля в Blender / Car Modeling and Texturing in Blender- Автор (режиссер): Christopher Plush
Производство: CG Masters
Жанр: 3D моделирование
Описание:
В этом 10-часовом обучающем курсе Christopher Plush научит вас создавать Chevrolet Camaro ZL1 2012 от начала до конца, включая моделирование, текстурирование, освещение, композитинг и даже создание студийной среды для окончательного рендеринга!
Продолжительность: 10:13:52
Качество видео: PCRec
Язык озвучки: Английский
Видео: AVC/H.264, 1280х768, ~1857 Kbps
Аудио: AAC, 2 ch, 126 Kbps, VBR

Mediainfo:

Код:
General
Complete name                            : C:\Torrents\CG Masters - Car Modeling and Texturing in Blender (2012)\Section 3 - Modeling\Chapter 27 - Wheel Wells.mp4
Format                                   : MPEG-4
Format profile                           : Base Media / Version 2
Codec ID                                 : mp42
File size                                : 17.8 MiB
Duration                                 : 1mn 15s
Overall bit rate mode                    : Variable
Overall bit rate                         : 1 985 Kbps
Encoded date                             : UTC 2012-12-21 04:30:03
Tagged date                              : UTC 2012-12-21 04:30:03
Video
ID                                       : 1
Format                                   : AVC
Format/Info                              : Advanced Video Codec
Format profile                           : [url=mailto:Baseline@L3.2]Baseline@L3.2[/url]
Format settings, CABAC                   : No
Format settings, ReFrames                : 3 frames
Format settings, GOP                     : M=1, N=75
Codec ID                                 : avc1
Codec ID/Info                            : Advanced Video Coding
Duration                                 : 1mn 15s
Source duration                          : 1mn 15s
Bit rate                                 : 1 857 Kbps
Width                                    : 1 280 pixels
Height                                   : 768 pixels
Display aspect ratio                     : 1.667
Frame rate mode                          : Variable
Frame rate                               : 15.000 fps
Minimum frame rate                       : 15.000 fps
Maximum frame rate                       : 15.008 fps
Color space                              : YUV
Chroma subsampling                       : 4:2:0
Bit depth                                : 8 bits
Scan type                                : Progressive
Bits/(Pixel*Frame)                       : 0.126
Stream size                              : 16.6 MiB (94%)
Source stream size                       : 16.6 MiB (94%)
Language                                 : English
Encoded date                             : UTC 2012-12-21 04:30:03
Tagged date                              : UTC 2012-12-21 04:30:03
mdhd_Duration                            : 75067
Audio
ID                                       : 2
Format                                   : AAC
Format/Info                              : Advanced Audio Codec
Format profile                           : LC
Codec ID                                 : 40
Duration                                 : 1mn 15s
Source duration                          : 1mn 15s
Bit rate mode                            : Variable
Bit rate                                 : 126 Kbps
Maximum bit rate                         : 205 Kbps
Channel(s)                               : 2 channels
Channel positions                        : Front: L R
Sampling rate                            : 44.1 KHz
Compression mode                         : Lossy
Stream size                              : 1.12 MiB (6%)
Source stream size                       : 1.12 MiB (6%)
Language                                 : English
Encoded date                             : UTC 2012-12-21 04:30:03
Tagged date                              : UTC 2012-12-21 04:30:03
mdhd_Duration                            : 75070

Дополнительная информация:

В архиве "Project Files.7z" находятся файлы проектов, текстуры, референсы.
Скриншоты:
       

}{@R0N

Пост 06-Янв-2019 21:54

[Цитировать]

Алексей Ларченко | Как сделать в Movavi Video Suite 18 - Автор (режиссер): Алексей Ларченко
Жанр: Видеоуроки
Описание:
Серия видеоуроков по Movavi Video Suite 18. Есть несколько видеоуроков по созданию имитации анимированной графики с использованием Фотошопа и внутренних ресурсов программы.
Продолжительность: 02:05:47
Качество видео: PCRec
Видео: Другой, 1920-1280х720-1080, ~1000-7000 Kbps
Аудио: Другой, 2 ch, 128-320 Kbps, CBR-VBR

Список файлов

1. Анимация текстовых сообщений в Movavi Video Suite 18
2. Как сделать слайдшоу из фотографий в Movavi Video Suite 18
3. Анимация иконок в Movavi Video Suite 18
4. Анимация комментариев в Movavi Video Suite 18
5. Эффект перемотки в Movavi Video Suite 18
6. Как сделать три видео в одном кадре в Movavi Video Suite 18
7. Как оформить Stories Instagram в Movavi Video Suite 18
8. Как создать видео для Stories и IGTV в Movavi Video Suite 18
9. Как сделать видео для Instagram в Movavi Video Suite 18
10. Создание анимированной графики в Movavi Video Suite 18 (Часть 1)
11. Split Screen (разделенный экран) в Movavi Video Suite 18
12. Как сделать двойника в видео в Movavi Video Suite 18
13. Создание анимированной графики в Movavi Video Suite 18 (Часть 2)
14. Как убрать черные полосы в Movavi Video Suite 18
15. Как сделать водяной знак в Movavi Video Suite 18
+ Доп. файлы к тем видеоурокам, в которых они упоминаются.

Mediainfo:

General
Complete name : D:\Основной канал\1. Movavi Video Suite 18\На торрент\Как сделать в Movavi Video Suite 18\1. Анимация текстовых сообщений в Movavi Video Suite 18.MP4
Format : MPEG-4
Format profile : Base Media
Codec ID : isom (isom/iso2/avc1/mp41)
File size : 462 MiB
Duration : 14 min 24 s
Overall bit rate mode : Variable
Overall bit rate : 4 484 kb/s
Encoded date : UTC 2018-12-09 13:12:55
Tagged date : UTC 2018-12-09 13:12:55
Writing application : Lavf58.12.100
Video
ID : 1
Format : AVC
Format/Info : Advanced Video Codec
Format profile : [url=mailto:Main@L3.1]Main@L3.1[/url]
Format settings : CABAC / 2 Ref Frames
Format settings, CABAC : Yes
Format settings, RefFrames : 2 frames
Codec ID : avc1
Codec ID/Info : Advanced Video Coding
Duration : 14 min 24 s
Bit rate : 4 292 kb/s
Width : 1 280 pixels
Height : 720 pixels
Display aspect ratio : 16:9
Frame rate mode : Constant
Frame rate : 29.970 (30000/1001) FPS
Color space : YUV
Chroma subsampling : 4:2:0
Bit depth : 8 bits
Scan type : Progressive
Bits/(Pixel*Frame) : 0.155
Stream size : 443 MiB (96%)
Language : English
Encoded date : UTC 2018-12-09 13:12:55
Tagged date : UTC 2018-12-09 13:12:55
Codec configuration box : avcC
Audio
ID : 2
Format : AAC LC
Format/Info : Advanced Audio Codec Low Complexity
Codec ID : mp4a-40-2
Duration : 14 min 24 s
Bit rate mode : Variable
Bit rate : 185 kb/s
Maximum bit rate : 192 kb/s
Channel(s) : 2 channels
Channel layout : L R
Sampling rate : 48.0 kHz
Frame rate : 46.875 FPS (1024 SPF)
Compression mode : Lossy
Stream size : 19.1 MiB (4%)
Language : English
Default : Yes
Alternate group : 1
Encoded date : UTC 2018-12-09 13:12:55
Tagged date : UTC 2018-12-09 13:12:55
General
Complete name : D:\Основной канал\1. Movavi Video Suite 18\На торрент\Как сделать в Movavi Video Suite 18\Доп. файлы\11. Создание анимированной графики (.mogrt, Motion Graphics Template) (Часть 1)\Создание анимированной графики (.mogrt, Motion Graphics Template).wmv
Format : Windows Media
File size : 16.0 MiB
Duration : 19 s 550 ms
Overall bit rate : 6 884 kb/s
Maximum Overall bit rate : 320 kb/s
Encoded date : UTC 1970-01-01 00:00:00.000
WM/EncodingSettings : Lavf58.12.100
Video
ID : 1
Format : WMV2
Codec ID : WMV2
Codec ID/Info : Windows Media Video 8
Description of the codec : wmv2
Duration : 19 s 553 ms
Bit rate : 6 283 kb/s
Width : 1 920 pixels
Height : 1 080 pixels
Display aspect ratio : 16:9
Frame rate : 29.970 (29970/1000) FPS
Bit depth : 8 bits
Bits/(Pixel*Frame) : 0.101
Stream size : 14.6 MiB (91%)
Audio
ID : 2
Format : WMA
Format version : Version 2
Codec ID : 161
Codec ID/Info : Windows Media Audio
Description of the codec : Windows Media Audio V8
Duration : 19 s 550 ms
Bit rate : 320 kb/s
Channel(s) : 2 channels
Sampling rate : 44.1 kHz
Bit depth : 16 bits
Stream size : 764 KiB (5%)
General
Complete name : D:\Основной канал\1. Movavi Video Suite 18\На торрент\Как сделать в Movavi Video Suite 18\Доп. файлы\6. Анимация иконок в Movavi Video Suite 18\2 вариант Анимация иконок.wmv
Format : Windows Media
File size : 3.24 MiB
Duration : 8 s 33 ms
Overall bit rate : 3 379 kb/s
Maximum Overall bit rate : 320 kb/s
Encoded date : UTC 1970-01-01 00:00:00.000
WM/EncodingSettings : Lavf58.12.100
Video
ID : 1
Format : WMV2
Codec ID : WMV2
Codec ID/Info : Windows Media Video 8
Description of the codec : wmv2
Duration : 8 s 41 ms
Bit rate : 2 916 kb/s
Width : 1 920 pixels
Height : 1 080 pixels
Display aspect ratio : 16:9
Frame rate : 29.970 (29970/1000) FPS
Bit depth : 8 bits
Bits/(Pixel*Frame) : 0.047
Stream size : 2.80 MiB (86%)
Audio
ID : 2
Format : WMA
Format version : Version 2
Codec ID : 161
Codec ID/Info : Windows Media Audio
Description of the codec : Windows Media Audio V8
Duration : 8 s 32 ms
Bit rate : 320 kb/s
Channel(s) : 2 channels
Sampling rate : 44.1 kHz
Bit depth : 16 bits
Stream size : 314 KiB (9%)
General
Complete name : D:\Основной канал\1. Movavi Video Suite 18\На торрент\Как сделать в Movavi Video Suite 18\Доп. файлы\8. Эффект перемотки в Movavi Video Suite 18\00570.mp3
Format : MPEG Audio
File size : 533 KiB
Duration : 34 s 37 ms
Overall bit rate mode : Constant
Overall bit rate : 128 kb/s
Track name : http://noisefx.ru
Genre : Other
Audio
Format : MPEG Audio
Format version : Version 1
Format profile : Layer 3
Duration : 34 s 37 ms
Bit rate mode : Constant
Bit rate : 128 kb/s
Channel(s) : 2 channels
Sampling rate : 44.1 kHz
Frame rate : 38.281 FPS (1152 SPF)
Compression mode : Lossy
Stream size : 532 KiB (100%)
General
Complete name : D:\Основной канал\1. Movavi Video Suite 18\На торрент\Как сделать в Movavi Video Suite 18\Доп. файлы\8. Эффект перемотки в Movavi Video Suite 18\Free Rewind Video Effect-- ФУТАЖ ПЕРЕМОТКА.mp4
Format : MPEG-4
Format profile : Base Media / Version 2
Codec ID : mp42 (isom/mp42)
File size : 291 KiB
Duration : 2 s 20 ms
Overall bit rate mode : Variable
Overall bit rate : 1 179 kb/s
Encoded date : UTC 2016-08-28 13:25:44
Tagged date : UTC 2016-08-28 13:25:44
gsst : 0
gstd : 2066
Video
ID : 1
Format : AVC
Format/Info : Advanced Video Codec
Format profile : [url=mailto:Main@L3.1]Main@L3.1[/url]
Format settings : CABAC / 3 Ref Frames
Format settings, CABAC : Yes
Format settings, RefFrames : 3 frames
Codec ID : avc1
Codec ID/Info : Advanced Video Coding
Duration : 2 s 0 ms
Bit rate : 1 054 kb/s
Width : 1 280 pixels
Height : 720 pixels
Display aspect ratio : 16:9
Frame rate mode : Constant
Frame rate : 30.000 FPS
Color space : YUV
Chroma subsampling : 4:2:0
Bit depth : 8 bits
Scan type : Progressive
Bits/(Pixel*Frame) : 0.038
Stream size : 257 KiB (89%)
Title : ISO Media file produced by Google Inc.
Encoded date : UTC 2016-08-28 13:25:44
Tagged date : UTC 2016-08-28 13:25:44
Color range : Limited
Color primaries : BT.709
Transfer characteristics : BT.709
Matrix coefficients : BT.709
Codec configuration box : avcC
Audio
ID : 2
Format : AAC LC
Format/Info : Advanced Audio Codec Low Complexity
Codec ID : mp4a-40-2
Duration : 2 s 20 ms
Bit rate mode : Variable
Bit rate : 127 kb/s
Channel(s) : 2 channels
Channel layout : L R
Sampling rate : 44.1 kHz
Frame rate : 43.066 FPS (1024 SPF)
Compression mode : Lossy
Stream size : 31.3 KiB (11%)
Title : ISO Media file produced by Google Inc.
Encoded date : UTC 2016-08-28 13:25:44
Tagged date : UTC 2016-08-28 13:25:44
Скриншоты:
       
 

Текущее время: Сегодня 02:15

Часовой пояс: GMT + 3