Сегодня идет свободное скачивание без начисления Download

Результатов поиска: 500

Автор Сообщение

Nickopol

Пост 16-Июл-2017 11:52

[Цитировать]

Скачал, будем пррробовать

XP1971

Пост 28-Июн-2017 07:59

[Цитировать]

Михаил Шестов | SupremeLearning - Изучение Английского по методу Михаила Шестова (2010) DVD5 - Автор (режиссер): Михаил Шестов
Производство: SupremeLearning
Жанр: Английский язык
Описание:
Заочный курс изучения английского языка поможет Вам с нуля обучиться правильной устной и письменной английской речи, усовершенствовать уже имеющиеся знания и освоить уникальную авторскую систему «Как научить себя учиться» — она даст вам навыки эффективного самообучения и позволит в будущем самостоятельно освоить любой язык или другую учебную дисциплину.
За период от 1 до 3 месяцев Вы сможете свободно говорить на грамотном английском и избавиться от страха общения, занимаясь всего по 2-3 часа 3-5 раз в неделю.
Метод изучения английского языка Михаила Шестова уникален и аналогов, к сожалению, не имеет. Ни один другой курс английского языка не позволит Вам добиться аналогичных результатов, выйти на уровень высокообразованного носителя языка и, наконец, начать чувствовать себя комфортно среди англоговорящих людей.
Продолжительность: 03:58:18
Качество видео: DVD5
Видео: MPEG-2, 352x480@640х480-720x480, ~3699 Kbps
Аудио: PCM, 2 ch, 1536 Kbps, CBR

Mediainfo:

Код:
General
Complete name                            : C:\Torrents\Шестов Михаил - SupremeLearning English\DVD 1 - Video Seminar - Learn How to Learn & How to Master English\VIDEO_TS\VTS_01_2.VOB
Format                                   : MPEG-PS
File size                                : 1 024 MiB
Duration                                 : 26mn 48s
Overall bit rate mode                    : Variable
Overall bit rate                         : 5 342 Kbps
Video
ID                                       : 224 (0xE0)
Format                                   : MPEG Video
Format version                           : Version 2
Format profile                           : Main@Main
Format settings, BVOP                    : Yes
Format settings, Matrix                  : Default
Format settings, GOP                     : M=3, N=15
Duration                                 : 26mn 47s
Bit rate mode                            : Variable
Bit rate                                 : 3 699 Kbps
Maximum bit rate                         : 8 300 Kbps
Width                                    : 352 pixels
Height                                   : 480 pixels
Display aspect ratio                     : 4:3
Frame rate                               : 29.970 fps
Standard                                 : NTSC
Color space                              : YUV
Chroma subsampling                       : 4:2:0
Bit depth                                : 8 bits
Scan type                                : Progressive
Compression mode                         : Lossy
Bits/(Pixel*Frame)                       : 0.731
Time code of first frame                 : 00:26:46:28
Time code source                         : Group of pictures header
Stream size                              : 709 MiB (69%)
Color primaries                          : BT.470 System M
Transfer characteristics                 : BT.470 System M
Matrix coefficients                      : BT.601
Audio
ID                                       : 189 (0xBD)-160 (0xA0)
Format                                   : PCM
Format settings, Endianness              : Big
Format settings, Sign                    : Signed
Muxing mode                              : DVD-Video
Duration                                 : 26mn 48s
Bit rate mode                            : Constant
Bit rate                                 : 1 536 Kbps
Channel(s)                               : 2 channels
Sampling rate                            : 48.0 KHz
Bit depth                                : 16 bits
Delay relative to video                  : -752ms
Stream size                              : 294 MiB (29%)
Menu

Дополнительная информация:

Выполняя простые упражнения, Вы научитесь:
- хорошо понимать любые устные или письменные тексты;
- правильно говорить и писать на грамотном, всем понятном разговорном английском;
- постоянно совершенствовать свой уровень владения русским языком;
- пользоваться навыками качественной имитации речи жителей любых англоязычных стран.
КУРС ВКЛЮЧАЕТ В СЕБЯ:
1. Инструкция по прохождению.
2. Видеосеминар "Learn How to Learn & How to Master English" на DVD-диске.
3. Видеокурс "SupremeLearning Modern English & Any Other Subject" на DVD-дискe.
4. Сборник текстов на английском языке ("SL MI International Guidebook").
5. Упражнения на 3-х CD-дисках (диски I, B, W).
6. Программа интеллектуальной машинописи TypeRIGHTing (инструкция в первом DVD-диске).
7. Книга Михаила Шестова "Да! Вы можете выучить любой язык и научить себя учиться эффективно".
8. Книга Михаила Шестова "Методика скоростного улучшения любого уровня владения русским языком".

Видео:

}{@R0N

Пост 14-Июл-2017 20:44

[Цитировать]

Камасутра: Чувственное искусство любви
Kama Sutra: The Sensual Art of Lovemaking
- Жанр: *Документальный* Обучающий * Эротика *
Год: 2006
Страна: США
Режиссёр: Кеннет Кнолл
В ролях: Тавни Робертс, Рик Робертс, Сабрина Маюя, Дональд Джеймс, Лорна Пэйн, Джейсон Грид.
Описание:
Фильм представляет собой очень откровенное, красивое и романтичное повествование о сокрытом в камасутре искусстве любви. Профессиональные сексологи раскрывают суть поз и приемов близости, а великолепное исполнение актеров возводит секс на уровень гармонии любви мужчины и женщины.
Продолжительность: 00:52:46
Видеокодек: DivX 5
Битрейт видео: 1731Kb/s
Размер кадра: 640x480
Качество видео: DVDRip
Аудиокодек: MP3
Битрейт аудио: 128 Kb/s, 2Ch
Перевод: Двухголосый, Закадровый.

MI:

Код:
Общее
Полное имя                               : Kamasutra_Iskusstvo_lubvi.avi
Формат                                   : AVI
Формат/Информация                        : Audio Video Interleave
Размер файла                             : 702 Мбайт
Продолжительность                        : 52 м. 46 с.
Общий поток                              : 1859 Кбит/сек
Библиотека кодирования                   : MP4Cam2AVI Easy Converter by Oleg Mikheev
Видео
Идентификатор                            : 0
Формат                                   : MPEG-4 Visual
Профиль формата                          : Advanced Simple@L5
Параметр BVOP формата                    : 1
Параметр QPel формата                    : Нет
Параметр GMC формата                     : Без точки перехода
Параметр матрицы формата                 : Default (H.263)
Идентификатор кодека                     : DX50
Идентификатор кодека/Подсказка           : DivX 5
Продолжительность                        : 52 м. 46 с.
Битрейт                                  : 1718 Кбит/сек
Ширина                                   : 640 пикселей
Высота                                   : 480 пикселей
Соотношение сторон                       : 4:3
Частота кадров                           : 29,970 (30000/1001) кадров/сек
Цветовое пространство                    : YUV
Субдискретизация насыщенности            : 4:2:0
Битовая глубина                          : 8 бит
Тип развёртки                            : Прогрессивная
Метод сжатия                             : С потерями
Бит/(Пиксели*Кадры)                      : 0.187
Размер потока                            : 648 Мбайт (92%)
Библиотека кодирования                   : em4v 4.1.6.5
Аудио
Идентификатор                            : 1
Формат                                   : MPEG Audio
Версия формата                           : Version 1
Профиль формата                          : Layer 3
Режим                                    : Joint stereo
Расширение режима                        : MS Stereo
Идентификатор кодека                     : 55
Идентификатор кодека/Подсказка           : MP3
Продолжительность                        : 52 м. 46 с.
Продолжительность оригинала              : 52 м. 46 с.
Вид битрейта                             : Постоянный
Битрейт                                  : 128 Кбит/сек
Каналы                                   : 2 канала
Частота                                  : 44,1 КГц
Метод сжатия                             : С потерями
Размер потока                            : 48,3 Мбайт (7%)
Выравнивание                             : Разделение по промежуткам
Продолжительность промежутка             : 26  мс. (0,78 видеокадр)
Время предзагрузки промежутка            : 438  мс.
         

jackisjack

Пост 14-Июл-2017 13:31

[Цитировать]

Thank you ! Merci !

XP1971

Пост 29-Июн-2017 13:25

[Цитировать]

Специалист | Эффективная работа с Microsoft SharePoint 2013/2010 [Уровень 1] (2015) PCRec - Автор (режиссер): И. Рудь
Производство: Специалист
Оф. сайт: specialist.ru
Жанр: Корпоративный веб-портал
Доп. материалы: есть
Описание:
В ходе занятий Вы познакомитесь с Microsoft SharePoint 2013, получите представление о современных технологиях организации удобной корпоративной работы. Вы на практике овладеете основными приемами работы на сайте SharePoint 2013, научитесь эффективно использовать продукты семейства Office совместно с сайтами Microsoft SharePoint 2013.
Курс предназначен для широкого круга пользователей, которые применяют пакет Microsoft Office 2013 в своей практике и хотят освоить основные приемы совместной корпоративной работы с использованием Microsoft SharePoint 2013. Также курс будет полезен для IT-специалистов, перед которыми стоит задача внедрения SharePoint 2013 в корпоративной среде, но которые пока не имели опыта работы с данным продуктом.

По окончании курса Вы будете уметь:

•Ориентироваться на сайтах SharePoint 2013
•Создавать списки SharePoint 2013
•Настраивать списки SharePoint 2013
•Работать с библиотеками
•Использовать версии документов
•Познакомитесь с видами библиотек и списков
•Создавать сайты, используя различные шаблоны
•Создавать и редактировать страницы SharePoint 2013
•Создавать формы Infopath и библиотеки форм
•Узнаете что такое колонки сайта и типы контента
•Попробуете в работе c SharePoint 2013 новый Microsoft Office 2013
•Управлять разрешениями на ресурсы SharePoint 2013

Программа курса:

Модуль 1.Знакомство с Microsoft SharePoint 2013
Что такое SharePoint?
Различия версий SharePoint 2013
Ролевая модель специалистов по SharePoint
Основные сценарии использования SharePoint
Понятие корпоративного сайта и портала
Внутреннее устройства корпоративного сайта
Назначение библиотек и списков сайта
Принципы работы с лентой сайта
Навигация по сайту и основные меню
Знакомство с различными шаблонами сайтов
Основы разрешений на сайтах
Лабораторная работа:
Знакомство с типовым сайтом
Модуль 2.Хранение файлов на сайтах Microsoft SharePoint 2013
Понятие библиотеки SharePoint
Различные виды библиотек и их применение
Создание, удаление и изменение параметров библиотек
Варианты работы и добавления контента в библиотеки
Понятие колонок сайта и типов контента
Доставка документов через электронную почту
Оповещения при работе с библиотеками
Версионность и система утверждений
Одновременное редактирование документов в библиотеках
Работа с копиями файлов, отправка ссылок
Создание Offline-копий библиотек с помощью Outlook и OneDrive Pro
Лабораторная работа:
Создание и настройка библиотек для хранения документов компании
Модуль 3.Основы работы со списками Microsoft SharePoint 2013
Понятие и задачи списков
Шаблоны списков и сценарии их использования
Управление временем с помощью календарей и задач
Создание опросов на сайтах
Настраиваемые списки
Типы создаваемых колонок списков
Проверка вводимых в списки данных
Представления списков и библиотек
Лабораторная работа:
Использование списков календарей и задач
Создание списка контрагентов на сайте
Модуль 4.Добавление информации на сайт Microsoft SharePoint 2013
Типы страниц сайта SharePoint
Понятие веб-части
Понятие app
Создание и изменение страниц сайта
Работа с веб-частями
Загрузка логотипа и изменение темы сайта
Настройка навигации по сайту
Лабораторная работа:
Создание дополнительных страниц сайта, размещение информации, настройка навигации
Публикация новостей на главной странице сайт компании через веб-часть
Модуль 5.Корпоративная социальная сеть на базе Microsoft SharePoint 2013
Личные узлы и пользовательские профили
Добавление информации на сайт или как рассказать о себе
Хранение документов на личном узле и синхронизация задач
Как отслеживать активности других сотрудников
Тегирование документов и работа с заметками
Сайты сообществ или корпоративные форумы
Внутренние и внешние блоги сотрудников
Лабораторная работа:
Использование возможностей социальной сети Microsoft SharePoint 2013
Создание корпоративного форума
Модуль 6.Использование поиска Microsoft SharePoint 2013
Идеология поиска SharePoint
Поиск по сайтам SharePoint
Возможности поиска сотрудников компании
Сайт на шаблоне центр поиска
Расширенный поиск
Синтаксис запросов
Лабораторная работа:
Использование службы поиска для нахождения различных документов
Создание расширенных поисковых запросов
Настройка центра поиска и поиск по дополнительным условиям
Модуль 7.Управление разрешениями Microsoft SharePoint 2013
Идеология разрешения и прав SharePoint
Уровни разрешений
Наследование разрешений
Группы SharePoint
Лабораторная работа:
Создание групп SharePoint и раздача разрешения на сайте
Продолжительность: 18:25:40
Качество видео: PCRec
Видео: WMV3, 1280x1024, 332 kbps
Аудио: WMA, 1 ch, 48 kbps

Mediainfo:

Код:
General
Complete name                            : C:\mkshp131_(Руди_2015)\01.MCSHP131.2015-05-18.wmv
Format                                   : Windows Media
File size                                : 275 MiB
Duration                                 : 6h 1mn
Overall bit rate mode                    : Variable
Overall bit rate                         : 106 Kbps
Maximum Overall bit rate                 : 7 262 Kbps
Encoded date                             : UTC 2015-05-27 05:56:03.887
Writing application                      :  6.4.10 Build 2185 / GoToMeeting
BitRateFrom the writer                   : 97183
Audio samples                            : 275740
Video samples                            : 96377
recording time                           : Ср, 27 мая 2015 09:55:00
Video
ID                                       : 2
Format                                   : VC-1
Format profile                           : MP@HL
Codec ID                                 : WMV3
Codec ID/Info                            : Windows Media Video 9
Codec ID/Hint                            : WMV3
Description of the codec                 : Windows Media Video 9
Duration                                 : 6h 1mn
Bit rate mode                            : Variable
Bit rate                                 : 332 Kbps
Width                                    : 1 280 pixels
Height                                   : 1 024 pixels
Display aspect ratio                     : 5:4
Frame rate                               : 29.970 fps
Bit depth                                : 8 bits
Compression mode                         : Lossy
Bits/(Pixel*Frame)                       : 0.008
Stream size                              : 857 MiB
Audio
ID                                       : 1
Format                                   : WMA
Format version                           : Version 2
Codec ID                                 : 161
Codec ID/Info                            : Windows Media Audio
Description of the codec                 : Windows Media Audio 9.2 -  48 kbps, 44 kHz, mono 1-pass CBR
Duration                                 : 6h 1mn
Bit rate mode                            : Constant
Bit rate                                 : 48.0 Kbps
Channel count                            : 1 channel
Sampling rate                            : 44.1 KHz
Bit depth                                : 16 bits
Stream size                              : 124 MiB (45%)
Скриншоты:
       

XP1971

Пост 27-Июн-2017 17:01

[Цитировать]

Foxford | Программирование. Подготовка к олимпиадам, продвинутый уровень [9-11 классы] (2016-2017) WEB-DLRip - Автор (режиссер): Д.П. Кириенко
Производство: Foxford
Жанр: Программирование
Описание:
Данный курс рассчитан на школьников, которые уже имеют опыт участия в олимпиадах по программированию и стремятся к дальнейшему успеху. Основные темы курса — алгоритмы на графах и вычислительная геометрия, но помимо этого мы рассмотрим и другие вопросы: задачи на динамическое программирование и применение сортировки, правильные скобочные последовательности и элементы теории чисел. Мы будем использовать язык программирования С++, особое внимание будет уделено возможностям стандартной библиотеки STL и её применению в олимпиадных задачах. Именно этот язык сейчас наиболее распространён на заключительном этапе Всероссийской олимпиады. Присоединяйтесь к нашим занятиям!
Продолжительность: 60 академических часов
Качество видео: WEB-DLRip
Видео: AVC/H.264, 1280*720, 765 Кбит/сек
Аудио: AAC, 2 ch, 96 Кбит/сек

О авторе:

Денис Павлович Кириенко (Преподаватель) Окончил механико-математический факультет МГУ имени М. В. Ломоносова. Более десяти лет преподаёт информатику в школе № 179 г. Москвы и в летней компьютерной школе (ЛКШ). Член оргкомитета и жюри различных олимпиад по информатике в Москве, председатель региональной предметно-методической комиссии Всероссийской
олимпиады школьников по информатике.

Mediainfo:

Формат                                   : MPEG-4
Профиль формата : Base Media
Идентификатор кодека : isom (isom/iso2/avc1/mp41)
Размер файла : 703 Мбайт
Продолжительность : 1 ч. 34 м.
Общий поток : 1041 Кбит/сек
Программа кодирования : Lavf57.41.100
Видео
Идентификатор : 1
Формат : AVC
Формат/Информация : Advanced Video Codec
Профиль формата : [url=mailto:High@L3.1]High@L3.1[/url]
Параметр CABAC формата : Да
Параметр ReFrames формата : 4 кадра
Идентификатор кодека : avc1
Идентификатор кодека/Информация : Advanced Video Coding
Продолжительность : 1 ч. 34 м.
Битрейт : 940 Кбит/сек
Ширина : 1280 пикселей
Высота : 720 пикселей
Соотношение сторон : 16:9
Режим частоты кадров : Переменный
Частота кадров : 15,000 кадров/сек
Минимальная частота кадров : 7,463 кадров/сек
Максимальная частота кадров : 15,152 кадров/сек
Цветовое пространство : YUV
Субдискретизация насыщенности : 4:2:0
Битовая глубина : 8 бит
Тип развёртки : Прогрессивная
Бит/(Пиксели*Кадры) : 0.068
Размер потока : 634 Мбайт (90%)
Библиотека кодирования : x264 core 148 r2643 5c65704
Настройки программы : cabac=1 / ref=2 / deblock=1:0:0 / analyse=0x3:0x113 / me=hex / subme=6 / psy=0 / mixed_ref=0 / me_range=16 / chroma_me=1 / trellis=1 / 8x8dct=1 / cqm=0 / deadzone=21,11 / fast_pskip=1 / chroma_qp_offset=0 / threads=12 / lookahead_threads=2 / sliced_threads=0 / nr=0 / decimate=1 / interlaced=0 / bluray_compat=0 / constrained_intra=0 / bframes=3 / b_pyramid=2 / b_adapt=1 / b_bias=0 / direct=1 / weightb=1 / open_gop=0 / weightp=1 / keyint=15 / keyint_min=1 / scenecut=40 / intra_refresh=0 / rc_lookahead=16 / rc=crf / mbtree=1 / crf=23.0 / qcomp=0.60 / qpmin=0 / qpmax=69 / qpstep=4 / vbv_maxrate=1100 / vbv_bufsize=1200 / crf_max=0.0 / nal_hrd=none / filler=0 / ip_ratio=1.40 / aq=2:1.00
Аудио
Идентификатор : 2
Формат : AAC
Формат/Информация : Advanced Audio Codec
Профиль формата : LC
Идентификатор кодека : 40
Продолжительность : 1 ч. 34 м.
Вид битрейта : Постоянный
Битрейт : 96,0 Кбит/сек
Каналы : 2 канала
Расположение каналов : Front: L R
Частота : 22,05 КГц
Частота кадров : 21,533 кадра/сек (1024 spf)
Метод сжатия : С потерями
Размер потока : 64,8 Мбайт (9%)
Default : Да
AlternateGroup/String : 1
-------------
Профиль формата : Base Media
Идентификатор кодека : isom (isom/iso2/mp41)
Размер файла : 801 Мбайт
Продолжительность : 1 ч. 46 м.
Режим общего битрейта : Постоянный
Общий поток : 1051 Кбит/сек
Программа кодирования : Lavf57.25.100
Видео
Идентификатор : 1
Формат : MPEG-4 Visual
Профиль формата : Simple@L1
Параметр BVOP формата : Нет
Параметр QPel формата : Нет
Параметр GMC формата : Без точки перехода
Параметр матрицы формата : Default (H.263)
Идентификатор кодека : 20
Продолжительность : 1 ч. 46 м.
Вид битрейта : Постоянный
Битрейт : 851 Кбит/сек
Ширина : 1440 пикселей
Высота : 768 пикселей
Соотношение сторон : 1,85:1
Режим частоты кадров : Постоянный
Частота кадров : 20,000 кадров/сек
Цветовое пространство : YUV
Субдискретизация насыщенности : 4:2:0
Битовая глубина : 8 бит
Тип развёртки : Прогрессивная
Метод сжатия : С потерями
Бит/(Пиксели*Кадры) : 0.038
Размер потока : 648 Мбайт (81%)
Библиотека кодирования : Lavc57.24.102
Аудио
Идентификатор : 2
Формат : AAC
Формат/Информация : Advanced Audio Codec
Профиль формата : LC
Идентификатор кодека : 40
Продолжительность : 1 ч. 46 м.
Вид битрейта : Постоянный
Битрейт : 192 Кбит/сек
Каналы : 2 канала
Расположение каналов : Front: L R
Частота : 44,1 КГц
Частота кадров : 43,066 кадра/сек (1024 spf)
Метод сжатия : С потерями
Размер потока : 149 Мбайт (19%)
Default : Да
AlternateGroup/String : 1

Дополнительная информация:

К каждому занятию приложен теоретический материал и домашнее задание
Занятие 1. Язык C++ на олимпиадах. Среды разработки. Создание и отладка программ
Занятие 2. Целочисленные типы данных в языке C++ и целочисленная арифметика
Занятие 3. Вввод-вывод в языках C и C++. Секреты scanf и printf
Занятие 4. Строковые типы данных - char и string
Занятие 5. Простейшие контейнеры STL - вектора, стеки, очереди, деки
Занятие 6. Стандартные алгоритмы библиотеки STL
Занятие 7. Как использовать стандартную сортировку в STL. Что такое pair и tuple
Занятие 8. Множества и словари в STL, структуры данных set, map
Занятие 9. Теоретико-числовые алгоритмы. Остатки от деления и кольцо вычетов
Занятие 10. Правильные скобочные последовательности. Проверка на правильность. Подсчет количества
Занятие 11. Построение следующей и предыдущей скобочной последовательности. Определение последовательности по номеру члена и номера по последовательности
Занятие 12. Отрезки на прямой и задачи на обработку событий
Занятие 13. Динамическое программирование. Примеры сложных задач
Занятие 14. Восстановление ответа, мемоизация
Занятие 15. Хеширование и хеш-таблицы. Полиноминальное хеширование строк
Занятие 16. Основные понятия теории графов. Хранение графов в памяти. Поиск в ширину
Занятие 17. Поиск в глубину и его применения
Занятие 18. Алгоритм Дейкстры, реализация алгоритма с использованием структуры set
Занятие 19. Алгоритм Флойда
Занятие 20. Алгоритм Форда-Беллмана
Занятие 21. Построение гамильтонова пути и цикла. Задачи коммивояжера
Занятие 22. Задача RSQ и RMQ. Суммы на префиксах. Корневая оптимизация. Sparse Table
Занятие 23. Дерево отрезков. Применение для решения задач RMQ, RSQ. Групповые операции на дереве отрезков
Занятие 24. Двоичное дерево поиска. Декартово дерево
Занятие 25. Групповые операции в декартовом дереве. Декартово дерево по ключу
Занятие 26. Вычислительная геометрия на плоскости. Создание классов Point, Vector
Занятие 27. Скалярное и векторное произведение векторов и их применение
Занятие 28. Прямые на плоскости. Расстояние от точки до прямоей. Пересечение прямых, отрезков
Занятие 29. Окружности. Поворот точки. Построение касательной к окружности, пересечение прямой и окружности, пересечение двух прямых
Занятие 30. Многоугольники. Нахождение площади многоугольника, проверка многоугольника на выпуклость, принадлежность точки многоугольнику
Скриншоты:
       

XP1971

Пост 27-Июн-2017 11:45

[Цитировать]

Михаил Шестов | Говорим по английски как Друзья / SupremeLearning Friends (2014) HDRip - Автор (режиссер): Михаил Шестов
Производство: SupremeLearning
Жанр: Иностранные языки, Английский язык
Описание:
Уникальный курс Михаила Шестова «100 процентов понимать и бегло говорить на грамотном английском» по телесериалу «Friends».
Освойте навык свободного понимания на слух языка Шекспира, посредством точной имитации «их» способов ведения разговора. Подготовьте свой собственный концертный номер так, чтобы вас вызывали «на бис»!
Если вы умеете писать и читать на каком-то подобии английского, но понимание устной речи для вас — нечто из области фантастики, тогда, как писал еще В.И.Ленин — «ХОРОШЕЕ повтори и ещё раз повтори!» Но повтори хорошее и нужное, с каждым разом, все правильнее и точнее, всего несколько раз, следуя уникальному алгоритму системы SupremeLearning Михаила Шестова, и вы научитесь свободно понимать беглую речь на слух.
Иными словами, понравилась любая фраза — быстро научитесь устойчиво ее произносить, используя метод Шестова, и она станет частью вашего мыслительного процесса, войдет в активный словарный запас, то есть вы «возьмете ее себе».
Продолжительность: 01:40:34
Качество видео: HDRip
Видео: DivX, 1280х720, ~1778 Kbps
Аудио: MP3, 2 ch, 192 Kbps, CBR

Mediainfo:

Код:
General
Complete name                            : C:\Torrents\Шестов Михаил - SupremeLearning Friends\Friends_full_HD.avi
Format                                   : AVI
Format/Info                              : Audio Video Interleave
Format profile                           : OpenDML
File size                                : 1.39 GiB
Duration                                 : 1h 40mn
Overall bit rate                         : 1 985 Kbps
Writing application                      : Lavf52.32.0
Video
ID                                       : 0
Format                                   : MPEG-4 Visual
Format profile                           : Simple@L1
Format settings, BVOP                    : No
Format settings, QPel                    : No
Format settings, GMC                     : No warppoints
Format settings, Matrix                  : Default (H.263)
Codec ID                                 : DIVX
Codec ID/Info                            : Project Mayo
Codec ID/Hint                            : DivX 4
Duration                                 : 1h 40mn
Bit rate                                 : 1 778 Kbps
Width                                    : 1 280 pixels
Height                                   : 720 pixels
Display aspect ratio                     : 16:9
Frame rate                               : 25.000 fps
Color space                              : YUV
Chroma subsampling                       : 4:2:0
Bit depth                                : 8 bits
Scan type                                : Progressive
Compression mode                         : Lossy
Bits/(Pixel*Frame)                       : 0.077
Stream size                              : 1.25 GiB (90%)
Writing library                          : Lavc52.22.3
Audio
ID                                       : 1
Format                                   : MPEG Audio
Format version                           : Version 1
Format profile                           : Layer 3
Mode                                     : Joint stereo
Mode extension                           : MS Stereo
Codec ID                                 : 55
Codec ID/Hint                            : MP3
Duration                                 : 1h 40mn
Bit rate mode                            : Constant
Bit rate                                 : 192 Kbps
Channel(s)                               : 2 channels
Sampling rate                            : 44.1 KHz
Compression mode                         : Lossy
Stream size                              : 138 MiB (10%)
Alignment                                : Aligned on interleaves
Interleave, duration                     : 26 ms (0.65 video frame)

Дополнительная информация:

Курс позволяет:
— избежать школьной зубрежки, то есть десятков или даже сотен бессмысленных попыток выучить абсолютно неправильно произносимые английские слова и фразы;
— научиться свободно понимать быструю неадаптированную речь на слух,
— «разогнать» темп своей речи (и мышления) до средней скорости англоязычных,
— осознать как англоязычные соединяют короткие слова-слоги в длинные (напоминающие типичные русские) и, в результате, научиться слышать и распознавать сокращения самых часто встречающихся слов (их всего около 200 и на них базируется до 70 процентов разговорных фраз);
— понимать английские фразу «on the spot» (сразу), не теряя нить разговора, исключая усложняющий все в разы параллельный перевод каждого слова на русский язык.

Видео:

Скриншоты:
     

almighty937

Пост 20-Июн-2017 16:46

[Цитировать]

Omen ушел в отпуск по данному разделу?

XP1971

Пост 18-Июн-2017 21:02

[Цитировать]

Ашот Геворкян | Постановочная студийная съемка и рекламная ретушь (2017) PCRec - Автор (режиссер): Ашот Геворкян
Производство: profileschool
Жанр: Съемка фото, обработка, коллажирование
Описание:
Двухдневный практический мастер-класс, на котором будет создан постановочный фотопроект и отработан сложный рекламный пост-продакшен.
Съемка на белом фоне и сложный многоступенчатый постпродакшен? Конечно же, речь об Ашоте Геворкяне — фотографе, который за два дня создаст вместе с вами такой рекламный проект от А до Я, максимально подробно комментируя происходящее в онлайне.
У вас нет возможности снимать в самых красивых местах нашей планеты? Нет проблем — снимайте в студии, а навыки, которые даст вам Ашот, помогут легко воссоздать любую локацию! У этого фотографа свои методы работы над проектами и свой стиль. На мастер-классе вы будете создавать нетипичное изображение: это не просто ретушь портрета с вмонтированными в изображение деталями, а комплекс навыков по созданию художественной картинки с сюжетом и персонажами на необычной локации. У вашего клиента нет больших бюджетов на рекламу? Обычное дело! Вооружитесь навыками Ашота Геворкяна — и вы сможете добиться превосходного результата даже при таких ограничениях.
Мастер-класс будет полезен и для фотографов, и для ретушеров от любительского до серьезного профессионального уровня. По ходу занятия будет показана и разобрана большая коллекция мировых ретушеров и рекламных фотографов, чьи методы заслуживают внимания. Разберем композицию, цвет, свет, персонажи и сюжеты. Предстоит освоить довольно большой объем новых знаний, так как этот жанр съемки довольно сложен.
Продолжительность: 07:20:14
Качество видео: PCRec
Видео: AVC/H.264, 1920x1080, 1440x900, ~1 699 kb/s
Аудио: AAC, 2 ch, 368kbps

Mediainfo:

General
ID : 1 (0x1)
Complete name : F:\Ашот Геворкян - Постановочная студийная съемка и рекламная ретушь (2017)\Занятие №1_1.mp4
Format : MPEG-TS
File size : 698 MiB
Duration : 57 min 23 s
Overall bit rate mode : Variable
Overall bit rate : 1 699 kb/s
FileExtension_Invalid : ts m2t m2s m4t m4s tmf ts tp trp ty
Video
ID : 211 (0xD3)
Menu ID : 1 (0x1)
Format : AVC
Format/Info : Advanced Video Codec
Format profile : High@L4
Format settings, CABAC : Yes
Format settings, ReFrames : 4 frames
Format settings, GOP : M=4, N=24
Codec ID : 27
Duration : 57 min 23 s
Width : 1 920 pixels
Height : 1 080 pixels
Display aspect ratio : 16:9
Frame rate : 24.000 FPS
Color space : YUV
Chroma subsampling : 4:2:0
Bit depth : 8 bits
Scan type : Progressive
Audio
ID : 221 (0xDD)
Menu ID : 1 (0x1)
Format : AAC
Format/Info : Advanced Audio Codec
Format version : Version 4
Format profile : LC
Muxing mode : ADTS
Codec ID : 15
Duration : 57 min 23 s
Bit rate mode : Variable
Channel(s) : 2 channels
Channel positions : Front: L R
Sampling rate : 44.1 kHz
Frame rate : 43.066 FPS (1024 spf)
Compression mode : Lossy
Delay relative to video : -73 ms
Скриншоты:
       

XP1971

Пост 17-Июн-2017 14:59

[Цитировать]

Анна Березанская | Бухгалтерский учет 2015. Теория и практика [+Бонусы] (2015) PCRec - Автор (режиссер): Анна Березанская
Производство: Специалист
Жанр: Видеокурс, Бухгалтерия
Описание:
В основе курса уникальная программа подготовки бухгалтеров, признанная лучшей в Москве. Программа сочетает глубокую теоретическую подготовку и решение большого числа реальных практических задач. Курс читается в соответствии с последними изменениями законодательства, актуальной бухгалтерской, налоговой и судебной практикой. С первого занятия Вы начнете осваивать важнейшие участки Вашей будущей работы: зарегистрируете предприятие, сформируете уставной капитал, оформите первичные документы, начислите заработную плату сотрудникам и, конечно, составите свою первую бухгалтерскую отчетность!
Курс предназначен для специалистов, имеющих навыки бухгалтерского учета и желающих работать на участке по расчету заработной платы: практикующих или начинающих бухгалтеров, бухгалтеров, планирующих возобновить профессиональную деятельность после длительного перерыва, студентов старших курсов профильных вузов.
Курс также будет чрезвычайно полезен руководителям и менеджерам коммерческих предприятий, индивидуальным предпринимателям и собственникам бизнеса.
Программа курса ориентирована на слушателей, начинающих осваивать бухгалтерский учет в соответствии с планом счетов бухгалтерского учета, а также желающих обновить свои знания в соответствии с современными нормативными документами.
Продолжительность: 45:58:52 + 16:44:39 (бонус)
Качество видео: PCRec
Язык: Русский
Видео: WMV3, 688x880-1184x948, ~61 Kbps
Аудио: WMA, 1 ch, 48 Kbps

Mediainfo:

Format                                   : Windows Media
File size : 114 MiB
Duration : 2 h 28 min
Overall bit rate mode : Variable
Overall bit rate : 107 kb/s
Maximum Overall bit rate : 1 670 kb/s
Movie name : Безымянный
Encoded date : UTC 2015-05-17 12:02:13.985
Video
ID : 2
Format : VC-1
Format profile : MP@HL
Codec ID : WMV3
Codec ID/Info : Windows Media Video 9
Codec ID/Hint : WMV3
Description of the codec : Windows Media Video 9
Duration : 2 h 28 min
Bit rate mode : Variable
Bit rate : 45.5 kb/s
Width : 880 pixels
Height : 688 pixels
Display aspect ratio : 1.279
Frame rate : 15.000 FPS
Color space : YUV
Chroma subsampling : 4:2:0
Bit depth : 8 bits
Scan type : Progressive
Compression mode : Lossy
Bits/(Pixel*Frame) : 0.005
Stream size : 48.5 MiB (42%)
Language : English (United States)
Audio
ID : 1
Format : WMA
Format version : Version 2
Codec ID : 161
Codec ID/Info : Windows Media Audio
Description of the codec : Windows Media Audio 9.2 - 48 kbps, 44 kHz, mono (A/V) 1-pass CBR
Duration : 2 h 28 min
Bit rate mode : Constant
Bit rate : 48.0 kb/s
Channel(s) : 1 channel
Sampling rate : 44.1 kHz
Bit depth : 16 bits
Stream size : 51.2 MiB (45%)
Language : English (United States)

По окончании курса Вы будете уметь:

  • Грамотно составлять первичные бухгалтерские документы и проверять документы контрагентов.
  • Формировать учетные регистры, которые дают информацию о приходах и расходах средств на предприятии, о возникновении долгов вашей фирмы перед партнерами и партнеров перед вашей фирмой, об увеличении и уменьшении капиталов на вашем предприятии, а также другие группировки информации за требуемый период, необходимые для анализа деятельности вашей фирмы.
  • Отражать в бухгалтерском учете приход и расход денежных средств и другого имущества.
  • Отражать в бухгалтерском учете взаимоотношения с поставщиками и подрядчиками, покупателями и заказчиками, расчеты по претензиям при поставках товарно-материальных ценностей.
  • Отражать в бухгалтерском учете операции с подотчетными лицами по приобретениям для хозяйственных нужд предприятия и командировочным расходам.
  • Начислять заработную плату работникам, пособия по временной нетрудоспособности, беременности и родам, рассчитывать и отражать в учете удержания налога на доходы физических лиц, алиментов, недостач с работников, сумму к выплате, а также знать порядок депонирования заработной платы. Рассчитывать взносы на социальное страхование.
  • Отражать и возмещать НДС при покупке товарно-материальных ценностей работ, услуг, а также начислять НДС при продаже товаров, продукции, работ, услуг, заполнять счета-фактуры, а также книги продаж и покупок.
  • Формировать себестоимость готовой продукции, оказанных услуг или выполненных работ. Различать доходы по обычным видам деятельности от прочих расходов.
  • Рассчитывать финансовый результат по хозяйственной деятельности, анализировать влияние на прибыль (убыток) расходов и доходов предприятия.
  • Отражать операции покупки и реализации товаров в оптовой и розничной торговле.
  • Закрывать финансовый год при реформации баланса.

Бонус:

Расчеты с персоналом по оплате труда - Специалист
На занятиях Вы в простой и доступной форме освоите проведение расчетов с персоналом по заработной плате и страховым взносам.
Скриншоты:
       

XP1971

Пост 15-Июн-2017 15:26

[Цитировать]

Сергей Патин | Секреты создания шикарных фотокниг 2.0 (2016) [unpacked] - Автор (издатель): Сергей Патин
Жанр: Обучающий видеокурс
Системные требования:
• Операционная система Microsoft Windows 98/Me/200/XP/Vista/7
• Процессор Pentium II 500 Мгц
• 128 Мб оперативной памяти
• Разрешение экрана 1024x768 с глубиной цвета 16 бит
• Наличие Adobe Flash Player 10

Формат: unpacked
Описание:
Этот видеокурс научит вас создавать профессиональные фотокниги на любые тематики с помощью удивительной программы FotoFusion, которая позволяет не только создать качественную фотокнигу, но и получать удовольствие от творческого процесса.

О курсе

Фотокнига — это самая настоящая книга из плотной бумаги или картонных страниц, которая состоит из ваших фотографий. Причем фотографии оформлены настолько красиво и необычно, что такую книгу хочется просматривать вновь и вновь.Такую книгу не нужно читать. Её нужно рассматривать всей семьей или в дружной компании и наслаждаться теми моментами, которые запечатлены на страницах фотокниги.
Содержание:
Блок №1. Введение
Что такое фотокниги и с чем их едят
1.1 Введение
1.2 Выбор программы
1.3 Покупка и регистрация FotoFusion
Блок №2. Функции FotoFusion
Изучаем базовые возможности
2.1 Выбор формата фотокниги
2.2 Обзор интерфейса программы FotoFusion
2.3 Способы добавления фотографий
2.4 Фреймы
2.5 Работа с фотографиями
2.6 Работа с рамками
2.7 Работа с тенью
2.8 Работа с текстом
2.9 Распределение фреймов
2.10 Сплиттер
2.11 Коррекция фотографий
2.12 Вкладка Organize
2.13 Автоверстка
Блок №3. Детская фотокнига
Создаем фотокнигу из детских фотографий
3.1 Первый разворот
3.2 Второй разворот
3.3 Третий разворот
3.4 Четвертый и пятый развороты
3.5 Шестой разворот
3.6 Седьмой, восьмой, девятый
3.7 Десятый разворот
3.8 Одиннадцатый разворот
3.9 Двенадцатый разворот
3.10 Тринадцатый разворот
3.11 Обложка
3.12 Экспорт
Блок №4. Фотокнига о путешествии
Создаем фотокнигу из детских фотографий
4.1 Фотокнига о путешествии

Блок №5. Бесплатный редактор

Онлайн-редактор Pic-Pac и отправка на печать
5.1 Отправка на печать
5.2 Онлайн-редактор Pic-Pac
Блок №6. Свадебная фотокнига
Создаем фотокнигу из свадебных фотографий
6.1 Первый и второй развороты
6.2 Третий и четвертый развороты
6.3 Пятый и шестой развороты
6.4 Примеры дизайна
6.5 Заключение

Как запустить курс

Для доступа к главному меню курса запустите файл menu.htm
Скриншоты:
       

XP1971

Пост 12-Июн-2017 12:04

[Цитировать]

Udemy.com | Цифровой композитинг визуальных эффектов в NUKE: Руководство для начинающих / VFX Digital Compositing in Nuke: A Beginners Guide (2014) PCRec [EN]- Автор (режиссер): Blake Muir
Производство: Udemy.com
Жанр: Работа с видео
Описание:
Этот полный курс по визуальным эффектам создан специально для новичков, которые хотят начать карьеру, связанную с визуальными эффектами, или просто создавать собственные эффекты дома. Этот курс научит вас всему, что нужно знать для того, чтобы получить работу цифрового композера, а также покрывает все фундаментальные основы композитинга для тех, кто хочет добавлять эффекты в свои видео.
Цифровой композитинг - это широкая и огромная отрасль, и она может быть очень трудна для тех, кто только начинает узнавать, в какой области они должны иметь опыт, чтобы продвигаться в этой индустрии.
Но не обязательно всё это должно быть сложным. Автор покажет, что важно знать и чему вы можете научиться на работе. Вы сэкономите время и обойдёте стороной лишние темы, которые могут быть сложны в понимании, да и вовсе могут оказаться ненужными.
Этот курс обучит вас всем важнейшим основам и навыкам, которые хотят видеть наниматели при приёме на работу нового композера. Вы узнаете что нужно для того, чтобы при устройстве на работу у вас были козыри в рукаве.
Визуальные эффекты часто являются недостижимо дорогими для маленьких студий с небольшим бюджетом, так что если вы хотите создавать свои собственные визуальные эффекты, то этот курс поможет вам вывести ваши фильмы на следующий уровень.
В главе 7 нет одного видео - это ответы на вопросы, автор в оригинале записал только свой голос, без видеоряда.
Продолжительность: 15:35:21
Качество видео: PCRec
Язык озвучки: Русский
Видео: AVC/H.264, 1280x720, ~783 Kbps
Аудио: AAC, 1 ch, 128 Kbps

Mediainfo:

General
Complete name : 1_02. What is Digital Compositing.mp4
Format : MPEG-4
Format profile : Base Media
Codec ID : isom
File size : 41.5 MiB
Duration : 6mn 19s
Overall bit rate : 916 Kbps
Video
ID : 1
Format : AVC
Format/Info : Advanced Video Codec
Format profile : [url=mailto:Baseline@L3.1]Baseline@L3.1[/url]
Format settings, CABAC : No
Format settings, ReFrames : 3 frames
Codec ID : avc1
Codec ID/Info : Advanced Video Coding
Duration : 6mn 19s
Bit rate : 783 Kbps
Width : 1 280 pixels
Height : 720 pixels
Display aspect ratio : 16:9
Frame rate mode : Constant
Frame rate : 25.000 fps
Color space : YUV
Chroma subsampling : 4:2:0
Bit depth : 8 bits
Scan type : Progressive
Bits/(Pixel*Frame) : 0.034
Stream size : 35.4 MiB (85%)
Language : English
Audio
ID : 2
Format : AAC
Format/Info : Advanced Audio Codec
Format profile : LC
Codec ID : 40
Duration : 6mn 19s
Duration_LastFrame : 24ms
Bit rate mode : Constant
Bit rate : 128 Kbps
Channel count : 2 channels
Original Channel count : 1 channel
Channel positions : Front: C
Sampling rate : 44.1 KHz
Compression mode : Lossy
Stream size : 5.80 MiB (14%)
Language : Russian
Скриншоты:
       
Примечание: Качество видео в данном релизе соответствует скриншотам (к сожалению).
Так получилось по причине того, что исходное видео было записано с разрешением 1920x1080 (или около того).
Но в данном релизе разрешение видео 1280x720.

XP1971

Пост 12-Июн-2017 12:01

[Цитировать]

Дмитрий Скобелев | Экспозиция и экспонометрия в фото и видео (2017) PCRec - Автор (режиссер): Дмитрий Скобелев
Производство: Profileschool
Жанр: Фото, Видео, Экспозиция.
Описание:
Экспозиция — это основа понимания света как в видео, так и в фотографии. Экспонометр и оценка сюжетов по диапазону яркостей позволят вам профессионально управлять визуализацией композиций, а также грамотно расставлять акценты в кадре.

О курсе

Не получается избегать пересветов и провалов в изображении? На обработке возникают сложности с осветлением и затемнением областей из-за недостатка деталей? Изображение выглядит плоско, или совсем грубый свет портит кадры? Освойте навыки оценки освещения и научитесь управлять детализацией снимков при помощи профессиональной оценки экспозиции. Научитесь видеть кадр до его получения, чтобы на обработке не тратить много времени на исправление брака.
ЧТО ВЫ УЗНАЕТЕ?
Что такое контраст и как управлять светотенью.
Как устроена зонная система Ансела Адамса.
Как правильно оценивать сюжеты по свету, чтобы максимально качественно воспроизводить их при фото и видеосъемке.
Какие приборы для оценки освещения и какие техники оценки освещения существуют.
Как работать с импульсным и постоянным светом.
Как управлять освещением в пейзаже, портрете, натюрморте, архитектуре, интерьере.
Как пользоваться гистограммой и инструментами контроля яркостей в программах обработки: гистограммы, вектроскопы, вейвформы.
Продолжительность: 04:17:44
Качество видео: PCRec
Видео: MPEG-4, 1920x1080, ~914 Kbps
Аудио: AAC, 2 ch, ~321 Kbps

Mediainfo:

Format                                   : MPEG-4
Format profile : Base Media / Version 2
Codec ID : mp42 (mp42/isom)
File size : 530 MiB
Duration : 59 min 41 s
Overall bit rate mode : Variable
Overall bit rate : 1 241 kb/s
Encoded date : UTC 2017-05-23 14:26:07
Tagged date : UTC 2017-05-23 14:26:10
Video
ID : 1
Format : AVC
Format/Info : Advanced Video Codec
Format profile : High@L4
Format settings, CABAC : Yes
Format settings, ReFrames : 4 frames
Format settings, GOP : M=4, N=24
Codec ID : avc1
Codec ID/Info : Advanced Video Coding
Duration : 59 min 41 s
Bit rate : 914 kb/s
Width : 1 920 pixels
Height : 1 080 pixels
Display aspect ratio : 16:9
Frame rate mode : Variable
Frame rate : 23.477 FPS
Minimum frame rate : 8.000 FPS
Maximum frame rate : 24.390 FPS
Original frame rate : 24.000 FPS
Color space : YUV
Chroma subsampling : 4:2:0
Bit depth : 8 bits
Scan type : Progressive
Bits/(Pixel*Frame) : 0.019
Stream size : 390 MiB (74%)
Encoded date : UTC 2017-05-23 14:26:07
Tagged date : UTC 2017-05-23 14:26:10
Audio
ID : 2
Format : AAC
Format/Info : Advanced Audio Codec
Format profile : LC
Codec ID : 40
Duration : 59 min 41 s
Source duration : 59 min 41 s
Source_Duration_FirstFrame : 1 s 60 ms
Bit rate mode : Variable
Channel(s) : 2 channels
Channel positions : Front: L R
Sampling rate : 44.1 kHz
Frame rate : 43.066 FPS (1024 spf)
Compression mode : Lossy
Source stream size : 137 MiB (26%)
Title : Stereo
Encoded date : UTC 2017-05-23 14:26:07
Tagged date : UTC 2017-05-23 14:26:10
Скриншоты:
       

XP1971

Пост 12-Июн-2017 11:10

[Цитировать]

Андрей Курганов | Защита компьютера от А до Я (2014) [unpacked] - Автор (издатель): Андрей Курганов
Жанр: Видеокурс
Системные требования:
• Операционная система Microsoft Windows 98/Me/200/XP/Vista/7/10
• Процессор Pentium II 500 Мгц
• 128 Мб оперативной памяти
• Разрешение экрана 1024x768 с глубиной цвета 16 бит
• Наличие Adobe Flash Player

Формат: unpacked
Описание:
Как оказывается, далеко не все начинающие пользователи знают о том, что антивирусная программа это только одна из сторон защиты компьютера и эта защита абсолютно не обеспечивает полноценную безопасность нашего компьютера.
Чтобы этого не допустить, надо знать все возможные существующие угрозы, а также направления, откуда они могут попасть к нам в компьютер. Ну и само собой разумеется, мы должны знать все доступные способы блокирования вероятных угроз со всех вероятных направлений.
Грамотно защититься от них вам поможет этот комплексный видеокурс, который кардинально усиливает самую надежную защиту компьютера — его пользователя.

Содержание:

Раздел 1. Основы безопасности
В этом разделе мы поговорим о самых первоочередных понятиях для обеспечения защиты. Вы узнаете о том, откуда чаще всего происходит заражение компьютера, о нашем поведении при работе за компьютером, а также о самых простых принципах его защиты.
1.1 Основы (21:16)
Раздел 2. Настраиваем Windows
Первое что нужно сделать для обеспечения защиты компьютера это правильно настроить операционную систему, отключить опасные службы и научиться выполнять самые важные действия для поддержания системы в "закрытом" состоянии. Данный раздел именно об этом.
2.1 Порядок действий для обеспечения безопасности (6:04)
2.2 Отключаем опасные настройки (7:10)
2.3 Отключаем опасные службы (10:33)
2.4 Центр обеспечения безопасности (6:16)
2.5 Обновление Windows (10:30)
2.6 Правильное использование учетных записей (9:54)
2.7 UAC (9:42)
Раздел 3. Выбор программ для защиты
В этом разделе мы обсудим различные варианты программного обеспечения для защиты компьютера и определимся с тем, какой из этих вариантов наиболее предпочтителен.
3.1 Платить за защиту или нет? (8:11)
3.2 На что обращать внимание при выборе (6:38)
3.3 Комплексная защита (6:20)
3.4 О платных вариантах (9:22)
3.5 О бесплатных вариантах (7:29)

Раздел 4. Важные моменты антивирусной защиты

В любом случае, самая основная программа для защиты компьютера это, конечно же, антивирус. В этом разделе учимся правильно устанавливать, удалять и работать с антивирусным софтом.
4.1 Установка антивируса (6:14)
4.2 Регистрация и настройка антивируса (17:41)
4.3 Настройки пакета комплексной защиты (9:07)
4.4 Работа с антивирусным сканером (16:12)
4.5 Работа с антивирусным экраном (13:49)
4.6 Как правильно удалить антивирус? (18:12)
Раздел 5. Настраиваем автозагрузку
"Автозагрузка программ" это важный инструмент в работе компьютера, но если не уметь его правильно использовать и защищать, то заражение компьютера это всего лишь дело времени. В данном разделе учимся настраивать и контролировать автозагрузку компьютера.
5.1 Ручная настройка автозагрузки (6:10)
5.2 Полный контроль за автозагрузкой (11:34)
5.3 Автослежение за автозагрузкой (8:20)
Раздел 6. Защита от вирусов с флешек, дисков...
В этом разделе учимся безопасно использовать внешние носители информации, чтобы избежать заражения, как самих носителей, так и компьютера через носители.
6.1 Опасности при работе с флешкой (6:10)
6.2 Отключаем автозапуск сменных носителей (8:19)
6.3 Контроль автозапуска и защита флешки (11:28)
Раздел 7. Универсальная проверка компьютера
Антивирус это хорошо, но он тоже может пропускать вирусы. Этот раздел посвящен нескольким универсальным способам проверки компьютера, которые помогут нашему основному антивирусу обеспечить полноценную проверку и защиту.
7.1 Что, зачем и как? (7:19)
7.2 Ещё две программы для проверки (12:53)
7.3 Проверка с помощью AVZ (20:39)
7.4 Мультисканеры (5:46)
Раздел 8. Закрываем уязвимости компьютера
Хакеры очень часто используют уязвимости, чтобы проникнуть в наш компьютер. В этом разделе разбираемся, откуда берутся уязвимости и как их исправить, чтобы закрыть лазейки для хакерских атак.
8.1 Чем страшны уязвимости? (5:14)
8.2 Как обнаружить атаку? (14:47)
8.3 Проверка и исправление уязвимостей (17:32)
Раздел 9. Межсетевой экран
Вторая по важности программа для обеспечения безопасности компьютера это межсетевой экран (фаервол). Этот раздел полностью посвящен фаерволу, начиная от его выбора и заканчивая настройкой и проверкой его надежности. Кроме того мы раскроем тему компьютерных портов, которые также используются хакерами для совершения атак.
9.1 Базовые понятия о сетевом экране (5:37)
9.2 Выбор фаервола (11:27)
9.3 Установка фаервола (8:40)
9.4 Настройка фаервола (12:28)
9.5 Работа с фаерволом (12:11)
9.6 Проверка надежности фаервола (9:11)
9.7 Закрываем порты (16:04)
9.8 Контроль портов (11:56)
Раздел 10. Защита от шпионских программ
В этом разделе боремся с несколькими разновидностями вредоносных программ, которые легко могут пропустить наша антивирусная программа и фаервол.
10.1 Spyware, Malware, Adware и прочее... (7:14)
10.2 Способ защиты №1 (12:58)
10.3 Способ защиты №2 (12:59)
Раздел 11. Защита браузера
Все знают, что основной источник «заразы» это, конечно же, Интернет, а основной «связующий» между Интернетом и компьютером это наш браузер. В этом разделе учимся защищать браузер, чтобы превратить его из вредителя в надежного защитника.
11.1 Общие понятия и рекомендации (11:40)
11.2 Как узнать опасен ли сайт? (9:46)
11.3 Работа с файлом hosts (8:35)
11.4 Настройки внутри браузера (11:58)
11.5 Важные дополнения к браузеру (19:47)
11.6 DNS-сервисы. Хорошо или плохо? (7:31)
11.7 Безопасный поиск (6:53)
Раздел 12. Анонимность в сети
Даже если мы не занимаемся ничем предосудительным, это не значит, что нам не стоит обращать внимание на анонимность при работе за компьютером. Сокрытие своей деятельности тоже напрямую связано с безопасностью, а также может дать ряд других преимуществ.
12.1 Советы при общении в соцсетях (9:03)
12.2 Зачем скрывать IP-адрес? (6:23)
12.3 Пять способов скрыть IP-адрес? (18:56)
12.4 Конфиденциальный поиск (6:46)
12.5 «Заметаем» следы (15:35)

Раздел 13. Защита от фишинга

Фишинг это самый популярный способ мошенничества, который используется повсеместно и на который попадаются миллионы пользователей. В этом разделе разбираем фишинг «по косточкам».
13.1 Основы фишинга (7:22)
13.2 Как не попасться на удочку? (16:33)
13.3 Безопасный вход в систему (5:36)
Раздел 14. Восстанавливаем компьютер после заражения
В этом разделе учимся «лечить» и восстанавливать компьютер, если заражения избежать не удалось. Мы создадим два самых популярных аварийных диска, которые помогут нам в том случае, если наша система настолько глубоко заражена, что даже не загружается.
14.1 Быстрое восстановление важных функций (17:33)
14.2 Если не загружается Windows (5:31)
14.3 Создаем аварийный диск Мастером (6:47)
14.4 Создаем аварийный диск без Мастера (5:25)
14.5 Загрузка с аварийного диска (10:17)
14.6 Работаем с диском 1 (9:51)
14.7 Работаем с диском 2 (8:12)
Бонус:
Надёжное хранение паролей

Оболочка:

 
Скриншоты:
       

XP1971

Пост 11-Июн-2017 14:16

[Цитировать]

Наталия Махно | Сексуальный Голос за 21 день (мужской тренинг) (2012) [TXT, MP3, MP4] - Автор: Наталия Махно
Издательство: Тренинговый Центр МегаОратор
Жанр: Тренинг, Голос
Формат: TXT, MP3, MP4
Качество: Изначально электронное (ebook)
Иллюстрации: Без иллюстраций
Битрейт аудио MP3: 128 Kbps
Видео MP4: AVC/H.264, 640х360-1280х720, ~1068 Kbps
Аудио MP4: AAC, 2 ch, 126 Kbps, VBR
Описание:
3-х недельный практический тренинг - Постановка красивого, завораживающего, сексуального голоса.
Это не видео тренинг. Это тренинг в текстовом формате с аудио и видео дополнениями.
Знакомо ли тебе следующее:
– Твой голос звучит тускло и невыразительно, а в момены особого волнения начинает звучать неестетсвенно высоко или срываться?
– Тебя постоянно просят повторить или не слышат вообще?
– Тебе трудно завести разговор с незнакомыми людьми в новой компании?
– Разговор с понравившейся представительницей пртивоположного пола, когда голос постоянно «не слушается», для тебя настоящее мучение?
– Тебе трудно донести твою точку зрения и убедить в ней клиентов, сотрудников или друзей?
– Ты не любишь много разговаривать, потому что голос «не твоя фишка?»
Если на один или на несколько из этих пунктов ты утвердительно ответил «Да! Это про меня!» – у меня есть хорошая новость для тебя! Все эти минусы можно легко превратить в плюсы. Можно с легкостью свои слабые стороны превратить в сильные. Для этого тебе понадобится немного – выделять 20 минут времени каждый день на протяжении следующих 3-х недель. Через 21 день твой голос станет другим – будет звучать гораздо глубже, станет ярче, бархатистей и... сексуальней! Ведь именно над этими характеристиками мы будем работать в тренинге «Сексуальный Голос за 21 день».

О тренере:

Наталия Махно
Тренер ораторского мастерства и постановки голоса
Наталия Махно - основатель и тренер Тренингового Центра МегаОратор.
Консультант политиков, владельцев бизнеса, руководителей высшего звена, представителей шоу-бизнеса. Опыт тренерской деятельности - более 10 лет.
Популярная радио- и телеведущая, журналист. Опыт работы на радио и телевидении – более 10-ти лет (телеканалы: «24», «Киев», «КРТ»; радио: «Люкс», «Шарманка», «Авторадио»), психолог (СПбГУ).
Наталья Махно в рамках своей авторской программы «Шлях до успіху» изучила опыт и путь к успеху более 200 успешных людей Украины и мира (В. Кличко, Т. Повалий, А. Тан, А. Лорак, Л. Подкопаева, Д. Карузо, Стефано Доминелла и др).
Руководствуясь своим опытом, Наталья Махно составила уникальную по эффективности и насыщенности программу обучения для людей, которые хотят научиться ярко, убедительно говорить, управлять любой аудиторией, добиваться своих целей и максимально эфективно проводить своё главное публичное выступление – жизнь.
Являясь человеком, который всю жизнь работает с голосом, Наталия Махно продолжает исследовать голос и его феноменальные возможности. Заслуживают отдельного внимания ее исследования в рамках квалификационной работы для Санкт-Петербургского государственного Университета «Влияние голосовых характеристик на восприятие лидерских качеств и управленческих способностей человека» (Санкт-Петербург, 2015)
Наталия также является тренером ораторского мастерства в Университете Успеха (Isaac Pintosevich Systems) и преподает в телешколе (готовит кадры для украинских каналов и радиостанций).
Работает с VIP-персонами, депутатами и кандидатами в депутаты (основная специализация - подготовка к выступлениям на радио и ТВ).
Проведенные корпоративные трениги по ораторскому мастерству и постановке голоса для компаний и ведущих специалистов компаний: ПАТ «Укртелеком», «ОАО "НК Роснефть», ЗАО «РНПК», крупнейшая энегетическая компания Украины «ДТЭК», «Mary Kay», кондитерская фабрика «Конти», «Rotary Club», украинско-канадское ТОВ «Прозорість» , лидер по продаже автотоваров онлайн в Украине «130.com.ua», «Inten», дом моды «Idol», «Яндекс», Харьковский Национальный Педагогический Университет, Киевский Национальный Университет Культуры и Искусств, Киево-Могилянська Академия и др.

Видео:

Mediainfo MP4:

Код:
General
Complete name                            : C:\Torrents\Махно Наталия - Сексуальный Голос за 21 день (мужской) (2012)\01\01.1 - Сексуальный Голос (мужской). Старт!.mp4
Format                                   : MPEG-4
Format profile                           : Base Media / Version 2
Codec ID                                 : mp42
File size                                : 20.6 MiB
Duration                                 : 2mn 24s
Overall bit rate mode                    : Variable
Overall bit rate                         : 1 196 Kbps
Encoded date                             : UTC 2016-08-18 20:01:50
Tagged date                              : UTC 2016-08-18 20:01:50
gsst                                     : 0
gstd                                     : 144497
Video
ID                                       : 1
Format                                   : AVC
Format/Info                              : Advanced Video Codec
Format profile                           : [url=mailto:Main@L3.1]Main@L3.1[/url]
Format settings, CABAC                   : Yes
Format settings, ReFrames                : 3 frames
Codec ID                                 : avc1
Codec ID/Info                            : Advanced Video Coding
Duration                                 : 2mn 24s
Bit rate                                 : 1 068 Kbps
Width                                    : 1 280 pixels
Height                                   : 720 pixels
Display aspect ratio                     : 16:9
Frame rate mode                          : Constant
Frame rate                               : 30.000 fps
Color space                              : YUV
Chroma subsampling                       : 4:2:0
Bit depth                                : 8 bits
Scan type                                : Progressive
Bits/(Pixel*Frame)                       : 0.039
Stream size                              : 18.4 MiB (89%)
Title                                    : ISO Media file produced by Google Inc.
Encoded date                             : UTC 2016-08-18 20:01:50
Tagged date                              : UTC 2016-08-18 20:01:50
Audio
ID                                       : 2
Format                                   : AAC
Format/Info                              : Advanced Audio Codec
Format profile                           : LC
Codec ID                                 : 40
Duration                                 : 2mn 24s
Bit rate mode                            : Variable
Bit rate                                 : 126 Kbps
Channel(s)                               : 2 channels
Channel positions                        : Front: L R
Sampling rate                            : 44.1 KHz
Compression mode                         : Lossy
Stream size                              : 2.16 MiB (11%)
Title                                    : ISO Media file produced by Google Inc.
Encoded date                             : UTC 2016-08-18 20:01:50
Tagged date                              : UTC 2016-08-18 20:01:50
 

Текущее время: Сегодня 03:40

Часовой пояс: GMT + 3