Сегодня идет свободное скачивание без начисления Download

Результатов поиска: 500

Автор Сообщение

simsim2017

Пост 03-Май-2017 19:50

[Цитировать]

thank you bro

}{@R0N

Пост 22-Апр-2017 21:42

[Цитировать]

Методы содержания пчёл в Владимирских ульях - Автор (режиссер): Андрей Якимов
Жанр: пчеловодство
Описание:
Владимирские ульи. Цель всей затеи.
Получение высококачественной продукции пчеловодства. Без подкормок сахарным сиропом, без лечения вредными препаратами пчёл и выбор экологически чистой местности под пасеку.
Для этого:
- Создание и отработка метода пчеловодства доступного большинству людей.
- Пчеловодство основанное на местной пчеле, для нас среднерусской.
- Возможность в удовольствие и с интересом заниматься пчеловодством в Средней полосе России и Северных регионах.
- Пчеловодство как Бизнес в Средней полосе России с минимальным вмешательством в жизнь пчёл.
- У нас холодно и говорят, что пчёлам не очень у нас. Но мы умные и сделаем так, чтобы пчеле и пчеловодам, а особенно соседям пчеловодов жилось хорошо.
Содержание:
-Пасека-Легко создать, Легко обслуживать
-Методы содержания пчёл во Владимирских ульях Якимова
-Бизнес в пчеловодстве или Пасека доход круглый год
-Минипасека на основе Апидомика или "Сон на ульях"
-Владимирский улей- Технология изготовления и размеры
-Практика работы на пасеке
Продолжительность: 25:27:44
Качество видео: HDTVRip
Видео: AVC/H.264, 960х720, ~2010 Кбит/сек
Аудио: AAC, 2 ch, 126 Кбит/сек

Mediainfo:

Общее
Полное имя : \Пчеловодство во Владимирских ульях\Методы содержания пчёл в Владимирских ульях Якимова\1 Вступление.mp4
Формат : MPEG-4
Профиль формата : Base Media
Идентификатор кодека : isom (isom/iso2/avc1/mp41)
Размер файла : 252 Мбайт
Продолжительность : 16 м. 27 с.
Общий поток : 2145 Кбит/сек
Программа кодирования : Lavf55.22.100
Видео
Идентификатор : 1
Формат : AVC
Формат/Информация : Advanced Video Codec
Профиль формата : [url=mailto:Main@L3.1]Main@L3.1[/url]
Параметр CABAC формата : Да
Параметр ReFrames формата : 3 кадра
Идентификатор кодека : avc1
Идентификатор кодека/Информация : Advanced Video Coding
Продолжительность : 16 м. 26 с.
Битрейт : 2010 Кбит/сек
Ширина : 960 пикселей
Высота : 720 пикселей
Соотношение сторон : 4:3
Режим частоты кадров : Переменный
Частота кадров : 29,788 кадров/сек
Минимальная частота кадров : 29,772 кадров/сек
Максимальная частота кадров : 29,791 кадров/сек
Цветовое пространство : YUV
Субдискретизация насыщенности : 4:2:0
Битовая глубина : 8 бит
Тип развёртки : Прогрессивная
Бит/(Пиксели*Кадры) : 0.098
Размер потока : 237 Мбайт (94%)
Аудио
Идентификатор : 2
Формат : AAC
Формат/Информация : Advanced Audio Codec
Профиль формата : LC
Идентификатор кодека : 40
Продолжительность : 16 м. 27 с.
Вид битрейта : Постоянный
Битрейт : 126 Кбит/сек
Каналы : 2 канала
Расположение каналов : Front: L R
Частота : 44,1 КГц
Частота кадров : 43,066 кадра/сек (1024 spf)
Метод сжатия : С потерями
Размер потока : 14,8 Мбайт (6%)
Default : Да
Alternate group : 1
Скриншоты:
       

worldup

Пост 21-Апр-2017 18:06

[Цитировать]

Как зарабатывать на торгах по банкротству по методу Шерлока Холмса

Производитель: Олег Селифанов
Год выпуска: 2017
Язык: русский
Описание: «Как зарабатывать на торгах по банкротству по методу Шерлока Холмса, покупая автомобили, квартиры и другое имущество должников на 77% ниже рыночной стоимости?»
Академия торгов по банкротству - это первый проект по СНГ, рассказывающий, что такое торги по банкротству и как на них зарабатывать любому человеку, без специальных знаний и начального капитала!
Вы узнайте простые шаги, как начать зарабатывать на аукционах по банкротству, скупая объекты за 10-20% от их реальной стоимости!
Здесь вы найдете ответы на следующие вопросы, что такое: aукциoн пo бaнкрoтcтву, торги по банкротству, покупка недвижимости с аукциона по банкротству, аукцион недвижимости, банкротство физических лиц, торги имущества, электронные торги по банкротству, дебиторская задолженность.
Вы изучите и поймете: куда вложить деньги, как быстро заработать деньги в интернете, как инвестировать деньги.
Изучите особенности покупки объектов:
Дебиторской задолженности
Квартир и домов
Спец.техники
Недвижимости
Мы также подробно освещаем прибыльное участие в электронных торгах по банкротству!
Видео кодек: H.26x
Видео: AVC, 1280x720 (16:9), ~326 Kbps, 29970 fps
Аудио: AAC, 126 kbps, 44.1 kHz, 2 ch

Скриншоты

intel77

Пост 19-Апр-2017 23:23

[Цитировать]

almighty937 писал(а):
Кому вообще приходит в голову выкачивать с ютуба видео и раздавать на торрентах??? Мега шок
Пашол Цензура!, Цензура!. Хочешь, сам смотри на Цензура! ютубе

XP1971

Пост 15-Апр-2017 15:25

[Цитировать]

slims_cool,
включите в настройках торрет клиента DHT

slims_cool

Пост 15-Апр-2017 14:39

[Цитировать]

Дайте скорости, пожалуйста.

XP1971

Пост 11-Апр-2017 18:17

[Цитировать]

David J. Malan | Основы программирования CS50 (2015) WEB-DL (лекции 1-22 из 25) [H.264/1080p] - Автор (режиссер): David J. Malan
Производство: Harvard College
Жанр: Программирование
Описание:
CS50 — суперхит среди академических курсов Computer Science! Его уже много лет читают студентам Гарварда, а в последнее время — воспитанникам Йельского университета очно, а заочно — многомилионной аудитории интернета. Лекции курса смотрятся как увлекательный блокбастер, а задачи, предлагаемые к решению, — не надуманные стерильные учебные материалы, а взятые из реальной жизни кейсы.
Продолжительность: 19:16:41
Качество видео: WEB-DL
Видео: AVC/H.264, 1920x1080p, ~24fps 147kbps
Аудио: AAC, 2 ch, 44100Hz stereo 126kbps, CBR

Mediainfo:

Код:
Общее
Полное имя                               : D:\Видеокурсы\Основы программирования CS50\1. CS50 на русском Лекция #1 [Гарвард, Основы программирования, осень 2015 год].mp4
Формат                                   : MPEG-4
Профиль формата                          : Base Media
Идентификатор кодека                     : isom (isom/iso2/avc1/mp41)
Размер файла                             : 525 Мбайт
Продолжительность                        : 45 м. 40 с.
Общий поток                              : 1606 Кбит/сек
Программа кодирования                    : Lavf57.2.100
Видео
Идентификатор                            : 1
Формат                                   : AVC
Формат/Информация                        : Advanced Video Codec
Профиль формата                          : High@L4
Параметр CABAC формата                   : Да
Параметр ReFrames формата                : 3 кадра
Идентификатор кодека                     : avc1
Идентификатор кодека/Информация          : Advanced Video Coding
Продолжительность                        : 45 м. 40 с.
Битрейт                                  : 1473 Кбит/сек
Ширина                                   : 1920 пикселей
Высота                                   : 1080 пикселей
Соотношение сторон                       : 16:9
Режим частоты кадров                     : Переменный
Частота кадров                           : 23,976 (24000/1001) кадра/сек
Минимальная частота кадров               : 23,974 кадра/сек
Максимальная частота кадров              : 23,981 кадра/сек
Цветовое пространство                    : YUV
Субдискретизация насыщенности            : 4:2:0
Битовая глубина                          : 8 бит
Тип развёртки                            : Прогрессивная
Бит/(Пиксели*Кадры)                      : 0.030
Размер потока                            : 481 Мбайт (92%)
Цветовой диапазон                        : Limited
Основные цвета                           : BT.709
Характеристики трансфера                 : BT.709
Коэффициенты матрицы                     : BT.709
Аудио
Идентификатор                            : 2
Формат                                   : AAC
Формат/Информация                        : Advanced Audio Codec
Профиль формата                          : LC
Идентификатор кодека                     : 40
Продолжительность                        : 45 м. 40 с.
Вид битрейта                             : Постоянный
Битрейт                                  : 126 Кбит/сек
Каналы                                   : 2 канала
Расположение каналов                     : Front: L R
Частота                                  : 44,1 КГц
Частота кадров                           : 43,066 кадра/сек (1024 spf)
Метод сжатия                             : С потерями
Размер потока                            : 41,0 Мбайт (8%)
Default                                  : Да
Alternate group                          : 1
Общее
Полное имя                               : D:\Видеокурсы\Основы программирования CS50\10. CS50 на русском Лекция #10 [Гарвард, Основы программирования, осень 2015 год].mp4
Формат                                   : MPEG-4
Профиль формата                          : Base Media
Идентификатор кодека                     : isom (isom/iso2/avc1/mp41)
Размер файла                             : 493 Мбайт
Продолжительность                        : 54 м. 10 с.
Общий поток                              : 1273 Кбит/сек
Программа кодирования                    : Lavf57.2.100
Видео
Идентификатор                            : 1
Формат                                   : AVC
Формат/Информация                        : Advanced Video Codec
Профиль формата                          : High@L4
Параметр CABAC формата                   : Да
Параметр ReFrames формата                : 3 кадра
Идентификатор кодека                     : avc1
Идентификатор кодека/Информация          : Advanced Video Coding
Продолжительность                        : 54 м. 10 с.
Битрейт                                  : 1140 Кбит/сек
Ширина                                   : 1920 пикселей
Высота                                   : 1080 пикселей
Соотношение сторон                       : 16:9
Режим частоты кадров                     : Переменный
Частота кадров                           : 23,976 (24000/1001) кадра/сек
Минимальная частота кадров               : 23,974 кадра/сек
Максимальная частота кадров              : 23,981 кадра/сек
Цветовое пространство                    : YUV
Субдискретизация насыщенности            : 4:2:0
Битовая глубина                          : 8 бит
Тип развёртки                            : Прогрессивная
Бит/(Пиксели*Кадры)                      : 0.023
Размер потока                            : 442 Мбайт (90%)
Цветовой диапазон                        : Limited
Основные цвета                           : BT.709
Характеристики трансфера                 : BT.709
Коэффициенты матрицы                     : BT.709
Аудио
Идентификатор                            : 2
Формат                                   : AAC
Формат/Информация                        : Advanced Audio Codec
Профиль формата                          : LC
Идентификатор кодека                     : 40
Продолжительность                        : 54 м. 10 с.
Вид битрейта                             : Постоянный
Битрейт                                  : 126 Кбит/сек
Каналы                                   : 2 канала
Расположение каналов                     : Front: L R
Частота                                  : 44,1 КГц
Частота кадров                           : 43,066 кадра/сек (1024 spf)
Метод сжатия                             : С потерями
Размер потока                            : 48,7 Мбайт (10%)
Default                                  : Да
Alternate group                          : 1
Общее
Полное имя                               : D:\Видеокурсы\Основы программирования CS50\11. CS50 на русском Лекция #11 [Гарвард, Основы программирования, осень 2015 год].mp4
Формат                                   : MPEG-4
Профиль формата                          : Base Media
Идентификатор кодека                     : isom (isom/iso2/avc1/mp41)
Размер файла                             : 546 Мбайт
Продолжительность                        : 53 м. 12 с.
Общий поток                              : 1436 Кбит/сек
Программа кодирования                    : Lavf57.2.100
Видео
Идентификатор                            : 1
Формат                                   : AVC
Формат/Информация                        : Advanced Video Codec
Профиль формата                          : High@L4
Параметр CABAC формата                   : Да
Параметр ReFrames формата                : 3 кадра
Идентификатор кодека                     : avc1
Идентификатор кодека/Информация          : Advanced Video Coding
Продолжительность                        : 53 м. 12 с.
Битрейт                                  : 1304 Кбит/сек
Ширина                                   : 1920 пикселей
Высота                                   : 1080 пикселей
Соотношение сторон                       : 16:9
Режим частоты кадров                     : Переменный
Частота кадров                           : 23,976 (24000/1001) кадра/сек
Минимальная частота кадров               : 23,974 кадра/сек
Максимальная частота кадров              : 23,981 кадра/сек
Цветовое пространство                    : YUV
Субдискретизация насыщенности            : 4:2:0
Битовая глубина                          : 8 бит
Тип развёртки                            : Прогрессивная
Бит/(Пиксели*Кадры)                      : 0.026
Размер потока                            : 496 Мбайт (91%)
Цветовой диапазон                        : Limited
Основные цвета                           : BT.709
Характеристики трансфера                 : BT.709
Коэффициенты матрицы                     : BT.709
Аудио
Идентификатор                            : 2
Формат                                   : AAC
Формат/Информация                        : Advanced Audio Codec
Профиль формата                          : LC
Идентификатор кодека                     : 40
Продолжительность                        : 53 м. 12 с.
Вид битрейта                             : Постоянный
Битрейт                                  : 126 Кбит/сек
Каналы                                   : 2 канала
Расположение каналов                     : Front: L R
Частота                                  : 44,1 КГц
Частота кадров                           : 43,066 кадра/сек (1024 spf)
Метод сжатия                             : С потерями
Размер потока                            : 47,8 Мбайт (9%)
Default                                  : Да
Alternate group                          : 1
Общее
Полное имя                               : D:\Видеокурсы\Основы программирования CS50\12. CS50 на русском Лекция #12 [Гарвард, Основы программирования, осень 2015 год].mp4
Формат                                   : MPEG-4
Профиль формата                          : Base Media
Идентификатор кодека                     : isom (isom/iso2/avc1/mp41)
Размер файла                             : 509 Мбайт
Продолжительность                        : 55 м. 37 с.
Общий поток                              : 1279 Кбит/сек
Программа кодирования                    : Lavf57.2.100
Видео
Идентификатор                            : 1
Формат                                   : AVC
Формат/Информация                        : Advanced Video Codec
Профиль формата                          : High@L4
Параметр CABAC формата                   : Да
Параметр ReFrames формата                : 3 кадра
Идентификатор кодека                     : avc1
Идентификатор кодека/Информация          : Advanced Video Coding
Продолжительность                        : 55 м. 37 с.
Битрейт                                  : 1146 Кбит/сек
Ширина                                   : 1920 пикселей
Высота                                   : 1080 пикселей
Соотношение сторон                       : 16:9
Режим частоты кадров                     : Переменный
Частота кадров                           : 23,976 (24000/1001) кадра/сек
Минимальная частота кадров               : 23,974 кадра/сек
Максимальная частота кадров              : 23,981 кадра/сек
Цветовое пространство                    : YUV
Субдискретизация насыщенности            : 4:2:0
Битовая глубина                          : 8 бит
Тип развёртки                            : Прогрессивная
Бит/(Пиксели*Кадры)                      : 0.023
Размер потока                            : 456 Мбайт (90%)
Цветовой диапазон                        : Limited
Основные цвета                           : BT.709
Характеристики трансфера                 : BT.709
Коэффициенты матрицы                     : BT.709
Аудио
Идентификатор                            : 2
Формат                                   : AAC
Формат/Информация                        : Advanced Audio Codec
Профиль формата                          : LC
Идентификатор кодека                     : 40
Продолжительность                        : 55 м. 37 с.
Вид битрейта                             : Постоянный
Битрейт                                  : 126 Кбит/сек
Каналы                                   : 2 канала
Расположение каналов                     : Front: L R
Частота                                  : 44,1 КГц
Частота кадров                           : 43,066 кадра/сек (1024 spf)
Метод сжатия                             : С потерями
Размер потока                            : 50,0 Мбайт (10%)
Default                                  : Да
Alternate group                          : 1
Общее
Полное имя                               : D:\Видеокурсы\Основы программирования CS50\13. CS50 на русском Лекция #13 [Гарвард, Основы программирования, осень 2015 год].mp4
Формат                                   : MPEG-4
Профиль формата                          : Base Media
Идентификатор кодека                     : isom (isom/iso2/avc1/mp41)
Размер файла                             : 1,04 Гбайт
Продолжительность                        : 1 ч. 9 м.
Общий поток                              : 2139 Кбит/сек
Программа кодирования                    : Lavf57.2.100
Видео
Идентификатор                            : 1
Формат                                   : AVC
Формат/Информация                        : Advanced Video Codec
Профиль формата                          : High@L4
Параметр CABAC формата                   : Да
Параметр ReFrames формата                : 2 кадра
Идентификатор кодека                     : avc1
Идентификатор кодека/Информация          : Advanced Video Coding
Продолжительность                        : 1 ч. 9 м.
Битрейт                                  : 2006 Кбит/сек
Ширина                                   : 1920 пикселей
Высота                                   : 1080 пикселей
Соотношение сторон                       : 16:9
Режим частоты кадров                     : Переменный
Частота кадров                           : 23,976 (24000/1001) кадра/сек
Минимальная частота кадров               : 23,974 кадра/сек
Максимальная частота кадров              : 23,981 кадра/сек
Цветовое пространство                    : YUV
Субдискретизация насыщенности            : 4:2:0
Битовая глубина                          : 8 бит
Тип развёртки                            : Прогрессивная
Бит/(Пиксели*Кадры)                      : 0.040
Размер потока                            : 1002 Мбайт (94%)
Цветовой диапазон                        : Limited
Основные цвета                           : BT.709
Характеристики трансфера                 : BT.709
Коэффициенты матрицы                     : BT.709
Аудио
Идентификатор                            : 2
Формат                                   : AAC
Формат/Информация                        : Advanced Audio Codec
Профиль формата                          : LC
Идентификатор кодека                     : 40
Продолжительность                        : 1 ч. 9 м.
Вид битрейта                             : Постоянный
Битрейт                                  : 126 Кбит/сек
Каналы                                   : 2 канала
Расположение каналов                     : Front: L R
Частота                                  : 44,1 КГц
Частота кадров                           : 43,066 кадра/сек (1024 spf)
Метод сжатия                             : С потерями
Размер потока                            : 62,7 Мбайт (6%)
Default                                  : Да
Alternate group                          : 1
Общее
Полное имя                               : D:\Видеокурсы\Основы программирования CS50\14. CS50 на русском Лекция #14 [Гарвард, Основы программирования, осень 2015 год].mp4
Формат                                   : MPEG-4
Профиль формата                          : Base Media
Идентификатор кодека                     : isom (isom/iso2/avc1/mp41)
Размер файла                             : 492 Мбайт
Продолжительность                        : 52 м. 58 с.
Общий поток                              : 1298 Кбит/сек
Программа кодирования                    : Lavf57.2.100
Видео
Идентификатор                            : 1
Формат                                   : AVC
Формат/Информация                        : Advanced Video Codec
Профиль формата                          : High@L4
Параметр CABAC формата                   : Да
Параметр ReFrames формата                : 3 кадра
Идентификатор кодека                     : avc1
Идентификатор кодека/Информация          : Advanced Video Coding
Продолжительность                        : 52 м. 58 с.
Битрейт                                  : 1166 Кбит/сек
Ширина                                   : 1920 пикселей
Высота                                   : 1080 пикселей
Соотношение сторон                       : 16:9
Режим частоты кадров                     : Переменный
Частота кадров                           : 23,976 (24000/1001) кадра/сек
Минимальная частота кадров               : 23,974 кадра/сек
Максимальная частота кадров              : 23,981 кадра/сек
Цветовое пространство                    : YUV
Субдискретизация насыщенности            : 4:2:0
Битовая глубина                          : 8 бит
Тип развёртки                            : Прогрессивная
Бит/(Пиксели*Кадры)                      : 0.023
Размер потока                            : 442 Мбайт (90%)
Цветовой диапазон                        : Limited
Основные цвета                           : BT.709
Характеристики трансфера                 : BT.709
Коэффициенты матрицы                     : BT.709
Аудио
Идентификатор                            : 2
Формат                                   : AAC
Формат/Информация                        : Advanced Audio Codec
Профиль формата                          : LC
Идентификатор кодека                     : 40
Продолжительность                        : 52 м. 58 с.
Вид битрейта                             : Постоянный
Битрейт                                  : 126 Кбит/сек
Каналы                                   : 2 канала
Расположение каналов                     : Front: L R
Частота                                  : 44,1 КГц
Частота кадров                           : 43,066 кадра/сек (1024 spf)
Метод сжатия                             : С потерями
Размер потока                            : 47,6 Мбайт (10%)
Default                                  : Да
Alternate group                          : 1
Общее
Полное имя                               : D:\Видеокурсы\Основы программирования CS50\15. CS50 на русском Лекция #15 [Гарвард, Основы программирования, осень 2015 год].mp4
Формат                                   : MPEG-4
Профиль формата                          : Base Media
Идентификатор кодека                     : isom (isom/iso2/avc1/mp41)
Размер файла                             : 661 Мбайт
Продолжительность                        : 54 м. 11 с.
Общий поток                              : 1704 Кбит/сек
Программа кодирования                    : Lavf57.2.100
Видео
Идентификатор                            : 1
Формат                                   : AVC
Формат/Информация                        : Advanced Video Codec
Профиль формата                          : High@L4
Параметр CABAC формата                   : Да
Параметр ReFrames формата                : 2 кадра
Идентификатор кодека                     : avc1
Идентификатор кодека/Информация          : Advanced Video Coding
Продолжительность                        : 54 м. 11 с.
Битрейт                                  : 1572 Кбит/сек
Ширина                                   : 1920 пикселей
Высота                                   : 1080 пикселей
Соотношение сторон                       : 16:9
Режим частоты кадров                     : Переменный
Частота кадров                           : 23,976 (24000/1001) кадра/сек
Минимальная частота кадров               : 23,974 кадра/сек
Максимальная частота кадров              : 23,981 кадра/сек
Цветовое пространство                    : YUV
Субдискретизация насыщенности            : 4:2:0
Битовая глубина                          : 8 бит
Тип развёртки                            : Прогрессивная
Бит/(Пиксели*Кадры)                      : 0.032
Размер потока                            : 609 Мбайт (92%)
Цветовой диапазон                        : Limited
Основные цвета                           : BT.709
Характеристики трансфера                 : BT.709
Коэффициенты матрицы                     : BT.709
Аудио
Идентификатор                            : 2
Формат                                   : AAC
Формат/Информация                        : Advanced Audio Codec
Профиль формата                          : LC
Идентификатор кодека                     : 40
Продолжительность                        : 54 м. 11 с.
Вид битрейта                             : Постоянный
Битрейт                                  : 126 Кбит/сек
Каналы                                   : 2 канала
Расположение каналов                     : Front: L R
Частота                                  : 44,1 КГц
Частота кадров                           : 43,066 кадра/сек (1024 spf)
Метод сжатия                             : С потерями
Размер потока                            : 48,7 Мбайт (7%)
Default                                  : Да
Alternate group                          : 1
Общее
Полное имя                               : D:\Видеокурсы\Основы программирования CS50\16. CS50 на русском Лекция #16 [Гарвард, Основы программирования, осень 2015 год].mp4
Формат                                   : MPEG-4
Профиль формата                          : Base Media
Идентификатор кодека                     : isom (isom/iso2/avc1/mp41)
Размер файла                             : 409 Мбайт
Продолжительность                        : 45 м. 26 с.
Общий поток                              : 1257 Кбит/сек
Программа кодирования                    : Lavf57.2.100
Видео
Идентификатор                            : 1
Формат                                   : AVC
Формат/Информация                        : Advanced Video Codec
Профиль формата                          : High@L4
Параметр CABAC формата                   : Да
Параметр ReFrames формата                : 3 кадра
Идентификатор кодека                     : avc1
Идентификатор кодека/Информация          : Advanced Video Coding
Продолжительность                        : 45 м. 26 с.
Битрейт                                  : 1125 Кбит/сек
Ширина                                   : 1920 пикселей
Высота                                   : 1080 пикселей
Соотношение сторон                       : 16:9
Режим частоты кадров                     : Переменный
Частота кадров                           : 23,976 (24000/1001) кадра/сек
Минимальная частота кадров               : 23,974 кадра/сек
Максимальная частота кадров              : 23,981 кадра/сек
Цветовое пространство                    : YUV
Субдискретизация насыщенности            : 4:2:0
Битовая глубина                          : 8 бит
Тип развёртки                            : Прогрессивная
Бит/(Пиксели*Кадры)                      : 0.023
Размер потока                            : 366 Мбайт (89%)
Цветовой диапазон                        : Limited
Основные цвета                           : BT.709
Характеристики трансфера                 : BT.709
Коэффициенты матрицы                     : BT.709
Аудио
Идентификатор                            : 2
Формат                                   : AAC
Формат/Информация                        : Advanced Audio Codec
Профиль формата                          : LC
Идентификатор кодека                     : 40
Продолжительность                        : 45 м. 26 с.
Вид битрейта                             : Постоянный
Битрейт                                  : 126 Кбит/сек
Каналы                                   : 2 канала
Расположение каналов                     : Front: L R
Частота                                  : 44,1 КГц
Частота кадров                           : 43,066 кадра/сек (1024 spf)
Метод сжатия                             : С потерями
Размер потока                            : 40,8 Мбайт (10%)
Default                                  : Да
Alternate group                          : 1
Общее
Полное имя                               : D:\Видеокурсы\Основы программирования CS50\17. CS50 на русском Лекция #17 [Гарвард, Основы программирования, осень 2015 год].mp4
Формат                                   : MPEG-4
Профиль формата                          : Base Media
Идентификатор кодека                     : isom (isom/iso2/avc1/mp41)
Размер файла                             : 573 Мбайт
Продолжительность                        : 51 м. 41 с.
Общий поток                              : 1549 Кбит/сек
Программа кодирования                    : Lavf57.2.100
Видео
Идентификатор                            : 1
Формат                                   : AVC
Формат/Информация                        : Advanced Video Codec
Профиль формата                          : High@L4
Параметр CABAC формата                   : Да
Параметр ReFrames формата                : 3 кадра
Идентификатор кодека                     : avc1
Идентификатор кодека/Информация          : Advanced Video Coding
Продолжительность                        : 51 м. 40 с.
Битрейт                                  : 1417 Кбит/сек
Ширина                                   : 1920 пикселей
Высота                                   : 1080 пикселей
Соотношение сторон                       : 16:9
Режим частоты кадров                     : Переменный
Частота кадров                           : 23,976 (24000/1001) кадра/сек
Минимальная частота кадров               : 23,974 кадра/сек
Максимальная частота кадров              : 23,981 кадра/сек
Цветовое пространство                    : YUV
Субдискретизация насыщенности            : 4:2:0
Битовая глубина                          : 8 бит
Тип развёртки                            : Прогрессивная
Бит/(Пиксели*Кадры)                      : 0.029
Размер потока                            : 524 Мбайт (91%)
Цветовой диапазон                        : Limited
Основные цвета                           : BT.709
Характеристики трансфера                 : BT.709
Коэффициенты матрицы                     : BT.709
Аудио
Идентификатор                            : 2
Формат                                   : AAC
Формат/Информация                        : Advanced Audio Codec
Профиль формата                          : LC
Идентификатор кодека                     : 40
Продолжительность                        : 51 м. 41 с.
Вид битрейта                             : Постоянный
Битрейт                                  : 126 Кбит/сек
Каналы                                   : 2 канала
Расположение каналов                     : Front: L R
Частота                                  : 44,1 КГц
Частота кадров                           : 43,066 кадра/сек (1024 spf)
Метод сжатия                             : С потерями
Размер потока                            : 46,4 Мбайт (8%)
Default                                  : Да
Alternate group                          : 1
Общее
Полное имя                               : D:\Видеокурсы\Основы программирования CS50\18. CS50 на русском Лекция #18 [Гарвард, Основы программирования, осень 2015 год].mp4
Формат                                   : MPEG-4
Профиль формата                          : Base Media
Идентификатор кодека                     : isom (isom/iso2/avc1/mp41)
Размер файла                             : 698 Мбайт
Продолжительность                        : 50 м. 48 с.
Общий поток                              : 1921 Кбит/сек
Программа кодирования                    : Lavf57.2.100
Видео
Идентификатор                            : 1
Формат                                   : AVC
Формат/Информация                        : Advanced Video Codec
Профиль формата                          : High@L4
Параметр CABAC формата                   : Да
Параметр ReFrames формата                : 2 кадра
Идентификатор кодека                     : avc1
Идентификатор кодека/Информация          : Advanced Video Coding
Продолжительность                        : 50 м. 48 с.
Битрейт                                  : 1788 Кбит/сек
Ширина                                   : 1920 пикселей
Высота                                   : 1080 пикселей
Соотношение сторон                       : 16:9
Режим частоты кадров                     : Постоянный
Частота кадров                           : 29,970 (30000/1001) кадров/сек
Цветовое пространство                    : YUV
Субдискретизация насыщенности            : 4:2:0
Битовая глубина                          : 8 бит
Тип развёртки                            : Прогрессивная
Бит/(Пиксели*Кадры)                      : 0.029
Размер потока                            : 650 Мбайт (93%)
Цветовой диапазон                        : Limited
Основные цвета                           : BT.709
Характеристики трансфера                 : BT.709
Коэффициенты матрицы                     : BT.709
Аудио
Идентификатор                            : 2
Формат                                   : AAC
Формат/Информация                        : Advanced Audio Codec
Профиль формата                          : LC
Идентификатор кодека                     : 40
Продолжительность                        : 50 м. 48 с.
Вид битрейта                             : Постоянный
Битрейт                                  : 126 Кбит/сек
Каналы                                   : 2 канала
Расположение каналов                     : Front: L R
Частота                                  : 44,1 КГц
Частота кадров                           : 43,066 кадра/сек (1024 spf)
Метод сжатия                             : С потерями
Размер потока                            : 45,6 Мбайт (7%)
Default                                  : Да
Alternate group                          : 1
Общее
Полное имя                               : D:\Видеокурсы\Основы программирования CS50\19. CS50 на русском Лекция #19 [Гарвард, Основы программирования, осень 2015 год].mp4
Формат                                   : MPEG-4
Профиль формата                          : Base Media
Идентификатор кодека                     : isom (isom/iso2/avc1/mp41)
Размер файла                             : 637 Мбайт
Продолжительность                        : 49 м. 46 с.
Общий поток                              : 1789 Кбит/сек
Программа кодирования                    : Lavf57.2.100
Видео
Идентификатор                            : 1
Формат                                   : AVC
Формат/Информация                        : Advanced Video Codec
Профиль формата                          : High@L4
Параметр CABAC формата                   : Да
Параметр ReFrames формата                : 3 кадра
Идентификатор кодека                     : avc1
Идентификатор кодека/Информация          : Advanced Video Coding
Продолжительность                        : 49 м. 46 с.
Битрейт                                  : 1657 Кбит/сек
Ширина                                   : 1920 пикселей
Высота                                   : 1080 пикселей
Соотношение сторон                       : 16:9
Режим частоты кадров                     : Переменный
Частота кадров                           : 23,976 (24000/1001) кадра/сек
Минимальная частота кадров               : 23,974 кадра/сек
Максимальная частота кадров              : 23,981 кадра/сек
Цветовое пространство                    : YUV
Субдискретизация насыщенности            : 4:2:0
Битовая глубина                          : 8 бит
Тип развёртки                            : Прогрессивная
Бит/(Пиксели*Кадры)                      : 0.033
Размер потока                            : 590 Мбайт (93%)
Цветовой диапазон                        : Limited
Основные цвета                           : BT.709
Характеристики трансфера                 : BT.709
Коэффициенты матрицы                     : BT.709
Аудио
Идентификатор                            : 2
Формат                                   : AAC
Формат/Информация                        : Advanced Audio Codec
Профиль формата                          : LC
Идентификатор кодека                     : 40
Продолжительность                        : 49 м. 46 с.
Вид битрейта                             : Постоянный
Битрейт                                  : 126 Кбит/сек
Каналы                                   : 2 канала
Расположение каналов                     : Front: L R
Частота                                  : 44,1 КГц
Частота кадров                           : 43,066 кадра/сек (1024 spf)
Метод сжатия                             : С потерями
Размер потока                            : 44,7 Мбайт (7%)
Default                                  : Да
Alternate group                          : 1
Общее
Полное имя                               : D:\Видеокурсы\Основы программирования CS50\2. CS50 на русском Лекция #2 [Гарвард, Основы программирования, осень 2015 год].mp4
Формат                                   : MPEG-4
Профиль формата                          : Base Media
Идентификатор кодека                     : isom (isom/iso2/avc1/mp41)
Размер файла                             : 638 Мбайт
Продолжительность                        : 1 ч. 2 м.
Общий поток                              : 1430 Кбит/сек
Программа кодирования                    : Lavf57.2.100
Видео
Идентификатор                            : 1
Формат                                   : AVC
Формат/Информация                        : Advanced Video Codec
Профиль формата                          : High@L4
Параметр CABAC формата                   : Да
Параметр ReFrames формата                : 3 кадра
Идентификатор кодека                     : avc1
Идентификатор кодека/Информация          : Advanced Video Coding
Продолжительность                        : 1 ч. 2 м.
Битрейт                                  : 1298 Кбит/сек
Ширина                                   : 1920 пикселей
Высота                                   : 1080 пикселей
Соотношение сторон                       : 16:9
Режим частоты кадров                     : Переменный
Частота кадров                           : 23,976 (24000/1001) кадра/сек
Минимальная частота кадров               : 23,974 кадра/сек
Максимальная частота кадров              : 23,981 кадра/сек
Цветовое пространство                    : YUV
Субдискретизация насыщенности            : 4:2:0
Битовая глубина                          : 8 бит
Тип развёртки                            : Прогрессивная
Бит/(Пиксели*Кадры)                      : 0.026
Размер потока                            : 579 Мбайт (91%)
Цветовой диапазон                        : Limited
Основные цвета                           : BT.709
Характеристики трансфера                 : BT.709
Коэффициенты матрицы                     : BT.709
Аудио
Идентификатор                            : 2
Формат                                   : AAC
Формат/Информация                        : Advanced Audio Codec
Профиль формата                          : LC
Идентификатор кодека                     : 40
Продолжительность                        : 1 ч. 2 м.
Вид битрейта                             : Постоянный
Битрейт                                  : 126 Кбит/сек
Каналы                                   : 2 канала
Расположение каналов                     : Front: L R
Частота                                  : 44,1 КГц
Частота кадров                           : 43,066 кадра/сек (1024 spf)
Метод сжатия                             : С потерями
Размер потока                            : 56,0 Мбайт (9%)
Default                                  : Да
Alternate group                          : 1
Общее
Полное имя                               : D:\Видеокурсы\Основы программирования CS50\20. CS50 на русском Лекция #20 [Гарвард, Основы программирования, осень 2015 год].mp4
Формат                                   : MPEG-4
Профиль формата                          : Base Media
Идентификатор кодека                     : isom (isom/iso2/avc1/mp41)
Размер файла                             : 562 Мбайт
Продолжительность                        : 50 м. 17 с.
Общий поток                              : 1562 Кбит/сек
Программа кодирования                    : Lavf57.2.100
Видео
Идентификатор                            : 1
Формат                                   : AVC
Формат/Информация                        : Advanced Video Codec
Профиль формата                          : High@L4
Параметр CABAC формата                   : Да
Параметр ReFrames формата                : 3 кадра
Идентификатор кодека                     : avc1
Идентификатор кодека/Информация          : Advanced Video Coding
Продолжительность                        : 50 м. 17 с.
Битрейт                                  : 1430 Кбит/сек
Ширина                                   : 1920 пикселей
Высота                                   : 1080 пикселей
Соотношение сторон                       : 16:9
Режим частоты кадров                     : Переменный
Частота кадров                           : 23,976 (24000/1001) кадра/сек
Минимальная частота кадров               : 23,974 кадра/сек
Максимальная частота кадров              : 23,981 кадра/сек
Цветовое пространство                    : YUV
Субдискретизация насыщенности            : 4:2:0
Битовая глубина                          : 8 бит
Тип развёртки                            : Прогрессивная
Бит/(Пиксели*Кадры)                      : 0.029
Размер потока                            : 514 Мбайт (92%)
Цветовой диапазон                        : Limited
Основные цвета                           : BT.709
Характеристики трансфера                 : BT.709
Коэффициенты матрицы                     : BT.709
Аудио
Идентификатор                            : 2
Формат                                   : AAC
Формат/Информация                        : Advanced Audio Codec
Профиль формата                          : LC
Идентификатор кодека                     : 40
Продолжительность                        : 50 м. 17 с.
Вид битрейта                             : Постоянный
Битрейт                                  : 126 Кбит/сек
Каналы                                   : 2 канала
Расположение каналов                     : Front: L R
Частота                                  : 44,1 КГц
Частота кадров                           : 43,066 кадра/сек (1024 spf)
Метод сжатия                             : С потерями
Размер потока                            : 45,2 Мбайт (8%)
Default                                  : Да
Alternate group                          : 1
Общее
Полное имя                               : D:\Видеокурсы\Основы программирования CS50\21. CS50 на русском Лекция #21 [Гарвард, Основы программирования, осень 2015 год].mp4
Формат                                   : MPEG-4
Профиль формата                          : Base Media
Идентификатор кодека                     : isom (isom/iso2/avc1/mp41)
Размер файла                             : 728 Мбайт
Продолжительность                        : 43 м. 54 с.
Общий поток                              : 2317 Кбит/сек
Программа кодирования                    : Lavf57.2.100
Видео
Идентификатор                            : 1
Формат                                   : AVC
Формат/Информация                        : Advanced Video Codec
Профиль формата                          : High@L4
Параметр CABAC формата                   : Да
Параметр ReFrames формата                : 2 кадра
Идентификатор кодека                     : avc1
Идентификатор кодека/Информация          : Advanced Video Coding
Продолжительность                        : 43 м. 54 с.
Битрейт                                  : 2185 Кбит/сек
Ширина                                   : 1920 пикселей
Высота                                   : 1080 пикселей
Соотношение сторон                       : 16:9
Режим частоты кадров                     : Переменный
Частота кадров                           : 23,976 (24000/1001) кадра/сек
Минимальная частота кадров               : 23,974 кадра/сек
Максимальная частота кадров              : 23,981 кадра/сек
Цветовое пространство                    : YUV
Субдискретизация насыщенности            : 4:2:0
Битовая глубина                          : 8 бит
Тип развёртки                            : Прогрессивная
Бит/(Пиксели*Кадры)                      : 0.044
Размер потока                            : 686 Мбайт (94%)
Цветовой диапазон                        : Limited
Основные цвета                           : BT.709
Характеристики трансфера                 : BT.709
Коэффициенты матрицы                     : BT.709
Аудио
Идентификатор                            : 2
Формат                                   : AAC
Формат/Информация                        : Advanced Audio Codec
Профиль формата                          : LC
Идентификатор кодека                     : 40
Продолжительность                        : 43 м. 54 с.
Вид битрейта                             : Постоянный
Битрейт                                  : 126 Кбит/сек
Каналы                                   : 2 канала
Расположение каналов                     : Front: L R
Частота                                  : 44,1 КГц
Частота кадров                           : 43,066 кадра/сек (1024 spf)
Метод сжатия                             : С потерями
Размер потока                            : 39,4 Мбайт (5%)
Default                                  : Да
Alternate group                          : 1
Общее
Полное имя                               : D:\Видеокурсы\Основы программирования CS50\22. CS50 на русском Лекция #22 [Гарвард, Основы программирования, осень 2015 год].mp4
Формат                                   : MPEG-4
Профиль формата                          : Base Media
Идентификатор кодека                     : isom (isom/iso2/avc1/mp41)
Размер файла                             : 1022 Мбайт
Продолжительность                        : 1 ч. 4 м.
Общий поток                              : 2210 Кбит/сек
Программа кодирования                    : Lavf57.2.100
Видео
Идентификатор                            : 1
Формат                                   : AVC
Формат/Информация                        : Advanced Video Codec
Профиль формата                          : High@L4
Параметр CABAC формата                   : Да
Параметр ReFrames формата                : 2 кадра
Идентификатор кодека                     : avc1
Идентификатор кодека/Информация          : Advanced Video Coding
Продолжительность                        : 1 ч. 4 м.
Битрейт                                  : 2078 Кбит/сек
Ширина                                   : 1920 пикселей
Высота                                   : 1080 пикселей
Соотношение сторон                       : 16:9
Режим частоты кадров                     : Переменный
Частота кадров                           : 23,976 (24000/1001) кадра/сек
Минимальная частота кадров               : 23,974 кадра/сек
Максимальная частота кадров              : 23,981 кадра/сек
Цветовое пространство                    : YUV
Субдискретизация насыщенности            : 4:2:0
Битовая глубина                          : 8 бит
Тип развёртки                            : Прогрессивная
Бит/(Пиксели*Кадры)                      : 0.042
Размер потока                            : 961 Мбайт (94%)
Цветовой диапазон                        : Limited
Основные цвета                           : BT.709
Характеристики трансфера                 : BT.709
Коэффициенты матрицы                     : BT.709
Аудио
Идентификатор                            : 2
Формат                                   : AAC
Формат/Информация                        : Advanced Audio Codec
Профиль формата                          : LC
Идентификатор кодека                     : 40
Продолжительность                        : 1 ч. 4 м.
Вид битрейта                             : Постоянный
Битрейт                                  : 126 Кбит/сек
Каналы                                   : 2 канала
Расположение каналов                     : Front: L R
Частота                                  : 44,1 КГц
Частота кадров                           : 43,066 кадра/сек (1024 spf)
Метод сжатия                             : С потерями
Размер потока                            : 58,0 Мбайт (6%)
Default                                  : Да
Alternate group                          : 1
Общее
Полное имя                               : D:\Видеокурсы\Основы программирования CS50\3. CS50 на русском Лекция #3 [Гарвард, Основы программирования, осень 2015 год].mp4
Формат                                   : MPEG-4
Профиль формата                          : Base Media
Идентификатор кодека                     : isom (isom/iso2/avc1/mp41)
Размер файла                             : 411 Мбайт
Продолжительность                        : 50 м. 16 с.
Общий поток                              : 1141 Кбит/сек
Программа кодирования                    : Lavf57.2.100
Видео
Идентификатор                            : 1
Формат                                   : AVC
Формат/Информация                        : Advanced Video Codec
Профиль формата                          : High@L4
Параметр CABAC формата                   : Да
Параметр ReFrames формата                : 3 кадра
Идентификатор кодека                     : avc1
Идентификатор кодека/Информация          : Advanced Video Coding
Продолжительность                        : 50 м. 16 с.
Битрейт                                  : 1009 Кбит/сек
Ширина                                   : 1920 пикселей
Высота                                   : 1080 пикселей
Соотношение сторон                       : 16:9
Режим частоты кадров                     : Переменный
Частота кадров                           : 23,976 (24000/1001) кадра/сек
Минимальная частота кадров               : 23,974 кадра/сек
Максимальная частота кадров              : 23,981 кадра/сек
Цветовое пространство                    : YUV
Субдискретизация насыщенности            : 4:2:0
Битовая глубина                          : 8 бит
Тип развёртки                            : Прогрессивная
Бит/(Пиксели*Кадры)                      : 0.020
Размер потока                            : 363 Мбайт (88%)
Цветовой диапазон                        : Limited
Основные цвета                           : BT.709
Характеристики трансфера                 : BT.709
Коэффициенты матрицы                     : BT.709
Аудио
Идентификатор                            : 2
Формат                                   : AAC
Формат/Информация                        : Advanced Audio Codec
Профиль формата                          : LC
Идентификатор кодека                     : 40
Продолжительность                        : 50 м. 16 с.
Вид битрейта                             : Постоянный
Битрейт                                  : 126 Кбит/сек
Каналы                                   : 2 канала
Расположение каналов                     : Front: L R
Частота                                  : 44,1 КГц
Частота кадров                           : 43,066 кадра/сек (1024 spf)
Метод сжатия                             : С потерями
Размер потока                            : 45,2 Мбайт (11%)
Default                                  : Да
Alternate group                          : 1
Общее
Полное имя                               : D:\Видеокурсы\Основы программирования CS50\4. CS50 на русском Лекция #4 [Гарвард, Основы программирования, осень 2015 год].mp4
Формат                                   : MPEG-4
Профиль формата                          : Base Media
Идентификатор кодека                     : isom (isom/iso2/avc1/mp41)
Размер файла                             : 528 Мбайт
Продолжительность                        : 53 м. 8 с.
Общий поток                              : 1388 Кбит/сек
Программа кодирования                    : Lavf57.2.100
Видео
Идентификатор                            : 1
Формат                                   : AVC
Формат/Информация                        : Advanced Video Codec
Профиль формата                          : High@L4
Параметр CABAC формата                   : Да
Параметр ReFrames формата                : 3 кадра
Идентификатор кодека                     : avc1
Идентификатор кодека/Информация          : Advanced Video Coding
Продолжительность                        : 53 м. 8 с.
Битрейт                                  : 1256 Кбит/сек
Ширина                                   : 1920 пикселей
Высота                                   : 1080 пикселей
Соотношение сторон                       : 16:9
Режим частоты кадров                     : Переменный
Частота кадров                           : 23,976 (24000/1001) кадра/сек
Минимальная частота кадров               : 23,974 кадра/сек
Максимальная частота кадров              : 23,981 кадра/сек
Цветовое пространство                    : YUV
Субдискретизация насыщенности            : 4:2:0
Битовая глубина                          : 8 бит
Тип развёртки                            : Прогрессивная
Бит/(Пиксели*Кадры)                      : 0.025
Размер потока                            : 477 Мбайт (90%)
Цветовой диапазон                        : Limited
Основные цвета                           : BT.709
Характеристики трансфера                 : BT.709
Коэффициенты матрицы                     : BT.709
Аудио
Идентификатор                            : 2
Формат                                   : AAC
Формат/Информация                        : Advanced Audio Codec
Профиль формата                          : LC
Идентификатор кодека                     : 40
Продолжительность                        : 53 м. 8 с.
Вид битрейта                             : Постоянный
Битрейт                                  : 126 Кбит/сек
Каналы                                   : 2 канала
Расположение каналов                     : Front: L R
Частота                                  : 44,1 КГц
Частота кадров                           : 43,066 кадра/сек (1024 spf)
Метод сжатия                             : С потерями
Размер потока                            : 47,7 Мбайт (9%)
Default                                  : Да
Alternate group                          : 1
Общее
Полное имя                               : D:\Видеокурсы\Основы программирования CS50\5. CS50 на русском Лекция #5 [Гарвард, Основы программирования, осень 2015 год].mp4
Формат                                   : MPEG-4
Профиль формата                          : Base Media
Идентификатор кодека                     : isom (isom/iso2/avc1/mp41)
Размер файла                             : 430 Мбайт
Продолжительность                        : 50 м. 22 с.
Общий поток                              : 1193 Кбит/сек
Программа кодирования                    : Lavf57.2.100
Видео
Идентификатор                            : 1
Формат                                   : AVC
Формат/Информация                        : Advanced Video Codec
Профиль формата                          : High@L4
Параметр CABAC формата                   : Да
Параметр ReFrames формата                : 3 кадра
Идентификатор кодека                     : avc1
Идентификатор кодека/Информация          : Advanced Video Coding
Продолжительность                        : 50 м. 22 с.
Битрейт                                  : 1061 Кбит/сек
Ширина                                   : 1920 пикселей
Высота                                   : 1080 пикселей
Соотношение сторон                       : 16:9
Режим частоты кадров                     : Переменный
Частота кадров                           : 23,976 (24000/1001) кадра/сек
Минимальная частота кадров               : 23,974 кадра/сек
Максимальная частота кадров              : 23,981 кадра/сек
Цветовое пространство                    : YUV
Субдискретизация насыщенности            : 4:2:0
Битовая глубина                          : 8 бит
Тип развёртки                            : Прогрессивная
Бит/(Пиксели*Кадры)                      : 0.021
Размер потока                            : 382 Мбайт (89%)
Цветовой диапазон                        : Limited
Основные цвета                           : BT.709
Характеристики трансфера                 : BT.709
Коэффициенты матрицы                     : BT.709
Аудио
Идентификатор                            : 2
Формат                                   : AAC
Формат/Информация                        : Advanced Audio Codec
Профиль формата                          : LC
Идентификатор кодека                     : 40
Продолжительность                        : 50 м. 22 с.
Вид битрейта                             : Постоянный
Битрейт                                  : 126 Кбит/сек
Каналы                                   : 2 канала
Расположение каналов                     : Front: L R
Частота                                  : 44,1 КГц
Частота кадров                           : 43,066 кадра/сек (1024 spf)
Метод сжатия                             : С потерями
Размер потока                            : 45,3 Мбайт (11%)
Default                                  : Да
Alternate group                          : 1
Общее
Полное имя                               : D:\Видеокурсы\Основы программирования CS50\6. CS50 на русском Лекция #6 [Гарвард, Основы программирования, осень 2015 год].mp4
Формат                                   : MPEG-4
Профиль формата                          : Base Media
Идентификатор кодека                     : isom (isom/iso2/avc1/mp41)
Размер файла                             : 449 Мбайт
Продолжительность                        : 44 м. 34 с.
Общий поток                              : 1408 Кбит/сек
Программа кодирования                    : Lavf57.2.100
Видео
Идентификатор                            : 1
Формат                                   : AVC
Формат/Информация                        : Advanced Video Codec
Профиль формата                          : High@L4
Параметр CABAC формата                   : Да
Параметр ReFrames формата                : 3 кадра
Идентификатор кодека                     : avc1
Идентификатор кодека/Информация          : Advanced Video Coding
Продолжительность                        : 44 м. 34 с.
Битрейт                                  : 1276 Кбит/сек
Ширина                                   : 1920 пикселей
Высота                                   : 1080 пикселей
Соотношение сторон                       : 16:9
Режим частоты кадров                     : Переменный
Частота кадров                           : 23,976 (24000/1001) кадра/сек
Минимальная частота кадров               : 23,974 кадра/сек
Максимальная частота кадров              : 23,981 кадра/сек
Цветовое пространство                    : YUV
Субдискретизация насыщенности            : 4:2:0
Битовая глубина                          : 8 бит
Тип развёртки                            : Прогрессивная
Бит/(Пиксели*Кадры)                      : 0.026
Размер потока                            : 407 Мбайт (91%)
Цветовой диапазон                        : Limited
Основные цвета                           : BT.709
Характеристики трансфера                 : BT.709
Коэффициенты матрицы                     : BT.709
Аудио
Идентификатор                            : 2
Формат                                   : AAC
Формат/Информация                        : Advanced Audio Codec
Профиль формата                          : LC
Идентификатор кодека                     : 40
Продолжительность                        : 44 м. 34 с.
Вид битрейта                             : Постоянный
Битрейт                                  : 126 Кбит/сек
Каналы                                   : 2 канала
Расположение каналов                     : Front: L R
Частота                                  : 44,1 КГц
Частота кадров                           : 43,066 кадра/сек (1024 spf)
Метод сжатия                             : С потерями
Размер потока                            : 40,0 Мбайт (9%)
Default                                  : Да
Alternate group                          : 1
Общее
Полное имя                               : D:\Видеокурсы\Основы программирования CS50\7. CS50 на русском Лекция #7 [Гарвард, Основы программирования, осень 2015 год].mp4
Формат                                   : MPEG-4
Профиль формата                          : Base Media
Идентификатор кодека                     : isom (isom/iso2/avc1/mp41)
Размер файла                             : 564 Мбайт
Продолжительность                        : 47 м. 59 с.
Общий поток                              : 1642 Кбит/сек
Программа кодирования                    : Lavf57.2.100
Видео
Идентификатор                            : 1
Формат                                   : AVC
Формат/Информация                        : Advanced Video Codec
Профиль формата                          : High@L4
Параметр CABAC формата                   : Да
Параметр ReFrames формата                : 3 кадра
Идентификатор кодека                     : avc1
Идентификатор кодека/Информация          : Advanced Video Coding
Продолжительность                        : 47 м. 59 с.
Битрейт                                  : 1510 Кбит/сек
Ширина                                   : 1920 пикселей
Высота                                   : 1080 пикселей
Соотношение сторон                       : 16:9
Режим частоты кадров                     : Переменный
Частота кадров                           : 23,976 (24000/1001) кадра/сек
Минимальная частота кадров               : 23,974 кадра/сек
Максимальная частота кадров              : 23,981 кадра/сек
Цветовое пространство                    : YUV
Субдискретизация насыщенности            : 4:2:0
Битовая глубина                          : 8 бит
Тип развёртки                            : Прогрессивная
Бит/(Пиксели*Кадры)                      : 0.030
Размер потока                            : 519 Мбайт (92%)
Цветовой диапазон                        : Limited
Основные цвета                           : BT.709
Характеристики трансфера                 : BT.709
Коэффициенты матрицы                     : BT.709
Аудио
Идентификатор                            : 2
Формат                                   : AAC
Формат/Информация                        : Advanced Audio Codec
Профиль формата                          : LC
Идентификатор кодека                     : 40
Продолжительность                        : 47 м. 59 с.
Вид битрейта                             : Постоянный
Битрейт                                  : 126 Кбит/сек
Каналы                                   : 2 канала
Расположение каналов                     : Front: L R
Частота                                  : 44,1 КГц
Частота кадров                           : 43,066 кадра/сек (1024 spf)
Метод сжатия                             : С потерями
Размер потока                            : 43,1 Мбайт (8%)
Default                                  : Да
Alternate group                          : 1
Общее
Полное имя                               : D:\Видеокурсы\Основы программирования CS50\8. CS50 на русском Лекция #8 [Гарвард, Основы программирования, осень 2015 год].mp4
Формат                                   : MPEG-4
Профиль формата                          : Base Media
Идентификатор кодека                     : isom (isom/iso2/avc1/mp41)
Размер файла                             : 271 Мбайт
Продолжительность                        : 38 м. 22 с.
Общий поток                              : 988 Кбит/сек
Программа кодирования                    : Lavf57.2.100
Видео
Идентификатор                            : 1
Формат                                   : AVC
Формат/Информация                        : Advanced Video Codec
Профиль формата                          : High@L4
Параметр CABAC формата                   : Да
Параметр ReFrames формата                : 3 кадра
Идентификатор кодека                     : avc1
Идентификатор кодека/Информация          : Advanced Video Coding
Продолжительность                        : 38 м. 22 с.
Битрейт                                  : 856 Кбит/сек
Ширина                                   : 1920 пикселей
Высота                                   : 804 пикселя
Соотношение сторон                       : 2,40:1
Режим частоты кадров                     : Переменный
Частота кадров                           : 23,976 (24000/1001) кадра/сек
Минимальная частота кадров               : 23,974 кадра/сек
Максимальная частота кадров              : 23,981 кадра/сек
Цветовое пространство                    : YUV
Субдискретизация насыщенности            : 4:2:0
Битовая глубина                          : 8 бит
Тип развёртки                            : Прогрессивная
Бит/(Пиксели*Кадры)                      : 0.023
Размер потока                            : 235 Мбайт (87%)
Цветовой диапазон                        : Limited
Основные цвета                           : BT.709
Характеристики трансфера                 : BT.709
Коэффициенты матрицы                     : BT.709
Аудио
Идентификатор                            : 2
Формат                                   : AAC
Формат/Информация                        : Advanced Audio Codec
Профиль формата                          : LC
Идентификатор кодека                     : 40
Продолжительность                        : 38 м. 22 с.
Вид битрейта                             : Постоянный
Битрейт                                  : 126 Кбит/сек
Каналы                                   : 2 канала
Расположение каналов                     : Front: L R
Частота                                  : 44,1 КГц
Частота кадров                           : 43,066 кадра/сек (1024 spf)
Метод сжатия                             : С потерями
Размер потока                            : 34,5 Мбайт (13%)
Default                                  : Да
Alternate group                          : 1
Общее
Полное имя                               : D:\Видеокурсы\Основы программирования CS50\9. CS50 на русском Лекция #9 [Гарвард, Основы программирования, осень 2015 год].mp4
Формат                                   : MPEG-4
Профиль формата                          : Base Media
Идентификатор кодека                     : isom (isom/iso2/avc1/mp41)
Размер файла                             : 475 Мбайт
Продолжительность                        : 49 м. 54 с.
Общий поток                              : 1332 Кбит/сек
Программа кодирования                    : Lavf57.2.100
Видео
Идентификатор                            : 1
Формат                                   : AVC
Формат/Информация                        : Advanced Video Codec
Профиль формата                          : High@L4
Параметр CABAC формата                   : Да
Параметр ReFrames формата                : 3 кадра
Идентификатор кодека                     : avc1
Идентификатор кодека/Информация          : Advanced Video Coding
Продолжительность                        : 49 м. 54 с.
Битрейт                                  : 1200 Кбит/сек
Ширина                                   : 1920 пикселей
Высота                                   : 1080 пикселей
Соотношение сторон                       : 16:9
Режим частоты кадров                     : Переменный
Частота кадров                           : 23,976 (24000/1001) кадра/сек
Минимальная частота кадров               : 23,974 кадра/сек
Максимальная частота кадров              : 23,981 кадра/сек
Цветовое пространство                    : YUV
Субдискретизация насыщенности            : 4:2:0
Битовая глубина                          : 8 бит
Тип развёртки                            : Прогрессивная
Бит/(Пиксели*Кадры)                      : 0.024
Размер потока                            : 428 Мбайт (90%)
Цветовой диапазон                        : Limited
Основные цвета                           : BT.709
Характеристики трансфера                 : BT.709
Коэффициенты матрицы                     : BT.709
Аудио
Идентификатор                            : 2
Формат                                   : AAC
Формат/Информация                        : Advanced Audio Codec
Профиль формата                          : LC
Идентификатор кодека                     : 40
Продолжительность                        : 49 м. 54 с.
Вид битрейта                             : Постоянный
Битрейт                                  : 126 Кбит/сек
Каналы                                   : 2 канала
Расположение каналов                     : Front: L R
Частота                                  : 44,1 КГц
Частота кадров                           : 43,066 кадра/сек (1024 spf)
Метод сжатия                             : С потерями
Размер потока                            : 44,8 Мбайт (9%)
Default                                  : Да
Alternate group                          : 1
Общее
Полное имя                               : D:\Видеокурсы\Основы программирования CS50\Доп. материалы\Как нужно намазывать бутерброд.mp4
Формат                                   : MPEG-4
Профиль формата                          : Base Media / Version 2
Идентификатор кодека                     : mp42 (isom/mp42)
Размер файла                             : 61,6 Мбайт
Продолжительность                        : 9 м. 7 с.
Режим общего битрейта                    : Переменный
Общий поток                              : 943 Кбит/сек
Дата кодирования                         : UTC 2016-08-02 11:11:40
Дата пометки                             : UTC 2016-08-02 11:11:40
gsst                                     : 0
gstd                                     : 547921
Видео
Идентификатор                            : 1
Формат                                   : AVC
Формат/Информация                        : Advanced Video Codec
Профиль формата                          : [url=mailto:Main@L3.1]Main@L3.1[/url]
Параметр CABAC формата                   : Да
Параметр ReFrames формата                : 3 кадра
Идентификатор кодека                     : avc1
Идентификатор кодека/Информация          : Advanced Video Coding
Продолжительность                        : 9 м. 7 с.
Битрейт                                  : 813 Кбит/сек
Ширина                                   : 1280 пикселей
Высота                                   : 720 пикселей
Соотношение сторон                       : 16:9
Режим частоты кадров                     : Переменный
Частота кадров                           : 23,976 (24000/1001) кадра/сек
Минимальная частота кадров               : 23,974 кадра/сек
Максимальная частота кадров              : 23,981 кадра/сек
Цветовое пространство                    : YUV
Субдискретизация насыщенности            : 4:2:0
Битовая глубина                          : 8 бит
Тип развёртки                            : Прогрессивная
Бит/(Пиксели*Кадры)                      : 0.037
Размер потока                            : 53,1 Мбайт (86%)
Заголовок                                : ISO Media file produced by Google Inc.
Дата кодирования                         : UTC 2016-08-02 11:11:40
Дата пометки                             : UTC 2016-08-02 11:11:40
Цветовой диапазон                        : Limited
Основные цвета                           : BT.709
Характеристики трансфера                 : BT.709
Коэффициенты матрицы                     : BT.709
Аудио
Идентификатор                            : 2
Формат                                   : AAC
Формат/Информация                        : Advanced Audio Codec
Профиль формата                          : LC
Идентификатор кодека                     : 40
Продолжительность                        : 9 м. 7 с.
Вид битрейта                             : Переменный
Битрейт                                  : 126 Кбит/сек
Каналы                                   : 2 канала
Расположение каналов                     : Front: L R
Частота                                  : 44,1 КГц
Частота кадров                           : 43,066 кадра/сек (1024 spf)
Метод сжатия                             : С потерями
Размер потока                            : 8,20 Мбайт (13%)
Заголовок                                : ISO Media file produced by Google Inc.
Дата кодирования                         : UTC 2016-08-02 11:11:40
Дата пометки                             : UTC 2016-08-02 11:11:40
Общее
Полное имя                               : D:\Видеокурсы\Основы программирования CS50\Доп. материалы\Программные баги как причина мировых катастроф.mp4
Формат                                   : MPEG-4
Профиль формата                          : Base Media / Version 2
Идентификатор кодека                     : mp42 (isom/mp42)
Размер файла                             : 50,1 Мбайт
Продолжительность                        : 8 м. 20 с.
Режим общего битрейта                    : Переменный
Общий поток                              : 840 Кбит/сек
Дата кодирования                         : UTC 2016-08-25 03:46:55
Дата пометки                             : UTC 2016-08-25 03:46:55
gsst                                     : 0
gstd                                     : 500227
Видео
Идентификатор                            : 1
Формат                                   : AVC
Формат/Информация                        : Advanced Video Codec
Профиль формата                          : [url=mailto:Main@L3.1]Main@L3.1[/url]
Параметр CABAC формата                   : Да
Параметр ReFrames формата                : 3 кадра
Идентификатор кодека                     : avc1
Идентификатор кодека/Информация          : Advanced Video Coding
Продолжительность                        : 8 м. 20 с.
Битрейт                                  : 710 Кбит/сек
Ширина                                   : 1280 пикселей
Высота                                   : 720 пикселей
Соотношение сторон                       : 16:9
Режим частоты кадров                     : Переменный
Частота кадров                           : 23,976 (24000/1001) кадра/сек
Минимальная частота кадров               : 23,974 кадра/сек
Максимальная частота кадров              : 23,981 кадра/сек
Цветовое пространство                    : YUV
Субдискретизация насыщенности            : 4:2:0
Битовая глубина                          : 8 бит
Тип развёртки                            : Прогрессивная
Бит/(Пиксели*Кадры)                      : 0.032
Размер потока                            : 42,3 Мбайт (85%)
Заголовок                                : ISO Media file produced by Google Inc.
Дата кодирования                         : UTC 2016-08-25 03:46:55
Дата пометки                             : UTC 2016-08-25 03:46:55
Цветовой диапазон                        : Limited
Основные цвета                           : BT.709
Характеристики трансфера                 : BT.709
Коэффициенты матрицы                     : BT.709
Аудио
Идентификатор                            : 2
Формат                                   : AAC
Формат/Информация                        : Advanced Audio Codec
Профиль формата                          : LC
Идентификатор кодека                     : 40
Продолжительность                        : 8 м. 20 с.
Вид битрейта                             : Переменный
Битрейт                                  : 126 Кбит/сек
Каналы                                   : 2 канала
Расположение каналов                     : Front: L R
Частота                                  : 44,1 КГц
Частота кадров                           : 43,066 кадра/сек (1024 spf)
Метод сжатия                             : С потерями
Размер потока                            : 7,49 Мбайт (15%)
Заголовок                                : ISO Media file produced by Google Inc.
Дата кодирования                         : UTC 2016-08-25 03:46:55
Дата пометки                             : UTC 2016-08-25 03:46:55

Чем интересен CS50:

- Курс очень прогрессивный, не стоит на месте. Он обновляется из года в год. При этом в отличие от большинства подобных курсов (например, MIT 6.00X) от слушателя не требуются знания университетской математики, достаточно школьного уровня. Так что этот курс слушают не только студенты младших курсов технических специальностей, но и гуманитарии, желающие расширить кругозор или сменить специализацию.
- Ведет курс профессор Гарвардского университета Дэвид Малан. От словосочетания «профессор Гарварда» кто-то готов пасть ниц, а кто-то начинает бороться с зевотой. Спешим заверить обе категории потенциальных слушателей: вам не о чем беспокоиться. Дэвид Малан — блестящий лектор, он без труда удерживает внимание нескольких сотен студентов в аудитории и тысяч вольнослушателей из интернета. Его лекции — это практически театральное действо, в котором он задействует своих помощников, студентов и, конечно же, технологии и разработки.
- В курсе очень много практических заданий, причем это не «сферические кони в вакууме», а вполне реальные задачи из разных сфер науки, начиная от разработки игр до криптографии и биологии. Это очень повышает ценность курса, особенно для русскоязычных студентов, привыкших к чрезмерно теоретизированному обучению.

Что изучают на CS50:

- Основы компьютерных наук и программирования. Системы счисления, работа с командной строкой в Linux, циклы, условные переходы и прочие радости.
- Концепции алгоритмов и алгоритмичности мышления. Вы узнаете о том, какие задачи можно решать с помощью программирования и каким образом. О бинарном поиске, простом по сути, но очень эффективном и требующем тщательности в реализации, Дэвид Малан расскажет сходу, прямо на нулевой лекции. И попробуйте потом забыть сцену с разрывом телефонного справочника, а вместе с ней — и полученные знания! Вообще, курс охватывает все основные алгоритмы, которые нужно знать и понимать «айтишникам».
- Концепции абстракции, структуры данных, инкапсуляции, управления памятью. Основы компьютерной безопасности. Процесс разработки ПО и веб-разработка.
- Основы языка программирования C и визуального языка Scratch. Собственно, все основные примеры и задания студенты делают на языке C.
- Основы баз данных и SQL.
- Веб-разработка: основы CSS, HTML, JavaScript и PHP. Естественно, только самые азы.
- Основы подготовки презентации проектов по программированию.

Интересные факты о CS50:

- Курс CS50 появился в Гарварде в 80е годы прошлого столетия.
- В 2014 году Йельский университет решил отказаться от собственного курса по основам компьютерных наук в пользу CS50. В осеннем семестре 2015 года Дэвид Малан на каждой неделе проводил одну лекцию в аудитории Гарварда, вторую — в аудитории Йельского университета.
- Да, CS50 сразу же стал самым популярным курсом Йеля: в осеннем семестре 2015 года на него записалось 510 студентов, больше, чем на любой другой курс любой специальности.
- В Гарварде в 2012 году CS50 был вторым по популярности с 691 зарегистрированным студентом, однако в этом же году курс стартовал на образовательной платформе edX, что расширило его аудиторию еще на 53 000 слушателей со всего мира.
- Осенью 2014 года CS50 выбился в лидеры в родном Гарварде с 818 записавшимися студентами. Это 12% всех учащихся колледжа.
- Однажды лекцию CS50 вёл экс-CEO Microsoft Стив Балмер. В своем неповторимом и запоминающемся стиле.
- В 2005 году Марк Цукерберг вел одну из лекций CS50 в качестве приглашенного гостя. Его пришло послушать… 15 человек.
- Курс выбирают не только профильные студенты, но и те, кто хотят расширить кругозор, узнать что-то о компьютерах. Порой это кардинально меняет жизнь этих «непрофильных» студентов. Например, выпускница факультета истории и литературы Сьюзен Войчицки (Susan Wojcicki) прослушала CS50 на последнем курсе. А затем переехала в Кремниевую Долину. Сегодня она — исполнительный директор YouTube.

Дополнительные материалы:

В раздаче имеются дополнительные видеоматериалы к курсу:
1. Как нужно намазывать бутерброд
2. Программные баги как причина мировых катастроф

Текстовые версии заданий:

Текстовые версии заданий на русском языке и на английском.

Дополнительная информация:

Переведено и озвучено студией VertDider совместно с JavaRush.

История обновлений:

16 Окт 2016: Добавлена 11 лекция.
27 Окт 2016: Добавлена 12 лекция.
08 Ноя 2016: Добавлена 13 лекция.
30 Ноя 2016: Добавлена 14 лекция.
10 Дек 2016: Добавлена 15 лекция.
14 Янв 2017: Добавлена 16 лекция.
26 Янв 2017: Добавлена 17 лекция.
13 Фев 2017: Добавлена 18 лекция. В теме, в дополнительных материалах добавлены источники на текстовые версии заданий.
25 Фев 2017: Добавлена 19 лекция.
18 Март 2017: Добавлена 20 лекция.
25 Март 2017: Добавлена 21 лекция.
10 Апр 2017: Добавлена 22 лекция.

Внимание! Раздача ведётся путём добавления новых серий:

Внимание! Раздача ведётся путём добавления новых серий; при каждом добавлении создаётся новый торрент.
Чтобы начать докачку новой серии, пользователям необходимо сделать следующее:
1. Остановить скачивание;
2. Удалить старый торрент у себя из клиента (старые серии удалять не надо);
3. Скачать новый торрент и запустить его у себя в клиенте вместо старого, при этом указать клиенту путь в старую папку куда и должно происходить скачивание новых серий. Ваш клиент при этом должен произвести хеширование (проверку) старой папки и будет докачивать только те серии, которых у вас ещё нет. Старые серии при этом не удаляются, а продолжают раздаваться! Eсли вы уже удалили старые серии, то предотвратить повторную закачку старых серий можно, отжав галочку в соответствующих местах при запуске нового торрента.
Скриншоты:
       

Дополнительные скриншоты:

       

}{@R0N

Пост 11-Апр-2017 07:35

[Цитировать]

Школа плотников Тайга
Обучение норвежской и канадской рубке срубов
- Автор (режиссер): школа плотников Тайга
Жанр: строительство
Описание:
Хотите построить хороший деревянный дом, научиться плотницкому мастерству, стать хорошим архитектором (с греческого — главный плотник) — архив школы плотников "Тайга" — это для вас. Все лучшее, собранное за 10 лет работы (видеокурсы, стандарты, проекты, пособия) о канадской и норвежской рубке. Плюс видеолекции от "Тайги".
Внимание всем плотникам, архитекторам и заказчикам деревянных домов. Архив школы плотников "Тайга", собранный за 10 лет работы. Видеокурсы, пособия, проекты, стандарты. Как наши, так и переведенные с норвежского и английского. В основном норвежская и канадская рубка.
Продолжительность: 26:23:32
Качество видео: DVD5
Язык: русский
Видео: MPEG-2, 720Х576, ~4248 Кбит/сек
Аудио: MP2, 2 ch, 192 Кбит/сек,2 канала, 48,0 КГц

Mediainfo:

Общее
Полное имя : \Тайга\1\архитектор\VTS_01_1.mpeg
Формат : MPEG-PS
Размер файла : 834 Мбайт
Продолжительность : 27 м. 25 с.
Режим общего битрейта : Переменный
Общий поток : 4248 Кбит/сек
Видео
Идентификатор : 224 (0xE0)
Формат : MPEG Video
Версия формата : Version 2
Профиль формата : Main@High
Параметр BVOP формата : Нет
Параметр матрицы формата : Выборочная
Параметр GOP формата : N=15
Продолжительность : 27 м. 25 с.
Вид битрейта : Переменный
Битрейт : 3972 Кбит/сек
Максимальный битрейт : 8000 Кбит/сек
Ширина : 720 пикселей
Высота : 576 пикселей
Соотношение сторон : 4:3
Частота кадров : 25,000 кадров/сек
Стандарт вещания : PAL
Цветовое пространство : YUV
Субдискретизация насыщенности : 4:2:0
Битовая глубина : 8 бит
Тип развёртки : Прогрессивная
Метод сжатия : С потерями
Бит/(Пиксели*Кадры) : 0.383
Временной код первого кадра : 00:00:00:00
Оригинал временного кода : Group of pictures header
GOP, открыто/закрыто : Открыто
GOP, открыто/закрыто на первом кадре : Закрыто
Размер потока : 779 Мбайт (93%)
Аудио
Идентификатор : 192 (0xC0)
Формат : MPEG Audio
Версия формата : Version 1
Профиль формата : Layer 2
Продолжительность : 27 м. 25 с.
Вид битрейта : Постоянный
Битрейт : 192 Кбит/сек
Каналы : 2 канала
Частота : 48,0 КГц
Метод сжатия : С потерями
Задержка видео : -10 мс.
Размер потока : 37,7 Мбайт (5%)

Дополнительная информация:

Для справки. Компания "Тайга" с 2006 по 2015 годы рубленые дома в России, Норвегии, Чехии. И всегда по международным стандартам. В школе плотников за это же время прошло обучение около 1 500 человек от Сахалина до Мурманска. Также из Голландии, Чехии, Франции и Греции.
Скриншоты:
       

}{@R0N

Пост 09-Апр-2017 22:14

[Цитировать]

Путешествие в Стамбул - Автор (режиссер): top3travel
Жанр: Путешествие,видеогид
Описание:
Стамбул не похож ни на какой другой город в мире, поэтому здесь нужно побывать каждому.
А отсутствие виз и дешёвые перелёты делают его доступным для каждого!
Стамбул – город с богатейшей историей. Византий, Константинополь, Царьград – всё это Стамбул.
Город находится на границе Европы и Азии. Поэтому здесь уникальная атмосфера – по-европейски аккуратный город с азиатским колоритом.

Содержание:

-Авиабилеты в Стамбул. Как сэкономить на перелёте в Стамбул, а также карта городов,
откуда летают прямые рейсы вСтамбул. (всего 26 таких городов в России, Украине, Беларуси и Казахстане).
-Страховки в Стамбул. Несколько нюансов, как грамотно оформить страховку.
-Транспорт Стамбула. Как разобраться с транспортной системой Стамбула, как купить жетоны для проезда в автомате, как добраться из аэропортов до центра города.
-Питание. Особенности турецкой национальной кухни – что стоит попробовать. Список лучших ресторанов, рекомендованных самими жителями Стамбула. Восточные сладости в Стамбуле. Что попробовать и где купить.
И многое другое...
Продолжительность: 01:46:14
Качество видео: PCRec
Видео: AVC/H.264, 1280x720, ~716 kb/s
Аудио: AAC, 1 ch, 96 kb/s

Mediainfo:

Format                                   : Matroska
Format version : Version 4 / Version 2
File size : 61.8 MiB
Duration : 12 min 4 s
Overall bit rate : 716 kb/s
Writing application : IDMmkvlib0.1
Writing library : IDMmkvlib0.1
HANDLER_NAME : AudioHandler
Language : und
Video
ID : 1
Format : VP9
Codec ID : V_VP9
Duration : 12 min 4 s
Width : 1 280 pixels
Height : 720 pixels
Display aspect ratio : 16:9
Frame rate mode : Constant
Frame rate : 30.068 FPS
Default : Yes
Forced : No
Audio
ID : 2
Format : AAC
Format/Info : Advanced Audio Codec
Format profile : LC
Codec ID : A_AAC
Duration : 12 min 4 s
Channel(s) : 1 channel
Channel positions : Front: C
Sampling rate : 44.1 kHz
Frame rate : 43.066 FPS (1024 spf)
Compression mode : Lossy
Default : Yes
Forced : No
Скриншоты:
       

}{@R0N

Пост 08-Апр-2017 20:50

[Цитировать]

Самостоятельное путешествие в Рим - Автор (режиссер): top3travel
Жанр: Путешествие,видеогид
Описание:
Ведущая: Юлия Сафутдинова
РИМ – ГОРОД С БОГАТЕЙШЕЙ ИСТОРИЕЙ.
В этом городе буквально каждый дом – это уже достопримечательность.
По Риму можно месяцами ходить и всё не посмотреть.Поэтому мы и создали этот видеогид, чтобы Вы смогли спланировать незабываемое путешествие в этот прекрасный город, посмотреть всё самое основное, не потеряв при этом время и деньги на мелочах.

СОДЕРЖАНИЕ ВИДЕОГИДА:

1. Общая информация
Когда лучше ехать в Рим.
Как оформить визу в Италию.
Средние расходы в Риме.
Прочая полезная информация.
2. Как добраться из аэропортов
Как добраться из аэропорта Фьюмичино и обратно.
Как добраться из Чампино и обратно.
3. Питание
Бонус! Гастрономическое путешествие по Италии.
Виды ресторанов Италии.
Адреса рекомендуемых ресторанов Рима, как дорогих, так и бюджетных.
Карта ночных клубов Рима.
4. Транспорт
Городской транспорт Рима – как разобраться и сэкономить на билетах.
Другие виды транспорта и аренда велосипедов.
5. Проживание
Какой район Рима выбрать для проживания – плюсы и минусы каждого.
Список рекомендуемых бюджетных отелей.
Как арендовать квартиру и комнату намного дешевле минимальной цены за отель.
6. Достопримечательности
20 основных достопримечательностей Рима, которые нельзя пропустить.
Как добраться до каждого.
Интерактивная карта всех объектов.
По каждому объекту советы, как сэкономить на входных билетах и минимизировать время простоя в очереди.
Что можно посмотреть и сделать в Риме бесплатно.
7. Шоппинг
Даты распродаж.
Самые крупные аутлеты, торговые улицы, рынки, блошиные рынки.
Подарки и сувениры.
Продолжительность: 03:05:34
Качество видео: PCRec
Видео: AVC/H.264, 1280x720, ~307 kb/s
Аудио: AAC, 2 ch, 125kbps

Mediainfo:

Format                                   : Matroska
Format version : Version 4 / Version 2
File size : 22.1 MiB
Duration : 10 min 4 s
Overall bit rate : 307 kb/s
Writing application : IDMmkvlib0.1
Writing library : IDMmkvlib0.1
HANDLER_NAME : AudioHandler
Language : und
Video
ID : 1
Format : VP9
Codec ID : V_VP9
Duration : 10 min 4 s
Width : 1 280 pixels
Height : 720 pixels
Display aspect ratio : 16:9
Frame rate mode : Constant
Frame rate : 15.000 FPS
Default : Yes
Forced : No
Audio
ID : 2
Format : Opus
Codec ID : A_OPUS
Duration : 10 min 4 s
Channel(s) : 2 channels
Channel positions : Front: L R
Sampling rate : 48.0 kHz
Bit depth : bit0
Compression mode : Lossy
Default : Yes
Forced : No
Скриншоты:
       

}{@R0N

Пост 08-Апр-2017 20:49

[Цитировать]

Самостоятельное путешествие в Барселону - Автор (режиссер): top3travel
Жанр: Путешествие,видеогид
Описание:
ПОЧЕМУ БАРСЕЛОНА – ОДИН ИЗ САМЫХ ПОПУЛЯРНЫХ ГОРОДОВ среди самостоятельных путешественников?
1) Это город с многовековой историей. Старинные соборы, узкие средневековые улочки, красивые площади.
2) Также в Барселоне работал величайший архитектор Антонио Гауди, которому не было и нет равных во всём мире. Смотря на его здания, ощущаешь себя как в сказке.
3) Рядом с Барселоной один из самых известных парков развлечений в Европе – Порт Авентура
4) Испанская кухня никого не оставит равнодушным!Многие вкуснейшие блюда можно попробовать только там.
5) Барселона обладает своей уникальной атмосферой,которая притягивает художников, музыкантов и прочих творческих людей со всего мира
Автор видеогида –Максим Шаинский – опытный путешественник, который объездил более 70 стран.
Автор многих видеогидов, путеводителей и телепередач про путешествия.
Барселона – это его самый любимый город в Европе.
Он бывает там каждый год на протяжении
последних 15 лет.
О некоторых местах и советах, которые он привёл в видеогиде, не написано ни в одном путеводителе!
Продолжительность: 03:22:11
Качество видео: PCRec
Видео: AVC/H.264, 1920x1080, ~307 kb/s
Аудио: AAC, 2 ch, 125kbps

Mediainfo:

Format                                   : Matroska
Format version : Version 4 / Version 2
File size : 203 MiB
Duration : 40 min 39 s
Overall bit rate : 698 kb/s
Writing application : IDMmkvlib0.1
Writing library : IDMmkvlib0.1
HANDLER_NAME : AudioHandler
Language : und
Video
ID : 1
Format : VP9
Codec ID : V_VP9
Duration : 40 min 39 s
Width : 1 920 pixels
Height : 1 080 pixels
Display aspect ratio : 16:9
Frame rate mode : Constant
Frame rate : 30.068 FPS
Default : Yes
Forced : No
Audio
ID : 2
Format : AAC
Format/Info : Advanced Audio Codec
Format profile : LC
Codec ID : A_AAC
Duration : 40 min 39 s
Channel(s) : 2 channels
Channel positions : Front: L R
Sampling rate : 44.1 kHz
Frame rate : 43.066 FPS (1024 spf)
Compression mode : Lossy
Default : Yes
Forced : No
Скриншоты:
       

}{@R0N

Пост 08-Апр-2017 20:49

[Цитировать]

Самостоятельное путешествие в Париж - Автор (режиссер): top3travel
Жанр: Путешествие,видеогид
Описание:
Спикер - Юлия Сафутдинова
1) Общая информация
2) Авиабилеты
3) Как добраться из аэропортов
4) Проживание
5) Достопримечательности
6) Транспорт
7) Питание
8) Шоппинг в Париже

Содержание

Продолжительность: 04:15:27
Качество видео: PCRec
Видео: AVC/H.264, 1280x720, ~307kbps
Аудио: AC3, 2 ch, 192kbps

Mediainfo:

Format                                   : MPEG-4
Format profile : Base Media / Version 2
Codec ID : mp42 (isom/mp42)
File size : 37.1 MiB
Duration : 10 min 20 s
Overall bit rate mode : Variable
Overall bit rate : 501 kb/s
Encoded date : UTC 2014-06-29 09:29:23
Tagged date : UTC 2014-06-29 09:29:23
gsst : 0
gstd : 620923
gssd : B6DC2B946MM1421575820738648
gshh : r3---sn-xguxaxjvh-31oe.googlevideo.com
Video
ID : 1
Format : AVC
Format/Info : Advanced Video Codec
Format profile : [url=mailto:High@L3.1]High@L3.1[/url]
Format settings, CABAC : Yes
Format settings, ReFrames : 1 frame
Codec ID : avc1
Codec ID/Info : Advanced Video Coding
Duration : 10 min 20 s
Bit rate : 307 kb/s
Maximum bit rate : 3 475 kb/s
Width : 1 280 pixels
Height : 720 pixels
Display aspect ratio : 16:9
Frame rate mode : Constant
Frame rate : 15.000 FPS
Color space : YUV
Chroma subsampling : 4:2:0
Bit depth : 8 bits
Scan type : Progressive
Bits/(Pixel*Frame) : 0.022
Stream size : 22.8 MiB (61%)
Tagged date : UTC 2014-06-29 09:29:25
Audio
ID : 2
Format : AAC
Format/Info : Advanced Audio Codec
Format profile : LC
Codec ID : 40
Duration : 10 min 20 s
Bit rate mode : Variable
Bit rate : 192 kb/s
Maximum bit rate : 201 kb/s
Channel(s) : 2 channels
Channel positions : Front: L R
Sampling rate : 44.1 kHz
Frame rate : 43.066 FPS (1024 spf)
Compression mode : Lossy
Stream size : 14.2 MiB (38%)
Title : IsoMedia File Produced by Google, 5-11-2011
Encoded date : UTC 2014-06-29 09:29:24
Tagged date : UTC 2014-06-29 09:29:25
Скриншоты:
       

}{@R0N

Пост 08-Апр-2017 20:48

[Цитировать]

Самостоятельное путешествие в Италию - Автор (режиссер): top3travel
Жанр: Путешествие,видеогид
Описание:
Автор видеогида – Максим Шаинский – опытный путешественник, который объездил более 70 стран.
Автор многих видеогидов, путеводителей и телепередач про путешествия.
Последние 6 лет постоянно проживает в Юго-Восточной Азии.
Эксперт по Юго-Восточной Азии, объездил каждый уголок этого региона.
О некоторых местах и советах, которые он привёл в видеогиде, не написано ни в одном путеводителе!
Содержание курса:
1) Общая информация
2) Как добраться до Италии и доехать из аэропортов.
3) Как перемещаться по Италии
4) Гастрономический путеводитель по Италии
5) Маршруты по Италии
Продолжительность: 03:45:16
Качество видео: PCRec
Видео: AVC/H.264, 1920x1080, ~589kbps
Аудио: AAC, 2 ch, 125kbps

Mediainfo:

Format                                   : Matroska
Format version : Version 4 / Version 2
File size : 348 MiB
Duration : 1 h 6 min
Overall bit rate : 730 kb/s
Writing application : IDMmkvlib0.1
Writing library : IDMmkvlib0.1
HANDLER_NAME : AudioHandler
Language : und
Video
ID : 1
Format : VP9
Codec ID : V_VP9
Duration : 1 h 6 min
Width : 1 920 pixels
Height : 1 080 pixels
Display aspect ratio : 16:9
Frame rate mode : Constant
Frame rate : 30.068 FPS
Default : Yes
Forced : No
Audio
ID : 2
Format : AAC
Format/Info : Advanced Audio Codec
Format profile : LC
Codec ID : A_AAC
Duration : 1 h 6 min
Channel(s) : 2 channels
Channel positions : Front: L R
Sampling rate : 44.1 kHz
Frame rate : 43.066 FPS (1024 spf)
Compression mode : Lossy
Default : Yes
Forced : No
Скриншоты:
       

}{@R0N

Пост 07-Апр-2017 11:26

[Цитировать]

Самостоятельное путешествие на Бали - Автор (режиссер): top3travel
Жанр: Путешествие,видеогид
Описание:
Автор видеогида – Максим Шаинский – опытный путешественник, который объездил более 70 стран.
Автор многих видеогидов, путеводителей и телепередач про путешествия.
Последние 10 лет постоянно проживает в Юго-Восточной Азии.
Остров Бали – его любимое место.
Он бывает там каждый год по нескольку раз и изучил каждый уголок острова.
Это эксперт, который точно может сказать, что стоит, а что не стоит посетить и попробовать на Бали.
О некоторых местах и советах, которые он привёл в видеогиде, не написано ни в одном путеводителе!
Продолжительность: 06:22:15
Качество видео: PCRec
Видео: VP9, 1280x720, ~524
Аудио: AAC, 2 ch, 3072

Mediainfo:

Format                                   : Matroska
Format version : Version 4 / Version 2
File size : 70.1 MiB
Duration : 18 min 42 s
Overall bit rate : 524 kb/s
Writing application : IDMmkvlib0.1
Writing library : IDMmkvlib0.1
HANDLER_NAME : AudioHandler
Language : und
Video
ID : 1
Format : VP9
Codec ID : V_VP9
Duration : 18 min 42 s
Width : 1 280 pixels
Height : 720 pixels
Display aspect ratio : 16:9
Frame rate mode : Constant
Frame rate : 30.068 FPS
Default : Yes
Forced : No
Audio
ID : 2
Format : Opus
Codec ID : A_OPUS
Duration : 18 min 42 s
Channel(s) : 2 channels
Channel positions : Front: L R
Sampling rate : 48.0 kHz
Bit depth : bit0
Compression mode : Lossy
Default : Yes
Forced : No
Скриншоты:
       

}{@R0N

Пост 07-Апр-2017 11:26

[Цитировать]

Самостоятельное путешествие в Малайзию и Сингапур - Автор (режиссер): top3travel
Жанр: Путешествие,видеогид
Описание:
Автор видеогида –Максим Шаинский – опытный путешественник, который объездил более 70 стран.
Автор многих видеогидов, путеводителей и телепередач про путешествия.
Последние 6 лет постоянно проживает в Юго-Восточной Азии.
Эксперт по Юго-Восточной Азии, объездил каждый уголок этого региона.
О некоторых местах и советах, которые он привёл в видеогиде, не написано ни в одном путеводителе!
Продолжительность: 05:27:31
Качество видео: PCRec
Видео: AVC/H.264, 1280x720, ~744kbps
Аудио: AAC, 2 ch, 191kbps

Mediainfo:

Format                                   : MPEG-4
Format profile : Base Media / Version 2
Codec ID : mp42 (isom/mp42)
File size : 390 MiB
Duration : 58 min 1 s
Overall bit rate mode : Variable
Overall bit rate : 939 kb/s
Encoded date : UTC 2014-11-21 20:02:56
Tagged date : UTC 2014-11-21 20:02:56
gsst : 0
gstd : 3481946
gssd : B6DC2B946MM1421589553443106
gshh : r3---sn-xguxaxjvh-31oe.googlevideo.com
Video
ID : 1
Format : AVC
Format/Info : Advanced Video Codec
Format profile : [url=mailto:High@L3.1]High@L3.1[/url]
Format settings, CABAC : Yes
Format settings, ReFrames : 1 frame
Format settings, GOP : M=1, N=60
Codec ID : avc1
Codec ID/Info : Advanced Video Coding
Duration : 58 min 1 s
Bit rate : 745 kb/s
Maximum bit rate : 4 505 kb/s
Width : 1 280 pixels
Height : 720 pixels
Display aspect ratio : 16:9
Frame rate mode : Constant
Frame rate : 30.000 FPS
Color space : YUV
Chroma subsampling : 4:2:0
Bit depth : 8 bits
Scan type : Progressive
Bits/(Pixel*Frame) : 0.027
Stream size : 309 MiB (79%)
Tagged date : UTC 2014-11-21 20:03:36
Audio
ID : 2
Format : AAC
Format/Info : Advanced Audio Codec
Format profile : LC
Codec ID : 40
Duration : 58 min 1 s
Bit rate mode : Variable
Bit rate : 192 kb/s
Maximum bit rate : 201 kb/s
Channel(s) : 2 channels
Channel positions : Front: L R
Sampling rate : 44.1 kHz
Frame rate : 43.066 FPS (1024 spf)
Compression mode : Lossy
Stream size : 79.7 MiB (20%)
Title : IsoMedia File Produced by Google, 5-11-2011
Encoded date : UTC 2014-11-21 20:03:17
Tagged date : UTC 2014-11-21 20:03:36
Скриншоты:
       
 

Текущее время: Сегодня 03:31

Часовой пояс: GMT + 3