Сегодня идет свободное скачивание без начисления Download

Результатов поиска: 500

Автор Сообщение

}{@R0N

Пост Вчера 19:30

[Цитировать]

Transact SQL - Автор (режиссер): ITVDN
Производство: ITVDN
Жанр: Программирование
Описание:
Курс Transact SQL состоит из 14-ти уроков, на которых учащиеся знакомятся со стандартом SQL в реализации компании Microsoft – языком Transact-SQL – ключом к использованию MS SQL Server. Впрочем, в других реализациях реляционных баз данных (Oracle, MySQL, Firebird) различия будут незначительными. Курс охватывает достаточный минимум знаний, необходимых при работе с базами данных как аналитику данных, так и разработчику программного обеспечения. После прохождения курса, Вы будете понимать принципы проектирования БД, уметь составлять корректные выборки используя различные возможности языка T-SQL.
Продолжительность: 10:49:19
Качество видео: PCRec
Видео: AVC/H.264, 1280x720, ~236 Kbps
Аудио: AAC, 2 ch, 256 Kbps

Mediainfo:

Общее
Полное имя : Урок 1. Знакомство с SQL.MP4
Формат : MPEG-4
Профиль формата : Base Media / Version 2
Идентификатор кодека : mp42 (mp42/mp41/isom/avc1)
Размер файла : 184 Мбайт
Продолжительность : 51 м. 55 с.
Режим общего битрейта : Переменный
Общий поток : 496 Кбит/сек
Дата кодирования : UTC 2017-02-02 11:11:58
Дата пометки : UTC 2017-02-02 11:11:58
Видео
Идентификатор : 1
Формат : AVC
Формат/Информация : Advanced Video Codec
Профиль формата : [url=mailto:High@L3.2]High@L3.2[/url]
Параметр CABAC формата : Да
Параметр ReFrames формата : 5 кадров
Идентификатор кодека : avc1
Идентификатор кодека/Информация : Advanced Video Coding
Продолжительность : 51 м. 55 с.
Битрейт : 236 Кбит/сек
Ширина : 1280 пикселей
Высота : 720 пикселей
Соотношение сторон : 16:9
Режим частоты кадров : Постоянный
Частота кадров : 30,000 кадров/сек
Цветовое пространство : YUV
Субдискретизация насыщенности : 4:2:0
Битовая глубина : 8 бит
Тип развёртки : Прогрессивная
Бит/(Пиксели*Кадры) : 0.009
Размер потока : 87,5 Мбайт (47%)
Библиотека кодирования : x264 core 148 r10 b97ae06
Настройки программы : cabac=1 / ref=5 / deblock=1:0:0 / analyse=0x3:0x113 / me=hex / subme=8 / psy=1 / psy_rd=1.00:0.00 / mixed_ref=1 / me_range=16 / chroma_me=1 / trellis=2 / 8x8dct=1 / cqm=0 / deadzone=21,11 / fast_pskip=1 / chroma_qp_offset=-2 / threads=22 / lookahead_threads=3 / sliced_threads=0 / nr=0 / decimate=1 / interlaced=0 / bluray_compat=0 / stitchable=1 / constrained_intra=0 / bframes=3 / b_pyramid=2 / b_adapt=1 / b_bias=0 / direct=3 / weightb=1 / open_gop=0 / weightp=2 / keyint=infinite / keyint_min=30 / scenecut=40 / intra_refresh=0 / rc_lookahead=50 / rc=crf / mbtree=1 / crf=20.0 / qcomp=0.60 / qpmin=5 / qpmax=69 / qpstep=4 / vbv_maxrate=2750 / vbv_bufsize=7500 / crf_max=0.0 / nal_hrd=none / filler=0 / ip_ratio=1.40 / aq=1:1.00
Дата кодирования : UTC 2017-02-02 11:11:58
Дата пометки : UTC 2017-02-02 11:11:58
Цветовой диапазон : Limited
Основные цвета : BT.709
Характеристики трансфера : BT.709
Коэффициенты матрицы : BT.709
Аудио
Идентификатор : 2
Формат : AAC
Формат/Информация : Advanced Audio Codec
Профиль формата : LC
Идентификатор кодека : 40
Продолжительность : 51 м. 55 с.
Вид битрейта : Переменный
Битрейт : 256 Кбит/сек
Каналы : 2 канала
Расположение каналов : Front: L R
Частота : 48,0 КГц
Частота кадров : 46,875 кадров/сек (1024 spf)
Метод сжатия : С потерями
Размер потока : 95,1 Мбайт (52%)
Дата кодирования : UTC 2017-02-02 11:11:58
Дата пометки : UTC 2017-02-02 11:11:58

Дополнительная информация

t_sql-materials.zip - в архиве содержатся все презентации и примеры к урокам (исходники).

История обновлений:

24.09.2017 - Добавлены 12, 13 и 14 уроки.

Раздача ведётся путём добавления новых файлов:

Раздача ведётся путём добавления новых файлов; при каждом добавлении создаётся новый торрент. Чтобы начать докачку новых файлов, пользователям необходимо сделать следующее:
(1) остановить скачивание,
(2) удалить старый торрент у себя из клиента (имеющиеся файлы удалять не надо),
(3) скачать новый торрент и запустить его у себя в клиенте вместо старого, при этом указать клиенту путь в старую папку, куда и должно происходить скачивание новых файлов.
Ваш клиент при этом должен произвести хеширование (проверку) старой папки (если не производит сам - помогите ему сделать это), и будет докачивать только те файлы, которых у вас ещё нет. Старые файлы при этом не удаляются, а продолжают раздаваться!
Eсли вы уже удалили старые файлы, то предотвратить повторную закачку старых файлов можно, отжав галочку в соответствующих местах при запуске нового торрента. По возможности, желательно не удалять старые файлы как можно дольше, чтобы релизёр не только продолжал раздавать старые файлы, а смог сконцентрироваться на новых.
Скриншоты:
       

}{@R0N

Пост 23-Сен-2017 21:53

[Цитировать]

Курс «Hacking PostgreSQL» - Автор (режиссер): Postgres Professional
Производство: Postgres Professional
Жанр: PostgreSQL
Описание:
Курс «Hacking PostgreSQL» подготовлен и читается разработчиком - Анастасией Лубенниковой. Курс состоит из 18 занятий, на которых будут исследованы особенности архитектуры и внутреннего устройства PostgreSQL . Анастасия будет показывать, как вносятся изменения на уровне исходного кода.
Курс собран из личного опыта разработчиков компании, материалов с конференций, статей и вдумчивого чтения документации и исходников. В первую очередь он адресован начинающим разработчикам ядра PostgreSQL. Но он будет интересен и DBA, которым иногда приходится влезать в код, и просто всем неравнодушным к архитектуре большой системы, желающим узнать “А как это работает на самом деле?”.
Продолжительность: 07:09:15
Качество видео: WEB-DLRip
Видео: AVC/H.264, 1280x720, ~374 Kbps
Аудио: AAC, 2 ch, 126 Kbps

Mediainfo:

Общее
Полное имя : D:\Book\PostgeSQL\Hacking PostgreSQL\20160225 «Hacking PostgreSQL» Тема 01 Обзор архитектуры.mp4
Формат : MPEG-4
Профиль формата : Base Media / Version 2
Идентификатор кодека : mp42 (isom/mp42)
Размер файла : 116 Мбайт
Продолжительность : 32 м. 13 с.
Режим общего битрейта : Переменный
Общий поток : 504 Кбит/сек
Дата кодирования : UTC 2016-08-15 09:32:15
Дата пометки : UTC 2016-08-15 09:32:15
gsst : 0
gstd : 1933130
Видео
Идентификатор : 1
Формат : AVC
Формат/Информация : Advanced Video Codec
Профиль формата : [url=mailto:Main@L3.1]Main@L3.1[/url]
Настройки формата : CABAC / 3 Ref Frames
Параметр CABAC формата : Да
Параметр RefFrames формата : 3 кадра
Идентификатор кодека : avc1
Идентификатор кодека/Информация : Advanced Video Coding
Продолжительность : 32 м. 13 с.
Битрейт : 375 Кбит/сек
Ширина : 1280 пикселей
Высота : 720 пикселей
Соотношение сторон : 16:9
Режим частоты кадров : Постоянный
Частота кадров : 25,000 кадров/сек
Цветовое пространство : YUV
Субдискретизация насыщенности : 4:2:0
Битовая глубина : 8 бит
Тип развёртки : Прогрессивная
Бит/(Пиксели*Кадры) : 0.016
Размер потока : 86,4 Мбайт (74%)
Заголовок : ISO Media file produced by Google Inc.
Дата кодирования : UTC 2016-08-15 09:32:15
Дата пометки : UTC 2016-08-15 09:32:15
Цветовой диапазон : Limited
Основные цвета : BT.709
Характеристики трансфера : BT.709
Коэффициенты матрицы : BT.709
Аудио
Идентификатор : 2
Формат : AAC
Формат/Информация : Advanced Audio Codec
Профиль формата : LC
Идентификатор кодека : mp4a-40-2
Продолжительность : 32 м. 13 с.
Вид битрейта : Переменный
Битрейт : 126 Кбит/сек
Каналы : 2 канала
Расположение каналов : Front: L R
Частота : 44,1 КГц
Частота кадров : 43,066 кадра/сек (1024 SPF)
Метод сжатия : С потерями
Размер потока : 28,9 Мбайт (25%)
Заголовок : ISO Media file produced by Google Inc.
Дата кодирования : UTC 2016-08-15 09:32:15
Дата пометки : UTC 2016-08-15 09:32:15

Дополнительная информация:

Описание курса на сайте производителя - https://postgrespro.ru/education/courses/hacking
Описание на Habrahabr - https://habrahabr.ru/company/postgrespro/blog/273623/
Ссылка на плейлист на Youtube - https://www.youtube.com/playlist?list=PLaFqU3KCWw6Jfb8IBNk3hZ07dxMxjfGtv
При копировании и публикации необходимо указать владельца (компания «Постгрес Профессиональный») и активную ссылку на сайт компании http://www.postgrespro.ru
Скриншоты:
       

}{@R0N

Пост 23-Сен-2017 21:53

[Цитировать]

Разработка серверной части приложений PostgreSQL 9.6. Базовый курс - Автор (режиссер): Postgres Professional
Производство: Postgres Professional
Жанр: PostgreSQL
Описание:
Базовый курс по разработке серверной части приложений PostgreSQL 9.6.
Предварительные знания:
-Основы SQL
-Опыт работы с каким-нибудь процедурным языком программирования
-Минимальные сведения о работе в Unix
Какие навыки будут получены:
-Общие сведения об архитектуре PostgreSQL
-Использование основных объектов БД: таблиц, индексов, представлений
-Программирование на стороне сервера на языках SQL и PL/pgSQL
-Использование основных типов данных, включая записи и массивы
-Организация взаимодействия с клиентской частью приложения
Продолжительность: 14:22:13
Качество видео: WEB-DLRip
Видео: AVC/H.264, 1280х720, ~1028 Kbps
Аудио: AC3, 2 ch, 192 Kbps

Mediainfo:

Общее
Полное имя : D:\Book\PostgeSQL\Разработка серверной части приложений PostgreSQL 9.6. Базовый курс\Видеозаписи\Курс DEV1. Тема 0. «Введение».mp4
Формат : MPEG-4
Профиль формата : Base Media / Version 2
Идентификатор кодека : mp42 (isom/mp42)
Размер файла : 228 Мбайт
Продолжительность : 25 м. 56 с.
Режим общего битрейта : Переменный
Общий поток : 1231 Кбит/сек
Дата кодирования : UTC 2017-08-15 09:26:41
Дата пометки : UTC 2017-08-15 09:26:41
gsst : 0
gstd : 1556433
Видео
Идентификатор : 1
Формат : AVC
Формат/Информация : Advanced Video Codec
Профиль формата : [url=mailto:High@L3.1]High@L3.1[/url]
Настройки формата : CABAC / 1 Ref Frames
Параметр CABAC формата : Да
Параметр RefFrames формата : 1 кадр
Параметр GOP формата : M=1, N=60
Идентификатор кодека : avc1
Идентификатор кодека/Информация : Advanced Video Coding
Продолжительность : 25 м. 56 с.
Битрейт : 1037 Кбит/сек
Максимальный битрейт : 5875 Кбит/сек
Ширина : 1280 пикселей
Высота : 720 пикселей
Соотношение сторон : 16:9
Режим частоты кадров : Постоянный
Частота кадров : 25,000 кадров/сек
Цветовое пространство : YUV
Субдискретизация насыщенности : 4:2:0
Битовая глубина : 8 бит
Тип развёртки : Прогрессивная
Бит/(Пиксели*Кадры) : 0.045
Размер потока : 192 Мбайт (84%)
Дата пометки : UTC 2017-08-15 09:26:57
Цветовой диапазон : Limited
Основные цвета : BT.709
Характеристики трансфера : BT.709
Коэффициенты матрицы : BT.709
Аудио
Идентификатор : 2
Формат : AAC
Формат/Информация : Advanced Audio Codec
Профиль формата : LC
Идентификатор кодека : mp4a-40-2
Продолжительность : 25 м. 56 с.
Вид битрейта : Переменный
Битрейт : 192 Кбит/сек
Максимальный битрейт : 202 Кбит/сек
Каналы : 2 канала
Расположение каналов : Front: L R
Частота : 44,1 КГц
Частота кадров : 43,066 кадра/сек (1024 SPF)
Метод сжатия : С потерями
Размер потока : 35,6 Мбайт (16%)
Заголовок : IsoMedia File Produced by Google, 5-11-2011
Язык : English
Дата кодирования : UTC 2017-08-15 09:26:50
Дата пометки : UTC 2017-08-15 09:26:57

Дополнительная информация:

В раздаче имеются дополнительные материалы по курсу (образ виртуальной машины, слайды, домашние задания с решениями)
Описание курса на сайте производителя - https://postgrespro.ru/education/courses/DEV1
Ссылка на плейлист на Youtube - https://www.youtube.com/playlist?list=PLaFqU3KCWw6IgowRl9eRIFMG1NjK82CIJ
При копировании и публикации необходимо указать владельца (компания «Постгрес Профессиональный») и активную ссылку на сайт компании http://www.postgrespro.ru
Скриншоты:
       

}{@R0N

Пост 23-Сен-2017 21:18

[Цитировать]

Основы Redux - Автор (режиссер): CodeDojo
Жанр: JavaScript, React, Redux
Описание:
Redux - это библиотека для управления состоянием в JavaScript-приложениях. Благодаря Redux вы точно будете знать где и почему состояние приложения изменилось. Главным преимуществом Redux является его простота, благодаря которой нам не составит труда написать свою реализацию. После этого у вас точно не возникнет вопросов о том как именно работает Redux.
Redux отлично вписывается в среду React, т.к. обе библиотеки основаны на идеях однонаправленного потока, чистых функциях и неизменности данных. Помимо клиентских приложений, Redux можно использовать как на сервере в среде Node.js, так и при создании мобильных приложений на React Native. Помимо всего прочего, Redux предоставляет очень удобные средства для разработки.
Продолжительность: 02:37:57
Качество видео: PCRec
Видео: AVC/H.264, 1280x720, ~161 Kbps
Аудио: AAC, 2 ch, 235 Kbps

Mediainfo:

Общее
Полное имя : D:\{CodeDojo} Основы Redux\lesson1.mp4
Формат : MPEG-4
Профиль формата : Base Media / Version 2
Идентификатор кодека : mp42 (mp42/mp41/isom/avc1)
Размер файла : 5,78 Мбайт
Продолжительность : 2 м. 1 с.
Режим общего битрейта : Переменный
Общий поток : 401 Кбит/сек
Дата кодирования : UTC 2017-02-17 21:39:51
Дата пометки : UTC 2017-02-17 21:39:51
Видео
Идентификатор : 1
Формат : AVC
Формат/Информация : Advanced Video Codec
Профиль формата : [url=mailto:High@L3.2]High@L3.2[/url]
Параметр CABAC формата : Да
Параметр RefFrames формата : 5 кадров
Идентификатор кодека : avc1
Идентификатор кодека/Информация : Advanced Video Coding
Продолжительность : 2 м. 1 с.
Битрейт : 161 Кбит/сек
Номинальный битрейт : 209 Кбит/сек
Ширина : 1280 пикселей
Высота : 720 пикселей
Соотношение сторон : 16:9
Режим частоты кадров : Постоянный
Частота кадров : 30,000 кадров/сек
Цветовое пространство : YUV
Субдискретизация насыщенности : 4:2:0
Битовая глубина : 8 бит
Тип развёртки : Прогрессивная
Бит/(Пиксели*Кадры) : 0.006
Размер потока : 2,32 Мбайт (40%)
Библиотека кодирования : x264 core 148 r10 b97ae06
Настройки программы : cabac=1 / ref=5 / deblock=1:0:0 / analyse=0x3:0x113 / me=hex / subme=8 / psy=1 / psy_rd=1.00:0.00 / mixed_ref=1 / me_range=16 / chroma_me=1 / trellis=2 / 8x8dct=1 / cqm=0 / deadzone=21,11 / fast_pskip=1 / chroma_qp_offset=-2 / threads=22 / lookahead_threads=3 / sliced_threads=0 / nr=0 / decimate=1 / interlaced=0 / bluray_compat=0 / stitchable=1 / constrained_intra=0 / bframes=3 / b_pyramid=2 / b_adapt=1 / b_bias=0 / direct=3 / weightb=1 / open_gop=0 / weightp=2 / keyint=infinite / keyint_min=30 / scenecut=40 / intra_refresh=0 / rc_lookahead=50 / rc=2pass / mbtree=1 / bitrate=209 / ratetol=1.0 / qcomp=0.60 / qpmin=5 / qpmax=69 / qpstep=4 / cplxblur=20.0 / qblur=0.5 / vbv_maxrate=2750 / vbv_bufsize=7500 / nal_hrd=none / filler=0 / ip_ratio=1.40 / aq=1:1.00
Дата кодирования : UTC 2017-02-17 21:39:51
Дата пометки : UTC 2017-02-17 21:39:51
Цветовой диапазон : Limited
Основные цвета : BT.709
Характеристики трансфера : BT.709
Коэффициенты матрицы : BT.709
Аудио
Идентификатор : 2
Формат : AAC
Формат/Информация : Advanced Audio Codec
Профиль формата : LC
Идентификатор кодека : 40
Продолжительность : 2 м. 1 с.
Вид битрейта : Переменный
Битрейт : 235 Кбит/сек
Каналы : 2 канала
Расположение каналов : Front: L R
Частота : 48,0 КГц
Частота кадров : 46,875 кадров/сек (1024 SPF)
Метод сжатия : С потерями
Размер потока : 3,40 Мбайт (59%)
Дата кодирования : UTC 2017-02-17 21:39:51
Дата пометки : UTC 2017-02-17 21:39:51

Содержание курса:

  • Вступление (2 шага)
    1.Добро пожаловать (2:01)
    2.Установка и настройка (0:39)
  • Знакомство с Redux (11 шагов)
    3.Вступление (0:27)
    4.Установка и настройка (0:54)
    5.Что такое Redux? (2:01)
    6.Функция-reducer (5:04)
    7.Действия (2:31)
    8.Хранилище (4:29)
    9.Подписка (4:44)
    10.Состояние (6:52)
    11.Использование хранилища (5:51)
    12.Функция createStore (5:43)
    13.Функции для создания действий (3:42)
  • Использование Redux (13 шагов)
    14.Вступление (0:50)
    15.Установка и настройка (1:13)
    16.Состояние (1:30)
    17.Действия (3:08)
    18.Функция-reducer (4:39)
    19.Композиция функций-reducer (4:22)
    20.Функции для создания действий (2:43)
    21.Хранилище (3:36)
    22.Передача хранилища через свойства (9:24)
    23.Презентационные компоненты и контейнеры (9:24)
    24.Передача хранилища через контекст (5:24)
    25.Передача хранилища через Provider (1:24)
    26.Создание контейнеров с помощью connect (11:16)
  • Добавление фильтра (8 шагов)
    27.Вступление (0:22)
    28.Установка и настройка (1:04)
    29.Состояние (1:05)
    30.Действия (1:45)
    31.Функция-reducer (4:32)
    32.Контейнер (4:53)
    33.Селекторы (4:17)
    34.Хранилище (1:33)
  • Взаимодействие с сервером (8 шагов)
    35.Вступление (0:39)
    36.Установка (1:30)
    37.Получение данных (4:00)
    38.Обещания (4:16)
    39.Индикатор загрузки (8:03)
    30.Thunks (7:25)
    41.CRUD (7:00)
    42.Redux-promise и redux-thunk (2:07)
Скриншоты:
       

}{@R0N

Пост 23-Сен-2017 21:18

[Цитировать]

Тактическое Преимущество - Автор (режиссер): Габриэль Суарез
Жанр: Работа с оружием
Описание:
Фильм по книге "Тактическое Преимущество" Гейба Суареза
про ближний бой в помещениях.
Продолжительность: 01:27:46
Качество видео: WEBRip
Перевод: Одноголосый закадровый, Платон Звонков
Видео: AVC/H.264, 1280x720, ~1200 Kbps
Аудио: AAC, 2 ch, 192 Kbps, (русский, одноголосый закадровый)

Mediainfo:

Общее
Полное имя : D:\Video\YouTube\Оружие\Габриэль Суарез - Тактическое Преимущество.mp4
Формат : MPEG-4
Профиль формата : Base Media / Version 2
Идентификатор кодека : mp42 (isom/mp42)
Размер файла : 875 Мбайт
Продолжительность : 1 ч. 27 м.
Режим общего битрейта : Переменный
Общий поток : 1394 Кбит/сек
Дата кодирования : UTC 2017-07-15 17:06:42
Дата пометки : UTC 2017-07-15 17:06:42
gsst : 0
gstd : 5266425
Видео
Идентификатор : 1
Формат : AVC
Формат/Информация : Advanced Video Codec
Профиль формата : [url=mailto:High@L3.1]High@L3.1[/url]
Настройки формата : CABAC / 1 Ref Frames
Параметр CABAC формата : Да
Параметр RefFrames формата : 1 кадр
Идентификатор кодека : avc1
Идентификатор кодека/Информация : Advanced Video Coding
Продолжительность : 1 ч. 27 м.
Битрейт : 1200 Кбит/сек
Максимальный битрейт : 4775 Кбит/сек
Ширина : 1280 пикселей
Высота : 720 пикселей
Соотношение сторон : 16:9
Режим частоты кадров : Постоянный
Частота кадров : 29,970 (30000/1001) кадров/сек
Цветовое пространство : YUV
Субдискретизация насыщенности : 4:2:0
Битовая глубина : 8 бит
Тип развёртки : Прогрессивная
Бит/(Пиксели*Кадры) : 0.043
Размер потока : 753 Мбайт (86%)
Дата пометки : UTC 2017-07-15 17:07:17
Цветовой диапазон : Limited
Основные цвета : BT.709
Характеристики трансфера : BT.709
Коэффициенты матрицы : BT.709
Аудио
Идентификатор : 2
Формат : AAC
Формат/Информация : Advanced Audio Codec
Профиль формата : LC
Идентификатор кодека : mp4a-40-2
Продолжительность : 1 ч. 27 м.
Вид битрейта : Переменный
Битрейт : 192 Кбит/сек
Максимальный битрейт : 201 Кбит/сек
Каналы : 2 канала
Расположение каналов : Front: L R
Частота : 44,1 КГц
Частота кадров : 43,066 кадра/сек (1024 SPF)
Метод сжатия : С потерями
Размер потока : 121 Мбайт (14%)
Заголовок : IsoMedia File Produced by Google, 5-11-2011
Дата кодирования : UTC 2017-07-15 17:07:03
Дата пометки : UTC 2017-07-15 17:07:17

Дополнительная информация:

Видео на youtube - https://www.youtube.com/watch?v=yomjv2A6tRQСкриншоты:
       

}{@R0N

Пост 20-Сен-2017 14:44

[Цитировать]

Михаил Теремков
Угловой диван своими руками
- Автор (режиссер): Михаил Теремков
Жанр: Мебель, проектирование и изготовление
Описание:
Представляем вашему вниманию новый видеокурс Михаила Теремкова по изготовлению углового дивана своими руками в домашних условиях.
Себестоимость такого дивана из качественной «экокожи» составляет 16500 рублей. Используя ткань подешевле, можно добиться снижения себестоимости до 15000 рублей.
Продолжительность: 03:35:09
Качество видео: WEB-DLRip
Видео: AVC/H.264, 1920x1080, ~1946 Kbps
Аудио: AAC, 2 ch, 140 Kbps

Mediainfo:

Общее
Полное имя : \Угловой диван своими руками\1 Инструменты.mp4
Формат : MPEG-4
Профиль формата : Base Media
Идентификатор кодека : isom (isom/iso2/avc1/mp41)
Размер файла : 58,3 Мбайт
Продолжительность : 3 м. 53 с.
Общий поток : 2091 Кбит/сек
Программа кодирования : Lavf57.21.100
Видео
Идентификатор : 1
Формат : AVC
Формат/Информация : Advanced Video Codec
Профиль формата : High@L4
Параметр CABAC формата : Да
Параметр ReFrames формата : 4 кадра
Идентификатор кодека : avc1
Идентификатор кодека/Информация : Advanced Video Coding
Продолжительность : 3 м. 53 с.
Битрейт : 1946 Кбит/сек
Ширина : 1920 пикселей
Высота : 1080 пикселей
Соотношение сторон : 16:9
Режим частоты кадров : Постоянный
Частота кадров : 25,000 кадров/сек
Цветовое пространство : YUV
Субдискретизация насыщенности : 4:2:0
Битовая глубина : 8 бит
Тип развёртки : Прогрессивная
Бит/(Пиксели*Кадры) : 0.038
Размер потока : 54,2 Мбайт (93%)
Библиотека кодирования : x264 core 148 r2638 7599210
Настройки программы : cabac=1 / ref=3 / deblock=1:0:0 / analyse=0x3:0x113 / me=hex / subme=7 / psy=1 / psy_rd=1.00:0.00 / mixed_ref=1 / me_range=16 / chroma_me=1 / trellis=1 / 8x8dct=1 / cqm=0 / deadzone=21,11 / fast_pskip=1 / chroma_qp_offset=-2 / threads=6 / lookahead_threads=1 / sliced_threads=0 / nr=0 / decimate=1 / interlaced=0 / bluray_compat=0 / constrained_intra=0 / bframes=3 / b_pyramid=2 / b_adapt=1 / b_bias=0 / direct=1 / weightb=1 / open_gop=0 / weightp=2 / keyint=250 / keyint_min=25 / scenecut=40 / intra_refresh=0 / rc_lookahead=40 / rc=crf / mbtree=1 / crf=23.0 / qcomp=0.60 / qpmin=0 / qpmax=69 / qpstep=4 / ip_ratio=1.40 / aq=1:1.00
Аудио
Идентификатор : 2
Формат : AAC
Формат/Информация : Advanced Audio Codec
Профиль формата : LC
Идентификатор кодека : 40
Продолжительность : 3 м. 53 с.
Вид битрейта : Постоянный
Битрейт : 140 Кбит/сек
Каналы : 2 канала
Channel(s)_Original : 1 канал
Расположение каналов : Front: C
Частота : 48,0 КГц
Частота кадров : 46,875 кадров/сек (1024 spf)
Метод сжатия : С потерями
Размер потока : 3,90 Мбайт (7%)
Default : Да
Alternate group : 1

Дополнительная информация:

-13 пошаговых видеоуроков (210 минут) от сборки каркаса до шитья чехла.
-Подробная документация в формате PDF.
-Смотрите на компьютерах Windows и Mac.
-Адаптировано для домашнего изготовления.
-7 дней на изготовление для новичков.
-Только простой инструмент и доступные всем материалы и фурнитура.
-Прочный и экологичный каркас, проверенный 20 годами эксплуатации.
-Трансформируется в удобную кровать и имеет ящик для белья.
-Возможность изменить размеры дивана под свои нужды.
Прилагается подробная деталировка в формате pdf, на 10 листах

Список видеоуроков

Список видеоуроков:
1 Инструменты
2 Материалы и фурнитура
3 Сборка каркаса, механизмы
4 Пошив чехла для спинки*
5 Разметка утяжек, изготовление элемента с утяжками
6 Оформление нижней лицевой части
7 Крепление частей между собой
8 Изготовление подушек
9 Делаем бельевую тумбу
10 Делаем подлокотники
11 Делаем сидушку основания дивана
12 Про швейные машинки и мебельные швы*
13 Заключение
Скриншоты:
       

}{@R0N

Пост 20-Сен-2017 14:28

[Цитировать]

Колодец - своими руками - Автор (режиссер): Сергей Лапко
Жанр: строительство
Описание:
В курсе описана технология копки колодца c постепенным погружением бетонной опалубки. Существенное отличие описанного способа от стандартных методик заключается в том, что для колодца не используются недешёвые промышленные бетонные кольца.
Эта технология позволяет получить бесшовную бетонную трубу, что исключает любые протечки верховых вод и предохраняет колодец от загрязнения.
По сути, колодец делается с помощью минимального и доступного набора средств. На все материалы для изготовления колодца глубиной 4,5 метра вы потратите не более 5000 р.
Продолжительность: 01:41:59
Качество видео: WEB-DLRip
Видео: AVC/H.264, 1280х720, ~1965 Kbps
Аудио: AAC, 2 ch, 53,6 Kbps

Mediainfo:

Общее
Полное имя : \Video\2. Делаем хомуты.mp4
Формат : MPEG-4
Профиль формата : Base Media / Version 2
Идентификатор кодека : mp42 (M4V /mp42/isom)
Размер файла : 98,8 Мбайт
Продолжительность : 6 м. 49 с.
Общий поток : 2021 Кбит/сек
Дата кодирования : UTC 2016-09-21 07:29:18
Дата пометки : UTC 2016-09-21 07:29:18
Видео
Идентификатор : 1
Формат : AVC
Формат/Информация : Advanced Video Codec
Профиль формата : [url=mailto:High@L3.1]High@L3.1[/url]
Параметр CABAC формата : Да
Параметр ReFrames формата : 4 кадра
Параметр GOP формата : M=1, N=125
Идентификатор кодека : avc1
Идентификатор кодека/Информация : Advanced Video Coding
Продолжительность : 6 м. 49 с.
Продолжительность оригинала : 6 м. 49 с.
Битрейт : 1965 Кбит/сек
Ширина : 1280 пикселей
Высота : 720 пикселей
Соотношение сторон : 16:9
Режим частоты кадров : Постоянный
Частота кадров : 25,000 кадров/сек
Стандарт вещания : PAL
Цветовое пространство : YUV
Субдискретизация насыщенности : 4:2:0
Битовая глубина : 8 бит
Тип развёртки : Прогрессивная
Бит/(Пиксели*Кадры) : 0.085
Размер потока : 96,0 Мбайт (97%)
Размер потока оригинала : 96,0 Мбайт (97%)
Язык : English
Дата кодирования : UTC 2016-09-21 07:29:18
Дата пометки : UTC 2016-09-21 07:29:18
Цветовой диапазон : Limited
Основные цвета : BT.709
Характеристики трансфера : BT.709
Коэффициенты матрицы : BT.709
mdhd_Duration : 409934
Аудио
Идентификатор : 2
Формат : AAC
Формат/Информация : Advanced Audio Codec
Профиль формата : LC
Идентификатор кодека : 40
Продолжительность : 6 м. 49 с.
Продолжительность оригинала : 6 м. 49 с.
Вид битрейта : Постоянный
Битрейт : 53,6 Кбит/сек
Каналы : 2 канала
Расположение каналов : Front: L R
Частота : 44,1 КГц
Частота кадров : 43,066 кадра/сек (1024 spf)
Метод сжатия : С потерями
Размер потока : 2,62 Мбайт (3%)
Размер потока оригинала : 2,62 Мбайт (3%)
Язык : English
Дата кодирования : UTC 2016-09-21 07:29:18
Дата пометки : UTC 2016-09-21 07:29:18
mdhd_Duration : 409963

Дополнительная информация:

В курс включены:
-14 видео, на которых последовательно показан процесс сооружения колодца;
-Текстовый файл в формате pdf с необходимыми чертежами и пояснениями.
Скриншоты:
       

}{@R0N

Пост 14-Сен-2017 13:18

[Цитировать]

Функциональное программирование на Python 3 - Автор (режиссер): Никита Шультайс
Производство: Udemy
Жанр: Python, Программирование
Описание:
Этот курс о функциональном программировании на Python 3.
В курсе мы рассмотрим функции filter, map и reduce, которые чаще всего используются в ФП. А также узнаем что такое lambda-выражения и когда ими можно заменить обычные функции.
Во второй части курса мы узнаем что такое функции высшего порядка и рассмотрим декораторы, генераторы, функторы и функцию zip.
Продолжительность: 00:36:53
Качество видео: PCRec
Видео: AVC/H.264, 1280x720, ~105-206 Kbps
Аудио: AAC, 2 ch, 192 Kbps

Mediainfo:

General
Complete name : .\[Udemy] Функциональное программирование на Python 3 (2017)\Р2 Дополнительные возможности функционального программирования\011 Итераторы.mp4
Format : MPEG-4
Format profile : Base Media / Version 2
Codec ID : mp42 (isom/iso2/avc1/mp41/mp42)
File size : 14.7 MiB
Duration : 5 min 7 s
Overall bit rate mode : Variable
Overall bit rate : 401 kb/s
Encoded date : UTC 2017-03-19 14:04:46
Tagged date : UTC 2017-03-19 14:04:46
Writing application : Lavf53.32.100
Video
ID : 1
Format : AVC
Format/Info : Advanced Video Codec
Format profile : High@L3
Format settings, CABAC : Yes
Format settings, ReFrames : 4 frames
Codec ID : avc1
Codec ID/Info : Advanced Video Coding
Duration : 5 min 7 s
Bit rate : 206 kb/s
Width : 1 280 pixels
Height : 720 pixels
Display aspect ratio : 16:9
Frame rate mode : Constant
Frame rate : 30.000 FPS
Color space : YUV
Chroma subsampling : 4:2:0
Bit depth : 8 bits
Scan type : Progressive
Bits/(Pixel*Frame) : 0.007
Stream size : 7.64 MiB (52%)
Writing library : x264 core 136
Encoding settings : cabac=1 / ref=4 / deblock=1:0:0 / analyse=0x3:0x113 / me=umh / subme=7 / psy=0 / mixed_ref=1 / me_range=16 / chroma_me=1 / trellis=1 / 8x8dct=1 / cqm=0 / deadzone=21,11 / fast_pskip=0 / chroma_qp_offset=0 / threads=48 / lookahead_threads=5 / sliced_threads=0 / nr=0 / decimate=1 / interlaced=0 / bluray_compat=0 / constrained_intra=0 / bframes=16 / b_pyramid=2 / b_adapt=1 / b_bias=0 / direct=1 / weightb=1 / open_gop=0 / weightp=2 / keyint=300 / keyint_min=25 / scenecut=40 / intra_refresh=0 / rc=2pass / mbtree=0 / bitrate=206 / ratetol=1.0 / qcomp=0.60 / qpmin=10 / qpmax=51 / qpstep=4 / cplxblur=20.0 / qblur=0.5 / ip_ratio=1.40 / pb_ratio=1.30 / aq=1:1.00
Encoded date : UTC 2017-03-19 14:04:46
Tagged date : UTC 2017-03-19 14:45:05
Audio
ID : 2
Format : AAC
Format/Info : Advanced Audio Codec
Format profile : LC
Codec ID : 40
Duration : 5 min 7 s
Bit rate mode : Variable
Bit rate : 192 kb/s
Channel(s) : 2 channels
Channel positions : Front: L R
Sampling rate : 48.0 kHz
Frame rate : 46.875 FPS (1024 spf)
Compression mode : Lossy
Stream size : 6.94 MiB (47%)
Default : Yes
Alternate group : 1
Encoded date : UTC 2017-03-19 14:04:46
Tagged date : UTC 2017-03-19 14:45:05
Скриншоты:
       

}{@R0N

Пост 14-Сен-2017 13:17

[Цитировать]

CSS: Styling Forms - Автор (режиссер): Ray Villalobos
Производство: Lynda.com
Жанр: Веб-дизайн
Описание:
Этот курс раскрывает лучшие практики и техники CSS по стилизации и структурированию форм. Автор Рэй Виллалобос объясняет лучшие способы структурирования HTML, нововведения для форм в HTML5, как работают формы и как стилизовать индивидуальные элементы.
В курсе обсуждается, как использовать CSS для стилизации традиционных и кастомных элементов, рассматриваются различия браузеров, кастомные элементы, кастомные шрифты, стилизация различных типов обратной связи для пользователей.
Также рассказывается о продвинутых CSS-макетах и паттернах дизайна, о специфичных проблемах стилизации для мобильных устройств.
Продолжительность: 04:02:01
Качество видео: PCRec
Перевод: Дублированный, (Силя Сильхи)
Субтитры: Английские (отдельным файлом)
Язык озвучки: Русский, Английский
Видео: AVC/H.264, 960x540, ~315 Kbps
Аудио 1: AAC, 2 ch, 128 Kbps - Русский дублированный, (Силя Сильхи)
Аудио 2: AAC, 2 ch, 96 Kbps - Английский, оригинал

Mediainfo:

General
Complete name : 0_04. Setting up the working environment.mp4
Format : MPEG-4
Format profile : Base Media
Codec ID : isom
File size : 18.4 MiB
Duration : 4mn 43s
Overall bit rate : 547 Kbps
Video
ID : 1
Format : AVC
Format/Info : Advanced Video Codec
Format profile : [url=mailto:Main@L3.1]Main@L3.1[/url]
Format settings, CABAC : Yes
Format settings, ReFrames : 3 frames
Format settings, GOP : M=3, N=30
Codec ID : avc1
Codec ID/Info : Advanced Video Coding
Duration : 4mn 43s
Bit rate : 315 Kbps
Width : 960 pixels
Height : 540 pixels
Display aspect ratio : 16:9
Frame rate mode : Constant
Frame rate : 15.000 fps
Color space : YUV
Chroma subsampling : 4:2:0
Bit depth : 8 bits
Scan type : Progressive
Bits/(Pixel*Frame) : 0.040
Stream size : 10.6 MiB (58%)
Language : English
Audio #1
ID : 2
Format : AAC
Format/Info : Advanced Audio Codec
Format profile : LC
Codec ID : 40
Duration : 4mn 43s
Duration_LastFrame : 40ms
Bit rate mode : Constant
Bit rate : 128 Kbps
Channel(s) : 2 channels
Channel(s)_Original : 1 channel
Channel positions : Front: C
Sampling rate : 44.1 KHz
Compression mode : Lossy
Stream size : 4.32 MiB (23%)
Language : Russian
Audio #2
ID : 3
Format : AAC
Format/Info : Advanced Audio Codec
Format profile : LC
Codec ID : 40
Duration : 4mn 42s
Bit rate mode : Constant
Bit rate : 96.0 Kbps
Channel(s) : 2 channels
Channel(s)_Original : 1 channel
Channel positions : Front: C
Sampling rate : 48.0 KHz
Compression mode : Lossy
Stream size : 3.24 MiB (18%)
Language : English

Дополнительная информация:

- оригинальный курс на сайте производителя (ссылка)
- как выбрать звуковую дорожку по умолчанию (ссылка)
В раздаче содержатся следующие архивы:
Ex Files CSS Styling Forms.zip (файлы с примерами)
Subtitles EN.zip (субтитры, формат SRT, язык Английский)

Некоторые темы курса:

- создание элементов форм
- добавление лейблов и основы юзабилити
- отображение элементов в разных браузерах
- стилизация фона
- создание полей ввода, переключателей, чекбоксов, кнопок
- работа с полями выбора (select)
- плавание и позиционирование сгруппированных элементов
- использование полей ввода HTML5
- добавление навигации (jQuery)
- создание обратной связи валидации
- изменение размеров элементов и настройка отображения на мобильных устройствах
Скриншоты:
       

}{@R0N

Пост 14-Сен-2017 13:10

[Цитировать]

Создание интернет-магазина на WooCommerce - Автор (издатель): Виктор Гавриленко
Производство: Webformyself
Жанр: Компьютеры, Интернет-магазин, Wordpress
Системные требования:
• Операционная система Microsoft Windows XP/Vista/7/8/10
• Процессор Pentium III 750 Мгц
• 512 Мб оперативной памяти
• Разрешение экрана 1280x720 с глубиной цвета 16 бит

Формат: unpacked
Описание:
В данном курсе Вы научитесь создавать интернет-магазин, используя систему управления контентом Wordpress, которая на сегодняшний момент уже настолько функциональна и удобна в использовании, что пользуется огромнейшей популярностью. При этом под нее реализовано большое количество различных расширений: плагинов, благодаря которым можно значительно расширить функционал CMS.
Обучение в данном курсе будет построено от простого к сложному, а значит, Вы сможете посмотреть на то как устанавливается плагин Woocommerce, разберете настройки, научитесь создавать товары и категории и, конечно же, обрабатывать заказы, то есть по большому счету создадите вполне реальный магазин, используя произвольный шаблон.
При этом дизайн любого проекта, и магазин не исключение, обязательно должен быть уникальным, а значит, во второй части мы с Вами создадим собственный шаблон для интернет-магазина Woocommerce и тем самым окончательно завершим его создание.
Продолжительность: 28:41:45
Качество видео: PCRec
Видео: AVC/H.264, 1280x720, ~307 Kbps
Аудио: AAC, 2 ch, 125 Kbps

Mediainfo:

Общее
Полное имя : D:\[webformyself] Создание интернет-магазина на WooCommerce 2017\videokurs\part1\1.mp4
Формат : MPEG-4
Профиль формата : Base Media / Version 2
Идентификатор кодека : mp42 (M4V /mp42/isom)
Размер файла : 46,2 Мбайт
Продолжительность : 14 м. 3 с.
Общий поток : 459 Кбит/сек
Дата кодирования : UTC 2017-07-13 19:39:07
Дата пометки : UTC 2017-07-13 19:39:07
Видео
Идентификатор : 1
Формат : AVC
Формат/Информация : Advanced Video Codec
Профиль формата : [url=mailto:High@L3.1]High@L3.1[/url]
Параметр CABAC формата : Да
Параметр RefFrames формата : 4 кадра
Идентификатор кодека : avc1
Идентификатор кодека/Информация : Advanced Video Coding
Продолжительность : 14 м. 3 с.
Продолжительность оригинала : 14 м. 3 с.
Битрейт : 307 Кбит/сек
Ширина : 1280 пикселей
Высота : 720 пикселей
Соотношение сторон : 16:9
Режим частоты кадров : Постоянный
Частота кадров : 15,000 кадров/сек
Цветовое пространство : YUV
Субдискретизация насыщенности : 4:2:0
Битовая глубина : 8 бит
Тип развёртки : Прогрессивная
Бит/(Пиксели*Кадры) : 0.022
Размер потока : 30,9 Мбайт (67%)
Размер потока оригинала : 33,4 Мбайт (72%)
Язык : English
Дата кодирования : UTC 2017-07-13 19:39:07
Дата пометки : UTC 2017-07-13 19:39:07
Цветовой диапазон : Limited
Основные цвета : BT.709
Характеристики трансфера : BT.709
Коэффициенты матрицы : BT.709
mdhd_Duration : 843237
Аудио
Идентификатор : 2
Формат : AAC
Формат/Информация : Advanced Audio Codec
Профиль формата : LC
Идентификатор кодека : 40
Продолжительность : 14 м. 3 с.
Продолжительность оригинала : 14 м. 3 с.
Вид битрейта : Постоянный
Битрейт : 125 Кбит/сек
Каналы : 2 канала
Расположение каналов : Front: L R
Частота : 44,1 КГц
Частота кадров : 43,066 кадра/сек (1024 SPF)
Метод сжатия : С потерями
Размер потока : 12,6 Мбайт (27%)
Размер потока оригинала : 12,6 Мбайт (27%)
Язык : English
Дата кодирования : UTC 2017-07-13 19:39:07
Дата пометки : UTC 2017-07-13 19:39:07
mdhd_Duration : 842978

Дополнительная информация:

В раздаче имеются архивы!
В них содержится некоторые дополнительные материалы и несколько версий темы, которая разработана в течении курса.
Скриншоты:
       

}{@R0N

Пост 14-Сен-2017 13:05

[Цитировать]

Биткоин-мастер для новичков. От А до Я - Автор (режиссер): Борис Комаров
Производство: criptodengi.ru
Жанр: Криптовалюты, биткойн
Описание:
Вашему вниманию представлен первый обучающий курс о Биткойне на русском языке — «Биткойн-мастер».
Данный курс целиком и полностью посвящен сети Биткойн и криптовалюте биткойн и охватывает все основные и важные темы касательно данных понятий.
Автор курса — Борис Комаров, популярный криптовалютный влоггер и создатель проекта «Криптоденьги». Больше об авторе можно узнать на его личном сайте здесь.
Курс «Биткойн-мастер» состоит из 27 видео-уроков разной продолжительностью
Продолжительность: 05:19:01
Качество видео: PCRec
Видео: tsc2, 1280x720, ~55.9 Kbps
Аудио: PCM, 1 ch, 352 Kbps

Mediainfo:

Complete name                  : C:\__Биткоин  мастер для новичков. От А до Я\0.1. Приветствие.avi
Format : AVI
Format/Info : Audio Video Interleave
File size : 18.0 MiB
Duration : 4 min 28 s
Overall bit rate : 562 kb/s
Video
ID : 0
Format : tsc2
Codec ID : tsc2
Duration : 4 min 28 s
Bit rate : 55.9 kb/s
Width : 1 280 pixels
Height : 720 pixels
Display aspect ratio : 16:9
Frame rate : 30.000 FPS
Bits/(Pixel*Frame) : 0.002
Stream size : 1.79 MiB (10%)
Audio
ID : 1
Format : PCM
Format settings, Endianness : Little
Format settings, Sign : Signed
Codec ID : 1
Duration : 4 min 28 s
Bit rate mode : Constant
Bit rate : 352.8 kb/s
Channel(s) : 1 channel
Sampling rate : 22.05 kHz
Bit depth : 16 bits
Stream size : 11.3 MiB (63%)
Alignment : Aligned on interleaves
Interleave, duration : 33 ms (1.00 video frame)
Interleave, preload duration : 366 ms
omplete name : C:\__Биткоин мастер для новичков. От А до Я\0.2. Об авторе.avi
Format : AVI
Format/Info : Audio Video Interleave
File size : 19.4 MiB
Duration : 4 min 43 s
Overall bit rate : 574 kb/s
Video
ID : 0
Format : tsc2
Codec ID : tsc2
Duration : 4 min 43 s
Bit rate : 67.5 kb/s
Width : 1 280 pixels
Height : 720 pixels
Display aspect ratio : 16:9
Frame rate : 30.000 FPS
Bits/(Pixel*Frame) : 0.002
Stream size : 2.28 MiB (12%)
Audio
ID : 1
Format : PCM
Format settings, Endianness : Little
Format settings, Sign : Signed
Codec ID : 1
Duration : 4 min 43 s
Bit rate mode : Constant
Bit rate : 352.8 kb/s
Channel(s) : 1 channel
Sampling rate : 22.05 kHz
Bit depth : 16 bits
Stream size : 11.9 MiB (62%)
Alignment : Aligned on interleaves
Interleave, duration : 33 ms (1.00 video frame)
Interleave, preload duration : 366 ms
Complete name : C:\__Биткоин мастер для новичков. От А до Я\0.3. Содержание курса.avi
Format : AVI
Format/Info : Audio Video Interleave
File size : 13.7 MiB
Duration : 3 min 26 s
Overall bit rate : 556 kb/s
Video
ID : 0
Format : tsc2
Codec ID : tsc2
Duration : 3 min 26 s
Bit rate : 49.2 kb/s
Width : 1 280 pixels
Height : 720 pixels
Display aspect ratio : 16:9
Frame rate : 30.000 FPS
Bits/(Pixel*Frame) : 0.002
Stream size : 1.21 MiB (9%)
Audio
ID : 1
Format : PCM
Format settings, Endianness : Little
Format settings, Sign : Signed
Codec ID : 1
Duration : 3 min 26 s
Bit rate mode : Constant
Bit rate : 352.8 kb/s
Channel(s) : 1 channel
Sampling rate : 22.05 kHz
Bit depth : 16 bits
Stream size : 8.69 MiB (63%)
Alignment : Aligned on interleaves
Interleave, duration : 33 ms (1.00 video frame)
Interleave, preload duration : 366 ms
Complete name : C:\__Биткоин мастер для новичков. От А до Я\1.1. Что такое Биткойн и криптовалюта биткойн.avi
Format : AVI
Format/Info : Audio Video Interleave
File size : 44.7 MiB
Duration : 10 min 56 s
Overall bit rate : 571 kb/s
Video
ID : 0
Format : tsc2
Codec ID : tsc2
Duration : 10 min 56 s
Bit rate : 69.2 kb/s
Width : 1 280 pixels
Height : 720 pixels
Display aspect ratio : 16:9
Frame rate : 30.000 FPS
Bits/(Pixel*Frame) : 0.003
Stream size : 5.41 MiB (12%)
Audio
ID : 1
Format : PCM
Format settings, Endianness : Little
Format settings, Sign : Signed
Codec ID : 1
Duration : 10 min 56 s
Bit rate mode : Constant
Bit rate : 352.8 kb/s
Channel(s) : 1 channel
Sampling rate : 22.05 kHz
Bit depth : 16 bits
Stream size : 27.6 MiB (62%)
Alignment : Aligned on interleaves
Interleave, duration : 33 ms (1.00 video frame)
Interleave, preload duration : 366 ms
Complete name : C:\__Биткоин мастер для новичков. От А до Я\1.2. Общие данные о криптовалюте биткойн.avi
Format : AVI
Format/Info : Audio Video Interleave
File size : 65.6 MiB
Duration : 16 min 10 s
Overall bit rate : 567 kb/s
Video
ID : 0
Format : tsc2
Codec ID : tsc2
Duration : 16 min 10 s
Bit rate : 66.2 kb/s
Width : 1 280 pixels
Height : 720 pixels
Display aspect ratio : 16:9
Frame rate : 30.000 FPS
Bits/(Pixel*Frame) : 0.002
Stream size : 7.66 MiB (12%)
Audio
ID : 1
Format : PCM
Format settings, Endianness : Little
Format settings, Sign : Signed
Codec ID : 1
Duration : 16 min 10 s
Bit rate mode : Constant
Bit rate : 352.8 kb/s
Channel(s) : 1 channel
Sampling rate : 22.05 kHz
Bit depth : 16 bits
Stream size : 40.8 MiB (62%)
Alignment : Aligned on interleaves
Interleave, duration : 33 ms (1.00 video frame)
Interleave, preload duration : 366 ms

Содержание

Урок 1 : что такое Биткойн и криптовалюта биткойн?
Урок 2: общие данные о криптовалюте биткойн.
Урок 3: как происходит создание биткойнов?
Урок 4: применение биткойна в жизни.
Урок 5: курс и цена биткойна.
Урок 6: как работают сеть Биткойн и криптовалюта биткойн?
Урок 7: хранение биткойнов.
Урок 8: о криптовалютных-кошельках и видах хранения криптовалюты.
Урок 9: выбор биткойн-кошелька и создание нового биткойн-адреса.
Урок 10: покупка и продажа биткойнов.
Урок 11: примеры сайтов и сервисов для покупки и продажи биткойнов.
Урок 12: покупка биткойнов.
Урок 13: переводы в биткойнах.
Урок 14: продажа биткойнов.
Урок 15: покупка товаров и услуг за биткойны.
Урок 16: как и где заработать биткойны?
Урок 17: как получать биткойны в дар?
Урок 18: настройка приема биткойн-пожертвования онлайн.
Урок 19: как получать биткойны на чай?
Урок 20: настройка приема биткойн-чаевых на сайте.
Урок 21: подключение биткойна к бизнесу.
Урок 22: настройка приема оплаты в биткойнах на сайте.
Урок 23: безопасность использования и хранения биткойнов.
Урок 24: создание бумажного биткойн-кошелька.
Урок 25: аппаратные биткойн-кошельки.
Урок 26: проблемы биткойна.
Урок 27: будущее биткойна.
Скриншоты:
       

MishaSrbia

Пост 08-Сен-2017 13:19

[Цитировать]

спасиба

XP1971

Пост 05-Авг-2017 19:08

[Цитировать]

Юрьева О.В. | Работа на машине SILVER REED SK - 280/SRP 60N (2009) [ISO] - Автор (издатель): Юрьева О.В.
Жанр: Интерактивный видеокурс
Системные требования:
Windows XP - 10
Формат: ISO
Видео: VC-1, WMV3, 640x480 (4:3), 15.000 fps, 793 Kbps (0.172 bit/pixel)
Аудио: WMA Voice, 22.05 KHz, 1 ch, 20.0 Kbps, CBR (English (US))Общий битрейт: 836 Kbps
Описание:
Информация изложена в формате видеоуроков.
Затронуты все важные темы обучения, а также множество моментов, не прописанных в инструкции.
Все это поможет Вам сделать вязание приятным и плодотворным занятием.
Используя мои знания и многолетний опыт вязания на разных машинах, Вы сможете в короткие сроки добиться высоких результатов, одеть в уютные вещи свою семью и, конечно же в наше непростое время пополнить Ваш бюджет! Это не сказка! Это реальный опыт обучения!

Дополнительная информация:

Более 7 часов обучения помогут Вам освоить Вашу вязальную машину.
В видеокурсе рассмотрены следующие темы:
УРОК 1 Устройство машины
1 Устройство машины и принадлежности
2 Установка машины
3 Основная каретка
4 Доп. каретка
5 Р- каретка
6 Заправка нити
УРОК 2 Однофонтурный набор петель
1 Начало вязания с вивинговой нитью(стандартный)
2 Набор петель обвитием
3 Набор на вспомогательную нить
4 Набор "косичка" на вспомогательную нить
5 Набор с ручным выдвижением игл
6 Просмотр образцов
УРОК 3 Вязание ластика на 2-хфонтурной машине
1 Работа рычагов
2 Полный ластик
3 Полный ластик с отделкой крючком
4 Резинка 2х2 через 1 иглы и полупатентная резинка
5 Резинка 2х2 через 2 иглы
6 Резинка 3х3 через 2 иглы
УРОК 4 Узоры на основе кулирной глади
1 Гофре - изменение плотности вязания
2 Вязание полос (ручная смена нити)
3 Вязание полос со сменником цвета
4 Вивинг с ручной прокладкой нити
5 Платинг на кулирной глади
УРОК 5 Узоры на основе ластика
1 Полупатентная (жемчужная) резинка
2 Английская (рыбацкая) резинка
3 "Кукурузка"
4 Рисунки со сдвигом игольницы
5 Репс на основе полного ластика
6 Круговое вязание
7 Валики
8 Косы, араны
9 Платинг
10 Просмотр образцов
УРОК 6 Вязание по перфокарте на одной фонтуре
1 Механизм работы с перфокартой и вязание жаккарда
2 Прессовый узор
3 Слип-узор
4 Вивинг
5 Мотив, связанный вивингом
6 Жаккардовый мотив
7 Цветной пресс
8 Цветной слип с использованием сменника цвета
9 Панчлейс
10 Пресс на выставе
11 Просмотр образцов

УРОК 7 Вязание по перфокарте на 2-х фонтурах

1 Изготовление перфокарты для 2-хфонтурного жаккарда
2 Вязание 2-хфонтурного жаккарда
3 2-хфонтурный прессовый узор
4 2-фонтурный слип (валики)
5 Сетчатый узор
6 Махровое вязание
7 Тисненый ажур
8 Просмотр образцов
УРОК 8 Работа ажурной кареткой
1 Вязание простого ажура
2 Вязание сложного ажура
3 Просмотр образцов
УРОК 9 Каретка - интарсия
УРОК 10 Работа с жаккардовой кареткой
1Рычаги жаккардовой каретки. Репс -"пико".
2 Интерлок (джерси)
3 Узорный репс -"пико"
4 2-хфонт. жаккард с функцией "пико"
5 Использование "пико" в разных видах резинки
6 Просмотр образцов
УРОК 11 Создание перфокарт
1 Прессовый узор
2 Слип - узор
3 Панчлейс
4 2-хфонтурный жаккард
5 Ажур
6 Сетчатый и тисненый узор
7 Махровое вязание
8 Валики
УРОК 12 Расчет петельной пробы по образцу
УРОК 13 Узоры со сдвигом
1 Узор на основе английской резинки
2 Имитация кос
3 Полуажурное полотно
4 Имитация ажурного полотна
Урок 14 Работа с программой КnittStyler.
1 Рисование
2 Выкройки и галереи
3 Модели
4 Конвертер
МАЛЕНЬКИЕ ХИТРОСТИ
1 Наборный край "косичка" на передней игольнице
2 Снятие каретки с игольницы
3 Замена игл
4 Перенос петель
5 Бонусы
Предупреждение: Данный материал предназначен только для серьёзных людей, которые действительно готовы учиться и применять полученные знания на практике. Информации в курсе достаточно много и большая её часть имеет практическую направленность, поэтому требует тщательной проработки и обязательного практического применения.

Mediainfo

Общее
Код:
[size=14]Полное имя                               : E:\media\работа на машине silver reed sk280srp60n\AutoPlay\Videos\1_2.wmv
Формат                                   : Windows Media
Размер файла                             : 67,8 Мбайт
Продолжительность                        : 11 м. 20 с.
Режим общего битрейта                    : Переменный
Общий поток                              : 836 Кбит/сек
Максимальный общий битрейт               : 1077 Кбит/сек
Дата кодирования                         : UTC 2009-03-25 17:21:28.125
Видео
Идентификатор                            : 2
Формат                                   : VC-1
Профиль формата                          : MP@ML
Идентификатор кодека                     : WMV3
Идентификатор кодека/Информация          : Windows Media Video 9
Идентификатор кодека/Подсказка           : WMV3
Описание кодека                          : Windows Media Video 9
Продолжительность                        : 11 м. 20 с.
Вид битрейта                             : Переменный
Битрейт                                  : 793 Кбит/сек
Ширина                                   : 640 пикселей
Высота                                   : 480 пикселей
Соотношение сторон                       : 4:3
Частота кадров                           : 14,980 кадров/сек
Номинальная частота кадров               : 15,000 кадров/сек
Цветовое пространство                    : YUV
Субдискретизация насыщенности            : 4:2:0
Битовая глубина                          : 8 бит
Тип развёртки                            : Прогрессивная
Метод сжатия                             : С потерями
Бит/(Пиксели*Кадры)                      : 0.172
Размер потока                            : 64,3 Мбайт (95%)
Язык                                     : English (United States)
Аудио
Идентификатор                            : 1
Формат                                   : WMA
Профиль формата                          : Voice
Идентификатор кодека                     : A
Идентификатор кодека/Информация          : Windows Media Audio
Описание кодека                          : Windows Media Audio Voice 9 - 20 kbps, 22.05 kHz, mono
Продолжительность                        : 11 м. 20 с.
Вид битрейта                             : Постоянный
Битрейт                                  : 20,0 Кбит/сек
Каналы                                   : 1 канал
Частота                                  : 22,05 КГц
Битовая глубина                          : 16 бит
Размер потока                            : 1,62 Мбайт (2%)
Язык                                     : English (United States)[/size]
Скриншоты:

Дополнительные скриншоты:

XP1971

Пост 31-Июл-2017 23:15

[Цитировать]

Владимир Сковородников | Фундаментальный курс по основам фотографии (2016) PCRec - Автор (режиссер): Владимир Сковородников
Жанр: Съемка фото, обработка, ретушь
Описание:
Фундаментальный курс для тех, кто хочет улучшить свои навыки фотосъёмки. Начиная с основных понятий - как устроена камера, как разобраться в основных её параметрах и закачивая тонкостями профессиональной обработки фотографий.
Курс подготовил член союза фотохудожников России Владимир Сковородников.
Продолжительность: 10:33:26
Качество видео: PCRec
Видео: AVC/H.264, 1920x1080, ~865 kb/s
Аудио: AAC, 2 ch, 144 kb/s

Mediainfo:

General
Complete name : F:Владимир Сковородников - Фундаментальный курс по основам фотографии (2016)\Занятие 1.mp4
Format : MPEG-4
Format profile : Base Media / Version 2
Codec ID : mp42 (isom/iso2/avc1/mp41)
File size : 155 MiB
Duration : 21 min 19 s
Overall bit rate mode : Variable
Overall bit rate : 1 018 kb/s
Encoded date : UTC 2016-10-30 16:09:07
Tagged date : UTC 2016-10-30 16:09:07
Writing application : HandBrake 0.10.5 2016021100
Video
ID : 1
Format : AVC
Format/Info : Advanced Video Codec
Format profile : Main@L4
Format settings, CABAC : Yes
Format settings, ReFrames : 4 frames
Codec ID : avc1
Codec ID/Info : Advanced Video Coding
Duration : 21 min 19 s
Bit rate : 865 kb/s
Width : 1 920 pixels
Height : 1 080 pixels
Display aspect ratio : 16:9
Frame rate mode : Variable
Frame rate : 30.000 FPS
Minimum frame rate : 10.000 FPS
Maximum frame rate : 30.010 FPS
Color space : YUV
Chroma subsampling : 4:2:0
Bit depth : 8 bits
Scan type : Progressive
Bits/(Pixel*Frame) : 0.014
Stream size : 132 MiB (85%)
Writing library : x264 core 142 r2479 dd79a61
Encoding settings : cabac=1 / ref=1 / deblock=1:0:0 / analyse=0x1:0x111 / me=hex / subme=2 / psy=1 / psy_rd=1.00:0.00 / mixed_ref=0 / me_range=16 / chroma_me=1 / trellis=0 / 8x8dct=0 / cqm=0 / deadzone=21,11 / fast_pskip=1 / chroma_qp_offset=0 / threads=12 / lookahead_threads=4 / sliced_threads=0 / nr=0 / decimate=1 / interlaced=0 / bluray_compat=0 / constrained_intra=0 / bframes=3 / b_pyramid=2 / b_adapt=1 / b_bias=0 / direct=1 / weightb=1 / open_gop=0 / weightp=1 / keyint=300 / keyint_min=30 / scenecut=40 / intra_refresh=0 / rc_lookahead=10 / rc=crf / mbtree=1 / crf=20.0 / qcomp=0.60 / qpmin=0 / qpmax=69 / qpstep=4 / vbv_maxrate=20000 / vbv_bufsize=25000 / crf_max=0.0 / nal_hrd=none / filler=0 / ip_ratio=1.40 / aq=1:1.00
Encoded date : UTC 2016-10-30 16:09:07
Tagged date : UTC 2016-10-30 16:09:07
Color range : Limited
Color primaries : BT.709
Transfer characteristics : BT.709
Matrix coefficients : BT.709
Audio
ID : 2
Format : AAC
Format/Info : Advanced Audio Codec
Format profile : LC
Codec ID : 40
Duration : 21 min 19 s
Bit rate mode : Variable
Bit rate : 144 kb/s
Channel(s) : 2 channels
Channel positions : Front: L R
Sampling rate : 44.1 kHz
Frame rate : 43.066 FPS (1024 spf)
Compression mode : Lossy
Stream size : 22.0 MiB (14%)
Title : Stereo / Stereo
Language : English
Default : Yes
Alternate group : 1
Скриншоты:
       

Nickopol

Пост 16-Июл-2017 11:52

[Цитировать]

Скачал, будем пррробовать
 

Текущее время: Сегодня 21:48

Часовой пояс: GMT + 3