Сегодня идет свободное скачивание без начисления Download

Результатов поиска: 46

Автор Сообщение

sergey1059

Пост 15-Фев-2018 15:02

[Цитировать]

Без Губерниева есть, не могу его слушать.

Varius

Пост 10-Фев-2018 21:14

[Цитировать]

XXIII Зимние Олимпийские игры 2018. Пхёнчхан (Корея). Церемония открытия (09.02.2018) HDTVRip [H.264/720p-LQ] [hand made 50fps] - Телекомпания: Матч! Арена HD
Жанр: Церемония, Спорт
Комментаторы: Дмитрий Губерниев, Ольга Богословская
Описание:
XXIII Зимние Олимпийские игры 2018 пройдут с 9 по 25 февраля 2018 года в городе Пхёнчхане, Республика Корея. 15 зимних спортивных дисциплин, составляющих собой 7 зимних видов спорта входят в программу олимпийских игр. МОК включил шесть новых дисциплин в программу Олимпиады-2018, в программу добавлены дисциплина биг-эйр в сноуборде (мужчины и женщины), масс-старт в конькобежном спорте (мужчины и женщины), дабл-микст в керлинге и командные соревнования в горнолыжном спорте. Исключены две дисциплины — параллельный слалом в сноуборде (мужчины и женщины).
На Олимпийских играх будут представлены 92 страны. 6 стран впервые примут участие в зимних Олимпийских играх. Также на играх выступит объединённая сборная Кореи, которая примет участие в женском хоккейном турнире.
Продолжительность: 02:30:09
Качество видео: HDTVRip
Язык озвучки: Русский
Субтитры: отсутствуют
Видео: AVC/H.264, 1280x720 (16:9), ~3500 Kbps, 50 fps
Аудио: AAC, 2 ch, 48 kHz, 128 Kbps

Mediainfo:

Общее
Уникальный идентификатор : 273769678286394024244805951288066030281 (0xCDF61F43C2D8BA97F1A19B7A0BC1BAC9)
Полное имя : F:\2018 Winter Olympics Games. PyeongChang (KOR)\(09.02.2018)_WOG 2018.PyeongChang(KOR). Opening Ceremony.mkv
Формат : Matroska
Версия формата : Version 4 / Version 2
Размер файла : 3,83 Гбайт
Продолжительность : 2 ч. 30 м.
Общий поток : 3647 Кбит/сек
Дата кодирования : UTC 2018-02-09 19:41:41
Программа кодирования : mkvmerge v20.0.0 ('I Am The Sun') 32-bit
Библиотека кодирования : libebml v1.3.5 + libmatroska v1.4.8
Видео
Идентификатор : 1
Формат : AVC
Формат/Информация : Advanced Video Codec
Профиль формата : [url=mailto:High@L3.2]High@L3.2[/url]
Настройки формата : CABAC / 4 Ref Frames
Параметр CABAC формата : Да
Параметр RefFrames формата : 4 кадра
Идентификатор кодека : V_MPEG4/ISO/AVC
Продолжительность : 2 ч. 30 м.
Битрейт : 3500 Кбит/сек
Ширина : 1280 пикселей
Высота : 720 пикселей
Соотношение сторон : 16:9
Режим частоты кадров : Постоянный
Частота кадров : 50,000 кадров/сек
Цветовое пространство : YUV
Субдискретизация насыщенности : 4:2:0
Битовая глубина : 8 бит
Тип развёртки : Прогрессивная
Бит/(Пиксели*Кадры) : 0.076
Размер потока : 3,69 Гбайт (96%)
Библиотека кодирования : x264 core 146 r2538 121396c
Настройки программы : cabac=1 / ref=3 / deblock=1:0:0 / analyse=0x3:0x113 / me=hex / subme=7 / psy=1 / psy_rd=1.00:0.00 / mixed_ref=1 / me_range=16 / chroma_me=1 / trellis=1 / 8x8dct=1 / cqm=0 / deadzone=21,11 / fast_pskip=1 / chroma_qp_offset=-2 / threads=12 / lookahead_threads=2 / sliced_threads=0 / nr=0 / decimate=1 / interlaced=0 / bluray_compat=0 / constrained_intra=0 / bframes=3 / b_pyramid=2 / b_adapt=1 / b_bias=0 / direct=1 / weightb=1 / open_gop=0 / weightp=2 / keyint=250 / keyint_min=25 / scenecut=40 / intra_refresh=0 / rc_lookahead=40 / rc=abr / mbtree=1 / bitrate=3500 / ratetol=1.0 / qcomp=0.60 / qpmin=0 / qpmax=69 / qpstep=4 / ip_ratio=1.40 / aq=1:1.00
Default : Да
Forced : Нет
Аудио
Идентификатор : 2
Формат : AAC
Формат/Информация : Advanced Audio Codec
Профиль формата : LC
Идентификатор кодека : A_AAC-2
Продолжительность : 2 ч. 30 м.
Битрейт : 128 Кбит/сек
Каналы : 2 канала
Расположение каналов : Front: L R
Частота : 48,0 КГц
Частота кадров : 46,875 кадров/сек (1024 SPF)
Метод сжатия : С потерями
Задержка видео : 9 мс.
Размер потока : 137 Мбайт (4%)
Язык : Russian
Default : Да
Forced : Нет
Скриншоты:
       

NarDok

Пост 15-Фев-2015 20:51

[Цитировать]

Сильные духом (2015) HDTV [H.264/1080i-LQ]- Телекомпания: Первый канал HD
Жанр: Документальный, Спорт
Описание:7 марта 2014 года в Сочи стартовали XI Паралимпийские зимние игры. Заявленная программа стала рекордной в истории по количеству медалей - 72 и видов спорта - 5.
В рамках горнолыжной программы впервые был представлен пара-сноуборд. В паралимпиаде приняли участие 45 стран, 55 спортсменов.
В состав нашей сборной вошли и 7 чемпионов паралимпийских игр. Наши спортсмены стали золотыми призерами.
Как готовились к победе наши спортсмены? И как смогли оставить далеко позади соперников?
Валерий Редкозубов стал двукратным золотым чемпионом паралимпийских игр. Абсолютного чемпиона мира в этом виде спорта Валерия Редкозубова на трассе сопровождал зрячий лидер – Евгений Героев. Только за последний предолимпийский месяц Редкозубов принял участие в 16-ти турнирах. Так что к паралимпиаде спортсмен подошел в великолепной форме. На открытии паралимпиады он нес флаг нашей сборной.
Светлана Коновалова – двукратная олимпийская чемпионка. Завоевала еще 2 серебряных и 1 бронзовую награды. Воспитанница детского дома. После рождения с тяжёлой травмой позвоночника Свету оставили в детском доме. Когда ей исполнилось 23 года, Светлана случайно узнала, что у неё есть сестра Евгения, и они встретились. Евгения работала волонтером на паралимпиаде в Сочи. История двух сестер.
Четырехкратный олимпийский чемпион Ирек Зарипов вышел на старт уже на следующий день после открытия игр. На него возлагались большие надежды, но он стал лишь серебряным призером, но двукратным. В паралимпийскую сборную он пришел после того, как попал в автомобильную авария в 2000 году. Уже через полгода на играх в Турине он показал очень хороший результат. Карьера чемпиона помогла ему завоевать сердце девушки, которую он любил с детства. Сейчас у них двое детей. Семья будет болеть за Ирека в полном составе. Родные были уверены в его победе, ведь последний год спортсмен тренировался по восемь часов в день.
Для Инги Медведевой сочинская паралимпиада стала уже пятой. Она попала в автоаварию, когда ей было 11, а уже в 12 встала на лыжи. Инга – единственная в России спортсменка, которая катается на одной лыже. Но на паралимпиаде ей пришлось нелегко – она соревновалась и с теми спортсменами, что стоят на двух лыжах. Но те, кто знает, какой у Инги сильный характер, были уверены в ее победе – Инга взяла серебро. Дома за соревнованиями мамы следила 5-летняя Лена.
Чемпионка мира по керлингу на колясках Светлана Пахомова, как и вся ее команда была дебютантом паралимпиады. Чемпионкой Светлана Пахомова стала уже через пять лет после того, как впервые вышла на лед. Дома за нее болели муж, двое взрослых сыновей, и внук. Что побудило ее заняться спортом, и как она стала серебряным призером сочинской паралимпиады?
Продолжительность: 00:46:25
Качество видео: HDTV
Видеокодек: MPEG-4 AVC/H.264
Битрейт видео: ~10,7 Мбит/сек
Размер кадра: 1920x1080
Аудиокодек: MP2, 2ch
Битрейт аудио: 192.00 kbps

Mediainfo

Общее
Идентификатор : 1 (0x1)
Идентификатор : 1 (0x1) Полное имя : F:\видео\фильмы\Silnye.duhom.HDTV.1080i..ts
Полное имя : F:\видео\фильмы\Silnye.duhom.HDTV.1080i..ts Формат : MPEG-TS
Формат : MPEG-TS Размер файла : 3,72 Гбайт
Размер файла : 3,72 Гбайт Продолжительность : 46 м.
Продолжительность : 46 м. Режим общего битрейта : Переменный
Режим общего битрейта : Переменный Общий поток : 11,5 Мбит/сек
Общий поток : 11,5 Мбит/сек
Видео
Идентификатор : 1603 (0x643)
Идентификатор : 1603 (0x643) Идентификатор меню : 1 (0x1)
Идентификатор меню : 1 (0x1) Формат : AVC
Формат : AVC Формат/Информация : Advanced Video Codec
Формат/Информация : Advanced Video Codec Профиль формата : [url=mailto:High@L4.0]High@L4.0[/url]
Профиль формата : [url=mailto:High@L4.0]High@L4.0[/url] Параметр CABAC формата : Да
Параметр CABAC формата : Да Параметр ReFrames формата : 3 кадра
Параметр ReFrames формата : 3 кадра Идентификатор кодека : 27
Идентификатор кодека : 27 Продолжительность : 46 м.
Продолжительность : 46 м. Битрейт : 10,7 Мбит/сек
Битрейт : 10,7 Мбит/сек Ширина : 1920 пикселей
Ширина : 1920 пикселей Высота : 1080 пикселей
Высота : 1080 пикселей Соотношение сторон : 16:9
Соотношение сторон : 16:9 Частота кадров : 25,000 кадров/сек
Частота кадров : 25,000 кадров/сек Стандарт вещания : Component
Стандарт вещания : Component Цветовое пространство : YUV
Цветовое пространство : YUV Субдискретизация насыщенности : 4:2:0
Субдискретизация насыщенности : 4:2:0 Битовая глубина : 8 бит
Битовая глубина : 8 бит Тип развёртки : Чересстрочная
Тип развёртки : Чересстрочная Порядок развёртки : Верхнее поле первое
Порядок развёртки : Верхнее поле первое Бит/(Пиксели*Кадры) : 0.206
Бит/(Пиксели*Кадры) : 0.206 Размер потока : 3,47 Гбайт (93%)
Размер потока : 3,47 Гбайт (93%) Основные цвета : BT.709
Основные цвета : BT.709 Характеристики трансфера : BT.709
Характеристики трансфера : BT.709 Коэффициенты матрицы : BT.709
Коэффициенты матрицы : BT.709 colour_range : Limited
colour_range : Limited
Аудио
Идентификатор : 2603 (0xA2B)
Идентификатор : 2603 (0xA2B) Идентификатор меню : 1 (0x1)
Идентификатор меню : 1 (0x1) Формат : MPEG Audio
Формат : MPEG Audio Версия формата : Version 1
Версия формата : Version 1 Профиль формата : Layer 2
Профиль формата : Layer 2 Идентификатор кодека : 3
Идентификатор кодека : 3 Продолжительность : 46 м.
Продолжительность : 46 м. Вид битрейта : Постоянный
Вид битрейта : Постоянный Битрейт : 192 Кбит/сек
Битрейт : 192 Кбит/сек Каналы : 2 канала
Каналы : 2 канала Частота : 48,0 КГц
Частота : 48,0 КГц Метод сжатия : С потерями
Метод сжатия : С потерями Размер потока : 63,7 Мбайт (2%)
Размер потока : 63,7 Мбайт (2%) Язык : Russian
Язык : Russian
Скриншоты:
       

Varius

Пост 08-Мар-2014 18:06

[Цитировать]

Паралимпийские игры 2014. Кёрлинг. Россия - Китай (2014.03.08) DVB [H.264] - Режиссер / Телекомпания: СПОРТ 1
Русское название: Паралимпийские игры 2014
Год выпуска: 2014
Жанр: Спорт
Выпущено: Россия
Описание:
Кёрлинг. Россия - Китай
Продолжительность: 02:24:14
Видеокодек: AVC
Качество видео: DVB
Битрейт видео: ~1372 kb/s
Размер кадра: 720 x 576
Аудиокодек: MP3, 2.0ch.
Битрейт аудио: 128 kb/s

MediaInfo:

Формат : MPEG-TS
Размер файла : 1,55 Гбайт
Продолжительность : 2 ч. 24 м.
Общий поток : 1542 Кбит/сек
Видео
Идентификатор : 69 (0x45)
Идентификатор меню : 1 (0x1)
Формат : AVC
Формат/Информация : Advanced Video Codec
Профиль формата : [url=mailto:High@L3.0]High@L3.0[/url]
Параметр CABAC формата : Да
Параметр ReFrames формата : 4 кадра
Идентификатор кодека : 27
Продолжительность : 2 ч. 24 м.
Битрейт : 1372 Кбит/сек
Ширина : 720 пикселей
Высота : 576 пикселей
Соотношение сторон : 4:3
Частота кадров : 25,000 кадров/сек
Стандарт вещания : PAL
Цветовое пространство : YUV
Субдискретизация насыщенности : 4:2:0
Битовая глубина : 8 бит
Тип развёртки : Прогрессивная
Бит/(Пиксели*Кадры) : 0.132
Размер потока : 1,35 Гбайт (87%)
Библиотека кодирования : x264 core 124
Настройки программы : cabac=1 / ref=1 / deblock=1:-1:-1 / analyse=0x3:0x13 / me=dia / subme=1 / psy=1 / psy_rd=1.00:0.15 / mixed_ref=0 / me_range=16 / chroma_me=1 / trellis=0 / 8x8dct=1 / cqm=0 / deadzone=21,11 / fast_pskip=1 / chroma_qp_offset=0 / threads=8 / sliced_threads=0 / nr=0 / decimate=1 / interlaced=0 / bluray_compat=0 / constrained_intra=0 / bframes=3 / b_pyramid=2 / b_adapt=1 / b_bias=0 / direct=1 / weightb=1 / open_gop=0 / weightp=1 / keyint=60 / keyint_min=6 / scenecut=40 / intra_refresh=0 / rc_lookahead=0 / rc=cbr / mbtree=0 / bitrate=1372 / ratetol=1.0 / qcomp=0.60 / qpmin=10 / qpmax=51 / qpstep=4 / vbv_maxrate=1372 / vbv_bufsize=1500 / nal_hrd=none / ip_ratio=1.40 / pb_ratio=1.30 / aq=1:1.00
Аудио
Идентификатор : 68 (0x44)
Идентификатор меню : 1 (0x1)
Формат : MPEG Audio
Версия формата : Version 1
Профиль формата : Layer 3
Режим : Joint stereo
Расширение режима : MS Stereo
Идентификатор кодека : 3
Продолжительность : 2 ч. 24 м.
Вид битрейта : Постоянный
Битрейт : 128 Кбит/сек
Каналы : 2 канала
Частота : 44,1 КГц
Метод сжатия : С потерями
Задержка видео : 14 мс.
Размер потока : 132 Мбайт (8%)
Язык : Russian
Скриншоты:          

Varius

Пост 08-Мар-2014 18:05

[Цитировать]

Паралимпийские игры 2014. Биатлон стоя. Спринт. Мужчины 7,5 км. Женщины 6 км (2014.03.08) DVB [H.264] - Режиссер / Телекомпания: Россия 2
Русское название: Паралимпийские игры 2014
Год выпуска: 2014
Жанр: Спорт
Выпущено: Россия
Описание:
Биатлон стоя. Спринт. Мужчины 7,5 км. Женщины 6 км
Ведущие: Руслан Гатаулин
Продолжительность: 00:50:36
Видеокодек: AVC
Качество видео: DVB
Битрейт видео: ~2585 kb/s
Размер кадра: 720 x 576
Аудиокодек: MP2, 2.0ch.
Битрейт аудио: 192 kb/s

MediaInfo:

Формат : MPEG-TS
Размер файла : 1,03 Гбайт
Продолжительность : 50 м.
Общий поток : 2924 Кбит/сек
Видео
Идентификатор : 1031 (0x407)
Идентификатор меню : 1 (0x1)
Формат : AVC
Формат/Информация : Advanced Video Codec
Профиль формата : [url=mailto:Main@L3.0]Main@L3.0[/url]
Параметр CABAC формата : Да
Параметр ReFrames формата : 3 кадра
Идентификатор кодека : 27
Продолжительность : 50 м.
Битрейт : 2585 Кбит/сек
Ширина : 720 пикселей
Высота : 576 пикселей
Соотношение сторон : 4:3
Частота кадров : 25,000 кадров/сек
Стандарт вещания : Component
Цветовое пространство : YUV
Субдискретизация насыщенности : 4:2:0
Битовая глубина : 8 бит
Тип развёртки : Чересстрочная
Порядок развёртки : Верхнее поле первое
Бит/(Пиксели*Кадры) : 0.249
Размер потока : 936 Мбайт (88%)
Основные цвета : BT.470-6 System B, BT.470-6 System G, BT.601-6 625, BT.1358 625, BT.1700 625 PAL, BT.1700 625 SECAM
Характеристики трансфера : BT.470-6 System B, BT.470-6 System G
Коэффициенты матрицы : BT.470-6 System B, BT.470-6 System G, BT.601-6 625, BT.1358 625, BT.1700 625 PAL, BT.1700 625 SECAM, IEC 61966-2-4 601
Аудио
Идентификатор : 1032 (0x408)
Идентификатор меню : 1 (0x1)
Формат : MPEG Audio
Версия формата : Version 1
Профиль формата : Layer 2
Идентификатор кодека : 3
Продолжительность : 50 м.
Вид битрейта : Постоянный
Битрейт : 192 Кбит/сек
Каналы : 2 канала
Частота : 48,0 КГц
Метод сжатия : С потерями
Размер потока : 69,5 Мбайт (7%)
Язык : English
Скриншоты:          

Varius

Пост 08-Мар-2014 18:03

[Цитировать]

Паралимпийские игры 2014. Биатлон стоя. Спринт. Мужчины 7,5 км. Женщины 6 км. Спортсмены с нарушением зрения (2014.03.08) DVB [H.264] - Режиссер / Телекомпания: Россия 2
Русское название: Паралимпийские игры 2014
Год выпуска: 2014
Жанр: Спорт
Выпущено: Россия
Описание:
Биатлон стоя. Спринт. Мужчины 7,5 км. Женщины 6 км. Спортсмены с нарушением зрения
Ведущие: Руслан Гатаулин
Продолжительность: 01:02:55
Видеокодек: AVC
Качество видео: DVB
Битрейт видео: ~2584 kb/s
Размер кадра: 720 x 576
Аудиокодек: MP2, 2.0ch.
Битрейт аудио: 192 kb/s

MediaInfo:

Формат : MPEG-TS
Размер файла : 1,28 Гбайт
Продолжительность : 1 ч. 2 м.
Общий поток : 2923 Кбит/сек
Видео
Идентификатор : 1031 (0x407)
Идентификатор меню : 1 (0x1)
Формат : AVC
Формат/Информация : Advanced Video Codec
Профиль формата : [url=mailto:Main@L3.0]Main@L3.0[/url]
Параметр CABAC формата : Да
Параметр ReFrames формата : 3 кадра
Параметр GOP формата : M=4, N=28
Идентификатор кодека : 27
Продолжительность : 1 ч. 2 м.
Битрейт : 2584 Кбит/сек
Ширина : 720 пикселей
Высота : 576 пикселей
Соотношение сторон : 4:3
Частота кадров : 25,000 кадров/сек
Стандарт вещания : Component
Цветовое пространство : YUV
Субдискретизация насыщенности : 4:2:0
Битовая глубина : 8 бит
Тип развёртки : Чересстрочная
Порядок развёртки : Верхнее поле первое
Бит/(Пиксели*Кадры) : 0.249
Размер потока : 1,14 Гбайт (88%)
Основные цвета : BT.470-6 System B, BT.470-6 System G, BT.601-6 625, BT.1358 625, BT.1700 625 PAL, BT.1700 625 SECAM
Характеристики трансфера : BT.470-6 System B, BT.470-6 System G
Коэффициенты матрицы : BT.470-6 System B, BT.470-6 System G, BT.601-6 625, BT.1358 625, BT.1700 625 PAL, BT.1700 625 SECAM, IEC 61966-2-4 601
Аудио
Идентификатор : 1032 (0x408)
Идентификатор меню : 1 (0x1)
Формат : MPEG Audio
Версия формата : Version 1
Профиль формата : Layer 2
Идентификатор кодека : 3
Продолжительность : 1 ч. 2 м.
Вид битрейта : Постоянный
Битрейт : 192 Кбит/сек
Каналы : 2 канала
Частота : 48,0 КГц
Метод сжатия : С потерями
Размер потока : 86,4 Мбайт (7%)
Язык : English
Скриншоты:          

Varius

Пост 26-Фев-2014 22:25

[Цитировать]

Олимпийские игры 2014. Наше Золото (2014.02.24) DVB - Режиссер / Телекомпания: Россия 2
Русское название: Олимпийские игры 2014. Наше Золото
Год выпуска: 2014
Жанр: Спорт
Выпущено: Россия
Описание:
Самые яркие моменты XXII зимних Олимпийских игр в Сочи с участием наших спортсменов. Нарезка золотых выступлений.
Продолжительность: 04:00:53
Видеокодек: MPEG2(MPEG-PS)
Качество видео: DVB
Битрейт видео: ~2350 kb/s
Размер кадра: 720 x 576
Аудиокодек: MP2, 2.0ch.
Битрейт аудио: 192 kb/s

MediaInfo:

Формат : MPEG-PS
Размер файла : 4,36 Гбайт
Продолжительность : 4 ч. 0 м.
Режим общего битрейта : Переменный
Общий поток : 2594 Кбит/сек
Видео
Идентификатор : 224 (0xE0)
Формат : MPEG Video
Версия формата : Version 2
Профиль формата : Main@Main
Параметр BVOP формата : Да
Параметр матрицы формата : Выборочная
Продолжительность : 4 ч. 0 м.
Вид битрейта : Переменный
Битрейт : 2350 Кбит/сек
Максимальный битрейт : 15,0 Мбит/сек
Ширина : 720 пикселей
Высота : 576 пикселей
Соотношение сторон : 4:3
Частота кадров : 25,000 кадров/сек
Стандарт вещания : PAL
Цветовое пространство : YUV
Субдискретизация насыщенности : 4:2:0
Битовая глубина : 8 бит
Тип развёртки : Чересстрочная
Порядок развёртки : Верхнее поле первое
Метод сжатия : С потерями
Бит/(Пиксели*Кадры) : 0.227
Размер потока : 3,95 Гбайт (91%)
Аудио
Идентификатор : 192 (0xC0)
Формат : MPEG Audio
Версия формата : Version 1
Профиль формата : Layer 2
Продолжительность : 4 ч. 0 м.
Вид битрейта : Постоянный
Битрейт : 192 Кбит/сек
Каналы : 2 канала
Частота : 48,0 КГц
Метод сжатия : С потерями
Задержка видео : 104 мс.
Размер потока : 331 Мбайт (7%)
Скриншоты:                    

Varius

Пост 26-Фев-2014 22:21

[Цитировать]

Олимпийские игры 2014. Наши медали (2014.02.23) SATRip [H.264] - Режиссер / Телекомпания: Россия
Русское название: Олимпийские игры 2014. Наше Золото
Год выпуска: 2014
Жанр: Спорт
Выпущено: Россия
Описание:
Самые яркие моменты XXII зимних Олимпийских игр в Сочи с участием наших спортсменов. Нарезка золотых выступлений.
Продолжительность: 01:46:40
Видеокодек: AVC(MPEG-TS)
Качество видео: SATRip
Битрейт видео: ~1372 kb/s
Размер кадра: 720 x 576
Аудиокодек: MP3, 2.0ch.
Битрейт аудио: 128 kb/s

MediaInfo:

Формат : MPEG-TS
Размер файла : 1,22 Гбайт
Продолжительность : 1 ч. 46 м.
Общий поток : 1643 Кбит/сек
Видео
Идентификатор : 256 (0x100)
Идентификатор меню : 1 (0x1)
Формат : AVC
Формат/Информация : Advanced Video Codec
Профиль формата : [url=mailto:High@L3.0]High@L3.0[/url]
Параметр CABAC формата : Да
Параметр ReFrames формата : 4 кадра
Идентификатор кодека : 27
Продолжительность : 1 ч. 46 м.
Битрейт : 1372 Кбит/сек
Ширина : 720 пикселей
Высота : 576 пикселей
Соотношение сторон : 4:3
Частота кадров : 25,000 кадров/сек
Стандарт вещания : PAL
Цветовое пространство : YUV
Субдискретизация насыщенности : 4:2:0
Битовая глубина : 8 бит
Тип развёртки : Прогрессивная
Бит/(Пиксели*Кадры) : 0.132
Размер потока : 1,07 Гбайт (87%)
Библиотека кодирования : x264 core 124 r2197 69a0443
Настройки программы : cabac=1 / ref=1 / deblock=1:-1:-1 / analyse=0x3:0x13 / me=dia / subme=1 / psy=1 / psy_rd=1.00:0.15 / mixed_ref=0 / me_range=16 / chroma_me=1 / trellis=0 / 8x8dct=1 / cqm=0 / deadzone=21,11 / fast_pskip=1 / chroma_qp_offset=0 / threads=8 / sliced_threads=0 / nr=0 / decimate=1 / interlaced=0 / bluray_compat=0 / constrained_intra=0 / bframes=3 / b_pyramid=2 / b_adapt=1 / b_bias=0 / direct=1 / weightb=1 / open_gop=0 / weightp=1 / keyint=60 / keyint_min=6 / scenecut=40 / intra_refresh=0 / rc_lookahead=0 / rc=cbr / mbtree=0 / bitrate=1372 / ratetol=1.0 / qcomp=0.60 / qpmin=10 / qpmax=51 / qpstep=4 / vbv_maxrate=1372 / vbv_bufsize=1500 / nal_hrd=none / ip_ratio=1.40 / pb_ratio=1.30 / aq=1:1.00
Аудио
Идентификатор : 257 (0x101)
Идентификатор меню : 1 (0x1)
Формат : MPEG Audio
Версия формата : Version 1
Профиль формата : Layer 3
Режим : Joint stereo
Расширение режима : MS Stereo
Идентификатор кодека : 3
Продолжительность : 1 ч. 46 м.
Вид битрейта : Постоянный
Битрейт : 128 Кбит/сек
Каналы : 2 канала
Частота : 44,1 КГц
Метод сжатия : С потерями
Задержка видео : 6 мс.
Размер потока : 97,6 Мбайт (8%)
Меню
Идентификатор : 4096 (0x1000)
Идентификатор меню : 1 (0x1)
Продолжительность : 1 ч. 46 м.
Список : 256 (0x100) (AVC) / 257 (0x101) (MPEG Audio)
Название сервиса : Service01
Поставщик сервиса : FFmpeg
Тип сервиса : digital television
Скриншоты:                    

Varius

Пост 24-Фев-2014 04:01

[Цитировать]

Олимпийские игры 2014. Церемония закрытия (2014.02.23) HDTV [H.264/1080i] [Спорт1]- Режиссер / Телекомпания: СПОРТ 1
Русское название: Олимпийские игры 2014
Год выпуска: 2014
Жанр: Спорт
Выпущено: Россия,
Описание:
XXII Олимпийские зимние игры 2014 года в Сочи завершатся сегодня Церемонией закрытия на Олимпийском стадионе «Фишт». Церемония представит яркое и эмоциональное завершение Игр и станет посвящением русской культуре. Зрители увидят Россию глазами европейца – признанного во всем мире режиссера Даниэле Финци Паска, который присоединился к команде российских профессионалов в качестве режиссера-постановщика Церемонии закрытия Олимпийских игр в Сочи. Главным креативным директором Церемонии закрытия стал Константин Эрнст, Исполнительным продюсером Церемонии - Андрей Насоновский. Зрители Церемонии закрытия Олимпийских зимних игр 2014 года вновь встретятся с уже знакомой им по Церемонии открытия девочкой Любовь, которая вместе со своими новыми друзьями, Валентиной и Юрой, будет путешествовать через русскую культуру – переворачивать страницы русской литературы, наслаждаться волшебством русской живописи и внимать чудесным звукам русской музыки. По традиции, часть Церемонии закрытия будет посвящена торжественной церемонии передачи Олимпийского флага столице будущих зимних Игр - городу Пхёнчхан
Ведущие: Дмитрий Губерниев, Сергей Брылев
Продолжительность: 02:30:56
Видеокодек: AVC
Качество видео: HDTV
Битрейт видео: ~8363 kb/s
Размер кадра: 1920 x 1080
Аудиокодек: MP2, 2.0ch.
Битрейт аудио: 192 kb/s

MediaInfo:

Формат : MPEG-TS
Размер файла : 9,49 Гбайт
Продолжительность : 2 ч. 30 м.
Общий поток : 9002 Кбит/сек
Видео
Идентификатор : 41 (0x29)
Идентификатор меню : 1 (0x1)
Формат : AVC
Формат/Информация : Advanced Video Codec
Профиль формата : [url=mailto:High@L4.0]High@L4.0[/url]
Параметр CABAC формата : Да
Параметр ReFrames формата : 3 кадра
Параметр GOP формата : M=4, N=32
Идентификатор кодека : 27
Продолжительность : 2 ч. 30 м.
Битрейт : 8363 Кбит/сек
Ширина : 1920 пикселей
Высота : 1080 пикселей
Соотношение сторон : 16:9
Частота кадров : 25,000 кадров/сек
Стандарт вещания : Component
Цветовое пространство : YUV
Субдискретизация насыщенности : 4:2:0
Битовая глубина : 8 бит
Тип развёртки : Чересстрочная
Порядок развёртки : Верхнее поле первое
Бит/(Пиксели*Кадры) : 0.161
Размер потока : 8,82 Гбайт (93%)
Основные цвета : BT.709-5, BT.1361, IEC 61966-2-4, SMPTE RP177
Характеристики трансфера : BT.709-5, BT.1361
Коэффициенты матрицы : BT.709-5, BT.1361, IEC 61966-2-4 709, SMPTE RP177
Аудио
Идентификатор : 44 (0x2C)
Идентификатор меню : 1 (0x1)
Формат : MPEG Audio
Версия формата : Version 1
Профиль формата : Layer 2
Идентификатор кодека : 3
Продолжительность : 2 ч. 30 м.
Вид битрейта : Постоянный
Битрейт : 192 Кбит/сек
Каналы : 2 канала
Частота : 48,0 КГц
Метод сжатия : С потерями
Размер потока : 207 Мбайт (2%)
Язык : Russian
Скриншоты:          

Varius

Пост 13-Фев-2014 21:01

[Цитировать]

Олимпийские игры 2014. Хоккей. Хоккей. Мужчины. Группа С. Чехия - Швеция (2014.02.12) HDTV [1080i]- Телекомпания: НТВ+ СпортХит HD
Дата выпуска: 2014.02.12
Жанр: Спорт, Видовой
Комментаторы: Денис Казанский и Борис Майоров
Описание:
Звенит в ушах лихая музыка атаки,
Точней отдай на клюшку пас, сильней ударь.
И все в порядке, если только на площадке
Великолепная пятерка и вратарь.
Суровый бой ведет ледовая дружина,
Мы верим мужеству отчаянных парней.
В хоккей играют настоящие мужчины,
Трус не играет в хоккей.
Варяги или братья-славяне? Смогут ли старики-разбойники Ягр и Недвед доказать жёлто-синим, что есть ещё порох в пороховницах? Или же викинги докажут, что без Доминатора чешские ворота - просто большая дырка?
Продолжительность: 01:53:07
Качество видео: HDTV
Видеокодек: AVC
Битрейт видео: ~15300 Kb/s
Размер кадра: 1920x1080i
Аудиокодек: MP2 2.0
Битрейт аудио: 192 kb/s

MediaInfo:

General
ID : 1 (0x1)
Complete name : F:\Multimedia\Video\Sochi\XXII Зимние Олимпийские игры. Сочи. 12.02.2014. Хоккей. Мужчины. Группа С. 1-й тур. Чехия-Швеция. НТВ+ СпортХит. HDTV. 1080i.ts
Format : MPEG-TS
File size : 12.8 GiB
Duration : 1h 53mn
Overall bit rate : 16.3 Mbps
Video
ID : 301 (0x12D)
Menu ID : 1 (0x1)
Format : AVC
Format/Info : Advanced Video Codec
Format profile : [url=mailto:High@L4.0]High@L4.0[/url]
Format settings, CABAC : Yes
Format settings, ReFrames : 3 frames
Codec ID : 27
Duration : 1h 53mn
Bit rate : 15.3 Mbps
Width : 1 920 pixels
Height : 1 080 pixels
Display aspect ratio : 16:9
Frame rate : 25.000 fps
Standard : Component
Color space : YUV
Chroma subsampling : 4:2:0
Bit depth : 8 bits
Scan type : Interlaced
Scan order : Top Field First
Bits/(Pixel*Frame) : 0.294
Stream size : 12.1 GiB (94%)
Color primaries : BT.709-5, BT.1361, IEC 61966-2-4, SMPTE RP177
Transfer characteristics : BT.709-5, BT.1361
Matrix coefficients : BT.709-5, BT.1361, IEC 61966-2-4 709, SMPTE RP177
Audio
ID : 401 (0x191)
Menu ID : 1 (0x1)
Format : MPEG Audio
Format version : Version 1
Format profile : Layer 2
Codec ID : 3
Duration : 1h 53mn
Bit rate mode : Constant
Bit rate : 192 Kbps
Channel(s) : 2 channels
Sampling rate : 48.0 KHz
Compression mode : Lossy
Stream size : 155 MiB (1%)
Language : Russian
Стартовые составы:
   

Официальные результаты:

 
Полная статистика на сайте Игр
Скриншоты:
     
     
Время раздачи: 24/7

Varius

Пост 13-Фев-2014 20:58

[Цитировать]

Дневник Олимпиады. Выпуск №9. 12.02.2014 - Вечер (2014) HDTV [H.264/1080i] Режиссер / Телекомпания: Россия HD

Год выпуска: 2014
Жанр: Спорт
Описание:
Выпуск посвящен фигурному катанию. Пары: полное выступление наших олимпийских чемпионов, лучшие моменты прокатов, аналитика, горячие интервью со спортсменами в прямом эфире. А так же анонс мужского одиночного катания.
Продолжительность: 00:31:00
Качество видео: HDTV/1080i
Ведущий: Одноголосый (Дмитрий Губерниев)
Видеокодек: H.264
Битрейт видео: 8766 kbps
Размер кадра: 1920x1080
Аудиокодек: MP2
Битрейт аудио: 48.0 kHz, 2 channels, 224 Kbps

minfo

Общее
Идентификатор : 1 (0x1)
Полное имя : A:\Фильмы\Дневник Олимпиады. Выпуск №9.ts
Формат : MPEG-TS
Размер файла : 2,05 Гбайт
Продолжительность : 31 м.
Режим общего битрейта : Переменный
Общий поток : 9459 Кбит/сек
Видео
Идентификатор : 1901 (0x76D)
Идентификатор меню : 1 (0x1)
Формат : AVC
Формат/Информация : Advanced Video Codec
Профиль формата : [url=mailto:High@L4.0]High@L4.0[/url]
Параметр CABAC формата : Да
Параметр ReFrames формата : 3 кадра
Идентификатор кодека : 27
Продолжительность : 31 м.
Битрейт : 8766 Кбит/сек
Ширина : 1920 пикселей
Высота : 1080 пикселей
Соотношение сторон : 16:9
Частота кадров : 25,000 кадров/сек
Стандарт вещания : Component
Цветовое пространство : YUV
Субдискретизация насыщенности : 4:2:0
Битовая глубина : 8 бит
Тип развёртки : Чересстрочная
Порядок развёртки : Верхнее поле первое
Бит/(Пиксели*Кадры) : 0.169
Размер потока : 1,90 Гбайт (93%)
Основные цвета : BT.709
Характеристики трансфера : BT.709
Коэффициенты матрицы : BT.709
Аудио
Идентификатор : 2901 (0xB55)
Идентификатор меню : 1 (0x1)
Формат : MPEG Audio
Версия формата : Version 1
Профиль формата : Layer 2
Идентификатор кодека : 3
Продолжительность : 31 м.
Вид битрейта : Постоянный
Битрейт : 224 Кбит/сек
Каналы : 2 канала
Частота : 48,0 КГц
Метод сжатия : С потерями
Размер потока : 49,7 Мбайт (2%)
Язык : Russian
Скриншоты          

Varius

Пост 13-Фев-2014 20:55

[Цитировать]

Олимпийские игры 2014. Фигурное катание. Спортивные пары. Произвольная программа (2014.02.12) HDTVRip [H.264/720p]- Телекомпания: НТВ+ Спорт HD
Год выпуска: 2014.02.12
Жанр: Спорт, Видовой
Комментаторы: Т.А. Тарасова, В. Соловьёв
Описание:
Парное фигурное катание — вид спорта, разновидность фигурного катания. Спортсмены, мужчина и женщина, катаются в унисон, исполняя движения в такой гармонии друг с другом, что создаётся впечатление настоящего парного катания, а не независимого катания двух одиночников.
Элементы парного катания
Три элемента — синхронное вращение, синхронный прыжок и дорожка шагов — не что иное, как синхронное исполнение аналогичных одиночных элементов. Спираль и совместное вращение партнёры выполняют вместе, как единое целое. Элементы «поддержка», «выброс», «подкрутка» и «тодес» вообще не имеют аналогов в одиночном катании. Все элементы должны быть связаны различными соединительными шагами и другими движениями парного катания, с разнообразными позициями и хватами, при полном использовании поверхности катка.

Запрещённые элементы парного катания:

С одной стороны, парное катание — очень травмоопасный вид спорта. Нередки падения с поддержек и выбросов, травмы от конька партнёра. С другой — «трюкачество» нередко использовалось, чтобы скрыть откровенно слабое катание одного из партнёров. Поэтому список запрещённых приёмов широк:
* сальто;
* прыжки навстречу партнёру;
* каскады из 4 и более прыжков;
* поддержки за запрещённые части тела;
* поддержки с поворотом более 3,5 оборотов;
* вращательные движения, когда партнёр вращает партнёршу в воздухе вокруг себя, держа её за руку или за ногу;
* крутящие или вращательные движения, в которых партнёрша переворачивается, и её опорная нога отрывается ото льда;
* вращательные движения с хватом одного из партнёров за ногу, руку или шею другого партнёра;
* раскрутки за руку или ногу, в которых партнёрша теряет контакт со льдом;
* перевороты партнёрши в вертикальной плоскости;
* лежание на льду и длительное и/или стационарное нахождение на льду обоих колен спортсмена одновременно в любом месте программы;
* злоупотребление поддержками, когда партнёрша значительную долю программы проводит на руках у мужчины, а не на коньках;
* использование декораций, посторонних предметов.
За исполнение каждого из запрещенных элементов / движений, включенных в программу, должно последовать снижение 2,0 очка.
Продолжительность: 03:17:06
Качество видео: HDTVRip
Видеокодек: AVC
Битрейт видео: ~4434 Kb/s
Размер кадра: 1280x720 (16:9)
Аудиокодек: A_AC3 2.0
Битрейт аудио: 192 kb/s

MediaInfo:

General
Unique ID : 239773580130961320561042805396481854264 (0xB462B63785E90D0195AE7D224EE94B38)
Complete name : F:\Multimedia\Video\Sochi\XXII Зимние Олимпийские игры. Сочи. 12.02.2014. Фигурное катание. Спортивные пары. Произвольная программа. HDTVRip. 720p.mkv
Format : Matroska
Format version : Version 4 / Version 2
File size : 6.50 GiB
Duration : 3h 17mn
Overall bit rate : 4 720 Kbps
Encoded date : UTC 2014-02-12 19:22:03
Writing application : mkvmerge v6.4.1 ('Omega Point') built on Sep 16 2013 22:05:10
Writing library : libebml v1.3.0 + libmatroska v1.4.1
Video
ID : 1
Format : AVC
Format/Info : Advanced Video Codec
Format profile : [url=mailto:High@L3.2]High@L3.2[/url]
Format settings, CABAC : No
Format settings, ReFrames : 2 frames
Format settings, GOP : M=1, N=15
Codec ID : V_MPEG4/ISO/AVC
Duration : 3h 17mn
Bit rate : 4 434 Kbps
Width : 1 280 pixels
Height : 720 pixels
Display aspect ratio : 16:9
Frame rate mode : Variable
Frame rate : 50.000 fps
Color space : YUV
Chroma subsampling : 4:2:0
Bit depth : 8 bits
Scan type : Progressive
Bits/(Pixel*Frame) : 0.096
Stream size : 6.10 GiB (94%)
Audio
ID : 2
Format : AC-3
Format/Info : Audio Coding 3
Mode extension : CM (complete main)
Codec ID : A_AC3
Duration : 3h 17mn
Bit rate mode : Constant
Bit rate : 192 Kbps
Channel(s) : 2 channels
Channel positions : Front: L R
Sampling rate : 48.0 KHz
Bit depth : 16 bits
Compression mode : Lossy
Stream size : 271 MiB (4%)

Участники:

       

Результаты:

     
Скриншоты:
       
       
Время раздачи: 24/7

Varius

Пост 13-Фев-2014 04:27

[Цитировать]

Олимпийские игры 2014. Церемония открытия (2014.02.07) HDTV [H.264/1080i] [Первый канал HD-DD5.1]- Режиссер / Телекомпания: Первый канал HD
Год выпуска: 2014
Жанр: Спорт
Описание:
Церемония состоялась 7 февраля 2014 года на Олимпийском стадионе «Фишт», в 20:14 по московскому времени. Всего в массовых постановочных сценах Церемонии открытия, включая танцевальные, балетные, акробатические и цирковые номера, приняли участие более 3000 молодых талантов из числа учащихся высших и средних учебных заведений, а также профессиональных творческих коллективов. Помогали в организации церемоний на площадках, за кулисами и на территории Олимпийского парка 2000 волонтеров «Сочи 2014». В начале Церемонии открытия показано несколько ярких видеофрагментов о России. После этого Президент России приветствовал зрителей Церемонии, и под звуки российского гимна состоится поднятие флага страны-хозяйки Игр-2014. Впервые в истории церемоний Олимпийских игр был изменен традиционный проход атлетов во время парада наций. Cпортсмены поднимались на сцену по специальной 48-метровой рампе, расположенной в центре стадиона. В параде наций приняли участие представители 88 делегаций. По традиции, Церемония открытия завершилась зажжением чаши Олимпийского огня. Театрализованная часть Церемонии представила основные этапы исторического развития России – от зарождения государственности до современности. Шоу стало самым высокотехнологичным за всю историю церемоний. Всего для реализации проведения Церемонии открытия XXII Олимпийских зимних игр 2014 года задействовано более 12 000 человек. Церемонию Открытия увенчал масштабный фейерверк из 3 500 залпов.
Ведущие: А. Максимов, К. Набутов
Продолжительность: 02:37:59
Качество видео: HDTV
Формат: MKV
Видеокодек: MPEG-4 AVC/H.264
Битрейт видео: ~10 000 Kbps, 50 fps
Размер кадра: 1920x1080p
Аудиокодек: AC3 5.1
Битрейт аудио: ~384.00 kbps

MediaInfo:

Код:
General
Complete name                            :Церемония открытия XXII Зимних Олимпийских Игр 2014 в Сочи. Первый HD. HDTVRip.1080p.50fps.mkv
Format                                   : Matroska
Format version                           : Version 4 / Version 2
File size                                : 11.4 GiB
Duration                                 : 2h 37mn
Overall bit rate                         : 10.4 Mbps
Encoded date                             : UTC 2014-02-10 13:48:07
Writing application                      : mkvmerge v6.4.1 ('Omega Point') built on Sep 16 2013 22:05:10
Writing library                          : libebml v1.3.0 + libmatroska v1.4.1
Video
ID                                       : 1
Format                                   : AVC
Format/Info                              : Advanced Video Codec
Format profile                           : [url=mailto:High@L4.0]High@L4.0[/url]
Format settings, CABAC                   : Yes
Format settings, ReFrames                : 4 frames
Codec ID                                 : V_MPEG4/ISO/AVC
Duration                                 : 2h 37mn
Bit rate                                 : 10 000 Kbps
Width                                    : 1 920 pixels
Height                                   : 1 080 pixels
Display aspect ratio                     : 16:9
Frame rate mode                          : Constant
Frame rate                               : 50.000 fps
Color space                              : YUV
Chroma subsampling                       : 4:2:0
Bit depth                                : 8 bits
Scan type                                : Progressive
Bits/(Pixel*Frame)                       : 0.096
Stream size                              : 10.8 GiB (94%)
Writing library                          : x264 core 130 r2273 b3065e6
Encoding settings                        : cabac=1 / ref=3 / deblock=1:0:0 / analyse=0x3:0x113 / me=hex / subme=7 / psy=1 / psy_rd=1.00:0.00 / mixed_ref=1 / me_range=16 / chroma_me=1 / trellis=1 / 8x8dct=1 / cqm=0 / deadzone=21,11 / fast_pskip=1 / chroma_qp_offset=-2 / threads=12 / lookahead_threads=2 / sliced_threads=0 / nr=0 / decimate=1 / interlaced=0 / bluray_compat=0 / constrained_intra=0 / bframes=3 / b_pyramid=2 / b_adapt=1 / b_bias=0 / direct=1 / weightb=1 / open_gop=0 / weightp=2 / keyint=500 / keyint_min=50 / scenecut=40 / intra_refresh=0 / rc_lookahead=40 / rc=2pass / mbtree=1 / bitrate=10000 / ratetol=1.0 / qcomp=0.60 / qpmin=0 / qpmax=69 / qpstep=4 / cplxblur=20.0 / qblur=0.5 / vbv_maxrate=25000 / vbv_bufsize=31250 / nal_hrd=none / ip_ratio=1.40 / aq=1:1.00
Language                                 : Russian
Default                                  : Yes
Forced                                   : No
Color primaries                          : BT.709
Transfer characteristics                 : BT.709
Matrix coefficients                      : BT.709
Audio
ID                                       : 2
Format                                   : AC-3
Format/Info                              : Audio Coding 3
Mode extension                           : CM (complete main)
Format settings, Endianness              : Big
Codec ID                                 : A_AC3
Duration                                 : 2h 37mn
Bit rate mode                            : Constant
Bit rate                                 : 384 Kbps
Channel(s)                               : 6 channels
Channel positions                        : Front: L C R, Side: L R, LFE
Sampling rate                            : 48.0 KHz
Bit depth                                : 16 bits
Compression mode                         : Lossy
Stream size                              : 434 MiB (4%)
Language                                 : Russian
Default                                  : Yes
Forced                                   : No
Скриншоты:
         

Еще скриншоты:

         

Varius

Пост 13-Фев-2014 04:24

[Цитировать]

Олимпийские игры 2014. Хоккей. Женщины. Группа А. 3-й тур. Канада - США (2014.02.12) IPTVRip - Режиссер / Телекомпания: XSPORT
Русское название: Олимпийские игры 2014
Год выпуска: 2014
Жанр: Спорт
Описание:
XXII Зимние Олимпийские игры. Сочи. Хоккей. Женщины. Группа B. 3-й тур
Продолжительность: 01:48:52
Видеокодек: DivX
Качество видео: IPTVRip
Битрейт видео: ~1800 kb/s
Размер кадра: 704 x 400
Аудиокодек: MP3, 2.0ch.
Битрейт аудио: 128 kb/s

MediaInfo:

Формат : AVI
Формат/Информация : Audio Video Interleave
Размер файла : 1,47 Гбайт
Продолжительность : 1 ч. 48 м.
Общий поток : 1938 Кбит/сек
Библиотека кодирования : VirtualDub build 32817/release
Видео
Идентификатор : 0
Формат : MPEG-4 Visual
Параметр BVOP формата : 1
Параметр QPel формата : Нет
Параметр GMC формата : Без точки перехода
Параметр матрицы формата : Default (H.263)
Режим смешивания : Сжатый битовый поток
Идентификатор кодека : DX50
Идентификатор кодека/Подсказка : DivX 5
Продолжительность : 1 ч. 48 м.
Битрейт : 1800 Кбит/сек
Ширина : 704 пикселя
Высота : 400 пикселей
Соотношение сторон : 16:9
Частота кадров : 25,000 кадров/сек
Цветовое пространство : YUV
Субдискретизация насыщенности : 4:2:0
Битовая глубина : 8 бит
Тип развёртки : Прогрессивная
Метод сжатия : С потерями
Бит/(Пиксели*Кадры) : 0.256
Размер потока : 1,37 Гбайт (93%)
Библиотека кодирования : DivX 6.8.5 (UTC 2009-08-20)
Аудио
Идентификатор : 1
Формат : MPEG Audio
Версия формата : Version 1
Профиль формата : Layer 3
Режим : Joint stereo
Расширение режима : MS Stereo
Идентификатор кодека : 55
Идентификатор кодека/Подсказка : MP3
Продолжительность : 1 ч. 48 м.
Вид битрейта : Постоянный
Битрейт : 128 Кбит/сек
Каналы : 2 канала
Частота : 48,0 КГц
Метод сжатия : С потерями
Размер потока : 99,7 Мбайт (7%)
Выравнивание : Разделение по промежуткам
Продолжительность промежутка : 40 мс. (1,00 видеокадр)
Время предзагрузки промежутка : 500 мс.
Скриншоты:          

Varius

Пост 13-Фев-2014 04:23

[Цитировать]

Олимпийские игры 2014. Хоккей. Женщины. Группа А. 3-й тур. Швейцария - Финляндия (2014.02.12) IPTVRip [UKR]- Режиссер / Телекомпания: XSPORT
Русское название: Олимпийские игры 2014
Год выпуска: 2014
Жанр: Спорт
Ведущие: Украинский
Описание:
XXII Зимние Олимпийские игры. Сочи. Хоккей. Женщины. Группа B. 3-й тур
Продолжительность: 01:56:42
Видеокодек: DivX
Качество видео: IPTVRip
Битрейт видео: ~1800 kb/s
Размер кадра: 704 x 400
Аудиокодек: MP3, 2.0ch.
Битрейт аудио: 128 kb/s

MediaInfo:

Формат : AVI
Формат/Информация : Audio Video Interleave
Размер файла : 1,58 Гбайт
Продолжительность : 1 ч. 56 м.
Общий поток : 1938 Кбит/сек
Библиотека кодирования : VirtualDub build 32817/release
Видео
Идентификатор : 0
Формат : MPEG-4 Visual
Параметр BVOP формата : 1
Параметр QPel формата : Нет
Параметр GMC формата : Без точки перехода
Параметр матрицы формата : Default (H.263)
Режим смешивания : Сжатый битовый поток
Идентификатор кодека : DX50
Идентификатор кодека/Подсказка : DivX 5
Продолжительность : 1 ч. 56 м.
Битрейт : 1800 Кбит/сек
Ширина : 704 пикселя
Высота : 400 пикселей
Соотношение сторон : 16:9
Частота кадров : 25,000 кадров/сек
Цветовое пространство : YUV
Субдискретизация насыщенности : 4:2:0
Битовая глубина : 8 бит
Тип развёртки : Прогрессивная
Метод сжатия : С потерями
Бит/(Пиксели*Кадры) : 0.256
Размер потока : 1,47 Гбайт (93%)
Библиотека кодирования : DivX 6.8.5 (UTC 2009-08-20)
Аудио
Идентификатор : 1
Формат : MPEG Audio
Версия формата : Version 1
Профиль формата : Layer 3
Режим : Joint stereo
Расширение режима : MS Stereo
Идентификатор кодека : 55
Идентификатор кодека/Подсказка : MP3
Продолжительность : 1 ч. 56 м.
Вид битрейта : Постоянный
Битрейт : 128 Кбит/сек
Каналы : 2 канала
Частота : 48,0 КГц
Метод сжатия : С потерями
Размер потока : 107 Мбайт (7%)
Выравнивание : Разделение по промежуткам
Продолжительность промежутка : 40 мс. (1,00 видеокадр)
Время предзагрузки промежутка : 500 мс.
Скриншоты:          
 

Текущее время: Сегодня 15:50

Часовой пояс: GMT + 3