Сегодня идет свободное скачивание без начисления Download

Результатов поиска: 500

Автор Сообщение

Dracula

Пост 21-Авг-2017 09:18

[Цитировать]

Топик был перенесен из форума Песочница в форум Развлекательные телепередачи и шоу, приколы и юмор

Причина переноса: после устранения возвращено в раздел
XP1971

Dracula

Пост 20-Авг-2017 22:21

[Цитировать]

Топик был перенесен из форума Развлекательные телепередачи и шоу, приколы и юмор в форум Песочница

Причина переноса: 3 дня на исправление
XP1971

XP1971

Пост 20-Авг-2017 21:08

[Цитировать]

victorhulcko,
https://darkos.me/viewtopic.php?t=3259

victorhulcko

Пост 20-Авг-2017 20:38

[Цитировать]

Байк-Шоу Русский Реактор
Год выпуска: 2017
Жанр: ТВ-шоу, Экшн
Продолжительность: 01:01:25
В ролях: Александр Залдостанов
Описание: Для решения задачи патриотического воспитания молодёжи в недрах нашей культуры, центром которой является мотоклуб «Ночные Волки», был рождён новый жанр патриотического спектакля-экшна, сравнимого по масштабам, пожалуй, только с открытием олимпиады, влияющий на молодёжь, креативный по форме, содержащий большие смыслы. Своеобразный ответ на информационную войну, ведущуюся против России.
Масштабное трюковое и пиротехническое, музыкальное и литературное действие. Движущиеся диковинные декорации, летающие мотоциклы и невероятные рискованные трюки, десятки разнообразных движущихся объектов военной техники разных эпох и назначения, сотни людей, учавствующих в программе. Всё это будет подчинено большому смыслу, связанному единой логикой и патриотическим порывом, направленным в будущее и адресованным стране.
Главное событие 22-го международного Байк-Шоу - «Кульминация»...
Качество: HDTV
Формат: MKV
Видео кодек: H.264
Аудио кодек: AAC
Видео: AVC/H.264, 1920x1080 (16:9), 3 524 Kbps, 30.000 fps
Аудио: AAC, 2 ch, 126 Kbps, 44.1 kHz

Скриншоты

                                                               

}{@R0N

Пост 10-Июл-2017 21:32

[Цитировать]

Весь Городок
Коллекционное издание из 10 дисков
- Режиссер: Илья Олейников, Юрий Стоянов
Год выпуска: 2003
Жанр: Телепередача
Описание:
Говорят, что смех продлевает жизнь. Если это правда, то перед вами возможность прожить подольше. Причём, Вы проведёте это время не где-нибудь, а в «Городке», в компании с любимыми народными артистами Ильей Олейниковым, Юрием Стояновым и еще примерно четырьмя сотнями их смешных персонажей. Там, где-то в «Городке», среди его чудаковатых горожан живём и мы с вами. Точно, где-то там - смотрите внимательней! В каждом кадре может промелькнуть знакомое лицо, интонация, жест, манера, поступок… И если вы вдруг не найдете на экране себя и ваших знакомых, значит вы просто пока еще не попались на глаза режиссёру передачи! А может, все-таки уже попались? Смотрите внимательней! Смейтесь и продлевайте жизнь вместе с десятками миллионов жителей «Городка».
Продолжительность: 6 х ~03:00:00 + 4 х ~01:30:00
Видеокодек: DivX 5
Битрейт видео: ~1600 kbps, 25 fps, 0.178 bit/pixel
Размер кадра: 704x512 (1.38:1)
Качество видео: DVDRip
Аудиокодек: AC3 5.1
Битрейт аудио: 48 kHz, 384/448 kbps Скриншоты:        

}{@R0N

Пост 01-Май-2017 21:19

[Цитировать]

Уральские пельмени. Ковбои здесь тихие - Телекомпания: СТС
Жанр: Юмор
В ролях:
Дмитрий Брекоткин, Сергей Ершов, Сергей Исаев, Сергей Калугин, Вячеслав Мясников, Александр Попов, Андрей Рожков, Дмитрий Соколов, Максим Ярица, Юля Михалкова и др.
Описание:
Весёлые парни в мандариновых рубашках не дадут соскучиться и подарят отличное настроение всей семье. У юмора «Уральских пельменей» нет возрастных ограничений, они избегают «шуток ниже пояса» и на их концертах пятилетние дети смеются рядом с 50-ти летними взрослыми. Новое комедийное шоу включает в себя как самостоятельные сценические истории, так и импровизации с залом, а также смешные сценки со звёздами, которые пришли посмотреть на любимую команду и неожиданно для себя оказались на сцене.

Возраст: 12+ (зрителям, достигшим 12 лет)
Рейтинг MPAA: PG (рекомендуется присутствие родителей)

Релиз от: Хотт@быч
Продолжительность: 01:00:23
Качество видео: SATRip
Субтитры: Отсутствуют
Видео: MPEG4, XviD, 720x400 (16:9), 25.000 fps, 1 798 Kbps (0.250 bit/pixel)
Аудио: MP3, 48.0 KHz, 2 ch, 128 Kbps, CBR

Mediainfo:

Код:
Общее
Полное имя                               : D:\[1]\Уральские пельмени\Уральские пельмени. Ковбои здесь тихие (2017.05.01).avi
Формат                                   : AVI
Формат/Информация                        : Audio Video Interleave
Размер файла                             : 836 Мбайт
Продолжительность                        : 1 ч. 0 м.
Общий поток                              : 1936 Кбит/сек
Программа кодирования                    : VirtualDubMod 1.5.10.3 | [url=http://www.virtualdub-fr.org]www.virtualdub-fr.org[/url] || (build 2550/release)
Библиотека кодирования                   : VirtualDub build 29808/release
Видео
Идентификатор                            : 0
Формат                                   : MPEG-4 Visual
Профиль формата                          : Advanced Simple@L5
Параметр BVOP формата                    : 2
Параметр QPel формата                    : Нет
Параметр GMC формата                     : Без точки перехода
Параметр матрицы формата                 : Default (H.263)
Идентификатор кодека                     : XVID
Идентификатор кодека/Подсказка           : XviD
Продолжительность                        : 1 ч. 0 м.
Битрейт                                  : 1798 Кбит/сек
Ширина                                   : 720 пикселей
Высота                                   : 400 пикселей
Соотношение сторон                       : 16:9
Частота кадров                           : 25,000 кадров/сек
Цветовое пространство                    : YUV
Субдискретизация насыщенности            : 4:2:0
Битовая глубина                          : 8 бит
Тип развёртки                            : Прогрессивная
Метод сжатия                             : С потерями
Бит/(Пиксели*Кадры)                      : 0.250
Размер потока                            : 776 Мбайт (93%)
Библиотека кодирования                   : XviD 1.2.1 (UTC 2008-12-04)
Аудио
Идентификатор                            : 1
Формат                                   : MPEG Audio
Версия формата                           : Version 1
Профиль формата                          : Layer 3
Режим                                    : Joint stereo
Расширение режима                        : MS Stereo
Идентификатор кодека                     : 55
Идентификатор кодека/Подсказка           : MP3
Продолжительность                        : 1 ч. 0 м.
Вид битрейта                             : Постоянный
Битрейт                                  : 128 Кбит/сек
Каналы                                   : 2 канала
Частота                                  : 48,0 КГц
Метод сжатия                             : С потерями
Размер потока                            : 55,3 Мбайт (7%)
Выравнивание                             : Соединение по промежуткам
Продолжительность промежутка             : 40  мс. (1,00 видеокадр)
Время предзагрузки промежутка            : 504  мс.
Библиотека кодирования                   : LAME3.99r
Настройки программы                      : -m j -V 4 -q 9 -lowpass 17 -b 128

Содержание:

Не пропусти новое шоу:
На их ранчо всегда сплошной ржач! Рваные джинсы они не покупают, а выбрасывают! Их лошади уже обули зимние копыта, у них хорошо смеется тот, кто первым стреляет, а шляпа для них – лучший подарок! Это настоящие мужики с большой буквы «К». Герои Дикого Урала в новой программе Шоу «Уральские Пельмени» — «Ковбои здесь тихие».
Скриншоты:
       

}{@R0N

Пост 17-Мар-2017 20:52

[Цитировать]

Импровизация / Камеди Клаб / Комеди Клаб / Comedy Club - Телекомпания: ТНТ
Жанр: Юмор
Ведущий: Павел Воля
Описание:
«Импровизация» — это новое непредсказуемое комедийное шоу от Comedy Club Production. В нём нет сценария и всё, происходящее на сцене, придумывается участниками на ходу. Под управлением ведущего Павла Воли четыре комика и один звездный гость оказываются в самых странных ситуациях — и выбираются из них с юмором. Прежде, чем попасть на экран, четыре участника «Импровизации» (Арсений Попов, Дима Позов, Сергей Матвиенко и Антон Шастун) несколько лет совершенствовали этот формат на клубных вечеринках.
Каждый выпуск шоу разбит на части, в которых действуют свои правила: например, в одной комики должны разговаривать только вопросами, в другой — ходят с завязанными глазами по комнате с мышеловками, в третьей — шутят с электрошокерами на руках, которые бьют их током. В каждом шоу к комикам присоединяется приглашенная звезда. Только в «Импровизации» можно заставить певицу Сати Казанову выслушивать, как комики дают интервью от её лица, Ольгу Бузову — подавать реплики, как суфлер, а Мигеля угадывать, кем он был в прошлой жизни. «Импровизация» — шоу для тех, кому надоел предсказуемый юмор и кто хочет посмотреть, каково комикам на сцене без сценария и заготовленных шуток.
«Комедия импровизации — весьма распространенный формат в Европе, в Америке. В каждом вузе, в каждой школе есть импровизационная команда. При этом это традиционный жанр, он уходит корнями в итальянский театр масок», — говорит креативный продюсер шоу Стас Шеминов. Импровизация — вершина комедийного спорта, уважаемый жанр, которым мечтаю заниматься многие комики, но который требует постоянной практики. Участники «Импровизации» посвятили этому жанру несколько лет — и стали настоящими мастерами.
Релиз от: Просто_Крол
Продолжительность: ~ 00:47:23
Качество видео: SATRip
Субтитры: Отсутствуют
Видео: MPEG4, XviD, 720x400 (16:9), 25.000 fps, 1 798 Kbps (0.250 bit/pixel)
Аудио: MP3, 48.0 KHz, 2 ch, 192 Kbps, CBR

Mediainfo:

Код:
Общее
Полное имя                               : D:\[1]\Импровизация\Импровизация. Сезон 2. Выпуск 10 (2017.03.17).avi
Формат                                   : AVI
Формат/Информация                        : Audio Video Interleave
Размер файла                             : 678 Мбайт
Продолжительность                        : 47 м.
Общий поток                              : 2000 Кбит/сек
Программа кодирования                    : VirtualDubMod 1.5.10.3 | [url=http://www.virtualdub-fr.org]www.virtualdub-fr.org[/url] || (build 2550/release)
Библиотека кодирования                   : VirtualDub build 35491/release
Видео
Идентификатор                            : 0
Формат                                   : MPEG-4 Visual
Профиль формата                          : Advanced Simple@L5
Параметр BVOP формата                    : 2
Параметр QPel формата                    : Нет
Параметр GMC формата                     : Без точки перехода
Параметр матрицы формата                 : Default (H.263)
Идентификатор кодека                     : XVID
Идентификатор кодека/Подсказка           : XviD
Продолжительность                        : 47 м.
Битрейт                                  : 1798 Кбит/сек
Ширина                                   : 720 пикселей
Высота                                   : 400 пикселей
Соотношение сторон                       : 16:9
Частота кадров                           : 25,000 кадров/сек
Цветовое пространство                    : YUV
Субдискретизация насыщенности            : 4:2:0
Битовая глубина                          : 8 бит
Тип развёртки                            : Прогрессивная
Метод сжатия                             : С потерями
Бит/(Пиксели*Кадры)                      : 0.250
Размер потока                            : 610 Мбайт (90%)
Библиотека кодирования                   : XviD 1.2.1 (UTC 2008-12-04)
Аудио
Идентификатор                            : 1
Формат                                   : MPEG Audio
Версия формата                           : Version 1
Профиль формата                          : Layer 3
Режим                                    : Joint stereo
Расширение режима                        : MS Stereo
Идентификатор кодека                     : 55
Идентификатор кодека/Подсказка           : MP3
Продолжительность                        : 47 м.
Вид битрейта                             : Постоянный
Битрейт                                  : 192 Кбит/сек
Каналы                                   : 2 канала
Частота                                  : 48,0 КГц
Метод сжатия                             : С потерями
Размер потока                            : 65,1 Мбайт (10%)
Выравнивание                             : Соединение по промежуткам
Продолжительность промежутка             : 40  мс. (1,00 видеокадр)
Время предзагрузки промежутка            : 504  мс.
Библиотека кодирования                   : LAME3.99r
Настройки программы                      : -m j -V 4 -q 9 -lowpass 18.6 -b 192
Скриншоты:
       

}{@R0N

Пост 18-Дек-2016 22:55

[Цитировать]

Однажды в России (2016.12.18)
(сезон 4, выпуск 16)
- Телекомпания: ТНТ
Производство: Россия
Жанр: Юмористическое тв-шоу
В ролях: Азамат Мусагалиев, Игорь Ласточкин, Ирина Чеснокова, Тимур Тания, Ольга Картункова, Александр Пташенчук, Максим Киселёв, Денис Дорохов, Заур Байцаев, Давид Цаллаев и др.
Описание:
Россия - богатейшая страна, в которой много нефти, газа и проблем. ТВ-Шоу на ТНТ "Однажды в России" не решает ни одной из них. Оно над ними смеется. Участники шоу разыгрывают скетчи на сцене перед зрителями. Их снимают камеры. Это шоу - реальное театральное действие, совмещенное с кинопроизводством.
Релиз от: ramzesII
Продолжительность: 00:49:43
Качество видео: SATRip
Субтитры: Отсутствуют
Видео: MPEG4, XviD, 720x400 (16:9), 25.000 fps, 1 800 Kbps (0.250 bit/pixel)
Аудио: MP3, 48.0 KHz, 2 ch, 128 Kbps, CBR

Mediainfo:

Код:
Общее
Полное имя                               : D:\[1]\Однажды в России\Однажды в России. Сезон 4. Выпуск 15 (2016.12.18).avi
Формат                                   : AVI
Формат/Информация                        : Audio Video Interleave
Размер файла                             : 689 Мбайт
Продолжительность                        : 49 м.
Общий поток                              : 1938 Кбит/сек
Программа кодирования                    : VirtualDubMod 1.5.10.3 (build 2550/release)
Библиотека кодирования                   : VirtualDubMod build 2550/release
Видео
Идентификатор                            : 0
Формат                                   : MPEG-4 Visual
Профиль формата                          : Advanced Simple@L5
Параметр BVOP формата                    : 1
Параметр QPel формата                    : Нет
Параметр GMC формата                     : Без точки перехода
Параметр матрицы формата                 : Default (H.263)
Идентификатор кодека                     : XVID
Идентификатор кодека/Подсказка           : XviD
Продолжительность                        : 49 м.
Битрейт                                  : 1800 Кбит/сек
Ширина                                   : 720 пикселей
Высота                                   : 400 пикселей
Соотношение сторон                       : 16:9
Частота кадров                           : 25,000 кадров/сек
Цветовое пространство                    : YUV
Субдискретизация насыщенности            : 4:2:0
Битовая глубина                          : 8 бит
Тип развёртки                            : Прогрессивная
Метод сжатия                             : С потерями
Бит/(Пиксели*Кадры)                      : 0.250
Размер потока                            : 640 Мбайт (93%)
Библиотека кодирования                   : XviD 67
Аудио
Идентификатор                            : 1
Формат                                   : MPEG Audio
Версия формата                           : Version 1
Профиль формата                          : Layer 3
Режим                                    : Joint stereo
Расширение режима                        : MS Stereo
Идентификатор кодека                     : 55
Идентификатор кодека/Подсказка           : MP3
Продолжительность                        : 49 м.
Вид битрейта                             : Постоянный
Битрейт                                  : 128 Кбит/сек
Каналы                                   : 2 канала
Частота                                  : 48,0 КГц
Метод сжатия                             : С потерями
Размер потока                            : 45,5 Мбайт (7%)
Выравнивание                             : Разделение по промежуткам
Продолжительность промежутка             : 40  мс. (1,00 видеокадр)
Время предзагрузки промежутка            : 500  мс.
Скриншоты:
       

}{@R0N

Пост 18-Дек-2016 22:54

[Цитировать]

Stand Up (2016.12.18)
Концерт Стаса Старовойтова
- Телекомпания: ТНТ
Жанр: Юмористическое шоу, Stand up comedy
Актеры: Стас Старовойтов
Описание:
Долгое время поклонники шоу Stand Up на ТНТ знали Стаса, как комика, который шутит о своей семье и маленькой дочке. Но все меняется: на первом сольном концерте Старовойтов предстал в совершенно новом свете. Сцену СДК МАИ заполнили серьезные декорации — железные цепи и аппаратура в коробках, а сам Стас не побоялся шутить на самые откровенные темы. «Для меня очень важна честность, — начал комик свой концерт. — Потому что я воспитан на рок-музыке, а рок-музыка — самый честный вид творчества». Вот и первый сольный концерт Старовойтова — это настоящий рок-н-ролл. Шутки про стареющих рок-звезд, Евгения Цыганова, алкоголь и политику, и, конечно же, личную жизнь: Старовойтов с юмором рассказывает, как он развелся с женой, которая подозревала его в измене, как ездил на Кубу в поисках себя и понял коммунистов и объясняет разницу между женским и мужским оргазмом. На ТНТ совершенно новый Старовойтов: он не боится использовать жесткие словечки, рассказывает всю правду про себя и других людей и не пытается приглаживать свои шутки.
Релиз от: ramzesII
Продолжительность: ~ 00:48:55
Качество видео: SATRip
Субтитры: Отсутствуют
Видео: MPEG4, XviD, 720x400 (16:9), 25.000 fps, 1 312 Kbps (0.182 bit/pixel)
Аудио: MP3, 48.0 KHz, 2 ch, 192 Kbps, CBR

Mediainfo:

Код:
Общее
Полное имя                               : D:\[1]\Stand Up\Stand Up. Концерт Стаса Старовойтова (2016.12.18).avi
Формат                                   : AVI
Формат/Информация                        : Audio Video Interleave
Размер файла                             : 531 Мбайт
Продолжительность                        : 48 м.
Общий поток                              : 1516 Кбит/сек
Программа кодирования                    : VirtualDubMod 1.5.10.3 (build 2550/release)
Библиотека кодирования                   : VirtualDubMod build 2550/release
Видео
Идентификатор                            : 0
Формат                                   : MPEG-4 Visual
Профиль формата                          : Advanced Simple@L5
Параметр BVOP формата                    : 1
Параметр QPel формата                    : Нет
Параметр GMC формата                     : Без точки перехода
Параметр матрицы формата                 : Default (H.263)
Идентификатор кодека                     : XVID
Идентификатор кодека/Подсказка           : XviD
Продолжительность                        : 48 м.
Битрейт                                  : 1312 Кбит/сек
Ширина                                   : 720 пикселей
Высота                                   : 400 пикселей
Соотношение сторон                       : 16:9
Частота кадров                           : 25,000 кадров/сек
Цветовое пространство                    : YUV
Субдискретизация насыщенности            : 4:2:0
Битовая глубина                          : 8 бит
Тип развёртки                            : Прогрессивная
Метод сжатия                             : С потерями
Бит/(Пиксели*Кадры)                      : 0.182
Размер потока                            : 459 Мбайт (86%)
Библиотека кодирования                   : XviD 67
Аудио
Идентификатор                            : 1
Формат                                   : MPEG Audio
Версия формата                           : Version 1
Профиль формата                          : Layer 3
Режим                                    : Joint stereo
Идентификатор кодека                     : 55
Идентификатор кодека/Подсказка           : MP3
Продолжительность                        : 48 м.
Вид битрейта                             : Постоянный
Битрейт                                  : 192 Кбит/сек
Каналы                                   : 2 канала
Частота                                  : 48,0 КГц
Метод сжатия                             : С потерями
Размер потока                            : 67,2 Мбайт (13%)
Выравнивание                             : Соединение по промежуткам
Продолжительность промежутка             : 24  мс. (0,60 видеокадр)
Время предзагрузки промежутка            : 504  мс.
Скриншоты:
       

Theseus

Пост 17-Дек-2016 21:43

[Цитировать]

Раздача обновлена 17.12.16 (Игра Приколов. Новый сезон (2016.12.16))

Theseus

Пост 10-Дек-2016 15:23

[Цитировать]

-Уральские пельмени- Год выпуска: 2003-2016
Жанр: ТВ-шоу, юмор, сатира
Продолжительность выпуска: ~ 01:10:00
Производство : Телеканал СТС-В ролях: Дмитрий Брекоткин, Сергей Ершов, Сергей Исаев, Сергей Калугин, Вячеслав Мясников, Сергей Нетиевский, Александр Попов, Андрей Рожков, Сергей Светлаков, Дмитрий Соколов, Максим Ярица, Юлия Михалкова, Илана Юрьева, Стефания-Марьяна Гурская-Описание: Весёлые парни в мандариновых рубашках не дадут соскучиться и подарят отличное настроение всей семье. У юмора «Уральских пельменей» нет возрастных ограничений, они избегают «шуток ниже пояса» и на их концертах пятилетние дети смеются рядом с 50-ти летними взрослыми. Новое комедийное шоу включает в себя как самостоятельные сценические истории, так и импровизации с залом, а также смешные сценки со звёздами, которые пришли посмотреть на любимую команду и неожиданно для себя оказались на сцене.--Качество: SATRip
Формат: AVI
Видео кодек: XviD/DivX
Аудио кодек: MP3/MP2
Видео: MPEG4, XviD/DivX, 640х480/704x528/704х400/720х400/720х528 (16:9), 25.000 fps, 1100-2000 Kbps
Аудио: MP3/AC-3, 48.0 KHz, 1ch/2ch, 128/192/256 Kbps, CBR/VBR-

Содержание раздачи

00. Бонус
00. Лучшее + спец. выпуски
01. Уральские пельмени. Гори оно все... конем! (18.10.2009)
02. Уральские пельмени. Смешняги (22.11.2009)
03. Уральские пельмени. Падал прошлогодний смех (03.01.2010)
04. Уральские пельмени. Агенты 0.7 (30.01.2010)
05. Уральские пельмени. Шагом Фарш! (23.02.2010)
06. Уральские пельмени. В гостях у скалки (28.03.2010)
07. Уральские пельмени. Весь апрель никому (25.04.2010)
08. Уральские пельмени. По уши в ЕГЭ (15.05.2010)
09. Уральские пельмени. Как я провёл ЭТО! (09.10.2010)
10.Уральские пельмени. Ура стипенсия (30.10.2010)
11. Уральские пельмени. Борода измята. Часть №1 (05.01.2011)
12. Уральские пельмени. Борода измята. Часть №2 (15.01.2011)
13. Уральские пельмени. Изгрязи в стразы (05.02.2011)
14. Уральские пельмени. День смешного Валентина (12.02.2011)
15. Уральские пельмени. На старт, внимание, март! (12.03.2011)
16. Уральские пельмени. Союзы-Апполоны (14.05.2011)
17. Уральские пельмени. Отцы и эти (21.05.2011)
18. Уральские пельмени. От томата до заката (23.10.2011)
19. Уральские пельмени. Пинг-понг жив (30.10.2011)
20. Уральские пельмени. Нано-концерт, на! (04.12.2011)
21. Уральские пельмени. Снегодяи. Часть №1 (31.12.2011)
22. Уральские пельмени. Снегодяи. Часть №2 (2012.01.01)
23. Уральские пельмени. Год в сапогах (2012.02.19)
24. Уральские пельмени. Красота спасёт мымр (2012.03.08)
25. Уральские пельмени. Зе BAD – Худшее! (2012.04.01)
26. Уральские пельмени. Не вешать хвост, Ветеринары (2012.05.18)
27. Уральские пельмени. Очень страшное смешно (2012.05.25)
28. Уральские пельмени. Вялые паруса. Часть №1 (2012.09.28)
29. Уральские пельмени. Вялые паруса. Часть №2 (2012.10.05)
30. Уральские пельмени. Тень знаний. Часть №1 (2012.10.12)
31. Уральские пельмени. Тень знаний. Часть №2 (2012.10.19)
32. Уральские пельмени. Назад в булошную-2. Часть №1 (2012.12.07)
33. Уральские пельмени. Назад в булошную-2. Часть №2 (2012.12.14)
34. Уральские пельмени. Снега и Зрелищ! (2012.12.31
35. Уральские пельмени. Мужхитёры. Часть №1 (2013.02.23)
36. Уральские пельмени. Мужхитёры. Часть №2 (2013.03.03)
37. Уральские пельмени. Женское - Щас я! Часть №1 (2013.03.08)
38. Уральские пельмени. Женское - Щас я! Часть №2 (2013.03.08)
39. Уральские пельмени. Зе BAD - 2 – Худшее. Часть №1 (2013.04.07)
40. Уральские пельмени. Зе BAD - 2 – Худшее. Часть №2 (2013.04.14)
41. Уральские пельмени. Худеем в тесте. Часть №1 (2013.05.03)
42. Уральские пельмени. Худеем в тесте. Часть №2 (2013.05.08)
43. Уральские пельмени. Май-На! Часть №1 (2013.05.24)
44. Уральские пельмени. Май-На! Часть №2 (2013.05.31)
45. Уральские пельмени. На Гоа бобра не ищут. Часть №1 (2013.10.04)
46. Уральские пельмени. На Гоа бобра не ищут. Часть №2 (2013.10.07)
47. Уральские пельмени. Люди в белых зарплатах. Часть №1 (2013.10.18)
48. Уральские пельмени. Люди в белых зарплатах. Часть №2 (2013.11.01)
49. Уральские пельмени. 20 лет в тесте!. Часть №1 (2013.11.29)
50. Уральские пельмени. 20 лет в тесте!. Часть №2 (2013.12.06)
51. Уральские пельмени. Елочка Беги! Часть 1 (2013.12.31)
52. Уральские пельмени. Елочка Беги! Часть 2 (2013.12.31)
53. Уральские пельмени. АДАМ в хорошие руки! Часть №1 (2014.03.07)
54. Уральские пельмени. АДАМ в хорошие руки! Часть №2 (2014.03.07)
55. Уральские пельмени. Грачи пролетели. Часть №1 (2014.03.14)
56. Уральские пельмени. Грачи пролетели. Часть №2 (2014.03.21)
57. Уральские пельмени. Пель и Мень спешат на помощь. Часть №1 (2014.04.18)
58. Уральские пельмени. Пель и Мень спешат на помощь. Часть №2 (2014.04.18)
59. Уральские пельмени. КоЛидоры иСкуств. Часть №1 (2014.05.08)
60. Уральские пельмени. КоЛидоры иСкуств. Часть №2 (2014.05.08)
61. Уральские пельмени. В вуз не дуем! Часть №1 (2014.05.23)
62. Уральские пельмени. В вуз не дуем! Часть №2 (2014.05.23)
63. Уральские пельмени. Виза есть - ума не надо (2014.12.12)
64. Уральские пельмени. Волшебники страны ОЙ! (2014.12.19)
65. Уральские пельмени. Музыка нас слизала (2014.12.26)
66. Уральские пельмени. Когда носы в 12-ть бьют! (2014.12.31)
67. Уральские пельмени. Восстание мущин (2015.02.27)
68. Уральские пельмени. С милым рай и в бутике (2015.03.06)
69. Уральские пельмени. Корпорация морсов. Часть №1 (2015.04.03)
70. Уральские пельмени. Журчат рубли (2015.05.11)
71. Уральские пельмени. 50 друзей СОКОЛоушена (2015.05.22)
72. Уральские пельмени. Корпорация морсов. Часть №2 (2015.05.29)
73. Уральские пельмени. В поисках Асфальтиды (2015.11.15)
74. Уральские пельмени. Все лето в шляпе (2015.11.22)
75. Уральские пельмени. О спорт, нам лень! (2015.12.25)
76. Уральские пельмени. Мятое января (2015.12.31)
77. Уральские пельмени. Медкомиссия невыполнима (2016.02.20)
78. Уральские пельмени. Хозяйка медной сковороды (2016.03.08)
79. Уральские пельмени. Хочу всё ржать! Часть 1 (2016.04.22)
80. Уральские пельмени. Хочу всё ржать! Часть 2 (2016.04.29)
81. Уральские пельмени. Хочу всё ржать! Часть 3 (2016.05.13)
82. Уральские пельмени. Нельзя в иллюминаторе (2016.05.20)
83. Уральские пельмени. Ваше огородие (2016.05.27)
84. Уральские пельмени. Тесто под солнцем (2016.12.02)
85. Уральские пельмени. Дневниковый Период (2016.12.09)
86. Уральские пельмени. Игра Приколов. Новый сезон (2016.12.16)

Внимание ! Раздача ведётся путём добавления новых серий !!!

Внимание! Раздача ведётся путём добавления новых серий; при каждом добавлении создаётся новый торрент. Чтобы начать докачку новой серии, пользователям необходимо сделать следующее:
(1) остановить скачивание,раздачу,
(2) удалить старый торрент у себя из клиента (старые серии удалять не надо),
(3) скачать новый торрент и запустить его у себя в клиенте вместо старого, при этом указать клиенту путь в старую папку куда и должно происходить скачивание новых серий.
Ваш клиент при этом должен произвести хеширование (проверку) старой папки (если не производит сами - помогите ему сделать это), и будет докачивать только те серии которых у вас ещё нет. Старые серии при этом не удаляются, а продолжают раздаваться!
Eсли вы уже удалили старые серии, то предотвратить повторную закачку старых серий можно, отжав галочку в соответствующих местах при запуске нового торрента. По возможности, желательно не удалять старые серии как можно дольше чтобы релизёр не столько продолжал раздавать старые серии, а смог сконцентрироваться на новых
-          - -

}{@R0N

Пост 10-Дек-2016 16:29

[Цитировать]

Битва экстрасенсов (2016.12.10) SATRip (сезон 17, выпуск 15)- Телекомпания: ТНТ
Жанр: Телепередача
Ведущий: Марат Башаров
Описание:
С 3 сентября на ТНТ стартует долгожданный 17-й сезон «Битвы экстрасенсов» — самого мистического, непредсказуемого и загадочного проекта российского ТВ. Масштабный кастинг, новые яркие участники и высокие технологии в мире экстрасенсорики. Новый сезон обещает стать самым необычным и удивительным в истории шоу. «Мне бы очень хотелось, чтобы в новом сезоне экстрасенсы поменьше обращали бы внимание на свою самореализацию, а больше помогали людям. Ведь каждый сезон к нам обращаются те, кто действительно ждет помощи. И это, по-моему, для людей со сверхспособностями должно быть приоритетным!», — Марат Башаров, ведущий проекта.

Возраст: 16+ (зрителям, достигшим 16 лет)
Продолжительность: 01:11:44
Качество видео: SATRip
Видео: XviD, 720x400, ~1799 kb/s
Аудио: MP3, 2 ch, 128 kb/s, CBR

MI

Код:
Общее
Полное имя                               : D:\Битва экстрасенсов. Сезон 17. Выпуск 15 (2016.12.10) SATRip.avi
Формат                                   : AVI
Формат/Информация                        : Audio Video Interleave
Размер файла                             : 996 Мбайт
Продолжительность                        : 1 ч. 11 м.
Общий поток                              : 1938 Кбит/сек
Видео
Идентификатор                            : 0
Формат                                   : MPEG-4 Visual
Профиль формата                          : Advanced Simple@L5
Параметр BVOP формата                    : 2
Параметр QPel формата                    : Нет
Параметр GMC формата                     : Без точки перехода
Параметр матрицы формата                 : Default (H.263)
Идентификатор кодека                     : XVID
Идентификатор кодека/Подсказка           : XviD
Продолжительность                        : 1 ч. 11 м.
Битрейт                                  : 1799 Кбит/сек
Ширина                                   : 720 пикселей
Высота                                   : 400 пикселей
Соотношение сторон                       : 16:9
Частота кадров                           : 25,000 кадров/сек
Цветовое пространство                    : YUV
Субдискретизация насыщенности            : 4:2:0
Битовая глубина                          : 8 бит
Тип развёртки                            : Прогрессивная
Метод сжатия                             : С потерями
Бит/(Пиксели*Кадры)                      : 0.250
Размер потока                            : 889 Мбайт (93%)
Библиотека кодирования                   : XviD 1.2.1 (UTC 2008-12-04)
Аудио
Идентификатор                            : 1
Формат                                   : MPEG Audio
Версия формата                           : Version 1
Профиль формата                          : Layer 3
Режим                                    : Joint stereo
Расширение режима                        : MS Stereo
Идентификатор кодека                     : 55
Идентификатор кодека/Подсказка           : MP3
Продолжительность                        : 1 ч. 11 м.
Вид битрейта                             : Постоянный
Битрейт                                  : 128 Кбит/сек
Каналы                                   : 2 канала
Частота                                  : 48,0 КГц
Метод сжатия                             : С потерями
Размер потока                            : 63,3 Мбайт (7%)
Выравнивание                             : Соединение по промежуткам
Продолжительность промежутка             : 24  мс. (0,60 видеокадр)
Библиотека кодирования                   : LAME3.99r
Настройки программы                      : -m j -V 4 -q 9 -lowpass 17 -b 128
Скриншоты:        

}{@R0N

Пост 19-Ноя-2016 21:02

[Цитировать]

Битва экстрасенсов (2016.11.19)
(сезон 17, выпуск 12)
- Телекомпания: ТНТ
Жанр: Телепередача
Ведущий: Марат Башаров
Описание:
С 3 сентября на ТНТ стартует долгожданный 17-й сезон «Битвы экстрасенсов» — самого мистического, непредсказуемого и загадочного проекта российского ТВ. Масштабный кастинг, новые яркие участники и высокие технологии в мире экстрасенсорики. Новый сезон обещает стать самым необычным и удивительным в истории шоу. «Мне бы очень хотелось, чтобы в новом сезоне экстрасенсы поменьше обращали бы внимание на свою самореализацию, а больше помогали людям. Ведь каждый сезон к нам обращаются те, кто действительно ждет помощи. И это, по-моему, для людей со сверхспособностями должно быть приоритетным!», — Марат Башаров, ведущий проекта.

Возраст: 16+ (зрителям, достигшим 16 лет)
Продолжительность: 01:11:32
Качество видео: SATRip
Видео: XviD, 720x400, ~1799 kb/s
Аудио: MP3, 2 ch, 128 kb/s, CBR

MI

Код:
Общее
Полное имя                               : D:\Битва экстрасенсов. Сезон 17. Выпуск 12 (2016.11.19) SATRip.avi
Формат                                   : AVI
Формат/Информация                        : Audio Video Interleave
Размер файла                             : 1018 Мбайт
Продолжительность                        : 1 ч. 11 м.
Общий поток                              : 1938 Кбит/сек
Видео
Идентификатор                            : 0
Формат                                   : MPEG-4 Visual
Профиль формата                          : Advanced Simple@L5
Параметр BVOP формата                    : 2
Параметр QPel формата                    : Нет
Параметр GMC формата                     : Без точки перехода
Параметр матрицы формата                 : Default (H.263)
Идентификатор кодека                     : XVID
Идентификатор кодека/Подсказка           : XviD
Продолжительность                        : 1 ч. 11 м.
Битрейт                                  : 1799 Кбит/сек
Ширина                                   : 720 пикселей
Высота                                   : 400 пикселей
Соотношение сторон                       : 16:9
Частота кадров                           : 25,000 кадров/сек
Цветовое пространство                    : YUV
Субдискретизация насыщенности            : 4:2:0
Битовая глубина                          : 8 бит
Тип развёртки                            : Прогрессивная
Метод сжатия                             : С потерями
Бит/(Пиксели*Кадры)                      : 0.250
Размер потока                            : 889 Мбайт (93%)
Библиотека кодирования                   : XviD 1.2.1 (UTC 2008-12-04)
Аудио
Идентификатор                            : 1
Формат                                   : MPEG Audio
Версия формата                           : Version 1
Профиль формата                          : Layer 3
Режим                                    : Joint stereo
Расширение режима                        : MS Stereo
Идентификатор кодека                     : 55
Идентификатор кодека/Подсказка           : MP3
Продолжительность                        : 1 ч. 11 м.
Вид битрейта                             : Постоянный
Битрейт                                  : 128 Кбит/сек
Каналы                                   : 2 канала
Частота                                  : 48,0 КГц
Метод сжатия                             : С потерями
Размер потока                            : 63,3 Мбайт (7%)
Выравнивание                             : Соединение по промежуткам
Продолжительность промежутка             : 24  мс. (0,60 видеокадр)
Библиотека кодирования                   : LAME3.99r
Настройки программы                      : -m j -V 4 -q 9 -lowpass 17 -b 128
Скриншоты:        

}{@R0N

Пост 22-Окт-2016 17:26

[Цитировать]

Битва экстрасенсов (2016.10.22)(сезон 17, выпуск 8)- Телекомпания: ТНТ
Жанр: Телепередача
Ведущий: Марат Башаров
Описание:
С 3 сентября на ТНТ стартует долгожданный 17-й сезон «Битвы экстрасенсов» — самого мистического, непредсказуемого и загадочного проекта российского ТВ. Масштабный кастинг, новые яркие участники и высокие технологии в мире экстрасенсорики. Новый сезон обещает стать самым необычным и удивительным в истории шоу. «Мне бы очень хотелось, чтобы в новом сезоне экстрасенсы поменьше обращали бы внимание на свою самореализацию, а больше помогали людям. Ведь каждый сезон к нам обращаются те, кто действительно ждет помощи. И это, по-моему, для людей со сверхспособностями должно быть приоритетным!», — Марат Башаров, ведущий проекта.

Возраст: 16+ (зрителям, достигшим 16 лет)
Продолжительность: 01:10:23
Качество видео: SATRip
Видео: XviD, 720x400, ~1799 kb/s
Аудио: MP3, 2 ch, 128 kb/s, CBR

MI

Код:
Общее
Полное имя                               : D:\Битва экстрасенсов. Сезон 17. Выпуск 8 (2016.10.22) SATRip.avi
Формат                                   : AVI
Формат/Информация                        : Audio Video Interleave
Размер файла                             : 978 Мбайт
Продолжительность                        : 1 ч. 10 м.
Общий поток                              : 1940 Кбит/сек
Видео
Идентификатор                            : 0
Формат                                   : MPEG-4 Visual
Профиль формата                          : Advanced Simple@L5
Параметр BVOP формата                    : 2
Параметр QPel формата                    : Нет
Параметр GMC формата                     : Без точки перехода
Параметр матрицы формата                 : Default (H.263)
Идентификатор кодека                     : XVID
Идентификатор кодека/Подсказка           : XviD
Продолжительность                        : 1 ч. 10 м.
Битрейт                                  : 1799 Кбит/сек
Ширина                                   : 720 пикселей
Высота                                   : 400 пикселей
Соотношение сторон                       : 16:9
Частота кадров                           : 25,000 кадров/сек
Цветовое пространство                    : YUV
Субдискретизация насыщенности            : 4:2:0
Битовая глубина                          : 8 бит
Тип развёртки                            : Прогрессивная
Метод сжатия                             : С потерями
Бит/(Пиксели*Кадры)                      : 0.250
Размер потока                            : 938 Мбайт (93%)
Библиотека кодирования                   : XviD 1.2.1 (UTC 2008-12-04)
Аудио
Идентификатор                            : 1
Формат                                   : MPEG Audio
Версия формата                           : Version 1
Профиль формата                          : Layer 3
Режим                                    : Joint stereo
Расширение режима                        : MS Stereo
Идентификатор кодека                     : 55
Идентификатор кодека/Подсказка           : MP3
Продолжительность                        : 1 ч. 10 м.
Вид битрейта                             : Постоянный
Битрейт                                  : 128 Кбит/сек
Каналы                                   : 2 канала
Частота                                  : 48,0 КГц
Метод сжатия                             : С потерями
Размер потока                            : 66,7 Мбайт (7%)
Выравнивание                             : Соединение по промежуткам
Продолжительность промежутка             : 24  мс. (0,60 видеокадр)
Библиотека кодирования                   : LAME3.99r
Настройки программы                      : -m j -V 4 -q 9 -lowpass 17 -b 128
Скриншоты:        

XP1971

Пост 12-Сен-2016 10:57

[Цитировать]

Михаил Задорнов. Самые острые вырезанные моменты из концертов. Лучшее (2016) WEBRip - Телекомпания: РЕН
Жанр: Юмористический концерт, сатира
Режиссер: Михаил Задорнов
Описание:
Эти шутки и курьезные моменты были вырезаны из телевизионных версий выступлений Михаила Задорнова. Но вы, уважаемые зрители, можете сейчас увидеть Самые острые вырезанные моменты из концертов Задорнова.
Релиз от:
Продолжительность: ~ 00:42:13
Качество видео: WEBRip
Субтитры: Отсутствуют
Видео: MPEG4, XviD, 704x400 (16:9), 25.000 fps, 1 699 Kbps (0.241 bit/pixel)
Аудио: MP3, 44.1 KHz, 2 ch, 128 Kbps, CBR

Mediainfo:

Код:
Общее
Полное имя                               : D:\[1]\Задорнов\Михаил Задорнов. Самые острые вырезанные моменты из концертов. Лучшее (2016).avi
Формат                                   : AVI
Формат/Информация                        : Audio Video Interleave
Размер файла                             : 555 Мбайт
Продолжительность                        : 42 м.
Общий поток                              : 1837 Кбит/сек
Программа кодирования                    : VirtualDubMod 1.5.10.2 (build 2540/release)
Библиотека кодирования                   : VirtualDubMod build 2540/release
Видео
Идентификатор                            : 0
Формат                                   : MPEG-4 Visual
Профиль формата                          : Advanced Simple@L5
Параметр BVOP формата                    : 1
Параметр QPel формата                    : Нет
Параметр GMC формата                     : Без точки перехода
Параметр матрицы формата                 : Default (H.263)
Идентификатор кодека                     : XVID
Идентификатор кодека/Подсказка           : XviD
Продолжительность                        : 42 м.
Битрейт                                  : 1699 Кбит/сек
Ширина                                   : 704 пикселя
Высота                                   : 400 пикселей
Соотношение сторон                       : 16:9
Частота кадров                           : 25,000 кадров/сек
Цветовое пространство                    : YUV
Субдискретизация насыщенности            : 4:2:0
Битовая глубина                          : 8 бит
Тип развёртки                            : Прогрессивная
Метод сжатия                             : С потерями
Бит/(Пиксели*Кадры)                      : 0.241
Размер потока                            : 513 Мбайт (93%)
Библиотека кодирования                   : XviD 1.2.1 (UTC 2008-12-04)
Аудио
Идентификатор                            : 1
Формат                                   : MPEG Audio
Версия формата                           : Version 1
Профиль формата                          : Layer 3
Идентификатор кодека                     : 55
Идентификатор кодека/Подсказка           : MP3
Продолжительность                        : 42 м.
Вид битрейта                             : Постоянный
Битрейт                                  : 128 Кбит/сек
Каналы                                   : 2 канала
Частота                                  : 44,1 КГц
Метод сжатия                             : С потерями
Размер потока                            : 38,7 Мбайт (7%)
Выравнивание                             : Разделение по промежуткам
Продолжительность промежутка             : 40  мс. (1,00 видеокадр)
Время предзагрузки промежутка            : 500  мс.
Библиотека кодирования                   : LAME3.99r
Настройки программы                      : -m s -V 4 -q 2 -lowpass 17 -b 128
Скриншоты:
       
 

Текущее время: Сегодня 21:13

Часовой пояс: GMT + 3