Сегодня идет свободное скачивание без начисления Download

Результатов поиска: 25

Автор Сообщение

sergej644

Пост 26-Янв-2018 13:33

[Цитировать]

-Madonna - Rebel Heart Tour--
Год выпуска: 2016
Страна: USA
Жанр: Pop
Лейбл: USA | Live Nation Global Touring, Live Nation, York Studios
Режиссер: Nathan Rissman, Danny Tull
Продолжительность: 01:58:52
-Качество видео: Blu-Ray
Контейнер: BDMV
Стандарт разрешения: 1080i
Видео кодек: MPEG4 AVC
Аудио кодек: LPCM, DTS
Видео: 1920x1080, 29992 Mбит/сек, 29,970 кадров/сек, 16:9, High Profile 4.1
Аудио 1: LPCM, 1536 Кбит/сек, 2 каналa (Front: L R), 48,0 КГц, 16 bit
Аудио 2: DTS-HD Master Audio, 2808 Кбит/сек, 5,1 канал (Front: L C R, Side: L R, LFE), 48kHz/16-bit, (DTS Core: 5.1 / 48 kHz / 1536 kbps / 16-bit)
-

«Rebel Heart Tour» — десятый концертный тур американской певицы Мадонны в поддержку её тринадцатого студийного альбома Rebel Heart, вышедшего 6 марта 2015 года. Стоит отметить, что турне Мадонны всегда проходят на высшем техническом уровне, с сопровождением сложнейшей хореографии и, чаще всего, живым исполнением, Rebel Heart Tour не стал исключением. Первые даты тура Мадонна анонсировала 2 марта 2015 года. Изначально планировалось, что первое шоу состоится в Майами 29 августа 2015, но даты концертов в Майами, Атланте и Сан-Хуане были перенесены на январь 2016 года. Первое выступление состоялось в Монреале 9 сентября 2015 года. После тура по Северной Америке, певица продолжила выступления в Европе и Азии, завершив тур в марте 2016 года концертами в Новой Зеландии и Австралии. За 82 полностью распроданных шоу, которые в общей сложности посетили 1,045,479 зрителей, Rebel Heart Tour, собрал более $169,800,000. Более того, благодаря «Rebel Heart Tour», сборы с которого составили более $169,800,000, суммарная прибыль со всех туров Мадонны, начиная с 1990 года, превысила отметку в $1,300,000,000, что делает ее самым успешным гастролирующим сольным исполнителем в истории.
-

Трэклист


1. Iconic
2. Bitch I’m Madonna
3. Burning Up
4. Holy Water
5. Devil Pray
6. Messiah
7. Body Shop
8. True Blue
9. Deeper and Deeper
10. HeartBreakCity
11. Like a Virgin
12. S.E.X.
13. Living for Love (Remix)
14. La Isla Bonita
15. Dress You Up / Into The Groove / Lucky Star
16. Who’s That Girl
17. Rebel Heart
18. Illuminati
19. Music
20. Candy Shop
21. Material Girl
22. La Vie En Rose
23. Unapologetic Bitch
24. Holiday

Media Info

Код:
Общее
Идентификатор                            : 0 (0x0)
Полное имя                               : D:\Torrent Files\Madonna.Rebel.Heart.Tour.2016.COMPLETE.MBLURAY-MIDDLE\BDMV\STREAM\00000.m2ts
Формат                                   : BDAV
Формат/Информация                        : Blu-ray Video
Размер файла                             : 30,2 Гбайт
Продолжительность                        : 1 ч. 58 м.
Режим общего битрейта                    : Переменный
Общий поток                              : 36,4 Мбит/сек
Максимальный общий битрейт               : 48,0 Мбит/сек
Видео
Идентификатор                            : 4113 (0x1011)
Идентификатор меню                       : 1 (0x1)
Формат                                   : AVC
Формат/Информация                        : Advanced Video Codec
Профиль формата                          : High@L4.1
Параметр CABAC формата                   : Да
Параметр ReFrames формата                : 4 кадра
Идентификатор кодека                     : 27
Продолжительность                        : 1 ч. 58 м.
Вид битрейта                             : Переменный
Максимальный битрейт                     : 33,0 Мбит/сек
Ширина                                   : 1920 пикселей
Высота                                   : 1080 пикселей
Соотношение сторон                       : 16:9
Частота кадров                           : 29,970 (30000/1001) кадров/сек
Цветовое пространство                    : YUV
Субдискретизация насыщенности            : 4:2:0
Битовая глубина                          : 8 бит
Тип развёртки                            : MBAFF
Метод сохранения типа развёртки          : Чередующиеся поля
Порядок развёртки                        : Верхнее поле первое
Аудио #1
Идентификатор                            : 4352 (0x1100)
Идентификатор меню                       : 1 (0x1)
Формат                                   : PCM
Параметр Endianness формата              : Big
Параметр Sign формата                    : Signed
Режим смешивания                         : Blu-ray
Идентификатор кодека                     : 128
Продолжительность                        : 1 ч. 58 м.
Вид битрейта                             : Постоянный
Битрейт                                  : 1536 Кбит/сек
Каналы                                   : 2 канала
Расположение каналов                     : Front: L R
Частота                                  : 48,0 КГц
Битовая глубина                          : 16 бит
Размер потока                            : 1,28 Гбайт (4%)
Аудио #2
Идентификатор                            : 4353 (0x1101)
Идентификатор меню                       : 1 (0x1)
Формат                                   : DTS
Формат/Информация                        : Digital Theater Systems
Профиль формата                          : MA / Core
Режим                                    : 16
Параметр Endianness формата              : Big
Режим смешивания                         : Stream extension
Идентификатор кодека                     : 134
Продолжительность                        : 1 ч. 58 м.
Вид битрейта                             : Переменный / Постоянный
Битрейт                                  : Неизвестно / 1509 Кбит/сек
Каналы                                   : 6 каналов
Расположение каналов                     : Front: L C R, Side: L R, LFE
Частота                                  : 48,0 КГц
Частота кадров                           : 93,750 кадра/сек (512 spf)
Битовая глубина                          : 16 бит
Метод сжатия                             : Без потерь / Lossy

BDInfo:

Disc Title: Madonna.Rebel.Heart.Tour.2016.COMPLETE.MBLURAY-MIDDLE
Disc Size: 39 929 700 788 bytes
Protection: AACS
BD-Java: No
BDInfo: 0.5.8
Notes:
BDINFO HOME:
Cinema Squid
http://www.cinemasquid.com/blu-ray/tools/bdinfo
INCLUDES FORUMS REPORT FOR:
AVS Forum Blu-ray Audio and Video Specifications Thread
http://www.avsforum.com/avs-vb/showthread.php?t=1155731
********************
PLAYLIST: 00000.MPLS
********************
<--- BEGIN FORUMS PASTE --->
Код:
Total   Video
Title                                                           Codec   Length  Movie Size      Disc Size       Bitrate Bitrate Main Audio Track                          Secondary Audio Track
-----                                                           ------  ------- --------------  --------------  ------- ------- ------------------                        ---------------------
00000.MPLS                                                      AVC     1:58:52 32 435 576 832  39 929 700 788  36,38   29,99   LPCM 2.0 1536Kbps (48kHz/16-bit)          DTS-HD Master 5.1 2808Kbps (48kHz/16-bit)
Код:
DISC INFO:
Disc Title:     Madonna.Rebel.Heart.Tour.2016.COMPLETE.MBLURAY-MIDDLE
Disc Size:      39 929 700 788 bytes
Protection:     AACS
BD-Java:        No
BDInfo:         0.5.8
PLAYLIST REPORT:
Name:                   00000.MPLS
Length:                 1:58:52.024 (h:m:s.ms)
Size:                   32 435 576 832 bytes
Total Bitrate:          36,38 Mbps
VIDEO:
Codec                   Bitrate             Description
-----                   -------             -----------
MPEG-4 AVC Video        29992 kbps          1080i / 29,970 fps / 16:9 / High Profile 4.1
AUDIO:
Codec                           Language        Bitrate         Description
-----                           --------        -------         -----------
LPCM Audio                      English         1536 kbps       2.0 / 48 kHz / 1536 kbps / 16-bit
DTS-HD Master Audio             English         2808 kbps       5.1 / 48 kHz / 2808 kbps / 16-bit (DTS Core: 5.1 / 48 kHz / 1509 kbps / 16-bit)
FILES:
Name            Time In         Length          Size            Total Bitrate
----            -------         ------          ----            -------------
00000.M2TS      0:00:00.000     1:58:52.024     32 435 576 832  36 383
CHAPTERS:
Number          Time In         Length          Avg Video Rate  Max 1-Sec Rate  Max 1-Sec Time  Max 5-Sec Rate  Max 5-Sec Time  Max 10Sec Rate  Max 10Sec Time  Avg Frame Size  Max Frame Size  Max Frame Time
------          -------         ------          --------------  --------------  --------------  --------------  --------------  --------------  --------------  --------------  --------------  --------------
1               0:00:00.000     0:04:20.994     27 218 kbps     48 170 kbps     00:01:35.161    34 996 kbps     00:01:31.157    33 414 kbps     00:04:08.147    113 509 bytes   637 812 bytes   00:02:46.733
2               0:04:20.994     0:04:24.397     32 240 kbps     39 793 kbps     00:07:24.277    34 159 kbps     00:07:20.273    33 325 kbps     00:08:07.653    134 468 bytes   545 561 bytes   00:08:33.045
3               0:08:45.391     0:03:35.615     31 839 kbps     39 308 kbps     00:08:59.872    33 894 kbps     00:08:55.935    33 390 kbps     00:08:50.897    132 796 bytes   399 646 bytes   00:11:01.093
4               0:12:21.006     0:04:30.003     31 010 kbps     40 309 kbps     00:13:34.613    33 916 kbps     00:15:41.440    33 487 kbps     00:13:25.571    129 339 bytes   567 988 bytes   00:12:50.503
5               0:16:51.010     0:06:06.132     29 282 kbps     38 477 kbps     00:22:13.365    34 055 kbps     00:22:09.394    33 288 kbps     00:22:04.356    122 130 bytes   531 205 bytes   00:20:13.111
6               0:22:57.142     0:04:16.823     30 032 kbps     42 050 kbps     00:26:51.543    33 890 kbps     00:27:05.590    33 224 kbps     00:26:42.534    125 257 bytes   599 036 bytes   00:26:44.803
7               0:27:13.965     0:03:25.772     21 221 kbps     40 038 kbps     00:29:27.365    33 964 kbps     00:29:09.914    32 060 kbps     00:29:10.515    88 509 bytes    369 375 bytes   00:29:28.133
8               0:30:39.737     0:04:53.459     31 076 kbps     46 177 kbps     00:30:40.538    33 726 kbps     00:32:45.129    33 206 kbps     00:32:56.341    129 611 bytes   616 825 bytes   00:30:41.439
9               0:35:33.197     0:03:20.366     28 131 kbps     35 645 kbps     00:38:48.693    33 340 kbps     00:38:44.655    32 811 kbps     00:35:41.939    117 331 bytes   386 259 bytes   00:35:57.989
10              0:38:53.564     0:04:56.229     32 362 kbps     46 129 kbps     00:43:46.490    34 460 kbps     00:43:40.951    33 580 kbps     00:43:35.946    134 978 bytes   588 831 bytes   00:39:06.143
11              0:43:49.793     0:04:34.941     25 430 kbps     39 196 kbps     00:45:40.604    34 045 kbps     00:46:25.015    32 165 kbps     00:44:15.319    106 066 bytes   590 002 bytes   00:45:05.369
12              0:48:24.735     0:04:50.256     29 210 kbps     38 668 kbps     00:51:45.001    33 794 kbps     00:50:18.849    33 100 kbps     00:50:19.049    121 832 bytes   415 601 bytes   00:49:05.876
13              0:53:14.991     0:03:42.021     31 145 kbps     44 067 kbps     00:55:18.448    34 998 kbps     00:55:14.444    33 871 kbps     00:55:09.439    129 899 bytes   555 449 bytes   00:55:19.315
14              0:56:57.013     0:05:13.212     30 292 kbps     41 680 kbps     01:00:50.647    34 570 kbps     01:00:46.643    33 682 kbps     01:00:41.638    126 344 bytes   635 409 bytes   00:59:58.795
15              1:02:10.226     0:05:03.336     31 976 kbps     46 303 kbps     01:06:43.766    35 242 kbps     01:06:39.762    34 092 kbps     01:06:34.757    133 366 bytes   402 236 bytes   01:06:44.533
16              1:07:13.562     0:06:10.970     31 843 kbps     42 263 kbps     01:10:59.088    34 300 kbps     01:11:03.726    33 731 kbps     01:10:50.079    132 812 bytes   424 472 bytes   01:08:31.207
17              1:13:24.533     0:02:22.876     24 850 kbps     37 608 kbps     01:13:56.932    33 705 kbps     01:13:52.928    32 654 kbps     01:13:37.179    103 646 bytes   328 759 bytes   01:14:59.661
18              1:15:47.409     0:03:51.564     29 140 kbps     48 445 kbps     01:18:04.413    35 939 kbps     01:18:00.409    32 592 kbps     01:17:55.404    121 537 bytes   634 034 bytes   01:18:05.313
19              1:19:38.974     0:04:30.003     29 605 kbps     41 828 kbps     01:21:01.156    34 275 kbps     01:20:57.152    33 171 kbps     01:23:13.955    123 479 bytes   575 253 bytes   01:22:50.598
20              1:24:08.977     0:05:46.045     30 556 kbps     40 454 kbps     01:27:31.179    34 208 kbps     01:27:27.175    33 521 kbps     01:27:22.170    127 443 bytes   502 565 bytes   01:26:53.174
21              1:29:55.022     0:02:50.970     32 725 kbps     39 948 kbps     01:32:27.108    34 139 kbps     01:32:23.104    33 338 kbps     01:32:18.099    136 493 bytes   405 146 bytes   01:32:45.960
22              1:32:45.993     0:06:12.171     31 400 kbps     39 612 kbps     01:33:50.291    34 778 kbps     01:33:46.287    33 725 kbps     01:33:41.282    130 965 bytes   450 024 bytes   01:33:51.092
23              1:38:58.165     0:04:21.828     27 927 kbps     35 233 kbps     01:41:23.944    33 246 kbps     01:41:20.074    33 054 kbps     01:41:14.935    116 477 bytes   308 058 bytes   01:39:08.876
24              1:43:19.993     0:07:13.032     31 906 kbps     43 519 kbps     01:44:45.812    34 391 kbps     01:48:46.920    33 564 kbps     01:48:41.915    133 073 bytes   547 678 bytes   01:44:46.713
25              1:50:33.026     0:05:49.949     32 009 kbps     40 626 kbps     01:51:27.514    34 241 kbps     01:53:33.540    33 312 kbps     01:53:28.535    133 503 bytes   525 062 bytes   01:53:38.344
26              1:56:22.976     0:02:29.048     27 052 kbps     36 983 kbps     01:58:11.150    33 049 kbps     01:57:48.795    32 916 kbps     01:58:28.868    112 856 bytes   318 415 bytes   01:58:11.951
STREAM DIAGNOSTICS:
File            PID             Type            Codec           Language                Seconds                 Bitrate                 Bytes           Packets
----            ---             ----            -----           --------                --------------          --------------          -------------   -----
00000.M2TS      4113 (0x1011)   0x1B            AVC                                     7131,891                29 992                  26 737 906 091  145 441 673
00000.M2TS      4352 (0x1100)   0x80            LPCM            eng (English)           7131,891                1 542                   1 375 054 420   8 558 430
00000.M2TS      4353 (0x1101)   0x86            DTS-HD MA       eng (English)           7131,891                2 808                   2 503 237 984   14 696 239
<---- END FORUMS PASTE ---->
QUICK SUMMARY:
Disc Title: Madonna.Rebel.Heart.Tour.2016.COMPLETE.MBLURAY-MIDDLE
Disc Size: 39 929 700 788 bytes
Protection: AACS
BD-Java: No
Playlist: 00000.MPLS
Size: 32 435 576 832 bytes
Length: 1:58:52.024
Total Bitrate: 36,38 Mbps
Video: MPEG-4 AVC Video / 29992 kbps / 1080i / 29,970 fps / 16:9 / High Profile 4.1
Audio: English / LPCM Audio / 2.0 / 48 kHz / 1536 kbps / 16-bit
Audio: English / DTS-HD Master Audio / 5.1 / 48 kHz / 2808 kbps / 16-bit (DTS Core: 5.1 / 48 kHz / 1509 kbps / 16-bit)
********************
PLAYLIST: 00011.MPLS
********************
<--- BEGIN FORUMS PASTE --->
Код:
Total   Video
Title                                                           Codec   Length  Movie Size      Disc Size       Bitrate Bitrate Main Audio Track                          Secondary Audio Track
-----                                                           ------  ------- --------------  --------------  ------- ------- ------------------                        ---------------------
00011.MPLS                                                      AVC     1:58:52 32 435 576 832  39 929 700 788  36,38   29,99   LPCM 2.0 1536Kbps (48kHz/16-bit)          DTS-HD Master 5.1 2808Kbps (48kHz/16-bit)
Код:
DISC INFO:
Disc Title:     Madonna.Rebel.Heart.Tour.2016.COMPLETE.MBLURAY-MIDDLE
Disc Size:      39 929 700 788 bytes
Protection:     AACS
BD-Java:        No
BDInfo:         0.5.8
PLAYLIST REPORT:
Name:                   00011.MPLS
Length:                 1:58:52.024 (h:m:s.ms)
Size:                   32 435 576 832 bytes
Total Bitrate:          36,38 Mbps
VIDEO:
Codec                   Bitrate             Description
-----                   -------             -----------
MPEG-4 AVC Video        29992 kbps          1080i / 29,970 fps / 16:9 / High Profile 4.1
AUDIO:
Codec                           Language        Bitrate         Description
-----                           --------        -------         -----------
LPCM Audio                      English         1536 kbps       2.0 / 48 kHz / 1536 kbps / 16-bit
DTS-HD Master Audio             English         2808 kbps       5.1 / 48 kHz / 2808 kbps / 16-bit (DTS Core: 5.1 / 48 kHz / 1509 kbps / 16-bit)
FILES:
Name            Time In         Length          Size            Total Bitrate
----            -------         ------          ----            -------------
00000.M2TS      0:00:00.000     1:58:52.024     32 435 576 832  36 383
CHAPTERS:
Number          Time In         Length          Avg Video Rate  Max 1-Sec Rate  Max 1-Sec Time  Max 5-Sec Rate  Max 5-Sec Time  Max 10Sec Rate  Max 10Sec Time  Avg Frame Size  Max Frame Size  Max Frame Time
------          -------         ------          --------------  --------------  --------------  --------------  --------------  --------------  --------------  --------------  --------------  --------------
1               0:00:00.000     0:04:20.994     27 218 kbps     48 170 kbps     00:01:35.161    34 996 kbps     00:01:31.157    33 414 kbps     00:04:08.147    113 509 bytes   637 812 bytes   00:02:46.733
2               0:04:20.994     0:04:24.397     32 240 kbps     39 793 kbps     00:07:24.277    34 159 kbps     00:07:20.273    33 325 kbps     00:08:07.653    134 468 bytes   545 561 bytes   00:08:33.045
3               0:08:45.391     0:03:35.615     31 839 kbps     39 308 kbps     00:08:59.872    33 894 kbps     00:08:55.935    33 390 kbps     00:08:50.897    132 796 bytes   399 646 bytes   00:11:01.093
4               0:12:21.006     0:04:30.003     31 010 kbps     40 309 kbps     00:13:34.613    33 916 kbps     00:15:41.440    33 487 kbps     00:13:25.571    129 339 bytes   567 988 bytes   00:12:50.503
5               0:16:51.010     0:06:06.132     29 282 kbps     38 477 kbps     00:22:13.365    34 055 kbps     00:22:09.394    33 288 kbps     00:22:04.356    122 130 bytes   531 205 bytes   00:20:13.111
6               0:22:57.142     0:04:16.823     30 032 kbps     42 050 kbps     00:26:51.543    33 890 kbps     00:27:05.590    33 224 kbps     00:26:42.534    125 257 bytes   599 036 bytes   00:26:44.803
7               0:27:13.965     0:03:25.772     21 221 kbps     40 038 kbps     00:29:27.365    33 964 kbps     00:29:09.914    32 060 kbps     00:29:10.515    88 509 bytes    369 375 bytes   00:29:28.133
8               0:30:39.737     0:04:53.459     31 076 kbps     46 177 kbps     00:30:40.538    33 726 kbps     00:32:45.129    33 206 kbps     00:32:56.341    129 611 bytes   616 825 bytes   00:30:41.439
9               0:35:33.197     0:03:20.366     28 131 kbps     35 645 kbps     00:38:48.693    33 340 kbps     00:38:44.655    32 811 kbps     00:35:41.939    117 331 bytes   386 259 bytes   00:35:57.989
10              0:38:53.564     0:04:56.229     32 362 kbps     46 129 kbps     00:43:46.490    34 460 kbps     00:43:40.951    33 580 kbps     00:43:35.946    134 978 bytes   588 831 bytes   00:39:06.143
11              0:43:49.793     0:04:34.941     25 430 kbps     39 196 kbps     00:45:40.604    34 045 kbps     00:46:25.015    32 165 kbps     00:44:15.319    106 066 bytes   590 002 bytes   00:45:05.369
12              0:48:24.735     0:04:50.256     29 210 kbps     38 668 kbps     00:51:45.001    33 794 kbps     00:50:18.849    33 100 kbps     00:50:19.049    121 832 bytes   415 601 bytes   00:49:05.876
13              0:53:14.991     0:03:42.021     31 145 kbps     44 067 kbps     00:55:18.448    34 998 kbps     00:55:14.444    33 871 kbps     00:55:09.439    129 899 bytes   555 449 bytes   00:55:19.315
14              0:56:57.013     0:05:13.212     30 292 kbps     41 680 kbps     01:00:50.647    34 570 kbps     01:00:46.643    33 682 kbps     01:00:41.638    126 344 bytes   635 409 bytes   00:59:58.795
15              1:02:10.226     0:05:03.336     31 976 kbps     46 303 kbps     01:06:43.766    35 242 kbps     01:06:39.762    34 092 kbps     01:06:34.757    133 366 bytes   402 236 bytes   01:06:44.533
16              1:07:13.562     0:06:10.970     31 843 kbps     42 263 kbps     01:10:59.088    34 300 kbps     01:11:03.726    33 731 kbps     01:10:50.079    132 812 bytes   424 472 bytes   01:08:31.207
17              1:13:24.533     0:02:22.876     24 850 kbps     37 608 kbps     01:13:56.932    33 705 kbps     01:13:52.928    32 654 kbps     01:13:37.179    103 646 bytes   328 759 bytes   01:14:59.661
18              1:15:47.409     0:03:51.564     29 140 kbps     48 445 kbps     01:18:04.413    35 939 kbps     01:18:00.409    32 592 kbps     01:17:55.404    121 537 bytes   634 034 bytes   01:18:05.313
19              1:19:38.974     0:04:30.003     29 605 kbps     41 828 kbps     01:21:01.156    34 275 kbps     01:20:57.152    33 171 kbps     01:23:13.955    123 479 bytes   575 253 bytes   01:22:50.598
20              1:24:08.977     0:05:46.045     30 556 kbps     40 454 kbps     01:27:31.179    34 208 kbps     01:27:27.175    33 521 kbps     01:27:22.170    127 443 bytes   502 565 bytes   01:26:53.174
21              1:29:55.022     0:02:50.970     32 725 kbps     39 948 kbps     01:32:27.108    34 139 kbps     01:32:23.104    33 338 kbps     01:32:18.099    136 493 bytes   405 146 bytes   01:32:45.960
22              1:32:45.993     0:06:11.838     31 408 kbps     39 612 kbps     01:33:50.291    34 778 kbps     01:33:46.287    33 725 kbps     01:33:41.282    130 998 bytes   450 024 bytes   01:33:51.092
23              1:38:57.831     0:04:22.161     27 920 kbps     35 233 kbps     01:41:23.944    33 246 kbps     01:41:20.074    33 054 kbps     01:41:14.935    116 448 bytes   308 058 bytes   01:39:08.876
24              1:43:19.993     0:07:13.032     31 906 kbps     43 519 kbps     01:44:45.812    34 391 kbps     01:48:46.920    33 564 kbps     01:48:41.915    133 073 bytes   547 678 bytes   01:44:46.713
25              1:50:33.026     0:05:49.949     32 009 kbps     40 626 kbps     01:51:27.514    34 241 kbps     01:53:33.540    33 312 kbps     01:53:28.535    133 503 bytes   525 062 bytes   01:53:38.344
26              1:56:22.976     0:02:29.048     27 052 kbps     36 983 kbps     01:58:11.150    33 049 kbps     01:57:48.795    32 916 kbps     01:58:28.868    112 856 bytes   318 415 bytes   01:58:11.951
STREAM DIAGNOSTICS:
File            PID             Type            Codec           Language                Seconds                 Bitrate                 Bytes           Packets
----            ---             ----            -----           --------                --------------          --------------          -------------   -----
00000.M2TS      4113 (0x1011)   0x1B            AVC                                     7131,891                29 992                  26 737 906 091  145 441 673
00000.M2TS      4352 (0x1100)   0x80            LPCM            eng (English)           7131,891                1 542                   1 375 054 420   8 558 430
00000.M2TS      4353 (0x1101)   0x86            DTS-HD MA       eng (English)           7131,891                2 808                   2 503 237 984   14 696 239
<---- END FORUMS PASTE ---->
QUICK SUMMARY:
Disc Title: Madonna.Rebel.Heart.Tour.2016.COMPLETE.MBLURAY-MIDDLE
Disc Size: 39 929 700 788 bytes
Protection: AACS
BD-Java: No
Playlist: 00011.MPLS
Size: 32 435 576 832 bytes
Length: 1:58:52.024
Total Bitrate: 36,38 Mbps
Video: MPEG-4 AVC Video / 29992 kbps / 1080i / 29,970 fps / 16:9 / High Profile 4.1
Audio: English / LPCM Audio / 2.0 / 48 kHz / 1536 kbps / 16-bit
Audio: English / DTS-HD Master Audio / 5.1 / 48 kHz / 2808 kbps / 16-bit (DTS Core: 5.1 / 48 kHz / 1509 kbps / 16-bit)
********************
PLAYLIST: 00012.MPLS
********************
<--- BEGIN FORUMS PASTE --->
Код:
Total   Video
Title                                                           Codec   Length  Movie Size      Disc Size       Bitrate Bitrate Main Audio Track                          Secondary Audio Track
-----                                                           ------  ------- --------------  --------------  ------- ------- ------------------                        ---------------------
00012.MPLS                                                      AVC     0:14:56 4 065 798 144   39 929 700 788  36,30   29,90   LPCM 2.0 1536Kbps (48kHz/16-bit)          DTS-HD Master 5.1 2618Kbps (48kHz/16-bit)
Код:
DISC INFO:
Disc Title:     Madonna.Rebel.Heart.Tour.2016.COMPLETE.MBLURAY-MIDDLE
Disc Size:      39 929 700 788 bytes
Protection:     AACS
BD-Java:        No
BDInfo:         0.5.8
PLAYLIST REPORT:
Name:                   00012.MPLS
Length:                 0:14:56.161 (h:m:s.ms)
Size:                   4 065 798 144 bytes
Total Bitrate:          36,30 Mbps
VIDEO:
Codec                   Bitrate             Description
-----                   -------             -----------
MPEG-4 AVC Video        29904 kbps          1080i / 29,970 fps / 16:9 / High Profile 4.1
AUDIO:
Codec                           Language        Bitrate         Description
-----                           --------        -------         -----------
LPCM Audio                      English         1536 kbps       2.0 / 48 kHz / 1536 kbps / 16-bit
DTS-HD Master Audio             English         2618 kbps       5.1 / 48 kHz / 2618 kbps / 16-bit (DTS Core: 5.1 / 48 kHz / 1509 kbps / 16-bit)
SUBTITLES:
Codec                           Language        Bitrate         Description
-----                           --------        -------         -----------
Presentation Graphics           English         25,384 kbps
Presentation Graphics           German          22,409 kbps
Presentation Graphics           Spanish         21,272 kbps
Presentation Graphics           French          25,541 kbps
Presentation Graphics           Italian         24,629 kbps
Presentation Graphics           Dutch           24,378 kbps
Presentation Graphics           Portuguese      21,903 kbps
Presentation Graphics           Swedish         21,151 kbps
FILES:
Name            Time In         Length          Size            Total Bitrate
----            -------         ------          ----            -------------
00016.M2TS      0:00:00.000     0:14:56.161     4 065 798 144   36 295
CHAPTERS:
Number          Time In         Length          Avg Video Rate  Max 1-Sec Rate  Max 1-Sec Time  Max 5-Sec Rate  Max 5-Sec Time  Max 10Sec Rate  Max 10Sec Time  Avg Frame Size  Max Frame Size  Max Frame Time
------          -------         ------          --------------  --------------  --------------  --------------  --------------  --------------  --------------  --------------  --------------  --------------
1               0:00:00.000     0:14:56.161     29 904 kbps     41 217 kbps     00:14:51.957    34 359 kbps     00:14:47.953    33 416 kbps     00:12:50.002    124 724 bytes   348 821 bytes   00:05:34.534
STREAM DIAGNOSTICS:
File            PID             Type            Codec           Language                Seconds                 Bitrate                 Bytes           Packets
----            ---             ----            -----           --------                --------------          --------------          -------------   -----
00016.M2TS      4113 (0x1011)   0x1B            AVC                                     896,028                 29 908                  3 349 841 282   18 221 297
00016.M2TS      4352 (0x1100)   0x80            LPCM            eng (English)           896,028                 1 543                   172 780 612     1 075 398
00016.M2TS      4353 (0x1101)   0x86            DTS-HD MA       eng (English)           896,028                 2 618                   293 226 608     1 728 119
00016.M2TS      4608 (0x1200)   0x90            PGS             eng (English)           896,028                 25                      2 843 548       16 424
00016.M2TS      4609 (0x1201)   0x90            PGS             deu (German)            896,028                 22                      2 510 269       14 620
00016.M2TS      4610 (0x1202)   0x90            PGS             spa (Spanish)           896,028                 21                      2 382 894       13 814
00016.M2TS      4611 (0x1203)   0x90            PGS             fra (French)            896,028                 26                      2 861 090       16 572
00016.M2TS      4612 (0x1204)   0x90            PGS             ita (Italian)           896,028                 25                      2 758 938       15 975
00016.M2TS      4613 (0x1205)   0x90            PGS             nld (Dutch)             896,028                 24                      2 730 831       15 767
00016.M2TS      4614 (0x1206)   0x90            PGS             por (Portuguese)        896,028                 22                      2 453 604       14 302
00016.M2TS      4615 (0x1207)   0x90            PGS             swe (Swedish)           896,028                 21                      2 369 351       13 681
<---- END FORUMS PASTE ---->
QUICK SUMMARY:
Disc Title: Madonna.Rebel.Heart.Tour.2016.COMPLETE.MBLURAY-MIDDLE
Disc Size: 39 929 700 788 bytes
Protection: AACS
BD-Java: No
Playlist: 00012.MPLS
Size: 4 065 798 144 bytes
Length: 0:14:56.161
Total Bitrate: 36,30 Mbps
Video: MPEG-4 AVC Video / 29904 kbps / 1080i / 29,970 fps / 16:9 / High Profile 4.1
Audio: English / LPCM Audio / 2.0 / 48 kHz / 1536 kbps / 16-bit
Audio: English / DTS-HD Master Audio / 5.1 / 48 kHz / 2618 kbps / 16-bit (DTS Core: 5.1 / 48 kHz / 1509 kbps / 16-bit)
Subtitle: English / 25,384 kbps
Subtitle: German / 22,409 kbps
Subtitle: Spanish / 21,272 kbps
Subtitle: French / 25,541 kbps
Subtitle: Italian / 24,629 kbps
Subtitle: Dutch / 24,378 kbps
Subtitle: Portuguese / 21,903 kbps
Subtitle: Swedish / 21,151 kbps
********************
PLAYLIST: 00013.MPLS
********************
<--- BEGIN FORUMS PASTE --->
Код:
Total   Video
Title                                                           Codec   Length  Movie Size      Disc Size       Bitrate Bitrate Main Audio Track                          Secondary Audio Track
-----                                                           ------  ------- --------------  --------------  ------- ------- ------------------                        ---------------------
00013.MPLS                                                      AVC     0:14:56 4 065 798 144   39 929 700 788  36,30   29,90   LPCM 2.0 1536Kbps (48kHz/16-bit)          DTS-HD Master 5.1 2618Kbps (48kHz/16-bit)
Код:
DISC INFO:
Disc Title:     Madonna.Rebel.Heart.Tour.2016.COMPLETE.MBLURAY-MIDDLE
Disc Size:      39 929 700 788 bytes
Protection:     AACS
BD-Java:        No
BDInfo:         0.5.8
PLAYLIST REPORT:
Name:                   00013.MPLS
Length:                 0:14:56.161 (h:m:s.ms)
Size:                   4 065 798 144 bytes
Total Bitrate:          36,30 Mbps
VIDEO:
Codec                   Bitrate             Description
-----                   -------             -----------
MPEG-4 AVC Video        29904 kbps          1080i / 29,970 fps / 16:9 / High Profile 4.1
AUDIO:
Codec                           Language        Bitrate         Description
-----                           --------        -------         -----------
LPCM Audio                      English         1536 kbps       2.0 / 48 kHz / 1536 kbps / 16-bit
DTS-HD Master Audio             English         2618 kbps       5.1 / 48 kHz / 2618 kbps / 16-bit (DTS Core: 5.1 / 48 kHz / 1509 kbps / 16-bit)
SUBTITLES:
Codec                           Language        Bitrate         Description
-----                           --------        -------         -----------
Presentation Graphics           English         25,384 kbps
Presentation Graphics           German          22,409 kbps
Presentation Graphics           Spanish         21,272 kbps
Presentation Graphics           French          25,541 kbps
Presentation Graphics           Italian         24,629 kbps
Presentation Graphics           Dutch           24,378 kbps
Presentation Graphics           Portuguese      21,903 kbps
Presentation Graphics           Swedish         21,151 kbps
FILES:
Name            Time In         Length          Size            Total Bitrate
----            -------         ------          ----            -------------
00016.M2TS      0:00:00.000     0:14:56.161     4 065 798 144   36 295
CHAPTERS:
Number          Time In         Length          Avg Video Rate  Max 1-Sec Rate  Max 1-Sec Time  Max 5-Sec Rate  Max 5-Sec Time  Max 10Sec Rate  Max 10Sec Time  Avg Frame Size  Max Frame Size  Max Frame Time
------          -------         ------          --------------  --------------  --------------  --------------  --------------  --------------  --------------  --------------  --------------  --------------
1               0:00:00.000     0:14:56.161     29 904 kbps     41 217 kbps     00:14:51.957    34 359 kbps     00:14:47.953    33 416 kbps     00:12:50.002    124 724 bytes   348 821 bytes   00:05:34.534
STREAM DIAGNOSTICS:
File            PID             Type            Codec           Language                Seconds                 Bitrate                 Bytes           Packets
----            ---             ----            -----           --------                --------------          --------------          -------------   -----
00016.M2TS      4113 (0x1011)   0x1B            AVC                                     896,028                 29 908                  3 349 841 282   18 221 297
00016.M2TS      4352 (0x1100)   0x80            LPCM            eng (English)           896,028                 1 543                   172 780 612     1 075 398
00016.M2TS      4353 (0x1101)   0x86            DTS-HD MA       eng (English)           896,028                 2 618                   293 226 608     1 728 119
00016.M2TS      4608 (0x1200)   0x90            PGS             eng (English)           896,028                 25                      2 843 548       16 424
00016.M2TS      4609 (0x1201)   0x90            PGS             deu (German)            896,028                 22                      2 510 269       14 620
00016.M2TS      4610 (0x1202)   0x90            PGS             spa (Spanish)           896,028                 21                      2 382 894       13 814
00016.M2TS      4611 (0x1203)   0x90            PGS             fra (French)            896,028                 26                      2 861 090       16 572
00016.M2TS      4612 (0x1204)   0x90            PGS             ita (Italian)           896,028                 25                      2 758 938       15 975
00016.M2TS      4613 (0x1205)   0x90            PGS             nld (Dutch)             896,028                 24                      2 730 831       15 767
00016.M2TS      4614 (0x1206)   0x90            PGS             por (Portuguese)        896,028                 22                      2 453 604       14 302
00016.M2TS      4615 (0x1207)   0x90            PGS             swe (Swedish)           896,028                 21                      2 369 351       13 681
<---- END FORUMS PASTE ---->
QUICK SUMMARY:
Disc Title: Madonna.Rebel.Heart.Tour.2016.COMPLETE.MBLURAY-MIDDLE
Disc Size: 39 929 700 788 bytes
Protection: AACS
BD-Java: No
Playlist: 00013.MPLS
Size: 4 065 798 144 bytes
Length: 0:14:56.161
Total Bitrate: 36,30 Mbps
Video: MPEG-4 AVC Video / 29904 kbps / 1080i / 29,970 fps / 16:9 / High Profile 4.1
Audio: English / LPCM Audio / 2.0 / 48 kHz / 1536 kbps / 16-bit
Audio: English / DTS-HD Master Audio / 5.1 / 48 kHz / 2618 kbps / 16-bit (DTS Core: 5.1 / 48 kHz / 1509 kbps / 16-bit)
Subtitle: English / 25,384 kbps
Subtitle: German / 22,409 kbps
Subtitle: Spanish / 21,272 kbps
Subtitle: French / 25,541 kbps
Subtitle: Italian / 24,629 kbps
Subtitle: Dutch / 24,378 kbps
Subtitle: Portuguese / 21,903 kbps
Subtitle: Swedish / 21,151 kbps
********************
PLAYLIST: 00014.MPLS
********************
<--- BEGIN FORUMS PASTE --->
Код:
Total   Video
Title                                                           Codec   Length  Movie Size      Disc Size       Bitrate Bitrate Main Audio Track                          Secondary Audio Track
-----                                                           ------  ------- --------------  --------------  ------- ------- ------------------                        ---------------------
00014.MPLS                                                      AVC     0:04:39 1 265 553 408   39 929 700 788  36,25   29,97   LPCM 2.0 1536Kbps (48kHz/16-bit)          DTS-HD Master 5.1 2712Kbps (48kHz/16-bit)
Код:
DISC INFO:
Disc Title:     Madonna.Rebel.Heart.Tour.2016.COMPLETE.MBLURAY-MIDDLE
Disc Size:      39 929 700 788 bytes
Protection:     AACS
BD-Java:        No
BDInfo:         0.5.8
PLAYLIST REPORT:
Name:                   00014.MPLS
Length:                 0:04:39.279 (h:m:s.ms)
Size:                   1 265 553 408 bytes
Total Bitrate:          36,25 Mbps
VIDEO:
Codec                   Bitrate             Description
-----                   -------             -----------
MPEG-4 AVC Video        29972 kbps          1080i / 29,970 fps / 16:9 / High Profile 4.1
AUDIO:
Codec                           Language        Bitrate         Description
-----                           --------        -------         -----------
LPCM Audio                      English         1536 kbps       2.0 / 48 kHz / 1536 kbps / 16-bit
DTS-HD Master Audio             English         2712 kbps       5.1 / 48 kHz / 2712 kbps / 16-bit (DTS Core: 5.1 / 48 kHz / 1509 kbps / 16-bit)
FILES:
Name            Time In         Length          Size            Total Bitrate
----            -------         ------          ----            -------------
00017.M2TS      0:00:00.000     0:04:39.279     1 265 553 408   36 252
CHAPTERS:
Number          Time In         Length          Avg Video Rate  Max 1-Sec Rate  Max 1-Sec Time  Max 5-Sec Rate  Max 5-Sec Time  Max 10Sec Rate  Max 10Sec Time  Avg Frame Size  Max Frame Size  Max Frame Time
------          -------         ------          --------------  --------------  --------------  --------------  --------------  --------------  --------------  --------------  --------------  --------------
1               0:00:00.000     0:04:39.279     29 972 kbps     38 683 kbps     00:03:50.096    33 912 kbps     00:03:46.092    33 212 kbps     00:03:41.087    125 010 bytes   580 105 bytes   00:03:43.022
STREAM DIAGNOSTICS:
File            PID             Type            Codec           Language                Seconds                 Bitrate                 Bytes           Packets
----            ---             ----            -----           --------                --------------          --------------          -------------   -----
00017.M2TS      4113 (0x1011)   0x1B            AVC                                     279,146                 29 987                  1 046 333 106   5 691 549
00017.M2TS      4352 (0x1100)   0x80            LPCM            eng (English)           279,146                 1 543                   53 845 184      335 136
00017.M2TS      4353 (0x1101)   0x86            DTS-HD MA       eng (English)           279,146                 2 713                   94 659 892      555 347
<---- END FORUMS PASTE ---->
QUICK SUMMARY:
Disc Title: Madonna.Rebel.Heart.Tour.2016.COMPLETE.MBLURAY-MIDDLE
Disc Size: 39 929 700 788 bytes
Protection: AACS
BD-Java: No
Playlist: 00014.MPLS
Size: 1 265 553 408 bytes
Length: 0:04:39.279
Total Bitrate: 36,25 Mbps
Video: MPEG-4 AVC Video / 29972 kbps / 1080i / 29,970 fps / 16:9 / High Profile 4.1
Audio: English / LPCM Audio / 2.0 / 48 kHz / 1536 kbps / 16-bit
Audio: English / DTS-HD Master Audio / 5.1 / 48 kHz / 2712 kbps / 16-bit (DTS Core: 5.1 / 48 kHz / 1509 kbps / 16-bit)
********************
PLAYLIST: 00017.MPLS
********************
<--- BEGIN FORUMS PASTE --->
Код:
Total   Video
Title                                                           Codec   Length  Movie Size      Disc Size       Bitrate Bitrate Main Audio Track                          Secondary Audio Track
-----                                                           ------  ------- --------------  --------------  ------- ------- ------------------                        ---------------------
00017.MPLS                                                      AVC     0:04:39 1 265 553 408   39 929 700 788  36,25   29,97   LPCM 2.0 1536Kbps (48kHz/16-bit)          DTS-HD Master 5.1 2712Kbps (48kHz/16-bit)
Код:
DISC INFO:
Disc Title:     Madonna.Rebel.Heart.Tour.2016.COMPLETE.MBLURAY-MIDDLE
Disc Size:      39 929 700 788 bytes
Protection:     AACS
BD-Java:        No
BDInfo:         0.5.8
PLAYLIST REPORT:
Name:                   00017.MPLS
Length:                 0:04:39.279 (h:m:s.ms)
Size:                   1 265 553 408 bytes
Total Bitrate:          36,25 Mbps
VIDEO:
Codec                   Bitrate             Description
-----                   -------             -----------
MPEG-4 AVC Video        29972 kbps          1080i / 29,970 fps / 16:9 / High Profile 4.1
AUDIO:
Codec                           Language        Bitrate         Description
-----                           --------        -------         -----------
LPCM Audio                      English         1536 kbps       2.0 / 48 kHz / 1536 kbps / 16-bit
DTS-HD Master Audio             English         2712 kbps       5.1 / 48 kHz / 2712 kbps / 16-bit (DTS Core: 5.1 / 48 kHz / 1509 kbps / 16-bit)
FILES:
Name            Time In         Length          Size            Total Bitrate
----            -------         ------          ----            -------------
00017.M2TS      0:00:00.000     0:04:39.279     1 265 553 408   36 252
CHAPTERS:
Number          Time In         Length          Avg Video Rate  Max 1-Sec Rate  Max 1-Sec Time  Max 5-Sec Rate  Max 5-Sec Time  Max 10Sec Rate  Max 10Sec Time  Avg Frame Size  Max Frame Size  Max Frame Time
------          -------         ------          --------------  --------------  --------------  --------------  --------------  --------------  --------------  --------------  --------------  --------------
1               0:00:00.000     0:04:39.279     29 972 kbps     38 683 kbps     00:03:50.096    33 912 kbps     00:03:46.092    33 212 kbps     00:03:41.087    125 010 bytes   580 105 bytes   00:03:43.022
STREAM DIAGNOSTICS:
File            PID             Type            Codec           Language                Seconds                 Bitrate                 Bytes           Packets
----            ---             ----            -----           --------                --------------          --------------          -------------   -----
00017.M2TS      4113 (0x1011)   0x1B            AVC                                     279,146                 29 987                  1 046 333 106   5 691 549
00017.M2TS      4352 (0x1100)   0x80            LPCM            eng (English)           279,146                 1 543                   53 845 184      335 136
00017.M2TS      4353 (0x1101)   0x86            DTS-HD MA       eng (English)           279,146                 2 713                   94 659 892      555 347
<---- END FORUMS PASTE ---->
QUICK SUMMARY:
Disc Title: Madonna.Rebel.Heart.Tour.2016.COMPLETE.MBLURAY-MIDDLE
Disc Size: 39 929 700 788 bytes
Protection: AACS
BD-Java: No
Playlist: 00017.MPLS
Size: 1 265 553 408 bytes
Length: 0:04:39.279
Total Bitrate: 36,25 Mbps
Video: MPEG-4 AVC Video / 29972 kbps / 1080i / 29,970 fps / 16:9 / High Profile 4.1
Audio: English / LPCM Audio / 2.0 / 48 kHz / 1536 kbps / 16-bit
Audio: English / DTS-HD Master Audio / 5.1 / 48 kHz / 2712 kbps / 16-bit (DTS Core: 5.1 / 48 kHz / 1509 kbps / 16-bit)
********************
PLAYLIST: 00015.MPLS
********************
<--- BEGIN FORUMS PASTE --->
Код:
Total   Video
Title                                                           Codec   Length  Movie Size      Disc Size       Bitrate Bitrate Main Audio Track                          Secondary Audio Track
-----                                                           ------  ------- --------------  --------------  ------- ------- ------------------                        ---------------------
00015.MPLS                                                      AVC     0:04:39 1 265 553 408   39 929 700 788  36,25   29,97   LPCM 2.0 1536Kbps (48kHz/16-bit)          DTS-HD Master 5.1 2712Kbps (48kHz/16-bit)
Код:
DISC INFO:
Disc Title:     Madonna.Rebel.Heart.Tour.2016.COMPLETE.MBLURAY-MIDDLE
Disc Size:      39 929 700 788 bytes
Protection:     AACS
BD-Java:        No
BDInfo:         0.5.8
PLAYLIST REPORT:
Name:                   00015.MPLS
Length:                 0:04:39.279 (h:m:s.ms)
Size:                   1 265 553 408 bytes
Total Bitrate:          36,25 Mbps
VIDEO:
Codec                   Bitrate             Description
-----                   -------             -----------
MPEG-4 AVC Video        29972 kbps          1080i / 29,970 fps / 16:9 / High Profile 4.1
AUDIO:
Codec                           Language        Bitrate         Description
-----                           --------        -------         -----------
LPCM Audio                      English         1536 kbps       2.0 / 48 kHz / 1536 kbps / 16-bit
DTS-HD Master Audio             English         2712 kbps       5.1 / 48 kHz / 2712 kbps / 16-bit (DTS Core: 5.1 / 48 kHz / 1509 kbps / 16-bit)
FILES:
Name            Time In         Length          Size            Total Bitrate
----            -------         ------          ----            -------------
00018.M2TS      0:00:00.000     0:04:39.279     1 265 553 408   36 252
CHAPTERS:
Number          Time In         Length          Avg Video Rate  Max 1-Sec Rate  Max 1-Sec Time  Max 5-Sec Rate  Max 5-Sec Time  Max 10Sec Rate  Max 10Sec Time  Avg Frame Size  Max Frame Size  Max Frame Time
------          -------         ------          --------------  --------------  --------------  --------------  --------------  --------------  --------------  --------------  --------------  --------------
1               0:00:00.000     0:04:39.279     29 972 kbps     38 683 kbps     00:03:50.096    33 912 kbps     00:03:46.092    33 212 kbps     00:03:41.087    125 010 bytes   580 105 bytes   00:03:43.022
STREAM DIAGNOSTICS:
File            PID             Type            Codec           Language                Seconds                 Bitrate                 Bytes           Packets
----            ---             ----            -----           --------                --------------          --------------          -------------   -----
00018.M2TS      4113 (0x1011)   0x1B            AVC                                     279,146                 29 987                  1 046 333 106   5 691 549
00018.M2TS      4352 (0x1100)   0x80            LPCM            eng (English)           279,146                 1 543                   53 845 184      335 136
00018.M2TS      4353 (0x1101)   0x86            DTS-HD MA       eng (English)           279,146                 2 713                   94 659 892      555 347
<---- END FORUMS PASTE ---->
QUICK SUMMARY:
Disc Title: Madonna.Rebel.Heart.Tour.2016.COMPLETE.MBLURAY-MIDDLE
Disc Size: 39 929 700 788 bytes
Protection: AACS
BD-Java: No
Playlist: 00015.MPLS
Size: 1 265 553 408 bytes
Length: 0:04:39.279
Total Bitrate: 36,25 Mbps
Video: MPEG-4 AVC Video / 29972 kbps / 1080i / 29,970 fps / 16:9 / High Profile 4.1
Audio: English / LPCM Audio / 2.0 / 48 kHz / 1536 kbps / 16-bit
Audio: English / DTS-HD Master Audio / 5.1 / 48 kHz / 2712 kbps / 16-bit (DTS Core: 5.1 / 48 kHz / 1509 kbps / 16-bit)
********************
PLAYLIST: 00018.MPLS
********************
<--- BEGIN FORUMS PASTE --->
Код:
Total   Video
Title                                                           Codec   Length  Movie Size      Disc Size       Bitrate Bitrate Main Audio Track                          Secondary Audio Track
-----                                                           ------  ------- --------------  --------------  ------- ------- ------------------                        ---------------------
00018.MPLS                                                      AVC     0:04:39 1 265 553 408   39 929 700 788  36,25   29,97   LPCM 2.0 1536Kbps (48kHz/16-bit)          DTS-HD Master 5.1 2712Kbps (48kHz/16-bit)
Код:
DISC INFO:
Disc Title:     Madonna.Rebel.Heart.Tour.2016.COMPLETE.MBLURAY-MIDDLE
Disc Size:      39 929 700 788 bytes
Protection:     AACS
BD-Java:        No
BDInfo:         0.5.8
PLAYLIST REPORT:
Name:                   00018.MPLS
Length:                 0:04:39.279 (h:m:s.ms)
Size:                   1 265 553 408 bytes
Total Bitrate:          36,25 Mbps
VIDEO:
Codec                   Bitrate             Description
-----                   -------             -----------
MPEG-4 AVC Video        29972 kbps          1080i / 29,970 fps / 16:9 / High Profile 4.1
AUDIO:
Codec                           Language        Bitrate         Description
-----                           --------        -------         -----------
LPCM Audio                      English         1536 kbps       2.0 / 48 kHz / 1536 kbps / 16-bit
DTS-HD Master Audio             English         2712 kbps       5.1 / 48 kHz / 2712 kbps / 16-bit (DTS Core: 5.1 / 48 kHz / 1509 kbps / 16-bit)
FILES:
Name            Time In         Length          Size            Total Bitrate
----            -------         ------          ----            -------------
00018.M2TS      0:00:00.000     0:04:39.279     1 265 553 408   36 252
CHAPTERS:
Number          Time In         Length          Avg Video Rate  Max 1-Sec Rate  Max 1-Sec Time  Max 5-Sec Rate  Max 5-Sec Time  Max 10Sec Rate  Max 10Sec Time  Avg Frame Size  Max Frame Size  Max Frame Time
------          -------         ------          --------------  --------------  --------------  --------------  --------------  --------------  --------------  --------------  --------------  --------------
1               0:00:00.000     0:04:39.279     29 972 kbps     38 683 kbps     00:03:50.096    33 912 kbps     00:03:46.092    33 212 kbps     00:03:41.087    125 010 bytes   580 105 bytes   00:03:43.022
STREAM DIAGNOSTICS:
File            PID             Type            Codec           Language                Seconds                 Bitrate                 Bytes           Packets
----            ---             ----            -----           --------                --------------          --------------          -------------   -----
00018.M2TS      4113 (0x1011)   0x1B            AVC                                     279,146                 29 987                  1 046 333 106   5 691 549
00018.M2TS      4352 (0x1100)   0x80            LPCM            eng (English)           279,146                 1 543                   53 845 184      335 136
00018.M2TS      4353 (0x1101)   0x86            DTS-HD MA       eng (English)           279,146                 2 713                   94 659 892      555 347
<---- END FORUMS PASTE ---->
QUICK SUMMARY:
Disc Title: Madonna.Rebel.Heart.Tour.2016.COMPLETE.MBLURAY-MIDDLE
Disc Size: 39 929 700 788 bytes
Protection: AACS
BD-Java: No
Playlist: 00018.MPLS
Size: 1 265 553 408 bytes
Length: 0:04:39.279
Total Bitrate: 36,25 Mbps
Video: MPEG-4 AVC Video / 29972 kbps / 1080i / 29,970 fps / 16:9 / High Profile 4.1
Audio: English / LPCM Audio / 2.0 / 48 kHz / 1536 kbps / 16-bit
Audio: English / DTS-HD Master Audio / 5.1 / 48 kHz / 2712 kbps / 16-bit (DTS Core: 5.1 / 48 kHz / 1509 kbps / 16-bit)
-

Скриншоты

   
   

Дополнительные скриншоты

   
   
-    
   
-    
   
--

Combination

Пост 15-Авг-2015 01:18

[Цитировать]

SIMPLY RED. CUBA!
LIVE AT EL GRAN TEATRO. HAVANA
Год выпуска: 2005
Страна: Cuba
Жанр: Pop Rock, Soul
Продолжительность: 01:27:50
Описание: В 2005 году группа побывала на Кубе, где в Гаванском El Gran Teatro состоялся великолепный концерт, в котором прозвучали акустические версии старых хитов коллектива.
Доп. информация: Simply Red - британская поп и соул-группа, существовавшая с 1984 по 2010 год, название получила по одной из версий благодаря цвету волос её лидера Мика Хакнелла. За свою историю Simply Red выпустили одиннадцать студийных альбомов и продали более 50 миллионов дисков. Последний из них Big Love датируется маем 2015 года.
Состав группы:
Мик Хакнелл - ведущий вокал (1985-2010, 2015)
Иэн Киркхэм - саксофон, клавишные (1986-2010, 2015)
Стив Левинсон - бас-гитара (1995-1998, 2003-2010, 2015)
Кэндзи Судзуки - гитара (1998-2010, 2015)
Кевин Робинсон - труба, флейта (1999-2010, 2015)
Дэйв Клейтон - клавишные (2003-2010, 2015)
Роман Рот - ударные (2015)
Официальный сайт Simply Red: http://www.mickhucknall.com/simplyred
Качество: DVDRip
Формат: AVI
Видео кодек: XviD
Аудио кодек: AC3
Видео: 720x400 (16:9), 25.000 fps, XviD MPEG-4 ~1900 kbps avg, 0,264 bit/pixel
Аудио: 48 kHz, AC3, 6 ch, ~448 kbps avg

Треклист

01. A Song For You
02. Your Mirror
03. Stars
04. For Your Babies
05. So Beautiful
06. Smile
07. Home
08. Sad Old Red
09. Holding Back The Years
10. It's Only Love
11. More
12. Love Fire
13. Sunrise
14. The Right Thing
15. Come To My Aid
16. Perfect Love
17. Fairground
18. Something Got Me Started
19. If You Don't Know Me By Now

Скриншоты















sashau

Пост 13-Янв-2015 19:28

[Цитировать]

Большая Дискотека 80-х полная версия - Страна: Россия
Год выпуска: 2014
Жанр: Disco
Описание фильма:
XIII международный музыкальный фестиваль «Авторадио» - «Дискотека 80-х» - стал самым масштабным за всю историю. Тридцать легендарных исполнителей, музыка non-stop, слаженная работа звука и света, совершенно необычный видеоконтент - все это «Большая Дискотека 80-х»! Всеми любимые и неподвластные времени хиты исполнили Thomas Anders,C.C. Catch, Eruption, Silent Circle, Opus, Lian Ross, Riccardo Fogli, Pupo, Ottawan, Ricchi e Poveri, Village People, Александр Кутиков и группа «Нюанс», Владимир Пресняков, Андрей Державин, Олег Газманов, Дмитрий Маликов, Валерий Сюткин, Игорь Николаев, Сергей Минаев, Владимир Маркин, Рома Жуков, Сергей Беликов, Виктор Салтыков, Игорь Корнелюк, Юрий Лоза, Игорь Саруханов, Александр Иванов и группа «Рондо», «Кар-Мэн», ВИА «Здравствуй, песня», «Веселые ребята», «Земляне». Более 30 тысяч зрителей собрались в этом году в «Олимпийском», чтобы насладиться грандиозным фантастическим шоу, оценить невероятную сценографию, красочные костюмы участников, эффектные постановки и, конечно же, потанцевать под зажигательные ритмы 80-х.
Режиссер: Герман Садченков
Актеры: Eruption, Tomas Anders, Игорь Николав, Village people, Рома Жуков и т. д.
Продолжительность: 03:56:11
Качество видео: HDTV [1080p]
Перевод: Отсутствует
Видеокодек: AVC/H.264
Битрейт видео: ~8173 kb/s
Размер кадра: 1920х1080
Аудиокодек: MP2, 2 ch
Битрейт аудио: 192 kb/s

Mediainfo

Общее
Идентификатор : 1 (0x1)
Полное имя : D:\Дискотека 80-х 2014 год. Большая. (Полная версия 1080p).ts
Формат : MPEG-TS
Размер файла : 14,5 Гбайт
Продолжительность : 3 ч. 56 м.
Режим общего битрейта : Переменный
Общий поток : 8802 Кбит/сек
Видео
Идентификатор : 4096 (0x1000)
Идентификатор меню : 1 (0x1)
Формат : AVC
Формат/Информация : Advanced Video Codec
Профиль формата : [url=mailto:High@L4.1]High@L4.1[/url]
Параметр CABAC формата : Да
Параметр ReFrames формата : 2 кадра
Идентификатор кодека : 27
Продолжительность : 3 ч. 56 м.
Битрейт : 8173 Кбит/сек
Ширина : 1920 пикселей
Высота : 1080 пикселей
Соотношение сторон : 16:9
Частота кадров : 25,000 кадров/сек
Цветовое пространство : YUV
Субдискретизация насыщенности : 4:2:0
Битовая глубина : 8 бит
Тип развёртки : Прогрессивная
Бит/(Пиксели*Кадры) : 0.158
Размер потока : 13,5 Гбайт (93%)
Аудио
Идентификатор : 4608 (0x1200)
Идентификатор меню : 1 (0x1)
Формат : MPEG Audio
Версия формата : Version 1
Профиль формата : Layer 2
Идентификатор кодека : 3
Продолжительность : 3 ч. 56 м.
Вид битрейта : Постоянный
Битрейт : 192 Кбит/сек
Каналы : 2 канала
Частота : 48,0 КГц
Метод сжатия : С потерями
Размер потока : 324 Мбайт (2%)

Треклист

Треклист:
01. Авторадио представляет...
02. Eruption - One way ticket
03. Виктор Салтыков - Белая ночь
04. Игорь Николаве - Такси, такси
05. Ottawan - D.I.S.C.O
06. Ottawan - Hands Up
07. Сергей Минаев - Карнавал
08. Рома Жуков - Я люблю вас девочки, Я люблю вас мальчики
09. Ricchi E Poveri - Mamma Maria
10. Ricchi E Poveri - Cosa Sei
11. Игорь Саруханов - Позади крутой поворот
12. Андрей Державин - Не плачь, Алиса
13. Silent Circle - Touch in the night
14. Silent Circle - Stop the rain in the night
15. Здравствуй, песня - Просто уходило лето
16. Земляне - Трава у дома
17. Riccardo Fogli - Storie Di Tutti I Giorni
18. Riccardo Fogli - Malinconia
19. Дмитрий Маликов - Брачный кортеж
20. Валерий Сюткин - Черный кот
21. Валерий Сюткин - Московский бит
22. Opus - Life is Life
23. Игорь Корнелюк - Мало ли
24. Юрий Лоза - Плот
25. Lian Ross - Say You'll Never
26. Сергей Белиов - Радуга
27. Александр Иванов и гр.Рондо - Тоже является часть вселенной
28. Александр Иванов и гр.Рондо - Я буду помнить
29. Pupo - Lo Devo Solo A Te
30. Pupo - Gelato Al Cioccolato
31. Веселые ребята - Поппури
32. Владимир Маркин - Сиреневый туман
33. Владимир Пресняков - Нет тебя прекрасней
34. Владимир Пресняков - Недотрога
35. Village people - Y.M.C.A
36. Village people - Go west
37. Village people - In the Navy
38. Олег Газманов - Свежий ветер
39. Олег Газманов - Сделан в СССР
40. Александр Кутиков и гр.Нюанс - Дай помечтать
41. Александр Кутиков и гр.Нюанс - Поворот
42. Кар-Мэн - Bad Russians
43. Кар-Мэн - Лондон, гудбай
44. C.C. Catch - Megamix
45. C.C. Catch - Heaven and hell
46. Tomas Anders - Brother Louie
47. Tomas Anders - You Can Win If You Want
48. Tomas Anders - Cherry Cherry Lady
49. Tomas Anders - You're My Heart (unplugged)
50. Tomas Anders - You're My Heart
Скриншоты:          

sashau

Пост 13-Янв-2015 19:13

[Цитировать]

Легенды Ретро FM- Режиссер / Телекомпания: 5
Русское название: Легенды Ретро FM
Год выпуска: 2014
Жанр: Концерт
Описание:
Продолжит новогодний вечер на Пятом незабываемая встреча с легендами 70-х, 80-х и 90-х на концерте "Легенды Ретро FM" - одном из самых масштабных фестивалей популярной музыки в России! Всех, кто соберётся перед экранами своих ТВ, ждут российские и зарубежные суперзвёзды. Популярные артисты и зажигательные хиты в новогоднюю ночь до самого утра 1 января. Мы будем петь и танцевать вместе с Филиппом Киркоровым, Кристиной Орбакайте, Юрием Антоновым, Александром Буйновым, Лаймой Вайкуле, Валерием Леонтьевым, Татьяной Булановой, Олегом Газмановым, Анне Вески, Денисом Майдановым, певицей Натали, группой Нэнси, Ириной Салтыковой, Самантой Фокс, Пупо, Рики и Повери, Си Си Кетч, группой Фабрика, Денисом Клявером и многими-многими другими.
Продолжительность: ~ 03:53:20 (01:55:12 + 01:58:17)
Качество видео: DVB
Формат: MPEG-PS
Видеокодек: MPEG2
Битрейт видео: ~4109 Kbps
Размер кадра: 720x576 (4:3) 25.00fps
Аудиокодек: MPEG Audio, 2ch.
Битрейт аудио: 192 kb/s

MediaInfo

Общее
Полное имя : D:\Легенды Ретро FM DVB\Отличный Новый год на Пятом! Легенды Ретро FM 1 часть 2015.01.01.mpg
Формат : MPEG-PS
Размер файла : 3,53 Гбайт
Продолжительность : 1 ч. 55 м.
Режим общего битрейта : Переменный
Общий поток : 4389 Кбит/сек
Библиотека кодирования : (c) 1998-2012 Womble Multimedia, Inc. / MPEG Video Wizard DVD 5.0.1.100 (03/2011) / Sep 22 2012
Видео
Идентификатор : 224 (0xE0)
Формат : MPEG Video
Версия формата : Version 2
Профиль формата : Main@Main
Параметр BVOP формата : Да
Параметр матрицы формата : Выборочная
Параметр GOP формата : M=3, N=15
Продолжительность : 1 ч. 55 м.
Вид битрейта : Переменный
Битрейт : 4109 Кбит/сек
Максимальный битрейт : 15,0 Мбит/сек
Ширина : 720 пикселей
Высота : 576 пикселей
Соотношение сторон : 4:3
Частота кадров : 25,000 кадров/сек
Стандарт вещания : PAL
Цветовое пространство : YUV
Субдискретизация насыщенности : 4:2:0
Битовая глубина : 8 бит
Тип развёртки : Чересстрочная
Порядок развёртки : Верхнее поле первое
Метод сжатия : С потерями
Бит/(Пиксели*Кадры) : 0.396
Временной код первого кадра : 00:00:00:00
Оригинал временного кода : Group of pictures header
Размер потока : 3,31 Гбайт (94%)
Закодированный размер потока оригинала : (c) 1998-2012 Womble Multimedia, Inc. / MPEG Video Wizard DVD 5.0.1.100 (03/2011) / Sep 22 2012
Библиотека кодирования : (c) 1998-2012 Womble Multimedia, Inc. / MPEG Video Wizard DVD 5.0.1.100 (03/2011) / Sep 22 2012
Аудио
Идентификатор : 192 (0xC0)
Формат : MPEG Audio
Версия формата : Version 1
Профиль формата : Layer 2
Продолжительность : 1 ч. 55 м.
Вид битрейта : Постоянный
Битрейт : 192 Кбит/сек
Каналы : 2 канала
Частота : 48,0 КГц
Метод сжатия : С потерями
Размер потока : 158 Мбайт (4%)
Меню

Треклист&#58;

1 часть
Юрий Антонов-Я вспоминаю (Летящей походкой)
Мираж - Наступает ночь (Суханкина)
baccara - yes sir, i can boogie (Да, сэр, я могу танцевать буги-вуги)
Анжелика Варум - Зимняя Вишня
Al Bano - Felicita
Лев Лещенко - Соловьиная роща
C.C.Catch - I Can Lose My Heart Tonight (Я могу потерять сердце этой ночью)
Юрий Лоза - На Маленьком Плоту
Secret Service - Ten O'clock Postman ( Голубь почтовый Принеси мне ее письмо.)
Мираж - Музыка Нас Связала (Суханкина)
Gianni Morandi & Al Bano - Azzurro
Лещенко Лев - Прощай!
Afric Simone - Hafanana
Крис Кельми - Ночное рандеву
Secret Service - Flash In The Night (Вспышка в ночи)
Анжелика Варум - Ля-Ля-Фа
Baccara - Sorry, I'm A Lady (Извините, я — леди)
Юрий Антонов - Нет тебя прекрасней
Александр Айвазов - Лилии
Al Bano - Sharazan
Юрий Лоза - 100 часов
Afric Simone - Todo Pasara,Maria (Все пройдет, Мария)
Юрий Антонов - Не забывай
Наташа Королева - Желтые тюльпаны
Олег Газманов - Белый снег
Ирина Аллегрова - Привет, Андрей!
Ядвига Поплавская и Александр Тиханович - Малиновки заслышав голосок
Мираж - Я больше не прошу (Суханкина)
Наташа Королёва - Синие лебеди
Юрий Антонов Крыша Дома Твоего
2 часть
Валерий Леонтьев - Зеленый свет
Анне Вески - Позади крутой поворот
Dschinghis Khan — Moskau
Лада Дэнс - Один раз в год сады цветут
Ирина Аллегрова - Угонщица
ВИА Поющие гитары - Синяя Песня (Синий Иней)
Joy - Touch By Touch
Андрей Державин - Не плачь Алиса
Afric Simone - Hafanana
Валерий Леонтьев - Полет на Дельтаплане
C.C. Catch - Soul Survivor
Вадим Казаченко - Ах, какая женщина
Анне Вески - Кто Тебе Сказал (В. Добрынин - Л. Дербенёв)
Виктор Салтыков - Кони в яблоках
Dr. Alban - It's my life
Ирина Аллегрова - Свадебные Цветы
Лада Дэнс - Регги в ночи (Жить нужно в кайф)
Joy - Valerie
Валерий Леонтьев - Кабаре
Pupo - Gelato Al Cioccolato
Вадим Казаченко - На летящем коне
Afric Simone - Todo Pasara,Maria
ВИА Поющие гитары - Люди встречаются
Dschinghis Khan — Dschinghis Khan
Андрей Державин - Чужая свадьба
Pupo - Burattino telecomandato
Лада Дэнс - Аромат любви
Валерий Леонтьев - Бездомная любовь
Вадим Казаченко - Больно Мне, Больно
Pupo - Su di Noi
Лада Денс - Девочка ночь
Скриншоты:         ]

sashau

Пост 13-Янв-2015 19:05

[Цитировать]

Звёзды Дорожного радио - Режиссер / Телекомпания: 5
Русское название: Звёзды Дорожного радио
Год выпуска: 2015
Жанр: Концерт
Выпущено: Россия
Описание:
Звезды Дорожного Радио" - это не просто концерт, а настоящий праздник для ценителей популярной отечественной музыки. В канун Нового года телезрителей приветствуют лучшие исполнители отечественной эстрады. "ЗВЕЗДЫ ДОРОЖНОГО РАДИО" - два часа самой любимой музыки, самых лучших исполнителей и самых позитивных эмоций!
Продолжительность: 01:43:19
Качество видео: SATRip
Формат файла: AVI
Видеокодек: XVID
Битрейт видео: ~2499 kbps avg, 0.17 bit/pixel
Размер кадра: 720x400 (1.80:1), 50 fps
Аудиокодек: AC-3, 2.0ch.
Битрейт аудио: 192kb/s

MediaInfo&#58;

Общее
Полное имя : D:\Zvezdy.dorozhnogo.radio.SATRip..avi
Формат : AVI
Формат/Информация : Audio Video Interleave
Размер файла : 1,96 Гбайт
Продолжительность : 1 ч. 43 м.
Общий поток : 2710 Кбит/сек
Программа кодирования : VirtualDubMod 1.5.10.3 | www.virtualdub-fr.org || (build 2550/release)
Библиотека кодирования : VirtualDubMod build 2550/release
Видео
Идентификатор : 0
Формат : MPEG-4 Visual
Профиль формата : Advanced Simple@L5
Параметр BVOP формата : 2
Параметр QPel формата : Нет
Параметр GMC формата : Без точки перехода
Параметр матрицы формата : Default (H.263)
Идентификатор кодека : XVID
Идентификатор кодека/Подсказка : XviD
Продолжительность : 1 ч. 43 м.
Битрейт : 2499 Кбит/сек
Ширина : 720 пикселей
Высота : 400 пикселей
Соотношение сторон : 16:9
Частота кадров : 50,000 кадров/сек
Цветовое пространство : YUV
Субдискретизация насыщенности : 4:2:0
Битовая глубина : 8 бит
Тип развёртки : Прогрессивная
Метод сжатия : С потерями
Бит/(Пиксели*Кадры) : 0.174
Размер потока : 1,80 Гбайт (92%)
Библиотека кодирования : XviD 1.2.1 (UTC 2008-12-04)
Аудио
Идентификатор : 1
Формат : AC-3
Формат/Информация : Audio Coding 3
Расширение режима : CM (complete main)
Параметр Endianness формата : Big
Идентификатор кодека : 2000
Продолжительность : 1 ч. 43 м.
Вид битрейта : Постоянный
Битрейт : 192 Кбит/сек
Каналы : 2 канала
Расположение каналов : Front: L R
Частота : 48,0 КГц
Битовая глубина : 16 бит
Метод сжатия : С потерями
Размер потока : 142 Мбайт (7%)
Выравнивание : Разделение по промежуткам
Продолжительность промежутка : 20 мс. (1,00 видеокадр)
Время предзагрузки промежутка : 500 мс.
Скриншоты:        Rip by Taz

sashau

Пост 02-Дек-2014 16:00

[Цитировать]

Авторадио. Большая Дискотека 80-х - Русское название: Авторадио. Большая Дискотека 80-х
Год выпуска: 2014
Жанр: Концерт
Описание:
Главное музыкальное событие осени - XIII международный музыкальный фестиваль «Авторадио» «Дискотека 80-х» - состоялся 29 ноября 2014 года в СК Олимпийский».
«Авторадио» снова подарило всем ценителям хорошей музыки фантастическое, захватывающее шоу, в котором гармонично сочетались зажигательные ритмы 80-х и ультрасовременная сценография, эффектные постановки и оригинальные творческие находки. Фестиваль посетили 30 тысяч зрителей.
Неподвластные времени хиты исполнили Thomas Anders, C.C. Catch, Eruption, Silent Circle, Opus, Lian Ross, Riccardo Fogli, Pupo, Ottawan, Ricchi e Poveri, Village People, а также Александр Кутиков и группа «Нюанс», Владимир Пресняков, Андрей Державин, Олег Газманов, Дмитрий Маликов, Валерий Сюткин, Игорь Николаев, Сергей Минаев, Владимир Маркин, Рома Жуков, Сергей Беликов, Виктор Салтыков, Игорь Корнелюк, Юрий Лоза, Игорь Саруханов, Александр Иванов и группа «Рондо», «Кар-Мэн», ВИА «Здравствуй, песня», «Веселые ребята», «Земляне».
Продолжительность: ~ 04:05:01
Видеокодек: XviD
Битрейт видео: ~2000 kb/s
Размер кадра: 720 x 400
Качество видео: WEBRip
Аудиокодек: AC-3, 2ch.
Битрейт аудио: 256 kb/s

MediaInfo

Формат : AVI
Формат/Информация : Audio Video Interleave
Профиль формата : OpenDML
Размер файла : 3,87 Гбайт
Продолжительность : 4 ч. 5 м.
Общий поток : 2263 Кбит/сек
Программа кодирования : TMPGEnc Video Mastering Works 5 Version. 5.0.6.38
Библиотека кодирования : TMPGEnc Video Mastering Works 5 Version. 5.0.6.38
Видео
Идентификатор : 0
Формат : MPEG-4 Visual
Профиль формата : Advanced Simple@L5
Параметр BVOP формата : 2
Параметр QPel формата : Нет
Параметр GMC формата : Без точки перехода
Параметр матрицы формата : Default (H.263)
Режим смешивания : Сжатый битовый поток
Идентификатор кодека : XVID
Идентификатор кодека/Подсказка : XviD
Продолжительность : 4 ч. 5 м.
Битрейт : 2000 Кбит/сек
Ширина : 720 пикселей
Высота : 400 пикселей
Соотношение сторон : 16:9
Частота кадров : 29,970 кадров/сек
Цветовое пространство : YUV
Субдискретизация насыщенности : 4:2:0
Битовая глубина : 8 бит
Тип развёртки : Прогрессивная
Метод сжатия : С потерями
Бит/(Пиксели*Кадры) : 0.232
Размер потока : 3,42 Гбайт (88%)
Библиотека кодирования : XviD 64
Аудио
Идентификатор : 1
Формат : AC-3
Формат/Информация : Audio Coding 3
Расширение режима : CM (complete main)
Параметр Endianness формата : Big
Идентификатор кодека : 2000
Продолжительность : 4 ч. 5 м.
Вид битрейта : Постоянный
Битрейт : 256 Кбит/сек
Каналы : 2 канала
Расположение каналов : Front: L R
Частота : 48,0 КГц
Битовая глубина : 16 бит
Метод сжатия : С потерями
Размер потока : 449 Мбайт (11%)
Выравнивание : Соединение по промежуткам
Продолжительность промежутка : 240 мс. (7,19 видеокадров)
Время предзагрузки промежутка : 480 мс.

Треклист

01. Eruption - One way ticket
02. Виктор Салтыков - Белая ночь
03. Игорь Николаев - Такси
04. Ottawan - D.I.S.C.O
05. Ottawan - Hands up
06.Сергей Минаев - Карнавал
07. Рома Жуков - Я люблю вас девочки, Я люблю вас мальчики
08. Ricchi E Poveri - Mamma Maria
09. Ricchi E Poveri - Cosa Sei
10. Игорь Саруханов - Поворот
11. Андрей Державин - Алиса
12. Silent Circle - Touch in the night
13. Silent Circle - Stop the rain in the night
14. Здравствуй, песня - Просто уходило лето
15. Земляне - Трава у дома
16. Riccardo Fogli - Storie Di Tutti I Giorno
17. Riccardo Fogli - Malinconia
18. Дмитрий Маликов - Брачный кортеж
19. Валерий Сюткин - Черный кот
20. Валерий Сюткин - Московский бит
21.Opus - Life is Life
22. Игорь Корнелюк - Мало ли
23. Юрий Лоза - Плот
24. Lian Ross - Say You'll Never
25. Сергей Беликов - Радуга
26. Александр Иванов и гр.Рондо - Бледный Бармен
27. Александр Иванов и гр.Рондо - Я буду помнить
28. Pupo - Lo Devo Solo A Te
29. Pupo - Gelato Al Cioccolato
30. Веселые ребята - Не волнуйтесь тетя
31. Веселые ребята - Розовые розы (Светке Соколовой)
32. Владимир Маркин - Сиреневый туман
33. Владимир Пресняков - Не умирай любовь
34. Владимир Пресняков - Недотрога
35. Village people - Megamix
36. Village people - Y.M.C.A
37. Олег Газманов - Свежий ветер
38. Олег Газманов - Сделаны в СССР
39. Александр Кутиков и гр.Ньюанс - Помечтать
40. Александр Кутиков и гр.Ньюанс - Поворот
41. Кар-Мэн - Bad Russian
42. Кар-Мэн - Лондон гудбай
43. C.C. Catch - Megamix
44. C.C. Catch - Heaven and hell
45. Tomas Anders - Brother Louie
46. Tomas Anders - You Can Win, If You Want
47. Tomas Anders - You're My Heart You're My Soul (acoustic)
48. Tomas Anders - You're My Heart You're My Soul
Скриншоты:                    

sashau

Пост 26-Май-2014 21:56

[Цитировать]

Mylene Farmer - Stade de France - Год выпуска: 2009
Жанр: Pop
Описание фильма:
Грандиозное по масштабности концертное выступление французской поп дивы Милен Фармер прошедшее в Париже на стадионе Stade de France. Два завершающих турне концерта и 160 тысяч человек, которые пришли посмотреть на шоу с по настоящему голливудским размахом спецэффектов и с присуще французскому темпераменту накалу чувств. Огромная сцена располагающая на себе тонны света, звука и декораций. Звучание самых лучших песен за более чем 25 лет карьеры сопровождающихся великолепно поставленной хореографией и полной открытостью чувств самой скрытной французской певицы. Слезы и радость Милен Фармер вызывающие бурю эмоций в ответ от предано любящих ее поклонников.
Релиз был создан непосредственно мною и непосредственно для себя, при этом дорожка АС3 была признана избыточной и для экономии объема данных удалена. Остался лишь необходимый минимум: две DTS дорожки - двух и шестиканальная.
Кроме того, на форуме поклонников Милен был найден перевод данного концерта и добавлен в виде отключаемых субтитров SRT (к сожалению ника/имени переводчика уже не могу вспомнить, но остался благодарен ей), что должно выглядеть как на приведенном скриншоте:
 

Режиссер: Франсуа Ансс
Актеры: Милен Фармер
Продолжительность: 02:19:22
Качество видео: BDRip
Перевод: Отсутствует
Язык субтитров: Русский
Вид субтитров: Вшитые отключаемые
Видеокодек: MPEG-4 AVC/H.264
Битрейт видео: ~11.1 Mb/s
Размер кадра: 1920 x 1080
Аудио 1: DTS 5.1 - 1500 kb/s
Аудио 2: DTS 2.0 - 1500 kb/s

Mediainfo

General
Unique ID : 212526974366959986640958564086486974603 (0x9FE334D620C792A3BA708C807AC0C08B)
Complete name : D:\Download\Mylene Farmer-SDF2009DTS-RusSub-BDRip1080p.mkv
Format : Matroska
Format version : Version 2
File size : 13.8 GiB
Duration : 2h 19mn
Overall bit rate : 14.2 Mbps
Movie name : Mylene Farmer - Stade de France (encoded by Constan+ine)
Encoded date : UTC 2012-01-30 13:36:48
Writing application : mkvmerge v4.0.0 ('The Stars were mine') сборка от Jun 6 2010 16:18:42
Writing library : libebml v1.0.0 + libmatroska v1.0.0
Video
ID : 1
Format : AVC
Format/Info : Advanced Video Codec
Format profile : [url=mailto:High@L4.1]High@L4.1[/url]
Format settings, CABAC : Yes
Format settings, ReFrames : 4 frames
Codec ID : V_MPEG4/ISO/AVC
Duration : 2h 19mn
Bit rate : 11.1 Mbps
Width : 1 920 pixels
Height : 1 080 pixels
Display aspect ratio : 16:9
Frame rate mode : Constant
Frame rate : 25.000 fps
Color space : YUV
Chroma subsampling : 4:2:0
Bit depth : 8 bits
Scan type : Progressive
Bits/(Pixel*Frame) : 0.215
Stream size : 10.6 GiB (77%)
Writing library : x264 core 93 r1542 5b86182
Encoding settings : cabac=1 / ref=4 / deblock=1:-2:-2 / analyse=0x3:0x133 / me=umh / subme=10 / psy=1 / psy_rd=1.00:0.00 / mixed_ref=1 / me_range=48 / chroma_me=1 / trellis=2 / 8x8dct=1 / cqm=0 / deadzone=21,11 / fast_pskip=0 / chroma_qp_offset=-2 / threads=4 / sliced_threads=0 / nr=0 / decimate=1 / interlaced=0 / constrained_intra=0 / bframes=8 / b_pyramid=2 / b_adapt=2 / b_bias=0 / direct=3 / wpredb=1 / wpredp=2 / keyint=250 / keyint_min=25 / scenecut=40 / intra_refresh=0 / rc_lookahead=0 / rc=2pass / mbtree=0 / bitrate=11150 / ratetol=1.0 / qcomp=0.75 / qpmin=10 / qpmax=51 / qpstep=4 / cplxblur=20.0 / qblur=0.5 / vbv_maxrate=50000 / vbv_bufsize=50000 / ip_ratio=1.40 / pb_ratio=1.30 / aq=2:0.80 / nal_hrd=none
Language : English
Default : No
Forced : No
Audio #1
ID : 2
Format : DTS
Format/Info : Digital Theater Systems
Mode : 16
Format settings, Endianness : Big
Codec ID : A_DTS
Duration : 2h 19mn
Bit rate mode : Constant
Bit rate : 1 509 Kbps
Channel(s) : 6 channels
Channel positions : Front: L C R, Side: L R, LFE
Sampling rate : 48.0 KHz
Bit depth : 24 bits
Compression mode : Lossy
Stream size : 1.47 GiB (11%)
Title : DTS 5.1
Language : French
Default : Yes
Forced : No
Audio #2
ID : 3
Format : DTS
Format/Info : Digital Theater Systems
Mode : 16
Format settings, Endianness : Big
Codec ID : A_DTS
Duration : 2h 19mn
Bit rate mode : Constant
Bit rate : 1 509 Kbps
Channel(s) : 2 channels
Channel positions : Front: L R
Sampling rate : 48.0 KHz
Bit depth : 24 bits
Compression mode : Lossy
Stream size : 1.47 GiB (11%)
Title : DTS 2.0
Language : French
Default : No
Forced : No
Text
ID : 4
Format : UTF-8
Codec ID : S_TEXT/UTF8
Codec ID/Info : UTF-8 Plain Text
Language : Russian
Default : No
Forced : No
Menu
00:00:00.000 : en:Avant la lumiere
00:01:07.760 : en:D`entre les morts
00:06:03.280 : en:Paradis inanime
00:10:45.400 : en:L`ame-stram-gram
00:17:02.360 : en:Je m`ennuie
00:21:26.760 : en:Outro Haka "Je m`ennuie"
00:24:09.000 : en:Appelle mon numero
00:29:28.280 : en:XXL
00:35:34.440 : en:California
00:40:33.800 : en:Pourvu qu`elles soient douces
00:45:32.320 : en:Point de suture
00:53:22.400 : en:Nous souviendrons nous
00:59:39.800 : en:Rever
01:08:32.200 : en:Laisse le vent emporter tout
01:13:54.440 : en:Ainsi soit je...
01:20:03.680 : en:Interlude "Avant que l'ombre..."
01:25:35.000 : en:Libertine
01:31:08.400 : en:Sans contrefacon
01:37:14.400 : en:L`instant X
01:42:10.000 : en:[censored] Them All
01:47:02.600 : en:Degeneration
01:54:30.200 : en:C'est dans l'air
02:02:35.200 : en:Desenchantee
02:13:17.000 : en:Generique

Треклист&#58;

Треклист:
1. Avant la lumière
2. D`entre les morts
3. Paradis inanimé
4. L`âme-stram-gram
5. Je m`ennuie
6. Outro Haka "Je m`ennuie"
7. Appelle mon numéro
8. XXL
9. California
10. Pourvu qu`elles soient douces
11. Point de suture
12. Nous souviendrons nous
13. Rêver
14. Laisse le vent emporter tout
15. Ainsi soit je...
16. Interlude "Avant Que L`ombre..."
17. Libertine
18. Sans contrefaçon
19. L`instant X
20. [censored] Them All
21. Dégénération
22. C`est dans l`air
23. Désenchantée
24. Générique
Скриншоты:
         

Varius

Пост 13-Сен-2012 14:54

[Цитировать]

Mylene Farmer - Avant que l'ombre A Bercy (2006) BDRip- Оригинальное название: Mylene Farmer - Avant que l'ombre A Bercy
Год выпуска: 2006
Жанр: Музыка
Продолжительность: 02:16:22
Описание:
Mylene Farmer открывает в 2006 году , тур который включал 13 концертов , начался 13 января и закончился 16 дней спустя, 29 января.
Tracklist:
1. "Introduction" (7:32)
2. "Peut-etre toi" (3:22)
3. "XXL" (5:27)
4. "Dans les rues de Londres" (4:16)
5. "California" (5:15)
6. "Porno graphique" (4:07)
7. "Sans contrefacon" (4:48)
8. "Q.I" (6:50)
9. "C'est une belle journee" (4:14)
10. "Ange, parle-moi" (4:32)
11. "Redonne-moi" (5:36)
12. "Rever" (7:41)
13. "L'Autre" (7:25)
14. "Desenchantee" (9:08)
15. "Nobody Knows" (5:36)
16. "Je t'aime melancolie" (4:47)
17. "L'Amour n'est rien..." (4:59)
18. "Deshabillez-moi" (3:54)
19. "Les Mots" (5:05)
20. "Fuck Them All" (8:18)
21. "Avant que l'ombre..." (7:45)
22. "Generique de fin" (3:56)
-Видеокодек: MPEG-4 AVC/H.264
Битрейт видео: ~3500 Kbps
Размер кадра: 1280x704
Качество видео: BDRip
Аудиокодек: AC3 5.1
Битрейт аудио: 640 Kbps

Media Info

General
Unique ID : 246623173191663199249682315952302434095 (0xB989E53A70736603A030732C8735A72F)
Complete name : Mylene Farmer - Avant que l'ombre � Bercy 2006.mkv
Format : Matroska
Format version : Version 2
File size : 3.96 GiB
Duration : 2h 16mn
Overall bit rate : 4 155 Kbps
Movie name : Mylene Farmer - Avant que l'ombre � Bercy
Encoded date : UTC 2012-09-09 18:57:07
Writing application : mkvmerge v5.8.0 ('No Sleep / Pillow')
Writing library : libebml v1.2.3 + libmatroska v1.3.0
Attachment : Yes
Video
ID : 1
Format : AVC
Format/Info : Advanced Video Codec
Format profile : [url=mailto:High@L4.1]High@L4.1[/url]
Format settings, CABAC : Yes
Format settings, ReFrames : 6 frames
Codec ID : V_MPEG4/ISO/AVC
Duration : 2h 16mn
Bit rate : 3 500 Kbps
Width : 1 280 pixels
Height : 704 pixels
Display aspect ratio : 16:9
Original display aspect ratio : 16:9
Frame rate mode : Variable
Frame rate : 25.000 fps
Color space : YUV
Chroma subsampling : 4:2:0
Bit depth : 8 bits
Scan type : Progressive
Bits/(Pixel*Frame) : 0.155
Stream size : 3.27 GiB (83%)
Writing library : x264 core 125 r2208
Encoding settings : cabac=1 / ref=6 / deblock=1:-3:1 / analyse=0x3:0x133 / me=esa / subme=9 / psy=1 / psy_rd=1.70:0.90 / mixed_ref=0 / me_range=32 / chroma_me=1 / trellis=1 / 8x8dct=1 / cqm=0 / deadzone=21,11 / fast_pskip=1 / chroma_qp_offset=-4 / threads=6 / lookahead_threads=1 / sliced_threads=0 / nr=0 / decimate=1 / interlaced=0 / bluray_compat=0 / constrained_intra=0 / bframes=3 / b_pyramid=2 / b_adapt=1 / b_bias=0 / direct=3 / weightb=1 / open_gop=1 / weightp=2 / keyint=250 / keyint_min=25 / scenecut=80 / intra_refresh=0 / rc_lookahead=40 / rc=abr / mbtree=1 / bitrate=3500 / ratetol=1.0 / qcomp=0.60 / qpmin=10 / qpmax=69 / qpstep=4 / vbv_maxrate=20000 / vbv_bufsize=20000 / nal_hrd=none / ip_ratio=1.40 / aq=1:1.00
Language : French
Default : Yes
Forced : Yes
Audio
ID : 2
Format : AC-3
Format/Info : Audio Coding 3
Mode extension : CM (complete main)
Format settings, Endianness : Big
Codec ID : A_AC3
Duration : 2h 16mn
Bit rate mode : Constant
Bit rate : 640 Kbps
Channel(s) : 6 channels
Channel positions : Front: L C R, Side: L R, LFE
Sampling rate : 48.0 KHz
Bit depth : 16 bits
Compression mode : Lossy
Stream size : 624 MiB (15%)
Language : French
Default : Yes
Forced : Yes
-Скриншоты:
Видеоряд дополнительно очищен от фоновых шумов
=Сравнить=
       
       

Koralina

Пост 23-Мар-2012 22:03

[Цитировать]

cataman, Где сиды?..... Вставьте баннер о мультитрекерной раздаче.....

cataman

Пост 23-Мар-2012 08:33

[Цитировать]

Michael Jackson's This Is It
Год выпуска: 2009
Страна: США, Columbia Pictures
Жанр: Документальный, музыка
Продолжительность: 01:51:18
Перевод: Профессиональный (двухголосый)
Cубтитры: Английские
Режиссер: Кенни Ортега / Kenny Ortega
Описание: Он изменил мир: современная музыка и в целом поп-культура сформировались под огромным влиянием его творчества. Мир изменил его: став божеством сцены, он лишился свободы быть простым человеком. Майкл Джексон — символ ХХ века, одухотворенного и жестокого. В XXI веке артист готовился к грандиозному туру, который изменил бы представления о концертах мегазвездного уровня. Документальный фильм-концерт «Майкл Джексон: Вот и все» рассказывает о том, что никогда больше не случится с нами. Это не только шоу с исполнением гениальных хитов, но и моменты творческого процесса: поиск правильного звучания, постановка хореографии, разработка видеосопровождения. И над каждым моментом профессионально и дотошно работал сам Майкл, чтобы донести до зрителя свой талант в идеальной форме. Уникальное шоу «Вот и все» должно было стать прощальным в карьере Майкла, но не состоялось. Остались только рабочие видеозаписи — последний прижизненный архив великого артиста. И фильм «Майкл Джексон: Вот и все» стал прощанием с Майклом и его эпохой.
Качество: BDRip(1080p)
Формат: MKV
Видео кодек: H.264
Аудио кодек: AC3
Видео: MPEG-4 AVC, 9740 Kбит/с, 1920x1080, 23.976 кадр/с
Аудио 1: Русский (AC3, 6 ch, 448 Кбит/с, 48 KHz)
Аудио 2: Английский (DTS, 6 ch, 1536 Кбит/с, 48 KHz)

MediaInfo

Общее
Полное имя : D:\Majkl.Dzhekson.Vot.i.vse.2009.x264.BDRip(1080p).mkv
Формат : Matroska
Размер файла : 9,09 Гигабайт
Продолжительность : 1ч 51мин
Общий поток : 11,7 Мбит/сек
Фильм : --SCHUMAHER--
Дата кодирования : UTC 2009-12-24 22:39:49
Программа-кодировщик : mkvmerge v2.1.0 ('Another Place To Fall') built on Aug 19 2007 13:40:07
Библиотека кодирования : libebml v0.7.7 + libmatroska v0.8.1
Видео
Формат : AVC
Формат/Информация : Advanced Video Codec
Профайл формата : High@L4.1
Настройка CABAC формата : Да
Настройка ReFrames формата : 4 кадры
Режим смешивания : Container profile=Unknown@4.1
Идентификатор кодека : V_MPEG4/ISO/AVC
Продолжительность : 1ч 51мин
Битрейт : 9 238 Кбит/сек
Номинальный битрейт : 9 740 Кбит/сек
Ширина : 1 920 пикс.
Высота : 1 080 пикс.
Соотношение кадра : 16/9
Частота кадров : 23,976 кадр/сек
Разрешение : 24 бит
Колориметрия : 4:2:0
Тип развёртки : Прогрессивная
Бит/(Пиксели*Кадры) : 0.186
Библиотека кодирования : x264 core 80 r1376 3feaec2
Настройки программы : cabac=1 / ref=4 / deblock=1:0:0 / analyse=0x3:0x133 / me=umh / subme=7 / psy=1 / psy_rd=1.0:0.0 / mixed_ref=1 / me_range=16 / chroma_me=1 / trellis=1 / 8x8dct=1 / cqm=0 / deadzone=21,11 / fast_pskip=1 / chroma_qp_offset=-2 / threads=12 / sliced_threads=0 / nr=0 / decimate=1 / mbaff=0 / constrained_intra=0 / bframes=3 / b_pyramid=2 / b_adapt=2 / b_bias=0 / direct=3 / wpredb=1 / wpredp=2 / keyint=250 / keyint_min=25 / scenecut=40 / rc=2pass / mbtree=0 / bitrate=9740 / ratetol=1.0 / qcomp=0.60 / qpmin=10 / qpmax=51 / qpstep=4 / cplxblur=20.0 / qblur=0.5 / ip_ratio=1.40 / pb_ratio=1.30 / aq=1:1.00
Язык : English
Аудио #1
Формат : AC-3
Формат/Информация : Audio Coding 3
Идентификатор кодека : A_AC3
Продолжительность : 1ч 51мин
Вид битрейта : Постоянный
Битрейт : 448 Кбит/сек
Канал(ы) : 6 канала(ов)
Расположение каналов : Front: L C R, Surround: L R, LFE
Частота : 48,0 КГц
Язык : Russian
Аудио #2
Формат : DTS
Формат/Информация : Digital Theater Systems
Идентификатор кодека : A_DTS
Продолжительность : 1ч 51мин
Вид битрейта : Постоянный
Битрейт : 1 536 Кбит/сек
Канал(ы) : 6 канала(ов)
Расположение каналов : Front: L C R, Surround: L R, LFE
Частота : 48,0 КГц
Разрешение : 24 бит
Язык : English
Текст
Формат : UTF-8
Идентификатор кодека : S_TEXT/UTF8
Идентификатор кодека/Информация : UTF-8 Plain Text
Язык : English

IMDB 7.4/10 (11,669 votes&#41;

http://www.imdb.com/title/tt1477715/

Скриншоты

       

Koralina

Пост 21-Дек-2011 13:37

[Цитировать]

"Поет А. Челентано" - фильм-концерт к 70-летию Адриано Челентано (1987), эфир 07.01.08 [1987 г., фильм-концерт, TVRip]
Год выпуска: 1987
Страна: CCCР
Жанр: фильм-концерт
Продолжительность: 02:05:20
Режиссер:
Главная редакция музыкальных программ ЦТ СССР
Госконцерт СССР
Эфир 07.01.08.
Телеканал "Ностальгия" (http://www.nostalgiatv.ru/)
Описание: Фильм-концерт 1987 года, показанный телеканалом "Ностальгия" к 70-летию певца.
Доп. информация: РИМ, 6 января 2008 года. Всемирно известный итальянский певец и актер Адриано Челентано в воскресенье отмечает 70-летний юбилей.
"Он один из самых жизнелюбивых, любознательных и умных людей на планете", - в один голос говорят о Челентано его друзья, добавляя, впрочем, что легче встретиться с самим Папой Римским, чем поздравить певца с юбилеем лично.
В преддверии круглой даты сам Челентано, предпочитающий сводить общение с журналистами к минимуму, сказал о себе и своем понимании музыки: "Моя душа - это только рок. В отличие от тех, кто утверждает, что рок - это дьявольская музыка, я, напротив, думаю, что в нем есть свобода, желание быть вместе, смеяться и шутить... Это музыка, которая объединяет в себе народы всех рас".
(с) РИА Новости
Качество: TVRip
Формат: AVI
Видео кодек: DivX
Аудио кодек: MP3
Видео: 672x504 (1.33:1), 25 fps, DivX Codec 5.x or 6.x ~780 kbps avg, 0.09 bit/pixel
Аудио: 48 kHz, MPEG Layer 3, 2 ch, ~128.00 kbps avg

Скриншоты

               

BiteFly

Пост 19-Дек-2011 00:45

[Цитировать]

Mariah Carey - Merry Christmas To You - ABC Christmas Special- -Жанр: Pop
Страна: USA
Выпущено: ABC Music Lounge
Год выпуска: 13 Dec. 2010
Продолжительность: 00:42:32
Режиссер: Joel Gallen
В ролях: Mariah Carey & Guests
Описание:
Вашему вниманию представлен рождественский концерт Mariah Carey, состоявшийся 13 октября 2010 года.
Трэклист:
01. Oh Santa!
02. When Christmas Comes
03. O Little Town of Bethlehem/Little Drummer Boy
04. Christmas Time Is In The Air Again
05. Here Comes Santa Claus
06. Oh Holy Night
07. Joy To The World
08. Charlie Brown Christmas
09. O Come All Ye Faithful
Качество: HDTV 720p
Контейнер: MPG
Видео кодек: MPEG2
Аудио кодек: AC3
Видео: mpeg2, 1280x720, 10.6 Mbps, 59.94 fps
Аудио: ac3, 384 Kbps, 48.0 KHz, 6 channels
-Скриншоты:        -

Koralina

Пост 09-Дек-2011 11:32

[Цитировать]

Mylene Farmer - En Tournee (Live) Paris 12.09.2009 Год выпуска: 2009
Страна: France
Жанр: Pop
Продолжительность: 55:55
Описание: Грандиозный концерт на Stade de France 12 сентября 2009 года.
0) Medley ambiance (03:00)
1) Ouverture (05:52)
7) XXL reprise (00:55)
8) California extrait (01:40)
11) Nous souviendrons nous (07:50)
12) Rêver (07:49)
12) Rêver anniversaire (00:52)
13) Laisse le vent emporter tout (05:30)
15) Interlude (04:09)
17) Sans contrefaçon (06:01)
18) L'instant-x (04:43)
21) C'est dans l'air (05:30)
22) Désenchantée (02:04)
Важно: Данное видео целиком и полностью принадлежит пользователю Nikomemor с сайта *************.net
Качество: HD CamRip
Формат: AVI
Видео кодек: XviD
Аудио кодек: PCM
Видео: 1280x720 (1.78:1), 30 fps, XviD build 46 ~8966 kbps avg, 0.32 bit/pixel
Аудио: 48 kHz, PCM, 2 ch, ~3072.00 kbps avg

Скриншоты

               

Koralina

Пост 09-Дек-2011 10:28

[Цитировать]

Mylene Farmer - Stade de France №5 ON TOUR INDOOR - Le film с русскими субтитрами
Страна: France
Жанр: Pop
Продолжительность: 02:19:18
Год выпуска: 2010
Субтитры: Русские, Французские
Описание: Первый DVD диск из коллекционного издания (кофр). Киноверсия концерта Милен Фармер, прошедшего 12 сентября 2009 года в Париже на стадионе Stade de France в рамках её пятого концертного тура.
Треклист:
01. Avant la lumière
02. D`entre les morts
03. Paradis inanimé
04. L`âme-stram-gram
05. Je m`ennuie
06. Outro Haka "Je m`ennuie"
07. Appelle mon numéro
08. XXL
09. California
10. Pourvu qu`elles soient douces
11. Point de suture
12. Nous souviendrons nous
13. Rêver
14. Laisse le vent emporter tout
15. Ainsi soit je...
16. Interlude Avant que l'ombre
17. Libertine
18. Sans contrefaçon
19. L`instant X
20. Fuck Them All
21. Dégénération
22. C'est dans l'air
23. Désenchantée
24. Générique fin
Доп. информация: В оригинальный DVD добавлены русские и французские субтитры.
Изображение и звук не пережимались. Меню оставлено без изменений. Субтитры включаются во время просмотра фильма. Правка, подготовка субтитров и тайминг - Борисов Павел.
Используемое програмное обеспечение:
Разборка - PgcDemux.
Сборка - MuxMan, IfoEdit, VobBlanker.
Подготовка субтитров - MaestroSBT, SupRemap.
Тестировалось на InterVideo WinDVD, проигрывателе Windows Media и бытовом DVD плеере.
- новый, более точный тайминг,
- полная переборка текста,
- отдельные русские и французские субтитры, что разгружает картинку и облегчает визуальное восприятие
Внимание, torrent перезалит. Исправлена ошибка в структуре DVD. Исправлено несколько строк перевода. Спасибо всем за замечания.
Качество : DVD9
Формат: DVD video
Видео кодек: MPEG2
Аудио кодек: AC3
Видео: MPEG Video Version 2 720x576 (16:9) 25,000 кадр/сек, битрейт переменный
Аудио: AC-3 2 канала, 48,0 КГц; AC-3 6 каналов, 48,0 КГц; DTS 6 каналов, 48,0 КГц
Раздача третьего DVD диска из коллекционного издания, содержащего три песни с концерта не вошедшие в основной DVD находится здесь.

Сравнение переводов (рекомендуется предварительно ознакомиться&#41;

Перевод из данной раздачи ............. Дословный перевод из альтернативной раздачи
L'instant X
Кровавый понедельник .................. Кровавый понедельник
Но что же ............................. Но что
Нас держит в притяжении планеты ....... Загоняет в ловушку нашу планету
И окутывает туманом мою комету ........ И затуманивает мою комету
Это ................................... Это
Закон серийности ...................... Закон серийности
Стикс ................................. Стикс
Тоски скопление ....................... Проблемы накапливаются
Мое лицо цвета помойки ................ Я выгляжу будто из помойки
Но .................................... Но
Это момент икс ........................ Мгновение икс
Которого мы ждём как мессию ........... Мы ждем, как мессию
Как волшебный миг ..................... Как волшебный миг
Это уравнение ......................... Это уравнение
ax + b, несущее финал игры ............ ax + b попадает в точку
Но сейчас скажи… ...................... Но пока скажи
Санта, когда ты спустишься с небес .... Дед Мороз, когда ты спустишься с неба
На крыльях, с весельем и успокоением .. Фан, зопрак и крылья
2000 год принесёт духовную силу ....... Год 2000 будет духовным
Так написано в “ELLE” ................. Так написано в ELLE
Немного веселья в финале века ......... Немного фана в финале века
Убийственное настроение ............... Убийственное настроение
Это время, когда ...................... Настало время
Я принимаю позу ....................... Для меня стать в позу
Размышляю о чём-то другом ............. Подумать о другом
Это ................................... Это
Адская круговерть ..................... Круг порочный
Неизбежность .......................... Неизбежный
Ничто превращается в Эверест .......... Из ничего вырастает Эверест
Моя кошка бросается в окно ............ Мой кот выбрасывается в окно
Когда ................................. Когда
Когда настаёт момент икс .............. Когда же настанет мгновение икс
Которого мы ждём как мессию ........... Которого мы ждем, как мессию
Как волшебный миг ..................... Как волшебный миг
Это жертвоприношение .................. Это бойня
Растрескавшийся лак ................... Потрескавшийся лак
Удушье ................................ Удушье
Одна нога в могиле .................... Одной ногой в могиле

Скриншоты с меню

     

Скриншоты

L`âme-stram-gram
   
XXL
   
Point de suture
   
Sans contrefacon
   
C`est dans l`air
   

радист

Пост 08-Ноя-2011 19:26

[Цитировать]

Glastonbury Festival 2011- Featuring Coldplay (Day 2)
Год выпуска: 2011
Страна: United Kingdom
Жанр: Pop/Rock
Продолжительность: 04:15:00

треклист

1. Paolo Nutini - Pencil Full Of Lead
2. Aloe Blacc - I Need A Dollar
3. Janelle Monae - Faster
4. Friendly Fires - Hawiian Air
5. Elbow - Open Arms
6. Coldplay - Hurts Like Heaven
7. Coldplay - Yellow
8. Coldplay - In My Place
9. Coldplay - Major Minus
10. Coldplay - Lost
11. Coldplay - The Scientist
12. Coldplay - Shiver
13. Coldplay - Violet Hill
14. Coldplay - God Put A Smile Upon Your Face
15. Coldplay - Everything’s Not Lost
16. Coldplay - Us Against The World
17. Coldplay - Politik
18. Coldplay - Viva La Vida
19. Coldplay - Charlie Brown
20. Coldplay - Life Is For Living
21. Coldplay - Clocks
22. Coldplay - What A Wonderful World
23. Coldplay - Fix You
24. Coldplay - Every Teardrop Is A Waterfall
25. Glas Vegas - Geraldine
26. Glas Vegas - Lots Sometimes
27. Devlin - Runaway
28. Coldplay - Every Teardrop Is A Waterfall (repeat)
29. White Lies - Bigger Than Us
30. The Chemical Brothers - Star Guitar
31. The Chemical Brothers - Hey Boy Hey Girl
32. Noah & The Whale - Five Years Time
33. Noah & The Whale - Life Goes On
34. The Horrors - Still Life
35. Friendly Fires - Jump In The Pool
36. Aloe Blacc - Loving You Is Killing Me
37. The Webb Sisters - If It Be Your Will
38. Warpaint - Undertow
39. Tinie Tempah - Written In The Stars
40. Hard Fi - Good For Nothing
41. Elbow - Grounds For Divorce
42. Elbow - One Day Like This
43. Coldplay - In My Place (repeat)

Glastonbury Festival of Contemporary Performing Arts, часто сокращаемый до Glastonbury или Glasto — музыкальный фестиваль, проводящийся с 1970 года неподалёку от города Гластонбери в Великобритании. Мероприятие (поначалу называвшееся Glastonbury Fayre) с первых лет своего существования получило репутацию «британского Вудстока» и традиционно считается одним из главных событий музыкального года в Британии. 22 июня в Британии стартовал 41-й по счету open-air Гластонбери, на который уже съехались 150 тысяч фанатов, не боящихся ни дождя, ни слякоти. В этом году среди хедлайнеров мероприятия - U2, Coldplay, Бейонсе, Primal Scream, The Chemical Brothers и Моррисси.

Качество: HDTVRip
Формат: MKV
Видео кодек: AVC
Аудио кодек: AC3
Видео: 1280x720 at 25.000 fps, ~5686 Kbps avg
Аудио: AC3 2.0, 48 kHz, 192 kbps

Скриншоты

       
 

Текущее время: Сегодня 09:53

Часовой пояс: GMT + 3