Сегодня идет свободное скачивание без начисления Download

Результатов поиска: 17

Автор Сообщение

NarDok

Пост 14-Сен-2015 19:39

[Цитировать]

Ольга Стельмах - Завяжи мне глаза - Производство: студия "Ночное Такси" г.Санкт - Петербург
Жанр: Концерт, Русский шансон.
Прoдюсер: Александр Фрумин
Актеры: Ольга Стельмах, Андрей Егоров, Дмитрий Попов, Александр Краснощёк, Павел Горяйнов, Максим Костин, Марина Мельниченко
Описание: Певица и композитор из Москвы Ольга Стельмах в 2007 г. была удостоена премии «Шансон года».
В предлагаемом фильме собраны лучшие песни певицы. Программа названа по песне, которая была написана Ольгой Стельмах на стихи Михаила Танича «Завяжи мне глаза» - заглавная песня к кинофильму «Семейный ужин». Впервые для видео исполняется уже ставшая известной по радиоэфиру песня на музыку А.Державина и стихи С.Кострова - «Птицы улетают за моря». Так же в программе, последняя версия песни М.Круга «Ты опоздал».
Кроме того, что Ольга Стельмах и сама интересный композитор, она еще работает с сильными авторами – Игорь Слуцкий, Сергей Трофимов, Александр Юрпалов.
Стельмах - представитель женского эстрадного шансона, лирического с иронической ноткой, сама Ольга - очень артистична и гармонична на сцене. И даже такой непростой жанр, как романс «Вы любите меня» подвластен Ольге Стельмах, отдельно хочется отметить гитарный аккомпанемент в этой вещи Андрея Егорова.
Что откровенно радует – красивые песни с грамотными текстами, логично выстроенный концерт, который смотрится на одном дыхании. Фильм-концерт предназначен для широкого круга зрителей, как для любителей жанра «шансон», так и для ценителей хорошей эстрады.
Треклист:
01. Вступление - А. Фрумин
02. Сыграй, сыграй
03. Бывший
04. Не надо
05. Кошка-ночь
06. Ты опоздал
07. Пять минут до электрички
08. Не плачьте девочки
09. Леди Босс
10. И все еще случится
11. Необычное в обычном

Продолжение треклиста:

12. Не красиво быть несчастной
13. Я тебя ни о чем не прошу
14. Сочи
15. Вы любит меня
16. Анна Каренина
17. Любовь
18. Птицы улетают за моря
19. Завяжи мне глаза
20. Кафе Шантан
Клипы:
01. Толик-кролик
02. Завяжи мне глаза
03. Леди Босс
Продолжительность: 01:10:08
Качество видео: DVD5
Дополнительно: Интервью
Видео: MPEG-2, 720x576@1024х576, ~5200 kbps
Аудио: AC3, 2 ch, 192 kbps, CBR

Mediainfo:

Код:
Общее
Полное имя                               : \Ольга Стельмах-Завяжи мне глаза\Video_ts\VTS_01_1.VOB
Формат                                   : MPEG-PS
Размер файла                             : 1024 Мбайт
Продолжительность                        : 26 м.
Общий поток                              : 5494 Кбит/сек
Библиотека кодирования                   : encoded by TMPGEnc 4.0 XPress Version. 4.2.3.193
Видео
Идентификатор                            : 224 (0xE0)
Формат                                   : MPEG Video
Версия формата                           : Version 2
Профиль формата                          : Main@Main
Параметр BVOP формата                    : Да
Параметр матрицы формата                 : Выборочная
Параметр GOP формата                     : M=3, N=13
Продолжительность                        : 26 м.
Битрейт                                  : 5200 Кбит/сек
Ширина                                   : 720 пикселей
Высота                                   : 576 пикселей
Соотношение сторон                       : 16:9
Частота кадров                           : 25,000 кадров/сек
Стандарт вещания                         : PAL
Цветовое пространство                    : YUV
Субдискретизация насыщенности            : 4:2:0
Битовая глубина                          : 8 бит
Тип развёртки                            : Чересстрочная
Порядок развёртки                        : Верхнее поле первое
Метод сжатия                             : С потерями
Бит/(Пиксели*Кадры)                      : 0.502
Размер потока                            : 968 Мбайт (95%)
Библиотека кодирования                   : TMPGEnc XPress / 4.2.3.193 4.2.3.193
Основные цвета                           : BT.601 PAL
Характеристики трансфера                 : BT.470 System B, BT.470 System G
Коэффициенты матрицы                     : BT.601
Аудио
Идентификатор                            : 189 (0xBD)-128 (0x80)
Формат                                   : AC-3
Формат/Информация                        : Audio Coding 3
Расширение режима                        : CM (complete main)
Параметр Endianness формата              : Big
Режим смешивания                         : DVD-Video
Продолжительность                        : 26 м.
Вид битрейта                             : Постоянный
Битрейт                                  : 192 Кбит/сек
Каналы                                   : 2 канала
Расположение каналов                     : Front: L R
Частота                                  : 48,0 КГц
Битовая глубина                          : 16 бит
Метод сжатия                             : С потерями
Размер потока                            : 35,8 Мбайт (3%)
Меню

DVDinfo:

Код:
Title: Ольга Стельмах-Завяжи мне глаза
Size: 4.22 Gb ( 4 421 350,00 KBytes ) - DVD-5
Enabled regions: 1, 2, 3, 4, 5, 6, 7, 8
VTS_01 :
  Play Length: 01:10:08
  Video: PAL 16:9 (720x576) VBR, Auto Letterboxed
  Audio:
      Russian, AC3, 2/0 (L,R) ch, 192 kbps, Delay 0 mSec
VTS_02 :
  Play Length: 00:08:26
  Video: PAL 16:9 (720x576) VBR, Auto Letterboxed
  Audio:
      Russian, AC3, 2/0 (L,R) ch, 192 kbps, Delay 0 mSec
VTS_03 :
  Play Length: 00:00:10
  Video: PAL 4:3 (720x576) VBR
  Audio:
      Russian, AC3, 2/0 (L,R) ch, 192 kbps, Delay 0 mSec
VTS_04 :
  Play Length: 00:00:16
  Video: PAL 4:3 (720x576) VBR
  Audio:
      Russian, AC3, 2/0 (L,R) ch, 128 kbps, Delay 0 mSec
VTS_05 :
  Play Length: 00:00:30
  Video: PAL 4:3 (720x576) VBR
  Audio:
      Russian, AC3, 2/0 (L,R) ch, 192 kbps, Delay 0 mSec
VTS_06 :
  Play Length: 00:01:00
  Video: PAL 4:3 (720x576) VBR
  Audio:
      Russian, AC3, 2/0 (L,R) ch, 192 kbps, Delay 0 mSec
VTS_07 :
  Play Length: 00:04:04
  Video: PAL 4:3 (720x576) VBR
  Audio:
      Russian, AC3, 2/0 (L,R) ch, 192 kbps, Delay 0 mSec
VTS_08 :
  Play Length: 00:03:34
  Video: PAL 4:3 (720x576) VBR
  Audio:
      Russian, AC3, 2/0 (L,R) ch, 192 kbps, Delay 0 mSec
VTS_09 :
  Play Length: 00:03:24
  Video: PAL 4:3 (720x576) VBR
  Audio:
      Russian, AC3, 2/0 (L,R) ch, 192 kbps, Delay 0 mSec
Скриншоты:
       

Меню DVD:

     

Владимирский

Пост 17-Фев-2014 17:37

[Цитировать]

дубль с https://dark-os.com/viewtopic.php?t=82112

sashau

Пост 24-Ноя-2013 13:32

[Цитировать]

Владимир Высоцкий - Нет, ребята, всё не так… - Русское название: Владимир Высоцкий - Нет, ребята, всё не так…
Выпущено: Россия, Квадро-Диск
Год выпуска: 2013
Жанр: Авторская песня, Концерт, Театр, Документальный
Описание фильма:
Издание нового DVD альбома «Нет, ребята, все не так…» приурочено к 75-тилетию гениального поэта и актера Владимира Высоцкого. На диске поклонники творчества Владимира Семеновича найдут его лучшие песни, спетые под простой аккомпанемент семиструнной гитары. Помимо этого 14 рассказов об отсутствии официального признания, о работе в кино и театре, о популярности театра на «Таганке», о своих песнях, статьях в прессе и др. Несмотря на то, что со смерти поэта прошло не одно десятилетие и издано большое количество дисков и альбомов, интерес к творчеству выдающегося поэта современности не ослабевает, а даже наоборот. Независимый опрос показал, что Владимир Высоцкий занимает второе место в списке «Кумиров ХХ века» после Юрия Гагарина и его гению поклоняются миллионы россиян.
Доп. материалы: Отсутствуют
Субтитры: Есть в съемках иностранных компаний, вшитые, не отключаемые.
Продолжительность: 03:06:01
Качество видео: DVD9
Видео: MPEG 2, 720x576 (4:3), 25.000 fps, 9 000 Kbps (0.386 bit/pixel)
Аудио: AC-3, 48.0 KHz, 2 ch, 320 Kbps, CBR

МедиаИнфо:

Видео
Идентификатор : 224 (0xE0)
Формат : MPEG Video
Версия формата : Version 2
Профиль формата : Main@Main
Параметр BVOP формата : Да
Параметр матрицы формата : По умолчанию
Параметр GOP формата : M=3, N=15
Вид битрейта : Переменный
Максимальный битрейт : 9000 Кбит/сек
Ширина : 720 пикселей
Высота : 576 пикселей
Соотношение сторон : 4:3
Частота кадров : 25,000 кадров/сек
Стандарт вещания : PAL
Цветовое пространство : YUV
Субдискретизация насыщенности : 4:2:0
Битовая глубина : 8 бит
Тип развёртки : Чересстрочная
Порядок развёртки : Верхнее поле первое
Метод сжатия : С потерями
Аудио
Идентификатор : 189 (0xBD)-128 (0x80)
Формат : AC-3
Формат/Информация : Audio Coding 3
Расширение режима : CM (complete main)
Параметр Endianness формата : Big
Режим смешивания : DVD-Video
Вид битрейта : Постоянный
Битрейт : 320 Кбит/сек
Каналы : 2 канала
Расположение каналов : Front: L R
Частота : 48,0 КГц
Битовая глубина : 16 бит
Метод сжатия : С потерями
Задержка видео : -264 мс.

Обложки:

   

Скриншоты меню:

       
Скриншоты:
         
         

Ruvest

Пост 17-Сен-2012 17:24

[Цитировать]

Карнавал в Рио-де-Жанейро • Carnaval Rio de Janeiro

Год выпуска: 2012
Страна: Бразилия
Жанр: Танцевальное шоу, парад
Продолжительность: 19:00:00
Перевод: Оригинал

Описание:


18 февраля на Самбадроме стартовал очередной карнавал, прославивший Рио-де-Жанейро на весь мир. Тысячи участников красочного шествия и зрителей танцевали под зажигательные ритмы самбы, пока по улицам двигались платформы с яркими фигурами из папье-маше и прочими декорациями. Это одно из тех событий в мире, которые вы обязательно должны увидеть своими глазами хотя бы разок в своей жизни-Бразилия пустилась в недельный пляс: крупнейший карнавал мира стартовал, когда мэр Рио-де-Жанейро передал ключ от города королю Момо – мифической фигуре, правящей карнавалом. Ожидается, что в этом году пятидневный карнавал посетят около 850 тысяч туристов. Миллионы людей со всей страны выйдут на улицы и площадки города, чтобы танцевать и повеселиться.
Традиционные соревнования школ самбы на карнавале в Рио-де-Жанейро завершились в ночь на вторник, 21 февраля.
На 700-метровую полосу знаменитого самбодрома две ночи подряд выходили школы "специальной группы" - своеобразной высшей лиги. Проспект с трибунами, где во время карнавала проходят соревнования школ самбы, был построен в 1984 году, но к 2012 году полностью реконструирован и приведен в соответствие с оригинальным проектом Оскара Нимейера.
Тысячи танцоров, певцов и барабанщиков, десятки передвижных декораций высотой с трехэтажный дом, а также знаменитые "музы" карнавала Рио-де-Жанейро состязались с девяти часов вечера по местному времени и до самого утра.-Чемпион 2012 года определится 23 февраля после обобщения оценок 50 судей. Выступление каждой школы оценивается по десятибалльной шкале в десяти категориях, среди которых сюжет, раскрытие темы, гармоничность и слаженность движений участников, образность костюмов и декораций. По регламенту 2012 года две школы, набравшие наименьшее количество очков, выбывают из высшей лиги.
Всего, по оценкам городских властей, на карнавал в Рио в этом году прибыли не менее 800 тысяч туристов. По данным ассоциации гостиничного бизнеса Рио-де-Жанейро, отели города в канун праздника были заполнены на 95%.
Официально карнавал завершится в "пепельную среду", 22 февраля, - день скорби и покаяния, когда у католиков начинается Великий пост. Однако по традиции школы самбы, занявшие первые шесть мест на соревнованиях, снова выйдут на самбодром в субботу, 25 февраля, в праздничном Параде победителей.
-

Участники


Renascer de Jacarepaguá-01:39:18-
Portela-01:18:34-
Сайт: Imperatriz Leopoldinense-01:23:28-
Mocidade Independente de Padre Migue-01:24:22-
Unidos do Porto da Pedra-01:19:08-
Beija-Flor
01:10:38-
Unidos de Vila Isabe
01:28:55-
São Clemente-01:30:55-
União da Ilha-01:20:07-
Acadêmicos do Salgueiro-01:24:20-
Сайт: Mangueira-01:24:10-
Сайт: Unidos da Tijuca-01:13:59-
Сайт: Acadêmicos do Grande Rio
01:35:53
-
Качество: HDTVRip
Формат: MKV
Видео кодек: H.26x
Аудио кодек: AC3
Видео: MPEG4 Video (H264) 1280x720 29.97fps ~3600kbps
Аудио: Dolby AC3 48000Hz stereo 224kbps
-

Скриншоты

                       

Koralina

Пост 05-Авг-2012 11:08

[Цитировать]

Shift, Ауууу, где сиды или хотя бы баннер.

Meshanik

Пост 04-Авг-2012 19:44

[Цитировать]

VA - 50 Tracks For You Car
Год выпуска: 2011
Жанр: Dance
Продолжительность: 4:40:00
Тип издания: Bootleg
Кодек: MP3
Битрейт: 320 kbps

Треклист

01. Sideform - legacy.
02. Dada Life - Cookies With A Smile (Nam Nori Remix).
03. Relanium - Leel Lost (Original Mix).
04. Morten Breum feat. Jay Colin - Never Surrender (Jay Adams Remix).
05. Drumsound & Bassline Smith - Close.
06. Disco Freak - Untitled (Original Mix).
07. Diana Diez & Kostas Martakis - sex indigo (Mr.Gregory remix).
08. Arnej feat. Sally Saifi - Free Of You (Vocal Mix).
09. Utmost DJ's feat Tonic & Tarantula - Insomnia (DJ Essence mashup Mix).
10. Sneaker & The Dryer - Tribute To Jack (DJ Exodus & Reepr Remix).
11. Rave channel - never say goodbye.
12. Phuckheads - Breaking Mirrors (Radio Edit).
13. Leventina - Freak It Out (Original Mix).
14. John Dahlback & Henrik B - Senses (Original Mix).
15. David Guetta Feat. Usher - Without You (Armin van Buuren Remix).
16. Spankers - Everyone's A DJ (Paolo Ortelli vs. Degree Mix).
17. Silicon Sound - Wired (Art Of Existence Remix).
18. Nicky Romero - Growl (Sickindividuals Remix).
19. Marina & The Diamonds - Radioactive (Chuckie Club Mix).
20. Laidback Luke & Example - Natural Disaster (Nouveau Yorican Remix).
21. Klassify feat. Sensus and Devonne - Bounce.
22. Afrojack, Dimitri Vegas & Like Mike, Nervo - The Way We See The World (Tomorrowland Anthem Inst.Mix).
23. Pulser feat. Manya - Sunrays (Original Mix).
24. Leelee - Boombada (Radio Edit).
25. Kelly Rowland – Down For Whatever (Dany Lorence Bootleg).
26. Infected Mushroom - pink nightmares.
27. Genial - Wir Flippen Aus (Eddy Hard Remix).
28. Delilah - Go (ENiGMA DUBz Remix).
29. Chuckie,Gregori Klosman - Mutfakta.
30. The Kickstarts - Ok Steve (Original Mix).
31. Porter Robinson - Spitfire (Kill The Noise Remix).
32. Mick Kastenholt - Mayhem (Original Mix).
33. Mattias - Get Your Hands Up (Big Room Mix).
34. Jorg Schmid feat. Danielle - Died In Your Arms (Slayback Remix).
35. Badajalash - Algorythm.
36. Axwell & Bob Sinclar feat. Ron Carroll - What A Wonderful World.
37. Yahel - soul (Kamasutrance Remix).
38. Tiesto - Maximal Crazy (R3hab & Swanky Tunes Remix).
39. T&F Project And Valentin Jam - A Force ( Original Mix ).
40. Studio Killers - Ode To The Bouncer (Manhattan Clique Remix).
41. Gube, Takeshy Kurosawa - Wassup (Maurizio Gubellini & Yacek Remix).
42. Bingo Players - Get On Move (Nicola Zucchi Remix).
43. Andrew GG - Deep Love Sensation (Original Mix).
44. Syke N Sugarstarr & Alexandra - So Alive (Sugarstarr Disco Radio).
45. Max Fabian feat. MC Kakoss - Fruit (Radio Mix).
46. Markus Schulz - 65.4 Hz (Mr. Pit Remix Edit).
47. Kalwi & Remi - Made In USA (Klan Kenedy Remix).
48. Guesta & Pain - Voices (Andrey S.p.l.a.s.h. remix).
49. Britney Spears - Criminal (Diego Santos Mix).
50. Afrojack, Steve Aoki - No Beef ( Instrumental Mix).

Ruvest

Пост 16-Июл-2012 18:32

[Цитировать]

Год выпуска: 2005
Страна: Германия
Жанр: Electronica, Jazz, Funk, Downtempo, Lounge, Soul, Latin, Trip-Hop, Drum & Bass
Продолжительность: 58 м 27 с
Официальный сайт группы

Описание
:
Идея создания и реализации группы целиком и полностью принадлежит Питу Баумгартнеру — композитору и сценаристу, до появления De-Phazz работавшему в производстве рекламы и разработке различных арт-проектов. В начале 90-х Баумгартнер создал свою собственную студию. В 1994-м Пит познакомился с певицей Барбарой Лар, бывшей вокалисткой малоизвестной группы Janet The Planet, и был покорён её глубоким и разноплановым голосом. Годом позже Баумгартнер привлёк к работе американца Карла Фриерсона, чей альбом тогда продюсировал. В 1997-м вышел их дебютный альбом Detunized Gravity.
Название собственной группы участники De-Phazz расшифровывают как DEstination PHuture of jAZZ — «будущее джаза»
Качество: DVD5
Формат: DVD-Video
Видео кодек: MPEG2
Аудио кодек: AC3
Видео: MPEG-2, PAL 4:3 (720 x 576)
Аудио: LPCM, 1536 kbps, 2 Ch, 48,0 Khz, 16 Bits

DVDInfo

Код:
Title: De_Phazz_Onstage_Backstage_A_Retrospective
Size: 3.26 Gb ( 3 421 822,00 KBytes ) - DVD-5
Enabled regions: 1, 2, 3, 4, 5, 6
VTS_01 :
  Play Length: 00:00:59
  Video: PAL 4:3 (720x576) VBR
  Audio:
      Not specified (LinearPCM, 2 ch)
VTS_02 :
  Play Length: 00:06:56
  Video: PAL 4:3 (720x576) VBR
  Audio:
      Not specified (LinearPCM, 2 ch)
VTS_03 :
  Play Length: 00:58:27+{00:58:27}+{00:03:41}+{00:04:00}+{00:03:10}+{00:07:00}+{00:03:51}+{00:03:55}+{00:04:05}+{00:03:33}+{00:03:38}+{00:04:00}+{00:05:07}+{00:04:02}+{00:04:19}+{00:04:00}
  Video: PAL 4:3 (720x576) VBR
  Audio:
      Not specified, LPCM, Delay = 0 mSec
  Subtitles:
      Not specified
VTS_04 :
  Play Length: 00:00:12
  Video: PAL 4:3 (720x576) VBR
  Audio:
      Not specified (LinearPCM, 2 ch)
VTS_05 :
  Play Length: 00:06:03
  Video: PAL 4:3 (720x576) VBR
  Audio:
      Not specified (LinearPCM, 2 ch)
* Menus Information *
VIDEO_TS Menu
Video:
      PAL 4:3 (720x576) VBR
Deutsch Language Unit :
      Title Menu
VTS_01 Menu
Video:
      PAL 4:3 (720x576) VBR
Audio:
      Not specified (LinearPCM, 2 ch)
Deutsch Language Unit :
      Root Menu
VTS_02 Menu
Video:
      PAL 4:3 (720x576) VBR
Deutsch Language Unit :
      Root Menu
VTS_03 Menu
Video:
      PAL 4:3 (720x576) VBR
Deutsch Language Unit :
      Root Menu
VTS_04 Menu
Video:
      PAL 4:3 (720x576) VBR
Deutsch Language Unit :
      Root Menu
VTS_05 Menu
Video:
      PAL 4:3 (720x576) VBR
Deutsch Language Unit :
      Root Menu

Видео


Скриншоты

                   

cataman

Пост 18-Мар-2012 20:55

[Цитировать]

Ирина Круг - Лучшие концертные выступления
Год выхода: 2012
Жанр: Шансон
Исполнитель: Ирина Круг
Страна: Россия
Студия: Classic Company
Продолжительность: 01:02:06
Язык: Русский
О фильме:
Одна из самых востребованных исполнительниц жанровой песни, на ее концертах всегда аншлаги, ее голос можно услышать из любой машины, в кафе, магазинах и пр., ее любят и знают, но вот увидеть ее на телеэкране практически невозможно. Тем ценнее становится каждая запись ее выступлений, тем более, что там действительно есть на что посмотреть. Этот сборник содержит лучшие концертные выступления исполнительницы на самых топовых площадках страны. "Шансон года", "Разгуляй!", "Славянский базар", концерт памяти М. Круга в Твери, Сольный концерт в БКЗ "Октябрьский" и др.

Трек лист

01. Напиши мне
02. Юбочка
03. Моя королева
04. Я прочитаю в глазах твоих
05. Где-то за морем
06. Букет из белых роз – дуэт с В.Королёвым
07. Жиган-лимон
08. Неужели любовь обман
09. Остров любви
10. Пой, гитара
11. Ива
12. Вернись из августа ко мне
13. Перелётная птица
14. Дом на горе
15. Поле зелёное
16. Встретились глаза
17. Ну, прощай…
18. Друзьям – дуэт с Л.Телешевым
Кодек: XviD
Качество: DVDRip
Видео: XviD, 1799 Кбит/с, 704x528
Звук: АС3, 2 ch, 320 Кбит/с

Скриншоты

     

Koralina

Пост 13-Фев-2012 09:37

[Цитировать]

Alex Gaudino - Destination Calabria (ft. Crystal Waters)

Год выпуска: 2007
Страна: Италия
Жанр: House
Продолжительность: 00:03:03
Перевод: Не требуется
Описание: Сексуальный видеоклип на всем известный хит Alex Gaudino feat. Crystal Waters - Destination Calabria. Mast have!
Качество: HDTV
Формат: MPEG
Видео кодек: MPEG2
Аудио кодек: AC3
Видео: MPEG2 Video 1280x720 50.00fps 9600Kbps
Аудио: Dolby AC3 48000Hz stereo 448Kbps
           

Володя

Пост 11-Фев-2012 16:55

[Цитировать]

Почему-то у меня "Скачать" неактивна в лисе и в ie...

ALEXXX1983

Пост 10-Фев-2012 17:17

[Цитировать]

The Prodigy - Видеография
Год выпуска: 2011
Страна: Великобритания
Жанр: Elektronic Pank
Общая продолжительность 1:22:30-Музыкальная история «Prodigy» (сейчас «The Prodigy») началась в 1991 году, когда появился их первый мини-альбом «What Evil Lurks», состоящий преимущественно из ранних работ молодого Лиама Хаулетта. Сингл был замечен тогдашней рейв сценой и сразу попал в ротацию по различным клубам. Даже в наше время этот диск считается едва ли не культовой hardcore вещью, оригинал которой уже практически невозможно нигде достать. После успешного релиза их дебютного сингла группа отправилась в турне по Великобритании, выступая преимущественно в небольших андеграундных клубах. Но уже их первый заграничный концерт в Италии был восторженно воспринят итальянскими рейверами. Они провозгласили «Prodigy» лучшей группой тогдашней рейв-сцены.-Качество: DVD9
Формат: DVD Video
Видео кодек: MPEG2
Аудио кодек: DTS
Видео: MPEG2 Video 720x576, 29.97fps, 8000kbps
Аудио: 48000Hz stereo 1536kbps [LPCM]

Трэклист:

01.The Prodigy - AONO (Demo Mix) (2:17)
02.The Prodigy - Baby's Got A Temper (4:26)
03.The Prodigy - Breathe (3:59)
04.The Prodigy - Charly (3:38)
05.The Prodigy - Everybody In The Place (3:50)
06.The Prodigy - Fire (3:21)
07.The Prodigy - Firestarter (3:47)
08.The Prodigy - Wind It Up (3:29)
09.The Prodigy - Girls (3:50)
10.The Prodigy - Invaders Must Die (promo,lpcm) (3:18)
11.The Prodigy - Invaders Must Die (3:17)
12.The Prodigy - No Good (Start The Dance) (3:57)
13.The Prodigy - Omen (promo,lpcm) (3:16)
14.The Prodigy - Omen (3:17)
15.The Prodigy - One Love (3:56)
16.The Prodigy - Out Of Space (3:42)
17.The Prodigy - Poison (4:01)
18.The Prodigy - Smack My Bitch Up (Uncensored) (4:35)
19.The Prodigy - Spitfire (3:24)
20.The Prodigy - Voodoo People (pendulum remix) (3:15)
21.The Prodigy - Voodoo People (5:09)
22.The Prodigy - Warrior's Dance (Uncensored) (mixmash,lpcm) (3:29)
23.The Prodigу - Warrior's Dance (3:28)

Скриншоты

     

BiteFly

Пост 18-Дек-2011 12:20

[Цитировать]

Audio Girls - My love (DJ Prosvirin official remix)- Страна: Россия
Жанр: House/Electro House
Продолжительность: 00:03:27
Год выпуска: 2010 г.
Качество: HDRip
Контейнер: MP4
Видео кодек: AVC
Аудио кодек: AAC
Видео: MPEG Video 1280*720 (16:9) 25,000 fps 4 606-8000 kbps
Аудио: Advanced Audio Codec 48,0 KHz 2 Chanels 160 Kbps-

MediaInfa

General
Complete name : C:\Закачки\Торрент\Audio Girls - My love (DJ Prosvirin official remix).mp4
Format : MPEG-4
Format profile : Base Media
Codec ID : isom
File size : 118 MiB
Duration : 3mn 27s
Overall bit rate : 4 768 Kbps
Encoded date : UTC 2011-01-06 16:00:52
Tagged date : UTC 2011-01-06 16:00:52
Video
ID : 1
Format : AVC
Format/Info : Advanced Video Codec
Format profile : High@L3.1
Format settings, CABAC : No
Format settings, ReFrames : 1 frame
Codec ID : avc1
Codec ID/Info : Advanced Video Coding
Duration : 3mn 27s
Bit rate mode : Variable
Bit rate : 4 606 Kbps
Maximum bit rate : 8 000 Kbps
Width : 1 280 pixels
Height : 720 pixels
Display aspect ratio : 16:9
Frame rate mode : Constant
Frame rate : 25.000 fps
Standard : PAL
Color space : YUV
Chroma subsampling : 4:2:0
Bit depth : 8 bits
Scan type : Progressive
Bits/(Pixel*Frame) : 0.200
Stream size : 114 MiB (97%)
Language : English
Encoded date : UTC 2011-01-06 16:00:52
Tagged date : UTC 2011-01-06 16:00:52
Color primaries : BT.709-5, BT.1361, IEC 61966-2-4, SMPTE RP177
Transfer characteristics : BT.709-5, BT.1361
Matrix coefficients : BT.709-5, BT.1361, IEC 61966-2-4 709, SMPTE RP177
Audio
ID : 2
Format : AAC
Format/Info : Advanced Audio Codec
Format version : Version 4
Format profile : LC
Codec ID : 40
Duration : 3mn 27s
Bit rate mode : Constant
Bit rate : 160 Kbps
Channel(s) : 2 channels
Channel positions : Front: L R
Sampling rate : 48.0 KHz
Stream size : 3.95 MiB (3%)
Language : English
Encoded date : UTC 2011-01-06 16:00:52
Tagged date : UTC 2011-01-06 16:00:52
-        -

BiteFly

Пост 18-Дек-2011 12:14

[Цитировать]

Inna - Sun Is Up (Live at ZDF Fernsehgarten 28.08.2011) HD-720p- -Жанр: House, Club, Pop
Продолжительность: 00:03:59
Год выпуска: 2011
Качество: HDTV
Контейнер: TS
Видео кодек: H.264
Аудио кодек: MPEG Audio
Видео: MPEG4 Video (H264) 1280x720 50.00fps 12.2 Mbps
Аудио: MPEG Audio 48000Hz stereo
-      -

BiteFly

Пост 18-Дек-2011 12:06

[Цитировать]

Inna - Medley (Live Paris Bercy StarFloor 26.11.2011) (HDTV 1080i)- -Год выпуска: 2011
Жанр: Pop
Продолжительность: 00:08:09-Треклист:
01 - Sun Is Up
02 - Un Momento
03 - Club Rocker
-Качество: HDTV
Контейнер: TS
Видео кодек: H.264
Аудио кодек: AC3
Видео: AVC 1920x1080 25.000 fps
Аудио: Dolby AC3 5.1 48.0 KHz 384 Kbps
-

MediaInfo

General
ID : 1 (0x1)
Complete name : D:\Inna - Medley (Paris Bercy StarFloor 26.11.2011) HDTV 1080i.ts
Format : MPEG-TS
File size : 505 MiB
Duration : 8mn 9s
Overall bit rate : 8 649 Kbps
Maximum Overall bit rate : 35.5 Mbps
Video
ID : 4113 (0x1011)
Menu ID : 1 (0x1)
Format : AVC
Format/Info : Advanced Video Codec
Format profile : Main@L4.2
Format settings, CABAC : Yes
Format settings, ReFrames : 4 frames
Codec ID : 27
Duration : 8mn 9s
Bit rate mode : Variable
Bit rate : 8 000 Kbps
Maximum bit rate : 40.0 Mbps
Width : 1 920 pixels
Height : 1 080 pixels
Display aspect ratio : 16:9
Frame rate : 25.000 fps
Color space : YUV
Chroma subsampling : 4:2:0
Bit depth : 8 bits
Scan type : MBAFF
Bits/(Pixel*Frame) : 0.154
Stream size : 457 MiB (91%)
Writing library : x264 core 116 r2074 2641b9e
Encoding settings : cabac=1 / ref=3 / deblock=1:0:0 / analyse=0x1:0x111 / me=hex / subme=6 / psy=1 / psy_rd=1.00:0.00 / mixed_ref=1 / me_range=16 / chroma_me=1 / trellis=1 / 8x8dct=0 / cqm=0 / deadzone=21,11 / fast_pskip=1 / chroma_qp_offset=-2 / threads=6 / sliced_threads=0 / nr=0 / decimate=1 / interlaced=tff / bluray_compat=0 / constrained_intra=0 / bframes=3 / b_pyramid=2 / b_adapt=1 / b_bias=0 / direct=1 / weightb=1 / open_gop=0 / weightp=0 / keyint=250 / keyint_min=25 / scenecut=40 / intra_refresh=0 / rc=2pass / mbtree=0 / bitrate=8000 / ratetol=1.0 / qcomp=0.60 / qpmin=10 / qpmax=51 / qpstep=4 / cplxblur=20.0 / qblur=0.5 / ip_ratio=1.40 / pb_ratio=1.30 / aq=1:1.0
Audio
ID : 4352 (0x1100)
Menu ID : 1 (0x1)
Format : AC-3
Format/Info : Audio Coding 3
Mode extension : CM (complete main)
Codec ID : 129
Duration : 8mn 9s
Bit rate mode : Constant
Bit rate : 384 Kbps
Channel(s) : 6 channels
Channel positions : Front: L C R, Side: L R, LFE
Sampling rate : 48.0 KHz
Bit depth : 16 bits
Compression mode : Lossy
Delay relative to video : 30ms
Stream size : 22.4 MiB (4%)
-        -

BiteFly

Пост 18-Дек-2011 12:00

[Цитировать]

Катя Чехова - 5 клипов- -Год выпуска: 2011
Качество: HD
Контейнер: MOV
Видео кодек: H.264
Трэклист:

Мечтая

Жанр: Electro/House
Продолжительность: 3:41
Видео: AVC/H.264, 1280x720, 16:9, 4922kbps, 29.97fps
Аудио: AAC, 264kbps (128kbps), 44kHz, 2 channels (stereo)

MediaInfo

Format : MPEG-4
Format profile : QuickTime
Codec ID : qt
File size : 137 MiB
Duration : 3mn 41s
Overall bit rate : 5 193 Kbps
Encoded date : UTC 2011-01-17 15:28:18
Tagged date : UTC 2011-01-17 15:32:26
Writing application : CoreMediaAuthoring 700, CoreMedia 484.20, i386
Writing library : Apple QuickTime
Video
ID : 2
Format : AVC
Format/Info : Advanced Video Codec
Format profile : Main@L3.1
Format settings, CABAC : No
Format settings, ReFrames : 2 frames
Codec ID : avc1
Codec ID/Info : Advanced Video Coding
Duration : 3mn 41s
Bit rate mode : Variable
Bit rate : 4 922 Kbps
Width : 1 280 pixels
Height : 720 pixels
Display aspect ratio : 16:9
Frame rate mode : Constant
Frame rate : 29.970 fps
Color space : YUV
Chroma subsampling : 4:2:0
Bit depth : 8 bits
Scan type : Progressive
Bits/(Pixel*Frame) : 0.178
Stream size : 130 MiB (95%)
Title : Core Media Video
Encoded date : UTC 2011-01-17 15:28:18
Tagged date : UTC 2011-01-17 15:32:26
Color primaries : BT.709-5, BT.1361, IEC 61966-2-4, SMPTE RP177
Transfer characteristics : BT.709-5, BT.1361
Matrix coefficients : BT.709-5, BT.1361, IEC 61966-2-4 709, SMPTE RP177
Audio
ID : 1
Format : AAC
Format/Info : Advanced Audio Codec
Format version : Version 4
Format profile : LC
Format settings, SBR : No
Codec ID : 40
Duration : 3mn 41s
Bit rate mode : Constant
Bit rate : 264.6 Kbps
Nominal bit rate : 128 Kbps
Channel(s) : 2 channels
Channel positions : Front: L R
Sampling rate : 44.1 KHz
Stream size : 6.85 MiB (5%)
Title : Core Media Audio
Language : English
Encoded date : UTC 2011-01-17 15:28:18
Tagged date : UTC 2011-01-17 15:32:26
     

Посмотри на меня

Жанр: Electro/Dubstep
Продолжительность: 2:14
Видео: AVC/H.264, 1280x720, 16:9, 7382kbps, 29.97fps
Аудио: PCM, 1536kbps, 48kHz, 2 channels (stereo)

MediaInfo

Format : MPEG-4
Format profile : QuickTime
Codec ID : qt
File size : 143 MiB
Duration : 2mn 14s
Overall bit rate : 8 921 Kbps
Encoded date : UTC 2011-02-11 12:22:52
Tagged date : UTC 2011-02-11 12:26:06
Writing library : Apple QuickTime
Video
ID : 2
Format : AVC
Format/Info : Advanced Video Codec
Format profile : Main@L3.1
Format settings, CABAC : No
Format settings, ReFrames : 2 frames
Codec ID : avc1
Codec ID/Info : Advanced Video Coding
Duration : 2mn 14s
Bit rate mode : Variable
Bit rate : 7 382 Kbps
Width : 1 280 pixels
Height : 720 pixels
Display aspect ratio : 16:9
Frame rate mode : Constant
Frame rate : 29.970 fps
Color space : YUV
Chroma subsampling : 4:2:0
Bit depth : 8 bits
Scan type : Progressive
Bits/(Pixel*Frame) : 0.267
Stream size : 118 MiB (83%)
Language : English
Encoded date : UTC 2011-02-11 12:26:04
Tagged date : UTC 2011-02-11 12:26:06
Color primaries : BT.709-5, BT.1361, IEC 61966-2-4, SMPTE RP177
Transfer characteristics : BT.709-5, BT.1361
Matrix coefficients : BT.709-5, BT.1361, IEC 61966-2-4 709, SMPTE RP177
Audio
ID : 1
Format : PCM
Format settings, Endianness : Little
Format settings, Sign : Signed
Codec ID : sowt
Duration : 2mn 14s
Bit rate mode : Constant
Bit rate : 1 536 Kbps
Channel(s) : 2 channels
Sampling rate : 48.0 KHz
Bit depth : 16 bits
Stream size : 24.6 MiB (17%)
Language : English
Encoded date : UTC 2011-02-11 12:26:04
Tagged date : UTC 2011-02-11 12:26:06
     

Мегамикс (с выступления в Balbesov Club)

Жанр: Electro/House
Продолжительность: 3:24
Видео: AVC/H.264, 1280x720, 16:9, 11,5Mbps, 25.00fps
Аудио: PCM, 1536kbps, 48kHz, 2 channels (stereo)

MediaInfo

Format : MPEG-4
Format profile : QuickTime
Codec ID : qt
File size : 319 MiB
Duration : 3mn 24s
Overall bit rate : 13.1 Mbps
Encoded date : UTC 2011-03-03 14:42:05
Tagged date : UTC 2011-03-03 14:59:13
Writing library : Apple QuickTime
Video
ID : 2
Format : AVC
Format/Info : Advanced Video Codec
Format profile : Main@L3.2
Format settings, CABAC : No
Format settings, ReFrames : 2 frames
Format settings, GOP : M=2, N=32
Codec ID : avc1
Codec ID/Info : Advanced Video Coding
Duration : 3mn 24s
Bit rate mode : Variable
Bit rate : 11.5 Mbps
Width : 1 280 pixels
Height : 720 pixels
Display aspect ratio : 16:9
Frame rate mode : Constant
Frame rate : 25.000 fps
Color space : YUV
Chroma subsampling : 4:2:0
Bit depth : 8 bits
Scan type : Progressive
Bits/(Pixel*Frame) : 0.500
Stream size : 281 MiB (88%)
Language : English
Encoded date : UTC 2011-03-03 14:59:04
Tagged date : UTC 2011-03-03 14:59:13
Color primaries : BT.709-5, BT.1361, IEC 61966-2-4, SMPTE RP177
Transfer characteristics : BT.709-5, BT.1361
Matrix coefficients : BT.709-5, BT.1361, IEC 61966-2-4 709, SMPTE RP177
Audio
ID : 1
Format : PCM
Format settings, Endianness : Little
Format settings, Sign : Signed
Codec ID : sowt
Duration : 3mn 24s
Bit rate mode : Constant
Bit rate : 1 536 Kbps
Channel(s) : 2 channels
Sampling rate : 48.0 KHz
Bit depth : 16 bits
Stream size : 37.5 MiB (12%)
Language : English
Encoded date : UTC 2011-03-03 14:59:04
Tagged date : UTC 2011-03-03 14:59:13
     

Я посылаю код

Жанр: Electro/House
Продолжительность: 2:40
Видео: AVC/H.264, 1280x720, 16:9, 37,5Mbps, 29.97fps
Аудио: PCM, 1536kbps, 48kHz, 2 channels (stereo)

MediaInfo

Format : MPEG-4
Format profile : QuickTime
Codec ID : qt
File size : 748 MiB
Duration : 2mn 40s
Overall bit rate : 39.1 Mbps
Encoded date : UTC 2011-06-21 13:48:30
Tagged date : UTC 2011-06-21 14:01:54
Writing library : Apple QuickTime
Video
ID : 2
Format : AVC
Format/Info : Advanced Video Codec
Format profile : Main@L4.1
Format settings, CABAC : No
Format settings, ReFrames : 2 frames
Codec ID : avc1
Codec ID/Info : Advanced Video Coding
Duration : 2mn 40s
Bit rate mode : Variable
Bit rate : 37.5 Mbps
Width : 1 280 pixels
Height : 720 pixels
Display aspect ratio : 16:9
Frame rate mode : Constant
Frame rate : 29.970 fps
Color space : YUV
Chroma subsampling : 4:2:0
Bit depth : 8 bits
Scan type : Progressive
Bits/(Pixel*Frame) : 1.358
Stream size : 718 MiB (96%)
Language : English
Encoded date : UTC 2011-06-21 14:01:35
Tagged date : UTC 2011-06-21 14:01:54
Color primaries : BT.709-5, BT.1361, IEC 61966-2-4, SMPTE RP177
Transfer characteristics : BT.709-5, BT.1361
Matrix coefficients : BT.709-5, BT.1361, IEC 61966-2-4 709, SMPTE RP177
Audio
ID : 1
Format : PCM
Format settings, Endianness : Little
Format settings, Sign : Signed
Codec ID : sowt
Duration : 2mn 40s
Bit rate mode : Constant
Bit rate : 1 536 Kbps
Channel(s) : 2 channels
Sampling rate : 48.0 KHz
Bit depth : 16 bits
Stream size : 29.4 MiB (4%)
Language : English
Encoded date : UTC 2011-06-21 14:01:35
Tagged date : UTC 2011-06-21 14:01:54
       

Птица

Жанр: Electro/House/8bit
Продолжительность: 3:55
Видео: AVC/H.264, 1280x720, 16:9, 7006kbps, 29.783fps
Аудио: AAC, 256kbps, 48kHz, 2 channels (stereo)

MediaInfo

Format : MPEG-4
Format profile : QuickTime
Codec ID : qt
File size : 204 MiB
Duration : 3mn 55s
Overall bit rate : 7 280 Kbps
Encoded date : UTC 2011-07-28 14:56:39
Tagged date : UTC 2011-07-28 14:59:57
Writing application : Mac OS X v10.7 (CMA 889, CM 705.35, x86_64)
Writing library : Apple QuickTime
Video
ID : 2
Format : AVC
Format/Info : Advanced Video Codec
Format profile : High@L3.1
Format settings, CABAC : No
Format settings, ReFrames : 2 frames
Codec ID : avc1
Codec ID/Info : Advanced Video Coding
Duration : 3mn 55s
Bit rate mode : Variable
Bit rate : 7 006 Kbps
Width : 1 280 pixels
Height : 720 pixels
Display aspect ratio : 16:9
Frame rate mode : Variable
Frame rate : 29.783 fps
Minimum frame rate : 4.281 fps
Maximum frame rate : 29.970 fps
Color space : YUV
Chroma subsampling : 4:2:0
Bit depth : 8 bits
Scan type : Progressive
Bits/(Pixel*Frame) : 0.255
Stream size : 196 MiB (96%)
Title : Core Media Video
Language : English
Encoded date : UTC 2011-07-28 14:56:39
Tagged date : UTC 2011-07-28 14:59:57
Color primaries : BT.709-5, BT.1361, IEC 61966-2-4, SMPTE RP177
Transfer characteristics : BT.709-5, BT.1361
Matrix coefficients : BT.709-5, BT.1361, IEC 61966-2-4 709, SMPTE RP177
Audio
ID : 1
Format : AAC
Format/Info : Advanced Audio Codec
Format version : Version 4
Format profile : LC
Format settings, SBR : No
Codec ID : 40
Duration : 3mn 55s
Bit rate mode : Constant
Bit rate : 256 Kbps
Channel(s) : 2 channels
Channel positions : Front: L R
Sampling rate : 48.0 KHz
Stream size : 7.38 MiB (4%)
Title : Core Media Audio
Language : English
Encoded date : UTC 2011-07-28 14:56:39
Tagged date : UTC 2011-07-28 14:59:57
     
-
 

Текущее время: Сегодня 22:01

Часовой пояс: GMT + 3