Сегодня идет свободное скачивание без начисления Download

Результатов поиска: 4

Автор Сообщение

Dracula

Пост 28-Июн-2013 07:51

[Цитировать]

Топик был перенесен из форума Jazz в форум World Music from other genres


p2000s

UndegraundMen

Пост 28-Июн-2013 06:54

[Цитировать]

Nucleus - 13 Albums (1970-2006)- Год: 1970-2006
Жанр: Jazz Rock / Progressive / Fusion
Продолжительность: 10:33:34
Кодек: FLAC
Битрейт: Lossless
Wikipedia
Prog-Archives

Elastic Rock & We'll Talk About It Later (1970)

Label: BGO Records
Catalog Number: BGOCD47
Год: 1994 (Remastered)
Продолжительность: 01:27:05

CD1 - Elastic Rock (1970)

Продолжительность: 00:41:25
Треклист:
01. 1916 (1:11)
02. Elastic Rock (4:06)
03. Striation (2:16)
04. Taranaki (1:36)
05. Twisted Track (5:19)
06. Crude Blues part 1 (0:55)
07. Crude Blues Part 2 (2:35)
08. 1916 (Battle of Boogaloo) (3:08)
09. Torrid Zone (8:41)
10. Stonescape (2:39)
11. Earth Mother (5:16)
12. Speaking For Myself, Personally, In My Own Opinion, I Think... (1:30)
13. Persephones Jive (2:14)

Отчёт auCDtect Task manager:

Код:
PERFORMER: auCDtect Task Manager, ver. 1.6.0 RC1 build 1.6.0.1
Copyright (c) 2008-2010 y-soft. All rights reserved
http://y-soft.org
ANALYZER: auCDtect: CD records authenticity detector, version 0.8.2
Copyright (c) 2004 Oleg Berngardt. All rights reserved.
Copyright (c) 2004 Alexander Djourik. All rights reserved.
FILE: 13 - Persephones Jive.flac
  Size: 14651410 Hash: 968A0522295AB701F0F18C2F3639C8F2 Accuracy: -m0
  Conclusion: CDDA 100%
  Signature: 28799D7DD30BD63FF9511F9B0FF9EAB6D1CC244E
FILE: 12 - Speaking For Myself, Personally, In My Own Opinion, I Think....flac
  Size: 9684330 Hash: D0B370C480BA620E3B2F6B514713FA71 Accuracy: -m0
  Conclusion: CDDA 100%
  Signature: 6A1F02A03D0D7967983F84712FD687B8976F1664
FILE: 11 - Earth Mother.flac
  Size: 34789388 Hash: F7726D0AB9941EC19F7B9ED9F9C90296 Accuracy: -m0
  Conclusion: CDDA 100%
  Signature: B9EB8C1F3A0055A9B15CF4C8262224DEAFDF1C5B
FILE: 10 - Stonescape.flac
  Size: 14891302 Hash: BEFC1767EDFB364F4F927AB8387CA987 Accuracy: -m0
  Conclusion: CDDA 100%
  Signature: 2B9DC43CBE3677A2EEFAA724A2E4E43323557387
FILE: 09 - Torrid Zone.flac
  Size: 55031172 Hash: 85869152EFFB2DDF8DA65386B00D50BD Accuracy: -m0
  Conclusion: CDDA 99%
  Signature: 9B6ACE10F17CE76AB8001B24242FD40036E0066F
FILE: 08 - 1916 (Battle of Boogaloo).flac
  Size: 19672781 Hash: EAF83AB9F926A57FE15D2AFA3139BC10 Accuracy: -m0
  Conclusion: CDDA 100%
  Signature: BD07522FAC58B29D4BBAD8D02857A1FE96463C31
FILE: 07 - Crude Blues Part Two.flac
  Size: 17487577 Hash: 92FB1874CC5E858902E4BCC26630A7D5 Accuracy: -m0
  Conclusion: CDDA 100%
  Signature: AEA44E5B2F86F8EC5825F4194DA7BADEA30E5CB9
FILE: 06 - Crude Blues Part One.flac
  Size: 4217160 Hash: 700CF12871054E8235D2C865140E926C Accuracy: -m0
  Conclusion: CDDA 100%
  Signature: 81892167AD1A155C65A696E404A5CEF4F277B0B5
FILE: 05 - Twisted Track.flac
  Size: 33037997 Hash: 5B9122ADD2D1D4F2284F9D310EBD53AE Accuracy: -m0
  Conclusion: CDDA 100%
  Signature: 5FD488424BD13BA232A8C1BCC9D41DCC7C35025B
FILE: 04 - Taranaki.flac
  Size: 8687418 Hash: 01989DCB765727E8088280815EABA281 Accuracy: -m0
  Conclusion: CDDA 100%
  Signature: 3B05988BBB405601F35F42869D9AA02F86816A64
FILE: 03 - Striation.flac
  Size: 10551588 Hash: 1B9EC1F2E15ADE47C9B43659E520FC91 Accuracy: -m0
  Conclusion: CDDA 100%
  Signature: 2AF4ADC087FE419DF3F557218A42BDE73CDE16E3
FILE: 02 - Elastic Rock.flac
  Size: 23560426 Hash: 20AF731DFDD63CDC771159E7804A169D Accuracy: -m0
  Conclusion: CDDA 100%
  Signature: C8AEE9D2251FB0C973D26BB65AB2361F5627DA3B
FILE: 01 - 1916.flac
  Size: 7174526 Hash: 5A90AE10563797200FAF3D2DB1C42D9C Accuracy: -m0
  Conclusion: CDDA 100%
  Signature: 5168C02D07FDFEF2E25249383D14E41937756598

CD2 - We'll Talk About It Later (1970)

Продолжительность: 00:45:40
Треклиcт:
01. Song For The Bearded Lady (7:23)
02. Sun Child (5:18)
03. Lullaby For A Lonely Child (4:19)
04. We'll Talk About It Later (6:16)
05. Oasis (9:48)
06. Ballad Of Joe Pimp (3:46)
07. Easter 1916 (8:50)

Отчёт auCDtect Task manager:

Код:
PERFORMER: auCDtect Task Manager, ver. 1.6.0 RC1 build 1.6.0.1
Copyright (c) 2008-2010 y-soft. All rights reserved
http://y-soft.org
ANALYZER: auCDtect: CD records authenticity detector, version 0.8.2
Copyright (c) 2004 Oleg Berngardt. All rights reserved.
Copyright (c) 2004 Alexander Djourik. All rights reserved.
FILE: 07 - Easter 1916.flac
  Size: 61269386 Hash: 2636ACEDBA0929C3F0888C0A00D44896 Accuracy: -m0
  Conclusion: CDDA 100%
  Signature: 49D17D512EC3602A013E8B54D29F55834FC8AABB
FILE: 06 - Ballad Of Joe Pimp.flac
  Size: 24620182 Hash: E65FC87D7E5EDDE8256C0DA81575D217 Accuracy: -m0
  Conclusion: CDDA 100%
  Signature: DBE75DCA1BE502E90B18933778569FF86AEB27EE
FILE: 05 - Oasis.flac
  Size: 60830822 Hash: 8645F4035D6DE2A822243A199BA4B67D Accuracy: -m0
  Conclusion: CDDA 99%
  Signature: 74792EB1399DC393A147DCD9AA1FFD2298564BC6
FILE: 04 - We'll Talk About It Later.flac
  Size: 39629331 Hash: 0B557153B64376DE0F3CB83BD0FA988F Accuracy: -m0
  Conclusion: CDDA 100%
  Signature: 22B9C43E18364C2E3FC961263666C1ABEF28C5DD
FILE: 03 - Lullaby For A Lonely Child.flac
  Size: 25837009 Hash: 89D05CB38A3937152EE6FDA30A4DFFB6 Accuracy: -m0
  Conclusion: CDDA 100%
  Signature: C141191A811DE1315827A4DA04816ED97F30A8BC
FILE: 02 - Sun Child.flac
  Size: 33435101 Hash: 318FE12D2E3395400AE377A72DB7BC8A Accuracy: -m0
  Conclusion: CDDA 100%
  Signature: 7340AD51A4B4BB5A611E652CE8603448A8FA79B8
FILE: 01 - Song For The Bearded Lady.flac
  Size: 50434767 Hash: B665A0F6CF7A4183D39D0E328CAB34E3 Accuracy: -m0
  Conclusion: CDDA 100%
  Signature: ABF81811EEA3F6079DD6961BDD866E5A5F63079C

Covers

     

Solar Plexus (1971)

Label: Linam Records
Catalog Number: 9.00743 0
Год: 1971 (1990 Remastered)
Продолжительность: 00:45:05
Треклиcт:
01. Elements I & II (2:17)
02. Changing Times (4:51)
03. Bedrock Deadlock (6:58)
04. Spirit Level (9:22)
05. Torso (6:12)
06. Snakehips' Dream (15:26)
Line-up
Ian Carr / trumpet, flugelhorn
Karl Jenkins / oboe, Baritone Saxophone, E-piano, piano
Brian Smith / Tenor Saxophone, Soprano saxophone, flute
Chris Spedding / guitar
Jeff Clyne / bass, contrabass
John Marshall / drums, percussion
Guest musicians:
Kenny Wheeler / trumpet, flugelhorn
Harry Beckett / trumpet, flugelhorn
Tony Roberts / Tenor saxophone, bass clarinet
Ron Matthewson / bass
Chris Karan / percussion
Keith Winter / synthesizer-

Отчёт ЕАС:

Код:
Exact Audio Copy V0.99 prebeta 4 from 23. January 2008
EAC extraction logfile from 11. December 2008, 13:14
Ian Carr with Nucleus / Solar Plexus
Used drive  : _NEC    DVD_RW ND-4570A   Adapter: 2  ID: 0
Read mode               : Secure
Utilize accurate stream : Yes
Defeat audio cache      : Yes
Make use of C2 pointers : No
Read offset correction                      : 48
Overread into Lead-In and Lead-Out          : No
Fill up missing offset samples with silence : Yes
Delete leading and trailing silent blocks   : No
Null samples used in CRC calculations       : No
Used interface                              : Installed external ASPI interface
Used output format              : User Defined Encoder
Selected bitrate                : 1024 kBit/s
Quality                         : High
Add ID3 tag                     : No
Command line compressor         : E:\Program Files\Exact Audio Copy\FLAC\FLAC.EXE
Additional command line options : -8 -V -T "ARTIST=%a" -T "TITLE=%t" -T "ALBUM=%g" -T "DATE=%y" -T "TRACKNUMBER=%n" -T "GENRE=%m" -T "COMMENT=EAC FLAC -8" %s
TOC of the extracted CD
     Track |   Start  |  Length  | Start sector | End sector
    ---------------------------------------------------------
        1  |  0:00.00 |  2:17.07 |         0    |    10281
        2  |  2:17.07 |  4:50.55 |     10282    |    32086
        3  |  7:07.62 |  6:57.55 |     32087    |    63416
        4  | 14:05.42 |  9:21.45 |     63417    |   105536
        5  | 23:27.12 |  6:11.55 |    105537    |   133416
        6  | 29:38.67 | 15:26.25 |    133417    |   202891
Range status and errors
Selected range
     Filename C:\EAC\Ian Carr with Nucleus - Solar Plexus.wav
     Peak level 98.8 %
     Range quality 100.0 %
     Copy CRC 468E747D
     Copy OK
No errors occurred
End of status report

Отчёт auCDtect Task manager:

Код:
PERFORMER: auCDtect Task Manager, ver. 1.6.0 RC1 build 1.6.0.1
Copyright (c) 2008-2010 y-soft. All rights reserved
http://y-soft.org
ANALYZER: auCDtect: CD records authenticity detector, version 0.8.2
Copyright (c) 2004 Oleg Berngardt. All rights reserved.
Copyright (c) 2004 Alexander Djourik. All rights reserved.
FILE: Ian Carr with Nucleus - Solar Plexus.flac
  Size: 270737013 Hash: D8951847A86544373BBB0ECA7E155198 Accuracy: -m0
  Conclusion: CDDA 99%
  Signature: 893C43C2043E05687AE37ABDF337706C084763FE

Covers

   

Belladonna (1972)

Label: Universal
Catalog Number: B00008PT38
Год: 1972 (2003 Remastered)
Продолжительность: 00:40:11
Треклиcт:
01. Belladonna (13:42)
02. Summer Rain (6:13)
03. Remadione (3:48)
04. Mayday (5:41)
05. Suspension (6:15)
06. Hector's House (4:33)

Отчёт ЕАС:

Код:
Exact Audio Copy V0.99 prebeta 4 from 23. January 2008
EAC extraction logfile from 11. December 2008, 13:29
IAN CARR with NUCLEUS / Belladonna
Used drive  : _NEC    DVD_RW ND-4570A   Adapter: 2  ID: 0
Read mode               : Secure
Utilize accurate stream : Yes
Defeat audio cache      : Yes
Make use of C2 pointers : No
Read offset correction                      : 48
Overread into Lead-In and Lead-Out          : No
Fill up missing offset samples with silence : Yes
Delete leading and trailing silent blocks   : No
Null samples used in CRC calculations       : No
Used interface                              : Installed external ASPI interface
Used output format              : User Defined Encoder
Selected bitrate                : 1024 kBit/s
Quality                         : High
Add ID3 tag                     : No
Command line compressor         : E:\Program Files\Exact Audio Copy\FLAC\FLAC.EXE
Additional command line options : -8 -V -T "ARTIST=%a" -T "TITLE=%t" -T "ALBUM=%g" -T "DATE=%y" -T "TRACKNUMBER=%n" -T "GENRE=%m" -T "COMMENT=EAC FLAC -8" %s
TOC of the extracted CD
     Track |   Start  |  Length  | Start sector | End sector
    ---------------------------------------------------------
        1  |  0:00.00 | 13:41.55 |         0    |    61629
        2  | 13:41.55 |  6:12.57 |     61630    |    89586
        3  | 19:54.37 |  3:48.30 |     89587    |   106716
        4  | 23:42.67 |  5:40.40 |    106717    |   132256
        5  | 29:23.32 |  6:14.58 |    132257    |   160364
        6  | 35:38.15 |  4:33.02 |    160365    |   180841
Range status and errors
Selected range
     Filename C:\EAC\IAN CARR with NUCLEUS - Belladonna.wav
     Peak level 100.0 %
     Range quality 100.0 %
     Copy CRC 85225163
     Copy OK
No errors occurred
End of status report

Отчёт auCDtect Task manager:

Код:
PERFORMER: auCDtect Task Manager, ver. 1.6.0 RC1 build 1.6.0.1
Copyright (c) 2008-2010 y-soft. All rights reserved
http://y-soft.org
ANALYZER: auCDtect: CD records authenticity detector, version 0.8.2
Copyright (c) 2004 Oleg Berngardt. All rights reserved.
Copyright (c) 2004 Alexander Djourik. All rights reserved.
FILE: IAN CARR with NUCLEUS - Belladonna.flac
  Size: 254421428 Hash: 06D33EEE5BDD45A64AD051457FB9AB31 Accuracy: -m0
  Conclusion: CDDA 100%
  Signature: 8570050039AAA1318CDCA96921D3048B1CA681E8

Labyrinth & Roots (1973)

Label: BGO Records
Catalog Number: BGOCD567
Год: Reissue 2002
Продолжительность: 01:21:43

CD1 - Labyrinth (1973)

Продолжительность: 00:44:16
Треклиcт:
01. Origins (2:56)
02. Bull-Dance (8:17)
03. Ariadne (7:47)
04. Arena - Part 1 (1:42)
05. Arena - Part 2 (5:13)
06. Exultation (6:02)
07. Naxos (12:19)

Отчёт ЕАС:

Код:
Exact Audio Copy V0.99 prebeta 4 from 23. January 2008
EAC extraction logfile from 7. October 2011, 10:13
Ian Carr's Nucleus / Labyrinth
Used drive  : TSSTcorpCDDVDW TS-L633C Adapter: 0 ID: 1
Read mode               : Secure
Utilize accurate stream : Yes
Defeat audio cache      : Yes
Make use of C2 pointers : No
Read offset correction                      : 6
Overread into Lead-In and Lead-Out          : No
Fill up missing offset samples with silence : Yes
Delete leading and trailing silent blocks   : No
Null samples used in CRC calculations       : Yes
Used interface                              : Native Win32 interface for Win NT & 2000
Used output format              : User Defined Encoder
Selected bitrate                : 1024 kBit/s
Quality                         : High
Add ID3 tag                     : No
Command line compressor         : C:\Program Files\FLAC\flac.exe
Additional command line options : -8 -V -T "ARTIST=%a" -T "TITLE=%t" -T "ALBUM=%g" -T "DATE=%y" -T "TRACKNUMBER=%n" -T "GENRE=%m" -T "COMMENT=%e" %s -o %d
TOC of the extracted CD
     Track |   Start  |  Length  | Start sector | End sector
    ---------------------------------------------------------
        1  |  0:00.00 |  2:56.10 |         0    |    13209
        2  |  2:56.10 |  8:16.67 |     13210    |    50476
        3  | 11:13.02 |  7:47.05 |     50477    |    85506
        4  | 19:00.07 |  1:41.73 |     85507    |    93154
        5  | 20:42.05 |  5:13.07 |     93155    |   116636
        6  | 25:55.12 |  6:01.65 |    116637    |   143776
        7  | 31:57.02 | 12:18.65 |    143777    |   199191
Range status and errors
Selected range
     Filename C:\Documents and Settings\Nucleus - Labyrinth & Roots\Ian Carr's Nucleus - Labyrinth.wav
     Peak level 98.8 %
     Range quality 100.0 %
     Test CRC 1C435DFF
     Copy CRC 1C435DFF
     Copy OK
No errors occurred
AccurateRip summary
Track  1  not present in database
Track  2  not present in database
Track  3  not present in database
Track  4  not present in database
Track  5  not present in database
Track  6  not present in database
Track  7  not present in database
None of the tracks are present in the AccurateRip database
End of status report

Отчёт auCDtect Task manager:

Код:
PERFORMER: auCDtect Task Manager, ver. 1.6.0 RC1 build 1.6.0.1
Copyright (c) 2008-2010 y-soft. All rights reserved
http://y-soft.org
ANALYZER: auCDtect: CD records authenticity detector, version 0.8.2
Copyright (c) 2004 Oleg Berngardt. All rights reserved.
Copyright (c) 2004 Alexander Djourik. All rights reserved.
FILE: Ian Carr's Nucleus - Labyrinth.flac
  Size: 274642632 Hash: 7AC98484D0082183E194F2522882704A Accuracy: -m0
  Conclusion: CDDA 100%
  Signature: 8C1D62BF175172AF98652734A684526034A76AE4

CD2 - Roots (1973)

Продолжительность: 00:37:28
Треклиcт:
01. Roots (9:24)
02. Images (4:55)
03. Caliban (4:35)
04. Whapatiti (3:23)
05. Capricorn (4:01)
06. Odokamona (3:24)
07. Southern Roots And Celebration (7:45)

Отчёт ЕАС:

Код:
Exact Audio Copy V0.99 prebeta 4 from 23. January 2008
EAC extraction logfile from 7. October 2011, 10:39
Ian Carr's Nucleus / Roots
Used drive  : TSSTcorpCDDVDW TS-L633C Adapter: 0 ID: 1
Read mode               : Secure
Utilize accurate stream : Yes
Defeat audio cache      : Yes
Make use of C2 pointers : No
Read offset correction                      : 6
Overread into Lead-In and Lead-Out          : No
Fill up missing offset samples with silence : Yes
Delete leading and trailing silent blocks   : No
Null samples used in CRC calculations       : Yes
Used interface                              : Native Win32 interface for Win NT & 2000
Used output format              : User Defined Encoder
Selected bitrate                : 1024 kBit/s
Quality                         : High
Add ID3 tag                     : No
Command line compressor         : C:\Program Files\FLAC\flac.exe
Additional command line options : -8 -V -T "ARTIST=%a" -T "TITLE=%t" -T "ALBUM=%g" -T "DATE=%y" -T "TRACKNUMBER=%n" -T "GENRE=%m" -T "COMMENT=%e" %s -o %d
TOC of the extracted CD
     Track |   Start  |  Length  | Start sector | End sector
    ---------------------------------------------------------
        1  |  0:00.00 |  9:24.07 |         0    |    42306
        2  |  9:24.07 |  4:55.33 |     42307    |    64464
        3  | 14:19.40 |  4:35.00 |     64465    |    85089
        4  | 18:54.40 |  3:22.40 |     85090    |   100279
        5  | 22:17.05 |  4:00.55 |    100280    |   118334
        6  | 26:17.60 |  3:24.25 |    118335    |   133659
        7  | 29:42.10 |  7:45.32 |    133660    |   168566
Range status and errors
Selected range
     Filename C:\Documents and Settings\Nucleus - Labyrinth & Roots\Ian Carr's Nucleus - Roots.wav
     Peak level 98.8 %
     Range quality 100.0 %
     Test CRC 948A182C
     Copy CRC 948A182C
     Copy OK
No errors occurred
AccurateRip summary
Track  1  not present in database
Track  2  not present in database
Track  3  not present in database
Track  4  not present in database
Track  5  not present in database
Track  6  not present in database
Track  7  not present in database
None of the tracks are present in the AccurateRip database
End of status report

Отчёт auCDtect Task manager:

Код:
PERFORMER: auCDtect Task Manager, ver. 1.6.0 RC1 build 1.6.0.1
Copyright (c) 2008-2010 y-soft. All rights reserved
http://y-soft.org
ANALYZER: auCDtect: CD records authenticity detector, version 0.8.2
Copyright (c) 2004 Oleg Berngardt. All rights reserved.
Copyright (c) 2004 Alexander Djourik. All rights reserved.
FILE: Ian Carr's Nucleus - Roots.flac
  Size: 241205792 Hash: 90F0C51E745456BB17C7C98F72A49639 Accuracy: -m0
  Conclusion: CDDA 100%
  Signature: C24AFEF41D227C1323A4DBB7A069E6DBE03767FE

Covers

   

Under The Sun & Snakehips Etcetera (1974-75)

Label: BGO Records
Catalog Number: BGOCD568
Год: Reissue 2003
Продолжительность: 01:25:54

CD1 - Under The Sun (1974)

Продолжительность: 00:41:05
Треклиcт:
01. In Procession (2:54)
02. The Addison Trip (3:58)
03. Pastoral Graffiti (3:33)
04. New Life (7:07)
05. A Taste Of Sarsaparilla (0:44)
06. Theme 1; Sarsaparilla (6:47)
07. Theme 2; Feast Alfresco (6:02)
08. Theme 3; Rites Of Man (10:01)

Отчёт ЕАС:

Код:
Exact Audio Copy V0.99 prebeta 4 from 23. January 2008
Отчёт EAC об извлечении, выполненном 19. ноября 2011, 0:14
Nucleus / Under The Sun
Дисковод: TSSTcorpCDDVDW TS-L633C Adapter: 0 ID: 1
Режим чтения                 : Достоверность
Использование точного потока : Да
Отключение кэша аудио        : Да
Использование указателей C2  : Нет
Коррекция смещения при чтении                     : 6
Способность читать области Lead-in и Lead-out     : Нет
Заполнение пропущенных сэмплов тишиной            : Да
Удаление блоков с тишиной в начале и конце        : Нет
При вычислениях CRC использовались нулевые сэмплы : Да
Интерфейс                                         : Встроенный Win32-интерфейс для Win NT/2000
Выходной формат          : Пользовательский кодировщик
Выбранный битрейт        : 1024 kBit/s
Качество                 : Высокий
Добавление ID3-тэга      : Нет
Утилита сжатия           : C:\Program Files\FLAC\flac.exe
Дополнительные параметры : -8 -V -T "ARTIST=%a" -T "TITLE=%t" -T "ALBUM=%g" -T "DATE=%y" -T "TRACKNUMBER=%n" -T "GENRE=%m" -T "COMMENT=%e" %s -o %d
TOC извлечённого CD
     Трек |   Старт  | Длительность | Начальный сектор | Конечный сектор
    ---------------------------------------------------------------------
       1  |  0:00.00 |    2:53.42   |           0      |      13016
       2  |  2:53.42 |    3:58.35   |       13017      |      30901
       3  |  6:52.02 |    3:33.28   |       30902      |      46904
       4  | 10:25.30 |    7:06.42   |       46905      |      78896
       5  | 17:31.72 |    0:44.00   |       78897      |      82196
       6  | 18:15.72 |    6:47.05   |       82197      |     112726
       7  | 25:03.02 |    6:01.40   |      112727      |     139841
       8  | 31:04.42 |   10:00.55   |      139842      |     184896
Характеристики диапазона извлечения и сообщения об ошибках
Выбранный диапазон
     Имя файла C:\Documents and Settings\BJS\Рабочий стол\Nucleus - Under The Sun & Snakehips Etcetera\Nucleus - Under The Sun.wav
     Пиковый уровень 98.8 %
     Качество диапазона 100.0 %
     CRC теста 77487ABA
     CRC копии 77487ABA
     Копирование... OK
Ошибок не произошло
AccurateRip: сводка
Трек  1  нет в базе данных
Трек  2  нет в базе данных
Трек  3  нет в базе данных
Трек  4  нет в базе данных
Трек  5  нет в базе данных
Трек  6  нет в базе данных
Трек  7  нет в базе данных
Трек  8  нет в базе данных
Ни одного трека нет в базе AccurateRip
Конец отчёта

Отчёт auCDtect Task manager:

Код:
PERFORMER: auCDtect Task Manager, ver. 1.6.0 RC1 build 1.6.0.1
Copyright (c) 2008-2010 y-soft. All rights reserved
http://y-soft.org
ANALYZER: auCDtect: CD records authenticity detector, version 0.8.2
Copyright (c) 2004 Oleg Berngardt. All rights reserved.
Copyright (c) 2004 Alexander Djourik. All rights reserved.
FILE: Nucleus - Under The Sun.flac
  Size: 247675062 Hash: F09569D122D2DFD3D10DE25CBA12F205 Accuracy: -m0
  Conclusion: CDDA 99%
  Signature: 67345A8CF20756827423A022995A4C08AC36E097

CD2 - Snakehips Etcetera (1975)

Продолжительность: 00:44:49
Треклиcт:
01. Rat's Bag (5:51)
02. Alive And Kicking (9:30)
03. Rachel's Tune (7:05)
04. Snakehips Etcetera (10:32)
05. Pussyfoot (4:06)
06. Heyday (7:46)

Отчёт ЕАС:

Код:
Exact Audio Copy V0.99 prebeta 4 from 23. January 2008
Отчёт EAC об извлечении, выполненном 19. ноября 2011, 0:45
Nucleus / Snakehips Etcetera
Дисковод: TSSTcorpCDDVDW TS-L633C Adapter: 0 ID: 1
Режим чтения                 : Достоверность
Использование точного потока : Да
Отключение кэша аудио        : Да
Использование указателей C2  : Нет
Коррекция смещения при чтении                     : 6
Способность читать области Lead-in и Lead-out     : Нет
Заполнение пропущенных сэмплов тишиной            : Да
Удаление блоков с тишиной в начале и конце        : Нет
При вычислениях CRC использовались нулевые сэмплы : Да
Интерфейс                                         : Встроенный Win32-интерфейс для Win NT/2000
Выходной формат          : Пользовательский кодировщик
Выбранный битрейт        : 1024 kBit/s
Качество                 : Высокий
Добавление ID3-тэга      : Нет
Утилита сжатия           : C:\Program Files\FLAC\flac.exe
Дополнительные параметры : -8 -V -T "ARTIST=%a" -T "TITLE=%t" -T "ALBUM=%g" -T "DATE=%y" -T "TRACKNUMBER=%n" -T "GENRE=%m" -T "COMMENT=%e" %s -o %d
TOC извлечённого CD
     Трек |   Старт  | Длительность | Начальный сектор | Конечный сектор
    ---------------------------------------------------------------------
       1  |  0:00.00 |    5:50.50   |           0      |      26299
       2  |  5:50.50 |    9:29.67   |       26300      |      69041
       3  | 15:20.42 |    7:05.05   |       69042      |     100921
       4  | 22:25.47 |   10:31.60   |      100922      |     148306
       5  | 32:57.32 |    4:05.40   |      148307      |     166721
       6  | 37:02.72 |    7:45.43   |      166722      |     201639
Характеристики диапазона извлечения и сообщения об ошибках
Выбранный диапазон
     Имя файла C:\Documents and Settings\BJS\Рабочий стол\Nucleus - Under The Sun & Snakehips Etcetera\Nucleus - Snakehips Etcetera.wav
     Пиковый уровень 98.8 %
     Качество диапазона 100.0 %
     CRC теста 8AAACCEC
     CRC копии 8AAACCEC
     Копирование... OK
Ошибок не произошло
AccurateRip: сводка
Трек  1  нет в базе данных
Трек  2  нет в базе данных
Трек  3  нет в базе данных
Трек  4  нет в базе данных
Трек  5  нет в базе данных
Трек  6  нет в базе данных
Ни одного трека нет в базе AccurateRip
Конец отчёта

Отчёт auCDtect Task manager:

Код:
PERFORMER: auCDtect Task Manager, ver. 1.6.0 RC1 build 1.6.0.1
Copyright (c) 2008-2010 y-soft. All rights reserved
http://y-soft.org
ANALYZER: auCDtect: CD records authenticity detector, version 0.8.2
Copyright (c) 2004 Oleg Berngardt. All rights reserved.
Copyright (c) 2004 Alexander Djourik. All rights reserved.
FILE: Nucleus - Snakehips Etcetera.flac
  Size: 270750102 Hash: 9FC6BA760B96CBF2D131479530EEACC8 Accuracy: -m0
  Conclusion: CDDA 100%
  Signature: 23D5BF08ED81CED9529380F6F0E6D1B300D02B9B

Covers

 

Alleycat & Direct Hits (1975-76)

Label: BGO Records
Catalog Number: BGOCD565
Год: Reissue 2004
Продолжительность: 01:29:19

CD1 - Alleycat (1975)

Продолжительность: 00:41:41
Треклиcт:
01. Phaideaux Corner (6:23)
02. Alleycat (14:24)
03. Splat (11:48)
04. You Can't Be Sure (4:16)
05. Nosegay (4:50)

Отчёт ЕАС:

Код:
Exact Audio Copy V0.99 prebeta 4 from 23. January 2008
EAC extraction logfile from 21. September 2011, 15:40
Nucleus / Alleycat
Used drive  : TSSTcorpCDDVDW TS-L633C Adapter: 0 ID: 1
Read mode               : Secure
Utilize accurate stream : Yes
Defeat audio cache      : Yes
Make use of C2 pointers : No
Read offset correction                      : 6
Overread into Lead-In and Lead-Out          : No
Fill up missing offset samples with silence : Yes
Delete leading and trailing silent blocks   : No
Null samples used in CRC calculations       : Yes
Used interface                              : Native Win32 interface for Win NT & 2000
Used output format              : User Defined Encoder
Selected bitrate                : 1024 kBit/s
Quality                         : High
Add ID3 tag                     : No
Command line compressor         : C:\Program Files\FLAC\flac.exe
Additional command line options : -8 -V -T "ARTIST=%a" -T "TITLE=%t" -T "ALBUM=%g" -T "DATE=%y" -T "TRACKNUMBER=%n" -T "GENRE=%m" -T "COMMENT=%e" %s -o %d
TOC of the extracted CD
     Track |   Start  |  Length  | Start sector | End sector
    ---------------------------------------------------------
        1  |  0:00.00 |  6:22.74 |         0    |    28723
        2  |  6:22.74 | 14:23.60 |     28724    |    93508
        3  | 20:46.59 | 11:48.28 |     93509    |   146636
        4  | 32:35.12 |  4:16.14 |    146637    |   165850
        5  | 36:51.26 |  4:49.63 |    165851    |   187588
Range status and errors
Selected range
     Filename C:\Documents and Settings\Nucleus - Alleycat & Direct Hits\Nucleus - Alleycat.wav
     Peak level 100.0 %
     Range quality 100.0 %
     Test CRC 11DE624A
     Copy CRC 11DE624A
     Copy OK
No errors occurred
AccurateRip summary
Track  1  cannot be verified as accurate (confidence 3)  [F6383A65], AccurateRip returned [C649539B]
Track  2  cannot be verified as accurate (confidence 3)  [AE68FCB4], AccurateRip returned [8682E248]
Track  3  cannot be verified as accurate (confidence 3)  [10279560], AccurateRip returned [93145548]
Track  4  cannot be verified as accurate (confidence 3)  [CDF1C825], AccurateRip returned [4E097A64]
Track  5  cannot be verified as accurate (confidence 3)  [29DEE1C1], AccurateRip returned [CCE7FA5C]
No tracks could be verified as accurate
You may have a different pressing from the one(s) in the database
End of status report

Отчёт auCDtect Task manager:

Код:
PERFORMER: auCDtect Task Manager, ver. 1.6.0 RC1 build 1.6.0.1
Copyright (c) 2008-2010 y-soft. All rights reserved
http://y-soft.org
ANALYZER: auCDtect: CD records authenticity detector, version 0.8.2
Copyright (c) 2004 Oleg Berngardt. All rights reserved.
Copyright (c) 2004 Alexander Djourik. All rights reserved.
FILE: Nucleus - Alleycat.flac
  Size: 281754858 Hash: BBFE56ACCFEE8E280FCA5D38AAC79D3F Accuracy: -m0
  Conclusion: CDDA 100%
  Signature: 686A71B83EF8B2078347C1971454B47C2D5F3ACE

CD2 - Direct Hits (1976)

Продолжительность: 00:47:38
Треклиcт:
01. Song For The Bearded Lady (7:28)
02. Crude Blues Part 1 (0:55)
03. Crude Blues Part 2 (2:42)
04. Suspension (6:19)
05. Torso (4:55)
06. Bull Dance (8:23)
07. A Taste Of Sarsaparilla (0:39)
08. Sarsaparilla (6:51)
09. Roots (9:26)

Отчёт ЕАС:

Код:
Exact Audio Copy V0.99 prebeta 4 from 23. January 2008
EAC extraction logfile from 21. September 2011, 16:16
Nucleus / Direct Hits
Used drive  : TSSTcorpCDDVDW TS-L633C Adapter: 0 ID: 1
Read mode               : Secure
Utilize accurate stream : Yes
Defeat audio cache      : Yes
Make use of C2 pointers : No
Read offset correction                      : 6
Overread into Lead-In and Lead-Out          : No
Fill up missing offset samples with silence : Yes
Delete leading and trailing silent blocks   : No
Null samples used in CRC calculations       : Yes
Used interface                              : Native Win32 interface for Win NT & 2000
Used output format              : User Defined Encoder
Selected bitrate                : 1024 kBit/s
Quality                         : High
Add ID3 tag                     : No
Command line compressor         : C:\Program Files\FLAC\flac.exe
Additional command line options : -8 -V -T "ARTIST=%a" -T "TITLE=%t" -T "ALBUM=%g" -T "DATE=%y" -T "TRACKNUMBER=%n" -T "GENRE=%m" -T "COMMENT=%e" %s -o %d
TOC of the extracted CD
     Track |   Start  |  Length  | Start sector | End sector
    ---------------------------------------------------------
        1  |  0:00.00 |  7:28.09 |         0    |    33608
        2  |  7:28.09 |  0:54.68 |     33609    |    37726
        3  |  8:23.02 |  2:41.70 |     37727    |    49871
        4  | 11:04.72 |  6:18.65 |     49872    |    78286
        5  | 17:23.62 |  4:54.59 |     78287    |   100395
        6  | 22:18.46 |  8:22.46 |    100396    |   138091
        7  | 30:41.17 |  0:39.29 |    138092    |   141045
        8  | 31:20.46 |  6:50.58 |    141046    |   171853
        9  | 38:11.29 |  9:26.12 |    171854    |   214315
Range status and errors
Selected range
     Filename C:\Documents and Settings\Nucleus - Alleycat & Direct Hits\Nucleus - Direct Hits.wav
     Peak level 100.0 %
     Range quality 100.0 %
     Test CRC 453FA257
     Copy CRC 453FA257
     Copy OK
No errors occurred
AccurateRip summary
Track  1  cannot be verified as accurate (confidence 4)  [8C7D19D9], AccurateRip returned [13A66EE1]
Track  2  cannot be verified as accurate (confidence 3)  [62CEA3D6], AccurateRip returned [4812499C]
Track  3  cannot be verified as accurate (confidence 3)  [C26DB57C], AccurateRip returned [170E9C7C]
Track  4  cannot be verified as accurate (confidence 3)  [2AE0B9DD], AccurateRip returned [D1A58CE9]
Track  5  cannot be verified as accurate (confidence 3)  [A4D96E63], AccurateRip returned [1E5F9855]
Track  6  cannot be verified as accurate (confidence 4)  [0200DB8C], AccurateRip returned [524D133A]
Track  7  cannot be verified as accurate (confidence 3)  [41ADD71A], AccurateRip returned [6D6209E9]
Track  8  cannot be verified as accurate (confidence 4)  [0365F5F2], AccurateRip returned [6F555F33]
Track  9  cannot be verified as accurate (confidence 3)  [EBC523CC], AccurateRip returned [9E7FCCE6]
No tracks could be verified as accurate
You may have a different pressing from the one(s) in the database
End of status report

Отчёт auCDtect Task manager:

Код:
PERFORMER: auCDtect Task Manager, ver. 1.6.0 RC1 build 1.6.0.1
Copyright (c) 2008-2010 y-soft. All rights reserved
http://y-soft.org
ANALYZER: auCDtect: CD records authenticity detector, version 0.8.2
Copyright (c) 2004 Oleg Berngardt. All rights reserved.
Copyright (c) 2004 Alexander Djourik. All rights reserved.
FILE: Nucleus - Direct Hits.flac
  Size: 318541748 Hash: 27B6F8E60A8A15D57739ADCB9324FCD0 Accuracy: -m0
  Conclusion: CDDA 100%
  Signature: 567195E655228A87C236D3152A8372F162A208DB

Covers

     

Out Of The Long Dark & Old Heartland (1979-88)

Label: BGO Records
Catalog Number: BGOCD420
Год: Reissue 1998
Продолжительность: 01:42:25

CD1 - Out Of The Long Dark (1979)

Продолжительность: 00:49:44
Треклиcт:
01. Gone With The Weed (3:29)
02. Lady Bountiful (9:16)
03. Solar Wind (7:35)
04. Selina (4:11)
05. Out Of The Long Dark (conseption) (7:31)
06. Sassy (American Girl) (5:12)
07. Simply This (The Human Condition) (4:31)
08. Black Ballad (Ecce Domina) (6:56)
09. For Liam (1:04)

Отчёт ЕАС:

Код:
Exact Audio Copy V0.99 prebeta 4 from 23. January 2008
EAC extraction logfile from 22. September 2011, 9:59
Ian Carr / Out Of The Long Dark
Used drive  : TSSTcorpCDDVDW TS-L633C Adapter: 0 ID: 1
Read mode               : Secure
Utilize accurate stream : Yes
Defeat audio cache      : Yes
Make use of C2 pointers : No
Read offset correction                      : 6
Overread into Lead-In and Lead-Out          : No
Fill up missing offset samples with silence : Yes
Delete leading and trailing silent blocks   : No
Null samples used in CRC calculations       : Yes
Used interface                              : Native Win32 interface for Win NT & 2000
Used output format              : User Defined Encoder
Selected bitrate                : 1024 kBit/s
Quality                         : High
Add ID3 tag                     : No
Command line compressor         : C:\Program Files\FLAC\flac.exe
Additional command line options : -8 -V -T "ARTIST=%a" -T "TITLE=%t" -T "ALBUM=%g" -T "DATE=%y" -T "TRACKNUMBER=%n" -T "GENRE=%m" -T "COMMENT=%e" %s -o %d
TOC of the extracted CD
     Track |   Start  |  Length  | Start sector | End sector
    ---------------------------------------------------------
        1  |  0:00.00 |  3:29.00 |         0    |    15674
        2  |  3:29.00 |  9:15.40 |     15675    |    57339
        3  | 12:44.40 |  7:35.37 |     57340    |    91501
        4  | 20:20.02 |  4:11.25 |     91502    |   110351
        5  | 24:31.27 |  7:30.43 |    110352    |   144144
        6  | 32:01.70 |  5:12.05 |    144145    |   167549
        7  | 37:14.00 |  4:31.12 |    167550    |   187886
        8  | 41:45.12 |  6:55.55 |    187887    |   219066
        9  | 48:40.67 |  1:03.40 |    219067    |   223831
Range status and errors
Selected range
     Filename C:\Documents and Settings\Ian Carr & Nucleus - Out Of The Long Dark & Old Heartland\Ian Carr - Out Of The Long Dark.wav
     Peak level 100.0 %
     Range quality 100.0 %
     Test CRC C7924091
     Copy CRC C7924091
     Copy OK
No errors occurred
AccurateRip summary
Track  1  not present in database
Track  2  not present in database
Track  3  cannot be verified as accurate (confidence 2)  [DF5D20CE], AccurateRip returned [C6B6488E]
Track  4  cannot be verified as accurate (confidence 2)  [8847EF63], AccurateRip returned [F713CD83]
Track  5  cannot be verified as accurate (confidence 2)  [DA9F7F81], AccurateRip returned [E28DD8E1]
Track  6  cannot be verified as accurate (confidence 2)  [BC62CCE3], AccurateRip returned [80520803]
Track  7  cannot be verified as accurate (confidence 2)  [C55C8F4E], AccurateRip returned [32F94D4E]
Track  8  cannot be verified as accurate (confidence 2)  [4858476B], AccurateRip returned [476BC44B]
Track  9  cannot be verified as accurate (confidence 2)  [ED154BA2], AccurateRip returned [D1037CE2]
7 track(s) could not be verified as accurate
2 track(s) not present in the AccurateRip database
No tracks could be verified as accurate
You may have a different pressing from the one(s) in the database
End of status report

Отчёт auCDtect Task manager:

Код:
PERFORMER: auCDtect Task Manager, ver. 1.6.0 RC1 build 1.6.0.1
Copyright (c) 2008-2010 y-soft. All rights reserved
http://y-soft.org
ANALYZER: auCDtect: CD records authenticity detector, version 0.8.2
Copyright (c) 2004 Oleg Berngardt. All rights reserved.
Copyright (c) 2004 Alexander Djourik. All rights reserved.
FILE: Ian Carr - Out Of The Long Dark.flac
  Size: 291741973 Hash: 08F4365A7B3AE586FE65C294CDCB2A26 Accuracy: -m0
  Conclusion: CDDA 100%
  Signature: EA826AA21AC65264936ADBCE2E811C47485094D8

CD2 - Old Heartland (1988)

Продолжительность: 00:52:41
Треклиcт:
01. Northumbrian Sketches, Part 1: Open Country (10:40)
02. Northumbrian Sketches, Part 2: Interiors (9:49)
03. Northumbrian Sketches, Part 3: Disjunctive Boogie (5:44)
04. Northumbrian Sketches, Part 4: Spirit Of Place (6:51)
05. Full Fathom Five (5:27)
06. Old Heartland (7:20)
07. Things Past (6:49)

Отчёт ЕАС:

Код:
Exact Audio Copy V0.99 prebeta 4 from 23. January 2008
EAC extraction logfile from 22. September 2011, 10:33
Ian Carr / Old Heartland
Used drive  : TSSTcorpCDDVDW TS-L633C Adapter: 0 ID: 1
Read mode               : Secure
Utilize accurate stream : Yes
Defeat audio cache      : Yes
Make use of C2 pointers : No
Read offset correction                      : 6
Overread into Lead-In and Lead-Out          : No
Fill up missing offset samples with silence : Yes
Delete leading and trailing silent blocks   : No
Null samples used in CRC calculations       : Yes
Used interface                              : Native Win32 interface for Win NT & 2000
Used output format              : User Defined Encoder
Selected bitrate                : 1024 kBit/s
Quality                         : High
Add ID3 tag                     : No
Command line compressor         : C:\Program Files\FLAC\flac.exe
Additional command line options : -8 -V -T "ARTIST=%a" -T "TITLE=%t" -T "ALBUM=%g" -T "DATE=%y" -T "TRACKNUMBER=%n" -T "GENRE=%m" -T "COMMENT=%e" %s -o %d
TOC of the extracted CD
     Track |   Start  |  Length  | Start sector | End sector
    ---------------------------------------------------------
        1  |  0:00.00 | 10:40.07 |         0    |    48006
        2  | 10:40.07 |  9:48.58 |     48007    |    92164
        3  | 20:28.65 |  5:44.05 |     92165    |   117969
        4  | 26:12.70 |  6:51.32 |    117970    |   148826
        5  | 33:04.27 |  5:26.65 |    148827    |   173341
        6  | 38:31.17 |  7:19.70 |    173342    |   206336
        7  | 45:51.12 |  6:49.28 |    206337    |   237039
Range status and errors
Selected range
     Filename C:\Documents and Settings\Ian Carr & Nucleus - Out Of The Long Dark & Old Heartland\Ian Carr - Old Heartland.wav
     Peak level 100.0 %
     Range quality 100.0 %
     Test CRC F18683C9
     Copy CRC F18683C9
     Copy OK
No errors occurred
AccurateRip summary
Track  1  cannot be verified as accurate (confidence 2)  [78B0B718], AccurateRip returned [4B8792F8]
Track  2  cannot be verified as accurate (confidence 2)  [B7FE6860], AccurateRip returned [D3A28620]
Track  3  cannot be verified as accurate (confidence 2)  [B7B3EDD1], AccurateRip returned [19117A31]
Track  4  cannot be verified as accurate (confidence 2)  [C4C51909], AccurateRip returned [346734E9]
Track  5  cannot be verified as accurate (confidence 2)  [41B477AA], AccurateRip returned [3B49162A]
Track  6  cannot be verified as accurate (confidence 2)  [AE131C75], AccurateRip returned [CCC64C75]
Track  7  cannot be verified as accurate (confidence 2)  [328A6155], AccurateRip returned [F1AE4355]
No tracks could be verified as accurate
You may have a different pressing from the one(s) in the database
End of status report

Отчёт auCDtect Task manager:

Код:
PERFORMER: auCDtect Task Manager, ver. 1.6.0 RC1 build 1.6.0.1
Copyright (c) 2008-2010 y-soft. All rights reserved
http://y-soft.org
ANALYZER: auCDtect: CD records authenticity detector, version 0.8.2
Copyright (c) 2004 Oleg Berngardt. All rights reserved.
Copyright (c) 2004 Alexander Djourik. All rights reserved.
FILE: Ian Carr - Old Heartland.flac
  Size: 272838190 Hash: 10D1E5588070A4952EEEC514D2726062 Accuracy: -m0
  Conclusion: CDDA 100%
  Signature: C825C2FE3BF94B5248C591CF5EDF5312206DBC3E

Covers

     

UK Tour '76 (2006)

Label: MLP
Catalog Number: MLP13CD
Год: 2006
Продолжительность: 01:41:51-Line-up / Musicians
Ian Carr / trumpet, flugelhorn, synthesizers
Bob Bertles / saxes
Geoff Castle / keyboards
Roger Sellers / drums
Ken Shaw / guitar
Roger Sutton / bass guitar-

CD1

Продолжительность: 00:46:59
Треклиcт:
01. Snakehips Etcetera (15:46)
02. Phaideaux Corner (11:32)
03. Alleycat (19:41)-

Отчёт ЕАС:

Код:
Exact Audio Copy V0.99 prebeta 5 from 4. May 2009
EAC extraction logfile from 12. July 2010, 16:14
Nucleus / UK Tour '76 ('CD1)
Used drive  : ATAPI   iHAS124   Y   Adapter: 2  ID: 0
Read mode               : Secure
Utilize accurate stream : Yes
Defeat audio cache      : Yes
Make use of C2 pointers : No
Read offset correction                      : 48
Overread into Lead-In and Lead-Out          : No
Fill up missing offset samples with silence : Yes
Delete leading and trailing silent blocks   : No
Null samples used in CRC calculations       : Yes
Used interface                              : Native Win32 interface for Win NT & 2000
Used output format : Internal WAV Routines
Sample format      : 44.100 Hz; 16 Bit; Stereo
TOC of the extracted CD
     Track |   Start  |  Length  | Start sector | End sector
    ---------------------------------------------------------
        1  |  0:00.00 | 15:46.18 |         0    |    70967
        2  | 15:46.18 | 11:32.18 |     70968    |   122885
        3  | 27:18.36 | 19:40.61 |    122886    |   211446
Range status and errors
Selected range
     Filename C:\musjk\Nucleus - UK Tour '76 ('CD1).wav
     Peak level 99.4 %
     Range quality 100.0 %
     Test CRC 83D5563A
     Copy CRC 83D5563A
     Copy OK
No errors occurred
AccurateRip summary
Track  1  accurately ripped (confidence 1)  [229850E3]
Track  2  accurately ripped (confidence 1)  [293C54F3]
Track  3  accurately ripped (confidence 1)  [ED4BF80C]
All tracks accurately ripped
End of status report

Отчёт auCDtect Task manager:

Код:
PERFORMER: auCDtect Task Manager, ver. 1.5.1RC3 build 1.5.1.4
Copyright (c) 2008-2010 y-soft. All rights reserved
http://y-soft.org
ANALYZER: auCDtect: CD records authenticity detector, version 0.8.2
Copyright (c) 2004 Oleg Berngardt. All rights reserved.
Copyright (c) 2004 Alexander Djourik. All rights reserved.
FILE: Nucleus - UK Tour '76 (CD2).wv
  Size: 352202366 Hash: B60D5EF889977B4B3359FD934D3B8AAB Accuracy: -m0
  Conclusion: CDDA 100%
  Signature: 97026A53C0FE4B210736E0B8BA00A9E974C49ACB
FILE: Nucleus - UK Tour '76 ('CD1).wv
  Size: 329147124 Hash: DEA39A7B1012091602343F9E6F0189E1 Accuracy: -m0
  Conclusion: CDDA 100%
  Signature: 7577F245C7CC0C7AAA2759E2F9B66A0859B565E3

CD2

Продолжительность: 00:54:52
Треклиcт:
1. Nosegay (7:36)
2.You Can't Be Sure / Pastorial Graffiti (13:00)
3. Splat (12:01)
4.Alive And Kicking (22:12)-

Отчёт ЕАС:

Код:
Exact Audio Copy V0.99 prebeta 5 from 4. May 2009
EAC extraction logfile from 12. July 2010, 16:49
Nucleus / UK Tour '76 (CD2)
Used drive  : ATAPI   iHAS124   Y   Adapter: 2  ID: 0
Read mode               : Secure
Utilize accurate stream : Yes
Defeat audio cache      : Yes
Make use of C2 pointers : No
Read offset correction                      : 48
Overread into Lead-In and Lead-Out          : No
Fill up missing offset samples with silence : Yes
Delete leading and trailing silent blocks   : No
Null samples used in CRC calculations       : Yes
Used interface                              : Native Win32 interface for Win NT & 2000
Used output format : Internal WAV Routines
Sample format      : 44.100 Hz; 16 Bit; Stereo
TOC of the extracted CD
     Track |   Start  |  Length  | Start sector | End sector
    ---------------------------------------------------------
        1  |  0:00.00 |  7:36.12 |         0    |    34211
        2  |  7:36.12 | 13:00.37 |     34212    |    92748
        3  | 20:36.49 | 12:00.32 |     92749    |   146780
        4  | 32:37.06 | 22:14.69 |    146781    |   246899
Range status and errors
Selected range
     Filename C:\musjk\Nucleus - UK Tour '76 (CD2).wav
     Peak level 99.4 %
     Range quality 100.0 %
     Test CRC BBC1D514
     Copy CRC BBC1D514
     Copy OK
No errors occurred
AccurateRip summary
Track  1  accurately ripped (confidence 1)  [96BA4043]
Track  2  accurately ripped (confidence 1)  [59DFE3F9]
Track  3  accurately ripped (confidence 1)  [FB8227DF]
Track  4  accurately ripped (confidence 1)  [713D3F50]
All tracks accurately ripped
End of status report

Отчёт auCDtect Task manager:

Код:
PERFORMER: auCDtect Task Manager, ver. 1.5.1RC3 build 1.5.1.4
Copyright (c) 2008-2010 y-soft. All rights reserved
http://y-soft.org
ANALYZER: auCDtect: CD records authenticity detector, version 0.8.2
Copyright (c) 2004 Oleg Berngardt. All rights reserved.
Copyright (c) 2004 Alexander Djourik. All rights reserved.
FILE: Nucleus - UK Tour '76 (CD2).wv
  Size: 352202366 Hash: B60D5EF889977B4B3359FD934D3B8AAB Accuracy: -m0
  Conclusion: CDDA 100%
  Signature: 97026A53C0FE4B210736E0B8BA00A9E974C49ACB

Covers

 
Время раздачи: с 08:00 до 24:00

Dracula

Пост 16-Май-2013 06:12

[Цитировать]

Топик был перенесен из форума Jazz в форум World Music from other genres


p2000s

UndegraundMen

Пост 16-Май-2013 00:31

[Цитировать]

Eliane Elias - 4 альбома (1991-2004)- Год: 1991-2004
Жанр: Jazz Piano, Vocal
Продолжительность: 03:58:32
Кодек: FLAC
Битрейт: Lossless
Источник: Web
Элиан Элиас (Eliane Elias) род. 19.03.1960, Сан-Паулу, Бразилия - джазовая пианистка, вокалистка и композитор, исполнительница на электронных клавишных инструментах. Элиан Элиас родом из Бразилии, играет на фортепиано, поет, сочиняет музыку и делает аранжировки, балансируя на стыке двух культур - американской и бразильской. Она, достигнув совершеннолетия, отправилась в Америку, чтобы добиться мирового признания. С семи лет начала учиться играть на фортепиано. Стала известной, выступив в 80-е годы с группой Steps Ahead.

1991. A Long Story

Издатель: Manhattan / Capitol Record {CDP 795 476 2}
Страна изготовитель: Canada
Формат: image+cue
Трек лист:
01. Back In Time [05:12]
02. A Long Story [05:08]
03. Horizonte [05:05]
04. Just Kidding [03:49]
05. Life Goes On [05:46]
06. The Nile [06:28]
07. Get It [04:21]
08. Just For You [04:56]
09. Karamuru [06:41]
10. Let Me Go [02:21]
Продолжительность: 00:49:46

Отчёт ЕАС:

Код:
EAC extraction logfile from 15. September 2007, 16:10 for CD
Eliane Elias / A Long Story
Used drive  : HL-DT-STRW/DVD GCC-4520B   Adapter: 0  ID: 1
Read mode   : Secure with NO C2, accurate stream, disable cache
Read offset correction : 6
Overread into Lead-In and Lead-Out : No
Used output format : Internal WAV Routines
                     44.100 Hz; 16 Bit; Stereo
Other options      :
    Fill up missing offset samples with silence : Yes
    Delete leading and trailing silent blocks : No
    Installed external ASPI interface
Range status and errors
Selected range
     Filename D:\INCOMING\_RELEASES\Eliane Elias - A Long Story [MANHATTAN][1991]\Eliane Elias - A Long Story.wav
     Peak level 100.0 %
     Range quality 100.0 %
     CRC 38BCB336
     Copy OK
No errors occured
End of status report

Отчёт auCDtect Task manager:

Код:
-----------------------
DON'T MODIFY THIS FILE
-----------------------
PERFORMER: auCDtect Task Manager, ver. 1.5.1RC6 build 1.5.1.7
Copyright (c) 2008-2010 y-soft. All rights reserved
http://y-soft.org
ANALYZER: auCDtect: CD records authenticity detector, version 0.8.2
Copyright (c) 2004 Oleg Berngardt. All rights reserved.
Copyright (c) 2004 Alexander Djourik. All rights reserved.
FILE: Eliane Elias - A Long Story.flac
  Size: 310495220 Hash: D750DB0704914BA499C24C37F7B06B40 Accuracy: -m0
  Conclusion: CDDA 99%
  Signature: 47AF3E05F6CFC42634876094A49BFD0B532AC1EA

2002. Eliane Elias Plays Live

Издатель: Blue Note {509999 08278 2 2}
Страна изготовитель: USA
Формат: track+cue
Трек лист:
01. Just Friends [10:30]
02. Bowing To Bud [10:49]
03. If You Could See Me Now [05:37]
04. Have You Met Miss Jones [10:47]
05. Embraceable You / But Not For Me / Jazz Influence / Who Knows [06:37]
06. Peggy's Blue Skylight [08:01]
07. Desafinado [18:12]
Продолжительность: 01:10:33

Отчёт ЕАС:

Код:
Exact Audio Copy V1.0 beta 1 from 15. November 2010
EAC extraction logfile from 28. October 2011, 15:20
Eliane Elias / Plays Live {Blue Note 509999 08278 2 2}
Used drive  : ASUS    DRW-1608P3S   Adapter: 0  ID: 1
Read mode               : Secure
Utilize accurate stream : Yes
Defeat audio cache      : Yes
Make use of C2 pointers : No
Read offset correction                      : 48
Overread into Lead-In and Lead-Out          : No
Fill up missing offset samples with silence : Yes
Delete leading and trailing silent blocks   : No
Null samples used in CRC calculations       : Yes
Used interface                              : Native Win32 interface for Win NT & 2000
Gap handling                                : Appended to previous track
Used output format : Internal WAV Routines
Sample format      : 44.100 Hz; 16 Bit; Stereo
TOC of the extracted CD
     Track |   Start  |  Length  | Start sector | End sector
    ---------------------------------------------------------
        1  |  0:00.00 | 10:30.20 |         0    |    47269
        2  | 10:30.20 | 10:49.20 |     47270    |    95964
        3  | 21:19.40 |  5:36.65 |     95965    |   121229
        4  | 26:56.30 | 10:47.05 |    121230    |   169759
        5  | 37:43.35 |  6:37.25 |    169760    |   199559
        6  | 44:20.60 |  8:01.35 |    199560    |   235669
        7  | 52:22.20 | 18:11.59 |    235670    |   317553
Track  1
     Filename H:\EAC@Oceandrop Rips\Eliane Elias Plays Live {Blue Note}\01 - Just Friends.wav
     Pre-gap length  0:00:02.00
     Peak level 94.4 %
     Extraction speed 5.0 X
     Track quality 99.9 %
     Test CRC 0BAD6B64
     Copy CRC 0BAD6B64
     Accurately ripped (confidence 5)  [09BD102A]
     Copy OK
Track  2
     Filename H:\EAC@Oceandrop Rips\Eliane Elias Plays Live {Blue Note}\02 - Bowing to Bud.wav
     Peak level 94.4 %
     Extraction speed 6.2 X
     Track quality 100.0 %
     Test CRC 374266FF
     Copy CRC 374266FF
     Accurately ripped (confidence 5)  [C31C2F97]
     Copy OK
Track  3
     Filename H:\EAC@Oceandrop Rips\Eliane Elias Plays Live {Blue Note}\03 - If You Could See Me Now.wav
     Peak level 94.4 %
     Extraction speed 6.6 X
     Track quality 100.0 %
     Test CRC 6EFC6ED3
     Copy CRC 6EFC6ED3
     Accurately ripped (confidence 5)  [04E6771D]
     Copy OK
Track  4
     Filename H:\EAC@Oceandrop Rips\Eliane Elias Plays Live {Blue Note}\04 - Have You Met Miss Jones.wav
     Peak level 94.4 %
     Extraction speed 7.6 X
     Track quality 100.0 %
     Test CRC D5A52E0C
     Copy CRC D5A52E0C
     Accurately ripped (confidence 5)  [95D00455]
     Copy OK
Track  5
     Filename H:\EAC@Oceandrop Rips\Eliane Elias Plays Live {Blue Note}\05 - Embraceable You , But Not for Me , Jazz Influence , Who Knows.wav
     Peak level 94.4 %
     Extraction speed 8.0 X
     Track quality 100.0 %
     Test CRC 65190AB7
     Copy CRC 65190AB7
     Accurately ripped (confidence 5)  [D6B7999D]
     Copy OK
Track  6
     Filename H:\EAC@Oceandrop Rips\Eliane Elias Plays Live {Blue Note}\06 - Peggy's Blue Skylight.wav
     Peak level 94.4 %
     Extraction speed 8.5 X
     Track quality 100.0 %
     Test CRC 1AD830F0
     Copy CRC 1AD830F0
     Accurately ripped (confidence 5)  [1034221D]
     Copy OK
Track  7
     Filename H:\EAC@Oceandrop Rips\Eliane Elias Plays Live {Blue Note}\07 - Desafinado.wav
     Peak level 94.4 %
     Extraction speed 8.6 X
     Track quality 100.0 %
     Test CRC 74B0F260
     Copy CRC 74B0F260
     Accurately ripped (confidence 5)  [F4CA91AA]
     Copy OK
All tracks accurately ripped
No errors occurred
End of status report
==== Log checksum 7E44A2FE30DF900495A4646DCF45C57C2F38096AF2DA530FE6340707884C6853 ====

Отчёт auCDtect Task manager:

Код:
-----------------------
DON'T MODIFY THIS FILE
-----------------------
PERFORMER: auCDtect Task Manager, ver. 1.5.1RC6 build 1.5.1.7
Copyright (c) 2008-2010 y-soft. All rights reserved
http://y-soft.org
ANALYZER: auCDtect: CD records authenticity detector, version 0.8.2
Copyright (c) 2004 Oleg Berngardt. All rights reserved.
Copyright (c) 2004 Alexander Djourik. All rights reserved.
FILE: 07. Desafinado.flac
  Size: 102140379 Hash: A2BC20ED6EB9DDE385477E690F302E4E Accuracy: -m0
  Conclusion: CDDA 100%
  Signature: B59BB743420B0E6867FDB9A88DA0D4EAAD37D351
FILE: 06. Peggy's Blue Skylight.flac
  Size: 50867162 Hash: A9867DB8999B174CF9E5F7D6CF9185EA Accuracy: -m0
  Conclusion: CDDA 100%
  Signature: 3BA534C0FDEE084D2A5A97C4B4C050C8E558DF61
FILE: 05. Embraceable You....flac
  Size: 31790840 Hash: C743EA729F6A13A66C44ABF4C5234D2B Accuracy: -m0
  Conclusion: CDDA 99%
  Signature: 5835431AF0BE274A63E3AC384B0A06BA373CBD90
FILE: 04. Have You Met Miss Jones.flac
  Size: 72648650 Hash: 0EC760961F03B1910265A8DF593DA505 Accuracy: -m0
  Conclusion: CDDA 100%
  Signature: 36DD4D15186FB5761F013ABD06A1C2D58D1DD326
FILE: 03. If You Could See Me Now.flac
  Size: 31901297 Hash: A03D65625028555FB280D77C6650D5AB Accuracy: -m0
  Conclusion: CDDA 100%
  Signature: 2230648D0CE807DAB98785186D6ABCE81AD1487B
FILE: 02. Bowing To Bud.flac
  Size: 68971820 Hash: 64E47C68608567F6899D967CFB243E5D Accuracy: -m0
  Conclusion: CDDA 100%
  Signature: 9151745349F29BCBF6CE6BE507FE47EE218CCB36
FILE: 01. Just Friends.flac
  Size: 68641950 Hash: 923B3DF94F9A64F141F4846A8CF792C5 Accuracy: -m0
  Conclusion: CDDA 100%
  Signature: 264F7F67C2447B7F4C258E4C6C9C76ABB5B8E3E9

2002. Kissed By Nature

Издатель: RCA Victor & BMG {09026 63914 2}
Страна изготовитель: EU
Формат: track+cue
Трек лист:
01. Kissed By Nature [05:27]
02. A Volta [05:49]
03. Manhatten [04:21]
04. Apareceu [05:19]
05. Perere [04:51]
06. Where Did You Go [04:33]
07. Balance Djavan Medley [04:58]
08. Djavan Medley [05:26]
09. October [05:33]
10. September [04:34]
11. Luar [04:40]
12. Kissed By Nature [04:29]
13. Balance [04:45]
Продолжительность: 01:04:45

Отчёт ЕАС:

Код:
EAC extraction logfile from 9. June 2006, 14:57 for CD
Eliane Elias / Kissed By Nature
Used drive  : SAMSUNG CD-ROM SC-148A   Adapter: 0  ID: 1
Read mode   : Secure with NO C2, accurate stream, disable cache
Read offset correction : 12
Overread into Lead-In and Lead-Out : No
Used output format : C:\Program Files\Exact Audio Copy\flac.exe   (User Defined Encoder)
                     192 kBit/s
                     Additional command line options : -V -8 -T "artist=%a" -T "title=%t" -T "album=%g" -T "date=%y" -T "tracknumber=%n" -T "genre=%m" %s
Other options      :
    Fill up missing offset samples with silence : Yes
    Delete leading and trailing silent blocks : No
    Native Win32 interface for Win NT & 2000
Track  1
     Filename C:\eliane elias - kissed by nature\01 - Kissed By Nature.wav
     Pre-gap length  0:00:02.00
     Peak level 99.8 %
     Track quality 100.0 %
     Test CRC 7B5245B5
     Copy CRC 7B5245B5
     Copy OK
Track  2
     Filename C:\eliane elias - kissed by nature\02 - A Volta.wav
     Peak level 99.8 %
     Track quality 100.0 %
     Test CRC 97C7D865
     Copy CRC 97C7D865
     Copy OK
Track  3
     Filename C:\eliane elias - kissed by nature\03 - Manhattan.wav
     Peak level 99.8 %
     Track quality 99.9 %
     Test CRC 8A8ECB28
     Copy CRC 8A8ECB28
     Copy OK
Track  4
     Filename C:\eliane elias - kissed by nature\04 - Apareceu.wav
     Pre-gap length  0:00:01.56
     Peak level 99.8 %
     Track quality 100.0 %
     Test CRC 55410B4B
     Copy CRC 55410B4B
     Copy OK
Track  5
     Filename C:\eliane elias - kissed by nature\05 - Perere.wav
     Peak level 99.8 %
     Track quality 100.0 %
     Test CRC ECCE396C
     Copy CRC ECCE396C
     Copy OK
Track  6
     Filename C:\eliane elias - kissed by nature\06 - Where Did You Go.wav
     Peak level 90.8 %
     Track quality 100.0 %
     Test CRC C256CB06
     Copy CRC C256CB06
     Copy OK
Track  7
     Filename C:\eliane elias - kissed by nature\07 - Balance.wav
     Peak level 99.8 %
     Track quality 100.0 %
     Test CRC 9E365BF8
     Copy CRC 9E365BF8
     Copy OK
Track  8
     Filename C:\eliane elias - kissed by nature\08 - Djavan Medley.wav
     Pre-gap length  0:00:01.86
     Peak level 99.8 %
     Track quality 99.9 %
     Test CRC FB1EE1F0
     Copy CRC FB1EE1F0
     Copy OK
Track  9
     Filename C:\eliane elias - kissed by nature\09 - October.wav
     Pre-gap length  0:00:01.46
     Peak level 99.8 %
     Track quality 100.0 %
     Test CRC 4A594B37
     Copy CRC 4A594B37
     Copy OK
Track 10
     Filename C:\eliane elias - kissed by nature\10 - September.wav
     Pre-gap length  0:00:02.36
     Peak level 99.8 %
     Track quality 100.0 %
     Test CRC B50B60EA
     Copy CRC B50B60EA
     Copy OK
Track 11
     Filename C:\eliane elias - kissed by nature\11 - Luar.wav
     Pre-gap length  0:00:02.13
     Peak level 99.8 %
     Track quality 100.0 %
     Test CRC BC041A15
     Copy CRC BC041A15
     Copy OK
Track 12
     Filename C:\eliane elias - kissed by nature\12 - Kissed By Nature (remix).wav
     Pre-gap length  0:00:04.09
     Peak level 99.8 %
     Track quality 100.0 %
     Test CRC DA1BD5E8
     Copy CRC DA1BD5E8
     Copy OK
Track 13
     Filename C:\eliane elias - kissed by nature\13 - Balance (remix).wav
     Pre-gap length  0:00:02.20
     Peak level 99.8 %
     Track quality 100.0 %
     Test CRC F9B5DAA3
     Copy CRC F9B5DAA3
     Copy OK
No errors occured
End of status report

Отчёт auCDtect Task manager:

Код:
-----------------------
DON'T MODIFY THIS FILE
-----------------------
PERFORMER: auCDtect Task Manager, ver. 1.5.1RC6 build 1.5.1.7
Copyright (c) 2008-2010 y-soft. All rights reserved
http://y-soft.org
ANALYZER: auCDtect: CD records authenticity detector, version 0.8.2
Copyright (c) 2004 Oleg Berngardt. All rights reserved.
Copyright (c) 2004 Alexander Djourik. All rights reserved.
FILE: 12. Eliane Elias - Balance.flac
  Size: 33562052 Hash: EAEE70050723D4479C35121A93DA1CC0 Accuracy: -m0
  Conclusion: CDDA 99%
  Signature: D0CEC22591F656B24D115DAD374FBD6D64AEEA0F
FILE: 11. Eliane Elias - Kissed By Nature.flac
  Size: 26526228 Hash: 5B94237E58AE32B034E3CF8F8604DADE Accuracy: -m0
  Conclusion: CDDA 100%
  Signature: E64C250EC82F4FEEB5F3EA113309B644D448FB51
FILE: 10. Eliane Elias - Luar.flac
  Size: 31394105 Hash: D53A213954849CB2A91E8A6035BDB294 Accuracy: -m0
  Conclusion: CDDA 100%
  Signature: 040C3E97B094AD2A9E6303771281E3B2C85B45B2
FILE: 09. Eliane Elias - September.flac
  Size: 28374404 Hash: 03614C66EBD6528700B987DA01DD843E Accuracy: -m0
  Conclusion: CDDA 100%
  Signature: F19E2E2095BC17B9D889273F23546AB2D564921E
FILE: 08. Eliane Elias - October.flac
  Size: 32768037 Hash: FE473DC14B9377289BE720A57B394494 Accuracy: -m0
  Conclusion: CDDA 100%
  Signature: C2D64918E95227D0AA504EECDDCFBE2046D61CCA
FILE: 08. Eliane Elias - Djavan Medley.flac
  Size: 34409418 Hash: D659DF0C0B79F581B196790FB8DD865B Accuracy: -m0
  Conclusion: CDDA 99%
  Signature: 488D1B3B02E935D7552CBBE7DB8DEE2FD12D8B46
FILE: 07. Eliane Elias - Balance Djavan Medley.flac
  Size: 29522207 Hash: 8D7736857309DD64F043AFE182C701C5 Accuracy: -m0
  Conclusion: CDDA 100%
  Signature: E302A5D1161F513BB2636DE91A9BB8D901931434
FILE: 06. Eliane Elias - Where Did You Go.flac
  Size: 22999984 Hash: BE5BEB6747A6D32731760075C45F43F5 Accuracy: -m0
  Conclusion: CDDA 100%
  Signature: B78761394B87CF9941B0D720F9ABB4AE089C4E57
FILE: 05. Eliane Elias - Perere.flac
  Size: 33112931 Hash: F832E4201C21B09A5B548AB3CE52A092 Accuracy: -m0
  Conclusion: CDDA 100%
  Signature: 96239C71723662100692EC7929AD1698E82E4A3F
FILE: 04. Eliane Elias - Apareceu.flac
  Size: 31974702 Hash: 8E7A87D198E67A10B0FF019BEEB34806 Accuracy: -m0
  Conclusion: CDDA 99%
  Signature: 395F0559DFA2D51929150FCECB6AF92F1847093D
FILE: 03. Eliane Elias - Manhatten.flac
  Size: 29232256 Hash: 7E482C5AAE94CB268F762258F38E7384 Accuracy: -m0
  Conclusion: CDDA 100%
  Signature: C6DA6E2836C2E83DCF3FF477F7BCAA9A92961AFD
FILE: 02. Eliane Elias - A Volta.flac
  Size: 37535385 Hash: ED88BB05E6B97A6E22B5FF81A69C8F6D Accuracy: -m0
  Conclusion: CDDA 100%
  Signature: AC4DE9DA85B6DC2339C590CBCF1D3DBE447F78A6
FILE: 01. Eliane Elias - Kissed By Nature.flac
  Size: 35031174 Hash: A37F6F57ED1F6B56F5EED6A00DCEDA86 Accuracy: -m0
  Conclusion: CDDA 100%
  Signature: 989EC778EDC7B6E55953A272CE6763601EC2D16C

2004. Dreamer

Издатель: BMG Music {82876583352}
Страна изготовитель: Brasil
Формат: trac+cue
Трек лист:
01. Call Me [04:12]
02. Baubles, Bangles And Beads [05:00]
03. Photograph (Fotografia) [03:47]
04. Movin' Me On [04:11]
05. So Nice (Samba De Verao) [05:15]
06. That's All [05:42]
07. Tangerine [06:43]
08. Dreamer (Vivo Sonhando) [03:34]
09. Time Alone [06:42]
10. Doralice [03:00]
11. A House Is Not A Home [05:22]
Продолжительность: 00:53:28

Отчёт ЕАС:

Код:
EAC extraction logfile from 9. June 2006, 7:25 for CD
Eliane Elias / Dreamer
Used drive  : SAMSUNG CD-ROM SC-148A   Adapter: 0  ID: 1
Read mode   : Secure with NO C2, accurate stream, disable cache
Read offset correction : 12
Overread into Lead-In and Lead-Out : No
Used output format : C:\Program Files\Exact Audio Copy\flac.exe   (User Defined Encoder)
                     192 kBit/s
                     Additional command line options : -V -8 -T "artist=%a" -T "title=%t" -T "album=%g" -T "date=%y" -T "tracknumber=%n" -T "genre=%m" %s
Other options      :
    Fill up missing offset samples with silence : Yes
    Delete leading and trailing silent blocks : No
    Native Win32 interface for Win NT & 2000
Track  1
     Filename C:\eliane elias - dreamer\01 - Call Me.wav
     Pre-gap length  0:00:02.00
     Peak level 99.8 %
     Track quality 100.0 %
     Test CRC 4215B975
     Copy CRC 4215B975
     Copy OK
Track  2
     Filename C:\eliane elias - dreamer\02 - Baubles, Bangles and Beads.wav
     Pre-gap length  0:00:01.77
     Peak level 99.8 %
     Track quality 100.0 %
     Test CRC DAFE2EAB
     Copy CRC DAFE2EAB
     Copy OK
Track  3
     Filename C:\eliane elias - dreamer\03 - Photograph (Fotografia).wav
     Peak level 99.8 %
     Track quality 100.0 %
     Test CRC DA3264DB
     Copy CRC DA3264DB
     Copy OK
Track  4
     Filename C:\eliane elias - dreamer\04 - Movin' Me On.wav
     Pre-gap length  0:00:01.86
     Peak level 99.8 %
     Track quality 100.0 %
     Test CRC 07968CA5
     Copy CRC 07968CA5
     Copy OK
Track  5
     Filename C:\eliane elias - dreamer\05 - So Nice (Samba de Verao).wav
     Pre-gap length  0:00:01.69
     Peak level 99.8 %
     Track quality 99.9 %
     Test CRC 84ACDDFC
     Copy CRC 84ACDDFC
     Copy OK
Track  6
     Filename C:\eliane elias - dreamer\06 - That's All.wav
     Pre-gap length  0:00:01.66
     Peak level 92.2 %
     Track quality 100.0 %
     Test CRC C901E624
     Copy CRC C901E624
     Copy OK
Track  7
     Filename C:\eliane elias - dreamer\07 - Tangerine.wav
     Pre-gap length  0:00:02.14
     Peak level 99.8 %
     Track quality 100.0 %
     Test CRC 3E756890
     Copy CRC 3E756890
     Copy OK
Track  8
     Filename C:\eliane elias - dreamer\08 - Dreamer (Vivo Sonhando).wav
     Pre-gap length  0:00:00.74
     Peak level 99.8 %
     Track quality 100.0 %
     Test CRC 3D17E4C5
     Copy CRC 3D17E4C5
     Copy OK
Track  9
     Filename C:\eliane elias - dreamer\09 - Time Alone.wav
     Pre-gap length  0:00:01.73
     Peak level 99.8 %
     Track quality 100.0 %
     Test CRC 941508C3
     Copy CRC 941508C3
     Copy OK
Track 10
     Filename C:\eliane elias - dreamer\10 - Doralice.wav
     Pre-gap length  0:00:03.58
     Peak level 99.8 %
     Track quality 99.9 %
     Test CRC 17F02D6D
     Copy CRC 17F02D6D
     Copy OK
Track 11
     Filename C:\eliane elias - dreamer\11 - A House Is Not A Home.wav
     Pre-gap length  0:00:02.00
     Peak level 99.8 %
     Track quality 99.9 %
     Test CRC F60A7CE9
     Copy CRC F60A7CE9
     Copy OK
No errors occured
End of status report

Отчёт auCDtect Task manager:

Код:
-----------------------
DON'T MODIFY THIS FILE
-----------------------
PERFORMER: auCDtect Task Manager, ver. 1.5.1RC6 build 1.5.1.7
Copyright (c) 2008-2010 y-soft. All rights reserved
http://y-soft.org
ANALYZER: auCDtect: CD records authenticity detector, version 0.8.2
Copyright (c) 2004 Oleg Berngardt. All rights reserved.
Copyright (c) 2004 Alexander Djourik. All rights reserved.
FILE: 11. Eliane Elias - A House Is Not A Home.flac
  Size: 25331687 Hash: 2C1A5B46F43823AD79DCC56108557375 Accuracy: -m0
  Conclusion: CDDA 100%
  Signature: AC5AFBE602D3D7610E90FB3551A0575BB160D045
FILE: 10. Eliane Elias - Doralice.flac
  Size: 16206230 Hash: 90F087133FBDE4C1E541223508CECA84 Accuracy: -m0
  Conclusion: CDDA 100%
  Signature: B1BA46C2D4906900710755BA2DFFDCB0EE9C36F8
FILE: 09. Eliane Elias - Time Alone.flac
  Size: 35444674 Hash: 6D05421EB467A19DE2A8A2488ABEE600 Accuracy: -m0
  Conclusion: CDDA 99%
  Signature: B3485E254C3AF2A2FD976E2BB112D67F2F449A2D
FILE: 08. Eliane Elias - Dreamer (Vivo Sonhando).flac
  Size: 22588960 Hash: 8166814EFDDEB0BAA8B4076E5461F966 Accuracy: -m0
  Conclusion: CDDA 100%
  Signature: C548F8FD0837116786134E72C11DE11F8B33C48B
FILE: 07. Eliane Elias - Tangerine.flac
  Size: 39371100 Hash: C339E9174060F8ECD784EA763B46B524 Accuracy: -m0
  Conclusion: CDDA 100%
  Signature: 8D0DEB9F62DA061F548E709B6B4262939213BA15
FILE: 06. Eliane Elias - That's All.flac
  Size: 29698403 Hash: 720E502E5204279BCF5696007A514C90 Accuracy: -m0
  Conclusion: CDDA 100%
  Signature: 50B96C44F4ECA6F5EE00134ECA72CFB22E2EDB77
FILE: 05. Eliane Elias - So Nice (Samba De Verao).flac
  Size: 31445632 Hash: D5448D613B9B6538FBAD7561DC1C785A Accuracy: -m0
  Conclusion: CDDA 100%
  Signature: 3DC5E29D3C53A48D61B244DC6BC230B266DA60F7
FILE: 04. Eliane Elias - Movin' Me On.flac
  Size: 26758286 Hash: 2E0DDF44FF900CD116FC06A1BA9A6E5C Accuracy: -m0
  Conclusion: CDDA 100%
  Signature: 922EB4F7DB4F628A27484B94DCA1EACEA632F0EF
FILE: 03. Eliane Elias - Photograph (Fotografia).flac
  Size: 23216334 Hash: 14BAF6FE4159F344BC69D8952BFB8A40 Accuracy: -m0
  Conclusion: CDDA 100%
  Signature: 472194C70EF16A2EF13EA78A2CBE0C2F3860564F
FILE: 02. Eliane Elias - Baubles, Bangles And Beads.flac
  Size: 30492202 Hash: 6A8CA7A2E11690E8F3244AE521D87296 Accuracy: -m0
  Conclusion: CDDA 100%
  Signature: EB557649FC549EA9F9DB289821E64765393AB67B
FILE: 01. Eliane Elias - Call Me.flac
  Size: 25382860 Hash: 184EBACEC3B14DA5F7FFBEA140E0542F Accuracy: -m0
  Conclusion: CDDA 100%
  Signature: 6280D48D203A8D397552C18A0EC35E1D306BE104
Время раздачи: 24/7
 

Текущее время: Сегодня 09:58

Часовой пояс: GMT + 3