Сегодня идет свободное скачивание без начисления Download

Результатов поиска: 26

Автор Сообщение

sashau

Пост 22-Сен-2014 19:01

[Цитировать]

Dave Specter - Message In Blue - Год: 2014
Жанр: Modern Electric Blues
Продолжительность: 00:58:54
Лейбл: DELMARK
Каталог: DE 836
Кодек: FLAC (image+.cue + log)
Битрейт: Lossless
Треклист:
01. New West Side Stroll (5:11)
02. Got To Find A Way (3:54)
03. This Time I'm Gone For Good (5:31)
04. Message In Blue (4:19)
05. Chicago Style (3:34)
06. I Found A Love (3:53)
07. Funkified Outta Space (4:52)
08. Same Old Blues (5:05)
09. The Stinger (5:16)
10. Jefferson Stomp (5:55)
11. Watch Dog (3:58)
12. The Spectifyin' Samba (4:35)
13. Opus de Swamp (2:50)

Отчёт ЕАС:

Код:
Exact Audio Copy V1.0 beta 3 from 29. August 2011
Отчёт EAC об извлечении, выполненном 31. мая 2014, 0:19
Dave Specter / Message In Blue
Дисковод: PLEXTOR DVDR   PX-880SA   Adapter: 1  ID: 0
Режим чтения                 : Достоверность
Использование точного потока : Да
Отключение кэша аудио        : Да
Использование указателей C2  : Нет
Коррекция смещения при чтении                     : 6
Способность читать области Lead-in и Lead-out     : Нет
Заполнение пропущенных сэмплов тишиной            : Да
Удаление блоков с тишиной в начале и конце        : Нет
При вычислениях CRC использовались нулевые сэмплы : Да
Интерфейс                                         : Установленный внешний ASPI-интерфейс
Выходной формат          : Пользовательский кодировщик
Выбранный битрейт        : 1024 kBit/s
Качество                 : Высокий
Добавление ID3-тега      : Нет
Утилита сжатия           : C:\Program Files\Exact Audio Copy\FLAC\FLAC.EXE
Дополнительные параметры : -10 -V -T "ARTIST=%artist%" -T "ALBUM=%albumtitle%" -T "DATE=%year%" -T "GENRE=%genre%" -T "COMMENT=ripped by izia1956" %source%
TOC извлечённого CD
     Трек |   Старт  | Длительность | Начальный сектор | Конечный сектор
    ---------------------------------------------------------------------
       1  |  0:00.00 |    5:11.25   |           0      |      23349
       2  |  5:11.25 |    3:53.40   |       23350      |      40864
       3  |  9:04.65 |    5:31.21   |       40865      |      65710
       4  | 14:36.11 |    4:19.21   |       65711      |      85156
       5  | 18:55.32 |    3:33.50   |       85157      |     101181
       6  | 22:29.07 |    3:52.49   |      101182      |     118630
       7  | 26:21.56 |    4:52.02   |      118631      |     140532
       8  | 31:13.58 |    5:05.26   |      140533      |     163433
       9  | 36:19.09 |    5:16.37   |      163434      |     187170
      10  | 41:35.46 |    5:54.62   |      187171      |     213782
      11  | 47:30.33 |    3:58.37   |      213783      |     231669
      12  | 51:28.70 |    4:34.70   |      231670      |     252289
      13  | 56:03.65 |    2:50.13   |      252290      |     265052
Характеристики диапазона извлечения и сообщения об ошибках
Выбранный диапазон
     Имя файла D:\BitComet\Dave Specter - Message In Blue (2014)\Dave Specter - Message In Blue.wav
     Пиковый уровень 98.8 %
     Скорость извлечения 2.7 X
     Качество диапазона 100.0 %
     CRC теста B8A5B982
     CRC копии B8A5B982
     Копирование... OK
Ошибок не произошло
AccurateRip: сводка
Трек  1  : извлечено точно (доверие 1)  [F7E61CF3]  (AR v2)
Трек  2  : извлечено точно (доверие 1)  [F225BC16]  (AR v2)
Трек  3  : извлечено точно (доверие 1)  [21AA8F91]  (AR v2)
Трек  4  : извлечено точно (доверие 1)  [4CC06AA2]  (AR v2)
Трек  5  : извлечено точно (доверие 1)  [3F79425C]  (AR v2)
Трек  6  : извлечено точно (доверие 1)  [9ADB3087]  (AR v2)
Трек  7  : извлечено точно (доверие 1)  [F5BDC340]  (AR v2)
Трек  8  : извлечено точно (доверие 1)  [456568DF]  (AR v2)
Трек  9  : извлечено точно (доверие 1)  [F7B93A5A]  (AR v2)
Трек 10  : извлечено точно (доверие 1)  [BC03DE08]  (AR v2)
Трек 11  : извлечено точно (доверие 1)  [49536FDA]  (AR v2)
Трек 12  : извлечено точно (доверие 1)  [C7D8A66F]  (AR v2)
Трек 13  : извлечено точно (доверие 1)  [6DE8D50A]  (AR v2)
Все треки извлечены точно
Конец отчёта
==== Контрольная сумма отчёта 9D87EED70BB483E01C66F95AB78A2D5AD841176CE861597BAFD5A17D95667116 ====

Отчёт auCDtect Task manager:

Код:
-----------------------
DON'T MODIFY THIS FILE
-----------------------
PERFORMER: auCDtect Task Manager, ver. 1.5.1RC6 build 1.5.1.7
Copyright (c) 2008-2010 y-soft. All rights reserved
http://y-soft.org
ANALYZER: auCDtect: CD records authenticity detector, version 0.8.2
Copyright (c) 2004 Oleg Berngardt. All rights reserved.
Copyright (c) 2004 Alexander Djourik. All rights reserved.
FILE: Dave Specter - Message In Blue.flac
  Size: 448625646 Hash: D5D276337CC9BE450835265D5E255D3E Accuracy: -m8
  Conclusion: CDDA 100%
  Signature: 50AC27CD246325494A7E14C51904F75CCDC50425

UndegraundMen

Пост 24-Май-2013 00:04

[Цитировать]

Bex Marshall - The House of Mercy (2012)- Год: 2012
Жанр: Blues-Rock
Продолжительность: 00:43:39
Кодек: FLAC, (image + .cue)
Битрейт: Lossless
Трек лист:
01. The House Of Mercy 04:04
02. Love 03:32
03. Bite Me 03:52
04. Gone Fishing 03:47
05. Renting My Room 04:11
06. Rattlesnake 04:42
07. Tough Times 03:35
08. Big Man 03:44
09. Bourbon Street 04:53
10. Barry's song 03:43
11. Guilty 03:31

Отчёт ЕАС:

Код:
Exact Audio Copy V0.99 prebeta 4 from 23. January 2008
Отчёт EAC об извлечении, выполненном 15. февраля 2013, 21:14
Bex Marshall / The House of Mercy
Дисковод: PIONEER DVD-RW  DVR-118L   Adapter: 0  ID: 0
Режим чтения                 : Достоверность
Использование точного потока : Да
Отключение кэша аудио        : Да
Использование указателей C2  : Нет
Коррекция смещения при чтении                     : 6
Способность читать области Lead-in и Lead-out     : Нет
Заполнение пропущенных сэмплов тишиной            : Да
Удаление блоков с тишиной в начале и конце        : Нет
При вычислениях CRC использовались нулевые сэмплы : Да
Интерфейс                                         : Встроенный Win32-интерфейс для Win NT/2000
Выходной формат : Внутренние WAV-операции
Формат сэмплов  : 44.100 Гц; 16 бит; стерео
TOC извлечённого CD
     Трек |   Старт  | Длительность | Начальный сектор | Конечный сектор
    ---------------------------------------------------------------------
       1  |  0:00.00 |    4:04.14   |           0      |      18313
       2  |  4:04.14 |    3:32.32   |       18314      |      34245
       3  |  7:36.46 |    3:52.55   |       34246      |      51700
       4  | 11:29.26 |    3:47.57   |       51701      |      68782
       5  | 15:17.08 |    4:11.00   |       68783      |      87607
       6  | 19:28.08 |    4:42.34   |       87608      |     108791
       7  | 24:10.42 |    3:35.70   |      108792      |     124986
       8  | 27:46.37 |    3:44.25   |      124987      |     141811
       9  | 31:30.62 |    4:53.58   |      141812      |     163844
      10  | 36:24.45 |    3:43.27   |      163845      |     180596
      11  | 40:07.72 |    3:31.06   |      180597      |     196427
Характеристики диапазона извлечения и сообщения об ошибках
Выбранный диапазон
     Имя файла L:\Новая папка (13)\Bex Marshall - The House of Mercy.wav
     Пиковый уровень 99.8 %
     Качество диапазона 100.0 %
     CRC теста 300B8781
     CRC копии 300B8781
     Копирование... OK
Ошибок не произошло
Конец отчёта

Отчёт auCDtect Task manager:

Код:
DON'T MODIFY THIS FILE
-----------------------
PERFORMER: auCDtect Task Manager, ver. 1.6.0 RC1 build 1.6.0.1
Copyright (c) 2008-2010 y-soft. All rights reserved
http://y-soft.org
ANALYZER: auCDtect: CD records authenticity detector, version 0.8.2
Copyright (c) 2004 Oleg Berngardt. All rights reserved.
Copyright (c) 2004 Alexander Djourik. All rights reserved.
FILE: Bex Marshall - The House of Mercy.flac
  Size: 292296298 Hash: C9ED36A1842A8CE2EF7D21AB476A7213 Accuracy: -m0
  Conclusion: CDDA 99%
  Signature: 78689863DB71902FAEAC42E28FE1DEED27F8A571

UndegraundMen

Пост 24-Май-2013 00:04

[Цитировать]

Dan Doiron - From Deep Inside (2013)- Год: 2013
Жанр: Blues Rock
Продолжительность: 00:43:03
Кодек: FLAC
Битрейт: Lossless
Трек лист:
01. At The Hard Knocks Cafe
02. From Deep Inside
03. Let's Get Into It
04. Too Good To Me
05. What I Did Then
06. Still
07. What Did You Expect
08. Misunderstood
09. Am I Blue Enough For You Yet
10. Last Chapter

Отчёт ЕАС:

Код:
Exact Audio Copy V0.99 prebeta 4 from 23. January 2008
Отчёт EAC об извлечении, выполненном 28. марта 2013, 4:09
Dan Doiron / From Deep Inside
Дисковод: PIONEER DVD-RW  DVR-118L   Adapter: 0  ID: 0
Режим чтения                 : Достоверность
Использование точного потока : Да
Отключение кэша аудио        : Да
Использование указателей C2  : Нет
Коррекция смещения при чтении                     : 6
Способность читать области Lead-in и Lead-out     : Нет
Заполнение пропущенных сэмплов тишиной            : Да
Удаление блоков с тишиной в начале и конце        : Нет
При вычислениях CRC использовались нулевые сэмплы : Да
Интерфейс                                         : Встроенный Win32-интерфейс для Win NT/2000
Выходной формат          : Пользовательский кодировщик
Выбранный битрейт        : 128 kBit/s
Качество                 : Высокий
Добавление ID3-тэга      : Нет
Утилита сжатия           : C:\Program Files\Exact Audio Copy\FLAC\FLAC.EXE
Дополнительные параметры : -8 -V -T "ARTIST=%a" -T "TITLE=%t" -T "ALBUM=%g" -T "DATE=%y" -T "TRACKNUMBER=%n" -T "GENRE=%m" -T "COMMENT=%e" %s -o %d
TOC извлечённого CD
     Трек |   Старт  | Длительность | Начальный сектор | Конечный сектор
    ---------------------------------------------------------------------
       1  |  0:00.00 |    3:50.25   |           0      |      17274
       2  |  3:50.25 |    4:35.06   |       17275      |      37905
       3  |  8:25.31 |    3:46.55   |       37906      |      54910
       4  | 12:12.11 |    4:09.34   |       54911      |      73619
       5  | 16:21.45 |    3:42.63   |       73620      |      90332
       6  | 20:04.33 |    3:55.18   |       90333      |     107975
       7  | 23:59.51 |    3:59.24   |      107976      |     125924
       8  | 27:59.00 |    4:23.51   |      125925      |     145700
       9  | 32:22.51 |    5:01.61   |      145701      |     168336
      10  | 37:24.37 |    5:38.20   |      168337      |     193706
Характеристики диапазона извлечения и сообщения об ошибках
Выбранный диапазон
     Имя файла L:\Новая папка (15)\Dan Doiron - From Deep Inside.wav
     Пиковый уровень 96.6 %
     Качество диапазона 100.0 %
     CRC теста 4334B03E
     CRC копии 4334B03E
     Копирование... OK
Ошибок не произошло
Конец отчёта

Отчёт auCDtect Task manager:

Код:
-----------------------
DON'T MODIFY THIS FILE
-----------------------
PERFORMER: auCDtect Task Manager, ver. 1.5.1RC6 build 1.5.1.7
Copyright (c) 2008-2010 y-soft. All rights reserved
http://y-soft.org
ANALYZER: auCDtect: CD records authenticity detector, version 0.8.2
Copyright (c) 2004 Oleg Berngardt. All rights reserved.
Copyright (c) 2004 Alexander Djourik. All rights reserved.
FILE: Dan Doiron - From Deep Inside.flac
  Size: 304606263 Hash: 71D575D56702DE58C3630C59A1EA198A Accuracy: -m0
  Conclusion: CDDA 100%
  Signature: D79203E0314428065832FE885FC261C4CB332F6F

UndegraundMen

Пост 24-Май-2013 00:03

[Цитировать]

Erja Lyytinen - Forbidden Fruit (2013)- Год: 2013
Жанр: Blues
Продолжительность: 00:43:12
Кодек: FLAC
Битрейт: Lossless
Трек лист:
01. Joyful Misery 04:30
02. Hold On Together 03:58
03. At Least We Still Fight (3:42
04. Forbidden Fruit 05:33
05. Death Letter 04:39
06. Change Of Season 07:41
07. Jealousy 04:00
08. Press My Button 04:26
09. Things About Coming My Way 04:43

Дополнительная информация:

Релиз Ready.zp

Отчёт ЕАС:

Код:
Exact Audio Copy V1.0 beta 3 from 29. August 2011
Отчёт EAC об извлечении, выполненном 27. января 2013, 9:58
Erja Lyytinen / Forbidden Fruit
Дисковод: HL-DT-STDVDRAM GSA-H44N   Adapter: 0  ID: 0
Режим чтения                 : Достоверность
Использование точного потока : Да
Отключение кэша аудио        : Да
Использование указателей C2  : Нет
Коррекция смещения при чтении                     : 667
Способность читать области Lead-in и Lead-out     : Нет
Заполнение пропущенных сэмплов тишиной            : Да
Удаление блоков с тишиной в начале и конце        : Нет
При вычислениях CRC использовались нулевые сэмплы : Да
Интерфейс                                         : Установленный внешний ASPI-интерфейс
Выходной формат          : Пользовательский кодировщик
Выбранный битрейт        : 1024 kBit/s
Качество                 : Высокий
Добавление ID3-тега      : Нет
Утилита сжатия           : C:\Program Files\FLAC\flac.exe
Дополнительные параметры : -6 -V -T "ARTIST=%artist%" -T "TITLE=%title%" -T "ALBUM=%albumtitle%" -T "DATE=%year%" -T "TRACKNUMBER=%tracknr%" -T "GENRE=%genre%" -T "COMMENT=%comment%" %hascover%--picture="%coverfile%"%hascover% %source% -o %dest%
TOC извлечённого CD
     Трек |   Старт  | Длительность | Начальный сектор | Конечный сектор
    ---------------------------------------------------------------------
       1  |  0:00.00 |    4:29.63   |           0      |      20237
       2  |  4:29.63 |    3:57.42   |       20238      |      38054
       3  |  8:27.30 |    3:42.25   |       38055      |      54729
       4  | 12:09.55 |    5:32.52   |       54730      |      79681
       5  | 17:42.32 |    4:39.21   |       79682      |     100627
       6  | 22:21.53 |    7:41.05   |      100628      |     135207
       7  | 30:02.58 |    4:00.26   |      135208      |     153233
       8  | 34:03.09 |    4:25.66   |      153234      |     173174
       9  | 38:29.00 |    4:43.00   |      173175      |     194399
Характеристики диапазона извлечения и сообщения об ошибках
Выбранный диапазон
     Имя файла F:\Erja Lyytinen\Flac\Erja Lyytinen - Forbidden Fruit (2013)\Erja Lyytinen - Forbidden Fruit.wav
     Пиковый уровень 100.0 %
     Скорость извлечения 6.3 X
     Качество диапазона 100.0 %
     CRC копии EB5A3555
     Копирование... OK
Ошибок не произошло
AccurateRip: сводка
Трек  1  отсутствует в базе данных
Трек  2  отсутствует в базе данных
Трек  3  отсутствует в базе данных
Трек  4  отсутствует в базе данных
Трек  5  отсутствует в базе данных
Трек  6  отсутствует в базе данных
Трек  7  отсутствует в базе данных
Трек  8  отсутствует в базе данных
Трек  9  отсутствует в базе данных
Ни одного трека нет в базе AccurateRip
Конец отчёта

Отчёт auCDtect Task manager:

Код:
-----------------------
DON'T MODIFY THIS FILE
-----------------------
PERFORMER: auCDtect Task Manager, ver. 1.5.1RC6 build 1.5.1.7
Copyright (c) 2008-2010 y-soft. All rights reserved
http://y-soft.org
ANALYZER: auCDtect: CD records authenticity detector, version 0.8.2
Copyright (c) 2004 Oleg Berngardt. All rights reserved.
Copyright (c) 2004 Alexander Djourik. All rights reserved.
FILE: Erja Lyytinen - Forbidden Fruit.flac
  Size: 295216392 Hash: F284E2950CA81FB654FB7E32BA5471B3 Accuracy: -m0
  Conclusion: CDDA 100%
  Signature: FE58453D74557EA3E3DC1105FEB1BD06239F3DFB

UndegraundMen

Пост 24-Май-2013 00:03

[Цитировать]

The Lauren Mitchell Band - Please Come Home (2013)- Год: 2013
Жанр: Blues
Продолжительность: 00:38:08
Кодек: FLAC
Битрейт: Lossless
Трек лист:
01. Come to Mama 06:18
02. It's Raining 03:52
03. Please Come Home 03:47
04. Little By Little 04:02
05. Get Off My Side of the Bed 03:20
06. Do You Know 05:00
07. Quittin' You 03:52
08. House of the Rising Sun 07:54

Отчёт ЕАС:

Код:
Exact Audio Copy V0.99 prebeta 5 from 4. May 2009
Отчёт EAC об извлечении, выполненном 3. марта 2013, 17:05
The Lauren Mitchell Band / Please Come Home
Дисковод: PLEXTOR DVDR   PX-880SA   Adapter: 1  ID: 0
Режим чтения                 : Достоверность
Использование точного потока : Да
Отключение кэша аудио        : Да
Использование указателей C2  : Нет
Коррекция смещения при чтении                     : 6
Способность читать области Lead-in и Lead-out     : Нет
Заполнение пропущенных сэмплов тишиной            : Да
Удаление блоков с тишиной в начале и конце        : Нет
При вычислениях CRC использовались нулевые сэмплы : Да
Интерфейс                                         : Установленный внешний ASPI-интерфейс
Выходной формат          : Пользовательский кодировщик
Выбранный битрейт        : 1024 kBit/s
Качество                 : Высокий
Добавление ID3-тэга      : Нет
Утилита сжатия           : C:\Program Files\Exact Audio Copy\FLAC\FLAC.EXE
Дополнительные параметры : -10 -V -T "ARTIST=%a" -T "TITLE=%t" -T "ALBUM=%g" -T "DATE=%y" -T "TRACKNUMBER=%n" -T "GENRE=%m" -T "COMMENT=%e" %s -o %d
TOC извлечённого CD
     Трек |   Старт  | Длительность | Начальный сектор | Конечный сектор
    ---------------------------------------------------------------------
       1  |  0:00.00 |    6:18.68   |           0      |      28417
       2  |  6:18.68 |    3:52.33   |       28418      |      45850
       3  | 10:11.26 |    3:47.67   |       45851      |      62942
       4  | 13:59.18 |    4:02.57   |       62943      |      81149
       5  | 18:02.00 |    3:20.00   |       81150      |      96149
       6  | 21:22.00 |    5:00.20   |       96150      |     118669
       7  | 26:22.20 |    3:52.09   |      118670      |     136078
       8  | 30:14.29 |    7:54.18   |      136079      |     171646
Характеристики диапазона извлечения и сообщения об ошибках
Выбранный диапазон
     Имя файла D:\BitComet\The Lauren Mitchell Band - Please Come Home(2013)(flac)\The Lauren Mitchell Band - Please Come Home.wav
     Пиковый уровень 98.8 %
     Качество диапазона 100.0 %
     CRC теста 53DB239B
     CRC копии 53DB239B
     Копирование... OK
Ошибок не произошло
AccurateRip: сводка
Трек  1  нет в базе данных
Трек  2  нет в базе данных
Трек  3  нет в базе данных
Трек  4  нет в базе данных
Трек  5  нет в базе данных
Трек  6  нет в базе данных
Трек  7  нет в базе данных
Трек  8  нет в базе данных
Ни одного трека нет в базе AccurateRip
Конец отчёта

Отчёт auCDtect Task manager:

Код:
-----------------------
DON'T MODIFY THIS FILE
-----------------------
PERFORMER: auCDtect Task Manager, ver. 1.5.1RC6 build 1.5.1.7
Copyright (c) 2008-2010 y-soft. All rights reserved
http://y-soft.org
ANALYZER: auCDtect: CD records authenticity detector, version 0.8.2
Copyright (c) 2004 Oleg Berngardt. All rights reserved.
Copyright (c) 2004 Alexander Djourik. All rights reserved.
FILE: The Lauren Mitchell Band - Please Come Home.flac
  Size: 254968337 Hash: 91B8DB055D22CD275CDC91B569C744FD Accuracy: -m0
  Conclusion: CDDA 100%
  Signature: DF2F598F4ED37E8B82270FDB4BB72A4776E376CE

UndegraundMen

Пост 24-Май-2013 00:03

[Цитировать]

Black Cat Bone - Some Grace (2013)- Год: 2013
Жанр: Blues, Harmonica
Продолжительность: 00:42:58
Кодек: FLAC
Битрейт: Lossless
Трек лист:
01. Tell Me Tell Me 03:09
02. Best Dress 04:30
03. My Mistake 04:25
04. Jelly Beans Daddy 05:27
05. Love Her With a Feeling 05:00
06. Muder in the First Degree 04:18
07. Barrel House T and the Ocean Breeze 01:56
08. Hey Little Girl 03:30
09. Hey Bartender 04:53
10. Long Way Home 03:31
11. Some Grace 02:14

Отчёт ЕАС:

Код:
Exact Audio Copy V0.99 prebeta 5 from 4. May 2009
Отчёт EAC об извлечении, выполненном 21. апреля 2013, 14:45
Black Cat Bone / Some Grace
Дисковод: PLEXTOR DVDR   PX-880SA   Adapter: 1  ID: 0
Режим чтения                 : Достоверность
Использование точного потока : Да
Отключение кэша аудио        : Да
Использование указателей C2  : Нет
Коррекция смещения при чтении                     : 6
Способность читать области Lead-in и Lead-out     : Нет
Заполнение пропущенных сэмплов тишиной            : Да
Удаление блоков с тишиной в начале и конце        : Нет
При вычислениях CRC использовались нулевые сэмплы : Да
Интерфейс                                         : Установленный внешний ASPI-интерфейс
Выходной формат          : Пользовательский кодировщик
Выбранный битрейт        : 1024 kBit/s
Качество                 : Высокий
Добавление ID3-тэга      : Нет
Утилита сжатия           : C:\Program Files\Exact Audio Copy\FLAC\FLAC.EXE
Дополнительные параметры : -10 -V -T "ARTIST=%a" -T "TITLE=%t" -T "ALBUM=%g" -T "DATE=%y" -T "TRACKNUMBER=%n" -T "GENRE=%m" -T "COMMENT=%e" %s -o %d
TOC извлечённого CD
     Трек |   Старт  | Длительность | Начальный сектор | Конечный сектор
    ---------------------------------------------------------------------
       1  |  0:00.00 |    3:09.29   |           0      |      14203
       2  |  3:09.29 |    4:30.71   |       14204      |      34524
       3  |  7:40.25 |    4:25.73   |       34525      |      54472
       4  | 12:06.23 |    5:27.42   |       54473      |      79039
       5  | 17:33.65 |    5:00.02   |       79040      |     101541
       6  | 22:33.67 |    4:18.21   |      101542      |     120912
       7  | 26:52.13 |    1:56.35   |      120913      |     129647
       8  | 28:48.48 |    3:30.70   |      129648      |     145467
       9  | 32:19.43 |    4:53.22   |      145468      |     167464
      10  | 37:12.65 |    3:31.12   |      167465      |     183301
      11  | 40:44.02 |    2:14.29   |      183302      |     193380
Характеристики диапазона извлечения и сообщения об ошибках
Выбранный диапазон
     Имя файла D:\BitComet\Black Cat Bone - Some Grace(2013)(flac)\Black Cat Bone - Some Grace.wav
     Пиковый уровень 96.4 %
     Качество диапазона 100.0 %
     CRC теста D8939407
     CRC копии D8939407
     Копирование... OK
Ошибок не произошло
AccurateRip: сводка
Трек  1  нет в базе данных
Трек  2  нет в базе данных
Трек  3  нет в базе данных
Трек  4  нет в базе данных
Трек  5  нет в базе данных
Трек  6  нет в базе данных
Трек  7  нет в базе данных
Трек  8  нет в базе данных
Трек  9  нет в базе данных
Трек 10  нет в базе данных
Трек 11  нет в базе данных
Ни одного трека нет в базе AccurateRip
Конец отчёта

Отчёт auCDtect Task manager:

Код:
-----------------------
DON'T MODIFY THIS FILE
-----------------------
PERFORMER: auCDtect Task Manager, ver. 1.5.1RC6 build 1.5.1.7
Copyright (c) 2008-2010 y-soft. All rights reserved
http://y-soft.org
ANALYZER: auCDtect: CD records authenticity detector, version 0.8.2
Copyright (c) 2004 Oleg Berngardt. All rights reserved.
Copyright (c) 2004 Alexander Djourik. All rights reserved.
FILE: Black Cat Bone - Some Grace.flac
  Size: 269153145 Hash: BD91719668CF215E29EE8A4B9EC6B430 Accuracy: -m0
  Conclusion: CDDA 100%
  Signature: F695329DCCA1B8FBB372E0BA104CB29CF8144CBF

UndegraundMen

Пост 24-Май-2013 00:03

[Цитировать]

Scott Ramminger - Advice From a Father To a Son (2013)- Год: 2013
Жанр: Blues
Продолжительность: 00:48:17
Кодек: FLAC
Битрейт: Lossless
Трек лист:
01. I Really Love Your Smile 04:22
02. Funkier Than Him 06:22
03. This Town's Seen the Last of Me 03:54
04. The Other Man's Shoes 06:37
05. Advice From a Father To a Son 04:22
06. I've Got a Funny Feeling 04:31
07. Magic In the Music 05:46
08. More Than One Flavor 04:10
09. Must Be True 03:45
10. Sometimes You Race the Devil 04:25

Отчёт ЕАС:

Код:
Exact Audio Copy V0.99 prebeta 5 from 4. May 2009
Отчёт EAC об извлечении, выполненном 23. марта 2013, 16:57
Scott Ramminger / Advice From a Father To a Son
Дисковод: PLEXTOR DVDR   PX-880SA   Adapter: 1  ID: 0
Режим чтения                 : Достоверность
Использование точного потока : Да
Отключение кэша аудио        : Да
Использование указателей C2  : Нет
Коррекция смещения при чтении                     : 6
Способность читать области Lead-in и Lead-out     : Нет
Заполнение пропущенных сэмплов тишиной            : Да
Удаление блоков с тишиной в начале и конце        : Нет
При вычислениях CRC использовались нулевые сэмплы : Да
Интерфейс                                         : Установленный внешний ASPI-интерфейс
Выходной формат          : Пользовательский кодировщик
Выбранный битрейт        : 1024 kBit/s
Качество                 : Высокий
Добавление ID3-тэга      : Нет
Утилита сжатия           : C:\Program Files\Exact Audio Copy\FLAC\FLAC.EXE
Дополнительные параметры : -10 -V -T "ARTIST=%a" -T "TITLE=%t" -T "ALBUM=%g" -T "DATE=%y" -T "TRACKNUMBER=%n" -T "GENRE=%m" -T "COMMENT=%e" %s -o %d
TOC извлечённого CD
     Трек |   Старт  | Длительность | Начальный сектор | Конечный сектор
    ---------------------------------------------------------------------
       1  |  0:00.00 |    4:22.18   |           0      |      19667
       2  |  4:22.18 |    6:20.54   |       19668      |      48221
       3  | 10:42.72 |    3:54.72   |       48222      |      65843
       4  | 14:37.69 |    6:37.15   |       65844      |      95633
       5  | 21:15.09 |    4:22.56   |       95634      |     115339
       6  | 25:37.65 |    4:31.66   |      115340      |     135730
       7  | 30:09.56 |    5:46.63   |      135731      |     161743
       8  | 35:56.44 |    4:10.31   |      161744      |     180524
       9  | 40:07.00 |    3:45.17   |      180525      |     197416
      10  | 43:52.17 |    4:25.43   |      197417      |     217334
Характеристики диапазона извлечения и сообщения об ошибках
Выбранный диапазон
     Имя файла D:\BitComet\Scott Ramminger - Advice from a Father to a Son(2013)(flac)\Scott Ramminger - Advice From a Father To a Son.wav
     Пиковый уровень 98.8 %
     Качество диапазона 100.0 %
     CRC теста 24A071D8
     CRC копии 24A071D8
     Копирование... OK
Ошибок не произошло
AccurateRip: сводка
Трек  1  нет в базе данных
Трек  2  нет в базе данных
Трек  3  нет в базе данных
Трек  4  нет в базе данных
Трек  5  нет в базе данных
Трек  6  нет в базе данных
Трек  7  нет в базе данных
Трек  8  нет в базе данных
Трек  9  нет в базе данных
Трек 10  нет в базе данных
Ни одного трека нет в базе AccurateRip
Конец отчёта

Отчёт auCDtect Task manager:

Код:
-----------------------
DON'T MODIFY THIS FILE
-----------------------
PERFORMER: auCDtect Task Manager, ver. 1.5.1RC6 build 1.5.1.7
Copyright (c) 2008-2010 y-soft. All rights reserved
http://y-soft.org
ANALYZER: auCDtect: CD records authenticity detector, version 0.8.2
Copyright (c) 2004 Oleg Berngardt. All rights reserved.
Copyright (c) 2004 Alexander Djourik. All rights reserved.
FILE: Scott Ramminger - Advice From a Father To a Son.flac
  Size: 338891336 Hash: EC66997E8B8AC7FCFAF441B64A68E8CC Accuracy: -m0
  Conclusion: CDDA 100%
  Signature: 8A2E956722FA665965947F5E59E19568A33C19C1

UndegraundMen

Пост 24-Май-2013 00:03

[Цитировать]

Les Wilson & the Mighty Houserockers - On The Road - Live (1998)- Год: 1998
Страна-производитель диска: Великобритания
Издатель (лейбл): Red Lightnin
Номер по каталогу: RLCD0097
Жанр: Blues, Blues rock
Продолжительность: 01:12:47
Кодек: APE
Битрейт: Lossless
Тип рипа: (image+.cue)
Наличие сканов в раздаче: да
Спасибо: ZuFal
Трек лист:
01. In The Road
02. How Many Tears
03. Crazy 'Bout An Automobile
04. Fire
05. Damn Right I Got The Blues
06. I'll Play The Blues For You
07. Houserockers Boogie Woogie
08. Ain't Nobody's Business
09. Madison Blues
10. Voodoo Child (Slight Return)
11. Star Spangled Banne
12. Purple Haze
13. Get A Haircut

Отчёт ЕАС:

Код:
Отчёт EAC об извлечении, выполненном 5. ноября 2009, 10:37 для диска:
Les Wilson / On The Road - Live
Дисковод: TSSTcorpCDDVDW SH-S222L   Adapter: 3  ID: 0
Режим чтения: Достоверный (C2: нет, Точный поток: да, Отключение кэша: да)
Коррекция смещения при чтении: 6
Способность читать области Lead-in и Lead-out : Нет
Выходной формат: Monkey's Audio Lossless Encoder v3.99 DLL
                     High Lossless Compression
Другие параметры:
    Заполнение пропущенных сэмплов тишиной : Да
    Удаление блоков с тишиной в начале и конце : Нет
    Установленный внешний ASPI-интерфейс
Характеристики диапазона извлечения и сообщения об ошибках
Выбранный диапазон
     Имя файла D:\Les Wilson - On The Road - Live.ape
     Пиковый уровень 99.9 %
     Качество диапазона 100.0 %
     CRC 8E590ABF
     Копирование... OK
Ошибок не произошло
Конец отчёта

Отчёт auCDtect Task manager:

Код:
-----------------------
DON'T MODIFY THIS FILE
-----------------------
PERFORMER: auCDtect Task Manager, ver. 1.6.0 RC1 build 1.6.0.1
Copyright (c) 2008-2010 y-soft. All rights reserved
http://y-soft.org
ANALYZER: auCDtect: CD records authenticity detector, version 0.8.2
Copyright (c) 2004 Oleg Berngardt. All rights reserved.
Copyright (c) 2004 Alexander Djourik. All rights reserved.
FILE: Les Wilson - On The Road - Live.ape
  Size: 518229496 Hash: D240A1CD84269A46E44E64FF2317F484 Accuracy: -m0
  Conclusion: CDDA 100%
  Signature: 879CCB8452E036686FD1A4F394D37EE3FBE762F3

youtube

cataman

Пост 20-Ноя-2012 15:22

[Цитировать]

Сколько много минусеров то . Ни кому не нравиться Старина Гари и настоящая музыка? Жаль, очень жаль. Наверно Леди Гага круче Very Happy Very Happy

kacer

Пост 08-Ноя-2012 14:34

[Цитировать]

thanks

cataman

Пост 07-Июн-2012 21:48

[Цитировать]

радист, незачто Музычка По пивасику?

Igor 1968

Пост 30-Авг-2012 13:46

[Цитировать]

Brad Wilson - Blues Magic (2012) Год: 2012
Жанр: Blues Rock
Издатель: Cali Bee Music Inc. / BMI
Каталог: 885767070486
Продолжительность: 00:43:34
Кодек: FLAC
Битрейт: Lossless
Тип рипа: image+.cue + log
Наличие сканов: есть
Треклист:
01. Blues Magic [3:55]
02. Raining in My Heart [3:54]
03. Roll With Me [3:45]
04. Hot Stuff [4:00]
05. My One Desire [3:58]
06. Cryin' Lonely Teardrops [3:42]
07. On a Summer Day [3:39]
08. Nobody But You [4:16]
09. I'm Still Breathin' [3:31]
10. The Road Back to You [4:36]
11. Wintergreen [4:18]

Содержимое индексной карты (.cue):

Код:
REM GENRE Blues-Rock
REM DATE 2012
REM DISCID 9C0A360B
REM COMMENT "ExactAudioCopy v0.99pb5"
PERFORMER "Brad Wilson"
TITLE "Blues Magic"
FILE "Brad Wilson - Blues Magic.flac" WAVE
  TRACK 01 AUDIO
    TITLE "Blues Magic"
    PERFORMER "Brad Wilson"
    INDEX 01 00:00:00
  TRACK 02 AUDIO
    TITLE "Raining in My Heart "
    PERFORMER "Brad Wilson"
    INDEX 00 03:52:67
    INDEX 01 03:54:59
  TRACK 03 AUDIO
    TITLE "Roll With Me "
    PERFORMER "Brad Wilson"
    INDEX 00 07:47:21
    INDEX 01 07:49:03
  TRACK 04 AUDIO
    TITLE "Hot Stuff "
    PERFORMER "Brad Wilson"
    INDEX 00 11:32:12
    INDEX 01 11:34:04
  TRACK 05 AUDIO
    TITLE "My One Desire "
    PERFORMER "Brad Wilson"
    INDEX 00 15:32:47
    INDEX 01 15:34:38
  TRACK 06 AUDIO
    TITLE "Cryin' Lonely Teardrops "
    PERFORMER "Brad Wilson"
    INDEX 00 19:30:54
    INDEX 01 19:32:42
  TRACK 07 AUDIO
    TITLE "On a Summer Day "
    PERFORMER "Brad Wilson"
    INDEX 00 23:12:62
    INDEX 01 23:14:53
  TRACK 08 AUDIO
    TITLE "Nobody But You "
    PERFORMER "Brad Wilson"
    INDEX 00 26:52:12
    INDEX 01 26:53:73
  TRACK 09 AUDIO
    TITLE "I'm Still Breathin' "
    PERFORMER "Brad Wilson"
    INDEX 00 31:07:64
    INDEX 01 31:09:48
  TRACK 10 AUDIO
    TITLE "The Road Back to You "
    PERFORMER "Brad Wilson"
    INDEX 00 34:38:41
    INDEX 01 34:40:11
  TRACK 11 AUDIO
    TITLE "Wintergreen "
    PERFORMER "Brad Wilson"
    INDEX 00 39:14:62
    INDEX 01 39:16:36

Отчёт ЕАС:

Код:
Exact Audio Copy V0.99 prebeta 5 from 4. May 2009
Отчёт EAC об извлечении, выполненном 4. августа 2012, 23:03
Brad Wilson / Blues Magic
Дисковод: PLEXTOR DVDR   PX-880SA   Adapter: 1  ID: 0
Режим чтения                 : Достоверность
Использование точного потока : Да
Отключение кэша аудио        : Да
Использование указателей C2  : Нет
Коррекция смещения при чтении                     : 6
Способность читать области Lead-in и Lead-out     : Нет
Заполнение пропущенных сэмплов тишиной            : Да
Удаление блоков с тишиной в начале и конце        : Нет
При вычислениях CRC использовались нулевые сэмплы : Да
Интерфейс                                         : Установленный внешний ASPI-интерфейс
Выходной формат          : Пользовательский кодировщик
Выбранный битрейт        : 1024 kBit/s
Качество                 : Высокий
Добавление ID3-тэга      : Нет
Утилита сжатия           : C:\Program Files\Exact Audio Copy\FLAC\FLAC.EXE
Дополнительные параметры : -6 -V -T "ARTIST=%a" -T "TITLE=%t" -T "ALBUM=%g" -T "DATE=%y" -T "TRACKNUMBER=%n" -T "GENRE=%m" -T "COMMENT=%e" %s -o %d
TOC извлечённого CD
     Трек |   Старт  | Длительность | Начальный сектор | Конечный сектор
    ---------------------------------------------------------------------
       1  |  0:00.00 |    3:54.59   |           0      |      17608
       2  |  3:54.59 |    3:54.19   |       17609      |      35177
       3  |  7:49.03 |    3:45.01   |       35178      |      52053
       4  | 11:34.04 |    4:00.34   |       52054      |      70087
       5  | 15:34.38 |    3:58.04   |       70088      |      87941
       6  | 19:32.42 |    3:42.11   |       87942      |     104602
       7  | 23:14.53 |    3:39.20   |      104603      |     121047
       8  | 26:53.73 |    4:15.50   |      121048      |     140222
       9  | 31:09.48 |    3:30.38   |      140223      |     156010
      10  | 34:40.11 |    4:36.25   |      156011      |     176735
      11  | 39:16.36 |    4:17.54   |      176736      |     196064
Характеристики диапазона извлечения и сообщения об ошибках
Выбранный диапазон
     Имя файла F:\BitComet\Brad Wilson - Blues Magic(2012)(flac)\Brad Wilson - Blues Magic.wav
     Пиковый уровень 100.0 %
     Качество диапазона 100.0 %
     CRC теста 47DD1C7B
     CRC копии 47DD1C7B
     Копирование... OK
Ошибок не произошло
AccurateRip: сводка
Трек  1  нет в базе данных
Трек  2  нет в базе данных
Трек  3  нет в базе данных
Трек  4  нет в базе данных
Трек  5  нет в базе данных
Трек  6  нет в базе данных
Трек  7  нет в базе данных
Трек  8  нет в базе данных
Трек  9  нет в базе данных
Трек 10  нет в базе данных
Трек 11  нет в базе данных
Ни одного трека нет в базе AccurateRip
Конец отчёта

Отчёт auCDtect Task manager:

Код:
-----------------------
DON'T MODIFY THIS FILE
-----------------------
PERFORMER: auCDtect Task Manager, ver. 1.5.1RC6 build 1.5.1.7
Copyright (c) 2008-2010 y-soft. All rights reserved
http://y-soft.org
ANALYZER: auCDtect: CD records authenticity detector, version 0.8.2
Copyright (c) 2004 Oleg Berngardt. All rights reserved.
Copyright (c) 2004 Alexander Djourik. All rights reserved.
FILE: Brad Wilson - Blues Magic.flac
  Size: 330034029 Hash: 1C775B07EE517B588403BD8E0E18B77C Accuracy: -m0
  Conclusion: CDDA 100%
  Signature: 834B2BB2A5E68ACEE0D0D6BBB4173A2645EC4C96

Line-Up:

Brad Wilson - Vocals and guitars
Adam Gust - Drums
Brian Beal - Bass
Kirk Nelson - Keyboards

Igor 1968

Пост 15-Июн-2012 17:51

[Цитировать]

John Hiatt - Bring The Family (1987 (Reissue 1994, Remastered, 24Kt Gold CD))- Год: 1987 (Reissue 1994, Remastered, 24Kt Gold CD)
Жанр: Blues, Folk, Rock, Blues Rock, Country Rock
Издатель: Ⓟ+Ⓒ 1987, 1994 A&M|Mobile Fidelity Sound Lab. Made in USA.
Catalog #: UDCD 603 (0 15775 16032 3)
Продолжительность: 00:45:11
Кодек: WavPack
Битрейт: Lossless
Тип рипа: image + .cue + log
Наличие сканов: да
Трек лист:
01. Memphis In The Meantime (03:58)
02. Alone In The Dark (04:44)
03. Thing Called Love (04:10)
04. Lipstick Sunset (04:10)
05. Have A Little Faith In Me (04:01)
06. Thank You Girl (04:08)
07. Tip Of My Tongue (05:51)
08. Your Dad Did (04:01
09. Stood Up (05:56)
10. Learning How To Love You (04:08)

Notes :

• Producer – John Chelew •
• Recorded By, Mixed By – Larry Hirsch
• All songs © 1987 Lillybilly Music (BMI) administered by Bug.
• Ultradisc II™ 24 KT Gold CD from Mobile Fidelity Sound Lab "Original Master Recording" collection •
Made in U.S.A.

Отчёт ЕАС:

Код:
Exact Audio Copy V0.99 prebeta 5 from 4. May 2009
EAC extraction logfile from 14. June 2012, 0:46
John Hiatt / Bring The Family (MFSL UDCD 603)
Used drive  : ASUS    DRW-24B3ST   Adapter: 0  ID: 1
Read mode               : Secure
Utilize accurate stream : Yes
Defeat audio cache      : Yes
Make use of C2 pointers : No
Read offset correction                      : 6
Overread into Lead-In and Lead-Out          : No
Fill up missing offset samples with silence : Yes
Delete leading and trailing silent blocks   : No
Null samples used in CRC calculations       : Yes
Used interface                              : Native Win32 interface for Win NT & 2000
Used output format              : User Defined Encoder
Selected bitrate                : 1024 kBit/s
Quality                         : High
Add ID3 tag                     : No
Command line compressor         : C:\Program Files (x86)\EAC\WV\wavpack.exe
Additional command line options : -h -hh -m %s %d
TOC of the extracted CD
     Track |   Start  |  Length  | Start sector | End sector
    ---------------------------------------------------------
        1  |  0:00.37 |  3:59.60 |        37    |    18021
        2  |  4:00.22 |  4:45.38 |     18022    |    39434
        3  |  8:45.60 |  4:11.32 |     39435    |    58291
        4  | 12:57.17 |  4:12.60 |     58292    |    77251
        5  | 17:10.02 |  4:04.38 |     77252    |    95589
        6  | 21:14.40 |  4:10.17 |     95590    |   114356
        7  | 25:24.57 |  5:51.65 |    114357    |   140746
        8  | 31:16.47 |  4:02.73 |    140747    |   158969
        9  | 35:19.45 |  5:57.67 |    158970    |   185811
       10  | 41:17.37 |  4:08.28 |    185812    |   204439
Range status and errors
Selected range
     Filename G:\@ MFSL\John Hiatt © 1987 - Bring The Family (US 1994 MFSL • UDCD 603)\John Hiatt - Bring The Family (MFSL UDCD 603).wav
     Peak level 99.4 %
     Range quality 100.0 %
     Test CRC 78281A35
     Copy CRC 78281A35
     Copy OK
No errors occurred
AccurateRip summary
Track  1  accurately ripped (confidence 19)  [CB2BE372]
Track  2  accurately ripped (confidence 20)  [BC2D9301]
Track  3  accurately ripped (confidence 20)  [711B2928]
Track  4  accurately ripped (confidence 20)  [2FED1083]
Track  5  accurately ripped (confidence 20)  [8F872402]
Track  6  accurately ripped (confidence 20)  [48247EDB]
Track  7  accurately ripped (confidence 20)  [FD7D2143]
Track  8  accurately ripped (confidence 20)  [5EA52D71]
Track  9  accurately ripped (confidence 20)  [CB95B805]
Track 10  accurately ripped (confidence 19)  [68896867]
All tracks accurately ripped
End of status report

Отчёт auCDtect Task manager:

Код:
-----------------------
DON'T MODIFY THIS FILE
-----------------------
PERFORMER: auCDtect Task Manager, ver. 1.5.1RC6 build 1.5.1.7
Copyright (c) 2008-2010 y-soft. All rights reserved
http://y-soft.org
ANALYZER: auCDtect: CD records authenticity detector, version 0.8.2
Copyright (c) 2004 Oleg Berngardt. All rights reserved.
Copyright (c) 2004 Alexander Djourik. All rights reserved.
FILE: John Hiatt - Bring The Family (MFSL UDCD 603).wv
  Size: 267895462 Hash: 161059897B62380CB9D306C8715087B9 Accuracy: -m0
  Conclusion: CDDA 100%
  Signature: 547122D7B9C6ED200863AACFB3F9424DF4868383

sergraaf

Пост 10-Июн-2012 10:19

[Цитировать]

Спасибо . В наше время такое мало кто делает.Хорошая музыка.Может у вас есть еще альбомы группы.

Igor 1968

Пост 09-Июн-2012 23:14

[Цитировать]

Blindstone - Rare Tracks (2012)- Год: 2012
Жанр: Heavy Blues Rock
Издатель: Groveyard Records
Продолжительность: 00:50:27
Кодек: FLAC
Битрейт: Lossless
Тип рипа: image+cue+log
Наличие сканов: есть
Трек лист:
01. The Wizard (05:41)
02. A Part Of Me (03:19)
03. Ain’t Superstitious (03:51)
04. Superstition (04:22)
05. Hard Lovin’ Man (03:35)
06. Blood Of The Sun (06:56)
07. Foxy Lady (03:25)
08. Star’s Drug (03:25)
09. Holy Water (04:58)
10. Hoochie Coochie Man (05:11)
11. GM1 (05:38)

Отчёт ЕАС:

Код:
Exact Audio Copy V0.99 prebeta 4 from 23. January 2008
Отчёт EAC об извлечении, выполненном 15. апреля 2012, 9:15
Blindstone / Rare Tracks
Дисковод: PLEXTOR DVDR   PX-880SA   Adapter: 1  ID: 1
Режим чтения                 : Достоверность
Использование точного потока : Да
Отключение кэша аудио        : Да
Использование указателей C2  : Нет
Коррекция смещения при чтении                     : 6
Способность читать области Lead-in и Lead-out     : Нет
Заполнение пропущенных сэмплов тишиной            : Да
Удаление блоков с тишиной в начале и конце        : Нет
При вычислениях CRC использовались нулевые сэмплы : Да
Интерфейс                                         : Встроенный Win32-интерфейс для Win NT/2000
Выходной формат          : Пользовательский кодировщик
Выбранный битрейт        : 1024 kBit/s
Качество                 : Высокий
Добавление ID3-тэга      : Нет
Утилита сжатия           : C:\Program Files\Exact Audio Copy\FLAC\FLAC.EXE
Дополнительные параметры : -6 -V -T "ARTIST=%a" -T "TITLE=%t" -T "ALBUM=%g" -T "DATE=%y" -T "TRACKNUMBER=%n" -T "GENRE=%m" -T "COMMENT=%e" %s -o %d
TOC извлечённого CD
     Трек |   Старт  | Длительность | Начальный сектор | Конечный сектор
    ---------------------------------------------------------------------
       1  |  0:00.00 |    5:41.50   |           0      |      25624
       2  |  5:41.50 |    3:19.34   |       25625      |      40583
       3  |  9:01.09 |    3:51.03   |       40584      |      57911
       4  | 12:52.12 |    4:22.74   |       57912      |      77635
       5  | 17:15.11 |    3:35.57   |       77636      |      93817
       6  | 20:50.68 |    6:56.60   |       93818      |     125077
       7  | 27:47.53 |    3:25.48   |      125078      |     140500
       8  | 31:13.26 |    3:25.41   |      140501      |     155916
       9  | 34:38.67 |    4:58.30   |      155917      |     178296
      10  | 39:37.22 |    5:11.14   |      178297      |     201635
      11  | 44:48.36 |    5:38.73   |      201636      |     227058
Характеристики диапазона извлечения и сообщения об ошибках
Выбранный диапазон
     Имя файла J:\BitComet\Blindstone(lossless)\2012 - Rare Tracks\Blindstone - Rare Tracks.wav
     Пиковый уровень 97.7 %
     Качество диапазона 100.0 %
     CRC теста 71593EE8
     CRC копии 71593EE8
     Копирование... OK
Ошибок не произошло
AccurateRip: сводка
Трек  1  нет в базе данных
Трек  2  нет в базе данных
Трек  3  нет в базе данных
Трек  4  нет в базе данных
Трек  5  нет в базе данных
Трек  6  нет в базе данных
Трек  7  нет в базе данных
Трек  8  нет в базе данных
Трек  9  нет в базе данных
Трек 10  нет в базе данных
Трек 11  нет в базе данных
Ни одного трека нет в базе AccurateRip
Конец отчёта

Отчёт auCDtect Task manager:

Код:
-----------------------
DON'T MODIFY THIS FILE
-----------------------
PERFORMER: auCDtect Task Manager, ver. 1.5.1RC6 build 1.5.1.7
Copyright (c) 2008-2010 y-soft. All rights reserved
http://y-soft.org
ANALYZER: auCDtect: CD records authenticity detector, version 0.8.2
Copyright (c) 2004 Oleg Berngardt. All rights reserved.
Copyright (c) 2004 Alexander Djourik. All rights reserved.
FILE: Blindstone - Rare Tracks.flac
  Size: 419997104 Hash: C145BDF9879B6C142291F3D0191688B1 Accuracy: -m0
  Conclusion: CDDA 100%
  Signature: 5956672E7F4F6F27A32C1E63CE07D79695C5E8CF
 

Текущее время: Сегодня 15:51

Часовой пояс: GMT + 3