Сегодня идет свободное скачивание без начисления Download

Результатов поиска: 2

Автор Сообщение

sashau

Пост 27-Дек-2014 14:49

[Цитировать]

Various Artists - Christmas Rap - Лейбл/Кат.№: Profile Records ‎– PCD-1247
Год: 1987
Жанр: Hip Hop, Pop Rap
Продолжительность: 00:38:26
Кодек: FLAC
Битрейт: Lossless
Тип рипа: tracks + .cue

-Треклист:-01. Run-D.M.C. – Christmas In Hollis (2:57)
02. Sweet Tee – Let The Jingle Bells Rock (3:57)
03. Dana Dane – Dana Dane Is Coming To Town (3:44)
04. Spyder-D – Ghetto Santa (3:36)
05. King Sun & D Moët – Christmas In The City (5:17)
06. Derek B – Chillin' With Santa (4:54)
07. Disco Four – He's Santa Claus (3:27)
08. The Showboys – That's What I Want For Christmas (5:58)
09. Surf M.C.'s – A Surf M.C. New Year (4:36)

Лог XLD:

Код:
X Lossless Decoder version 20100412 (117.3)
XLD extraction logfile from 2010-04-12 22:12:54 -0700
Various Artists / Christmas Rap
Used drive : TSSTcorp CD/DVDW SH-W162L (revision LC00)
Use cdparanoia mode     : YES (CDParanoia III 10.2 engine)
Disable audio cache     : OK for the drive with cache less than 2750KB
Make use of C2 pointers : NO
Read offset correction  : 6
Max retry count         : 100
TOC of the extracted CD
     Track |   Start  |  Length  | Start sector | End sector
    ---------------------------------------------------------
        1  | 00:00:00 | 03:00:30 |         0    |    13529
        2  | 03:00:30 | 04:01:07 |     13530    |    31611
        3  | 07:01:37 | 03:47:35 |     31612    |    48671
        4  | 10:48:72 | 03:26:33 |     48672    |    64154
        5  | 14:15:30 | 05:17:42 |     64155    |    87971
        6  | 19:32:72 | 04:56:05 |     87972    |   110176
        7  | 24:29:02 | 03:29:05 |    110177    |   125856
        8  | 27:58:07 | 06:06:15 |    125857    |   153321
        9  | 34:04:22 | 04:36:38 |    153322    |   174059
Track 01
    Filename : /Volumes/DroBaTo/Music Library/XLD IO/01 Run-D.M.C. - Christmas In Hollis.m4a
               /Volumes/DroBaTo/Music Library/XLD IO/01 Run-D.M.C. - Christmas In Hollis.flac
    Pre-gap length : 00:02:00
    CRC32 hash (test run)  : 12699C3B
    CRC32 hash             : 12699C3B
    CRC32 hash (skip zero) : E93107D3
    AccurateRip signature  : 7CA0F315
        ->Track not present in AccurateRip database.
    Statistics
        Read error                           : 0
        Skipped (treated as error)           : 0
        Edge jitter error (maybe fixed)      : 0
        Atom jitter error (maybe fixed)      : 0
        Drift error (maybe fixed)            : 0
        Dropped bytes error (maybe fixed)    : 0
        Duplicated bytes error (maybe fixed) : 0
        Inconsistency in error sectors       : 0
Track 02
    Filename : /Volumes/DroBaTo/Music Library/XLD IO/02 Sweet Tee - Let The Jingle Bells Rock.m4a
               /Volumes/DroBaTo/Music Library/XLD IO/02 Sweet Tee - Let The Jingle Bells Rock.flac
    CRC32 hash (test run)  : CC05044E
    CRC32 hash             : CC05044E
    CRC32 hash (skip zero) : 1EDBEC21
    AccurateRip signature  : EB7B2EF2
        ->Track not present in AccurateRip database.
    Statistics
        Read error                           : 0
        Skipped (treated as error)           : 0
        Edge jitter error (maybe fixed)      : 0
        Atom jitter error (maybe fixed)      : 0
        Drift error (maybe fixed)            : 0
        Dropped bytes error (maybe fixed)    : 0
        Duplicated bytes error (maybe fixed) : 0
        Inconsistency in error sectors       : 0
Track 03
    Filename : /Volumes/DroBaTo/Music Library/XLD IO/03 Dana Dane - Dana Dane Is Coming To Town.m4a
               /Volumes/DroBaTo/Music Library/XLD IO/03 Dana Dane - Dana Dane Is Coming To Town.flac
    CRC32 hash (test run)  : 547D10F7
    CRC32 hash             : 547D10F7
    CRC32 hash (skip zero) : C2157FD0
    AccurateRip signature  : 6E763A1A
        ->Track not present in AccurateRip database.
    Statistics
        Read error                           : 0
        Skipped (treated as error)           : 0
        Edge jitter error (maybe fixed)      : 0
        Atom jitter error (maybe fixed)      : 0
        Drift error (maybe fixed)            : 0
        Dropped bytes error (maybe fixed)    : 0
        Duplicated bytes error (maybe fixed) : 0
        Inconsistency in error sectors       : 0
Track 04
    Filename : /Volumes/DroBaTo/Music Library/XLD IO/04 Spyder-D - Ghetto Santa.m4a
               /Volumes/DroBaTo/Music Library/XLD IO/04 Spyder-D - Ghetto Santa.flac
    CRC32 hash (test run)  : D2D581FA
    CRC32 hash             : D2D581FA
    CRC32 hash (skip zero) : 8BF5B8EA
    AccurateRip signature  : 381C9014
        ->Track not present in AccurateRip database.
    Statistics
        Read error                           : 0
        Skipped (treated as error)           : 0
        Edge jitter error (maybe fixed)      : 0
        Atom jitter error (maybe fixed)      : 0
        Drift error (maybe fixed)            : 0
        Dropped bytes error (maybe fixed)    : 0
        Duplicated bytes error (maybe fixed) : 0
        Inconsistency in error sectors       : 0
Track 05
    Filename : /Volumes/DroBaTo/Music Library/XLD IO/05 King Sun-D Moet - Christmas In The City.m4a
               /Volumes/DroBaTo/Music Library/XLD IO/05 King Sun-D Moet - Christmas In The City.flac
    CRC32 hash (test run)  : 8517DDD9
    CRC32 hash             : 8517DDD9
    CRC32 hash (skip zero) : 4BFC7AB1
    AccurateRip signature  : 1ABC3914
        ->Track not present in AccurateRip database.
    Statistics
        Read error                           : 0
        Skipped (treated as error)           : 0
        Edge jitter error (maybe fixed)      : 0
        Atom jitter error (maybe fixed)      : 0
        Drift error (maybe fixed)            : 0
        Dropped bytes error (maybe fixed)    : 0
        Duplicated bytes error (maybe fixed) : 0
        Inconsistency in error sectors       : 0
Track 06
    Filename : /Volumes/DroBaTo/Music Library/XLD IO/06 Derek B - Chillin' With Santa.m4a
               /Volumes/DroBaTo/Music Library/XLD IO/06 Derek B - Chillin' With Santa.flac
    CRC32 hash (test run)  : D4873BA1
    CRC32 hash             : D4873BA1
    CRC32 hash (skip zero) : 15BEEC08
    AccurateRip signature  : 9B73639C
        ->Track not present in AccurateRip database.
    Statistics
        Read error                           : 0
        Skipped (treated as error)           : 0
        Edge jitter error (maybe fixed)      : 0
        Atom jitter error (maybe fixed)      : 0
        Drift error (maybe fixed)            : 0
        Dropped bytes error (maybe fixed)    : 0
        Duplicated bytes error (maybe fixed) : 0
        Inconsistency in error sectors       : 0
Track 07
    Filename : /Volumes/DroBaTo/Music Library/XLD IO/07 Disco 4 - He's Santa Claus.m4a
               /Volumes/DroBaTo/Music Library/XLD IO/07 Disco 4 - He's Santa Claus.flac
    CRC32 hash (test run)  : 3A03F28D
    CRC32 hash             : 3A03F28D
    CRC32 hash (skip zero) : E512B429
    AccurateRip signature  : FC26A8AE
        ->Track not present in AccurateRip database.
    Statistics
        Read error                           : 0
        Skipped (treated as error)           : 0
        Edge jitter error (maybe fixed)      : 0
        Atom jitter error (maybe fixed)      : 0
        Drift error (maybe fixed)            : 0
        Dropped bytes error (maybe fixed)    : 0
        Duplicated bytes error (maybe fixed) : 0
        Inconsistency in error sectors       : 0
Track 08
    Filename : /Volumes/DroBaTo/Music Library/XLD IO/08 The Showboys - That's What I Want For Christmas.m4a
               /Volumes/DroBaTo/Music Library/XLD IO/08 The Showboys - That's What I Want For Christmas.flac
    CRC32 hash (test run)  : 49DBD645
    CRC32 hash             : 49DBD645
    CRC32 hash (skip zero) : 6A2B0EBC
    AccurateRip signature  : C21239CF
        ->Track not present in AccurateRip database.
    Statistics
        Read error                           : 0
        Skipped (treated as error)           : 0
        Edge jitter error (maybe fixed)      : 0
        Atom jitter error (maybe fixed)      : 0
        Drift error (maybe fixed)            : 0
        Dropped bytes error (maybe fixed)    : 0
        Duplicated bytes error (maybe fixed) : 0
        Inconsistency in error sectors       : 0
Track 09
    Filename : /Volumes/DroBaTo/Music Library/XLD IO/09 Surf M.C.'s - A Surf M.C. New Year.m4a
               /Volumes/DroBaTo/Music Library/XLD IO/09 Surf M.C.'s - A Surf M.C. New Year.flac
    CRC32 hash (test run)  : 4438E1C6
    CRC32 hash             : 4438E1C6
    CRC32 hash (skip zero) : 486BD576
    AccurateRip signature  : B7A7537E
        ->Track not present in AccurateRip database.
    Statistics
        Read error                           : 0
        Skipped (treated as error)           : 0
        Edge jitter error (maybe fixed)      : 0
        Atom jitter error (maybe fixed)      : 0
        Drift error (maybe fixed)            : 0
        Dropped bytes error (maybe fixed)    : 0
        Duplicated bytes error (maybe fixed) : 0
        Inconsistency in error sectors       : 0
No errors occurred
End of status report

Отчёт auCDtect Task manager:

Код:
-----------------------
DON'T MODIFY THIS FILE
-----------------------
PERFORMER: auCDtect Task Manager, ver. 1.6.0 RC1 build 1.6.0.1
Copyright (c) 2008-2010 y-soft. All rights reserved
http://y-soft.org
ANALYZER: auCDtect: CD records authenticity detector, version 0.8.2
Copyright (c) 2004 Oleg Berngardt. All rights reserved.
Copyright (c) 2004 Alexander Djourik. All rights reserved.
FILE: 09 Surf M.C.'s - A Surf M.C. New Year.flac
  Size: 31163839 Hash: EAFB3BD01AB3796BE8C352A7D80A9BD8 Accuracy: -m0
  Conclusion: CDDA 100%
  Signature: 8DE5CE22BEEEE17CF95E5F646FA5554761DF214D
FILE: 08 The Showboys - That's What I Want For Christmas.flac
  Size: 42070760 Hash: 4941782B13186D9DD907A9B7432E13A2 Accuracy: -m0
  Conclusion: CDDA 100%
  Signature: 45CC554BF3FF8B6A61243E4D0C75048A3138F6C3
FILE: 07 Disco 4 - He's Santa Claus.flac
  Size: 19302566 Hash: 1D09FE45B5FB46C62E353DC5B3DE865E Accuracy: -m0
  Conclusion: CDDA 100%
  Signature: 1A079AF1C87927B8D21544B9E4D321594207B4EE
FILE: 06 Derek B - Chillin' With Santa.flac
  Size: 30555478 Hash: CFFAF10E21087C406696BF7B9320AC5D Accuracy: -m0
  Conclusion: CDDA 100%
  Signature: 8DDFE0E5A6FE49280EEE6C95BDC9326BEE709CE4
FILE: 05 King Sun-D Moet - Christmas In The City.flac
  Size: 31457720 Hash: 4A080F64BB40FA9E0F45766A81550228 Accuracy: -m0
  Conclusion: CDDA 92%
  Signature: C85B5C948ECCE0AB863D46EDA8D06D094F3C909B
FILE: 04 Spyder-D - Ghetto Santa.flac
  Size: 21654805 Hash: 3B2B9B33A057D0C622760365D2906A44 Accuracy: -m0
  Conclusion: CDDA 100%
  Signature: E759B823D2CD8B46719DDC1E6CE47AF2A0464F63
FILE: 03 Dana Dane - Dana Dane Is Coming To Town.flac
  Size: 19556351 Hash: FED416549B39827918C9FED500247B30 Accuracy: -m0
  Conclusion: CDDA 100%
  Signature: 72A2809EFBEB65BCFE900DBF4CE36215319279B4
FILE: 02 Sweet Tee - Let The Jingle Bells Rock.flac
  Size: 21372356 Hash: 725EC17487C3D61C262591C4C44490C4 Accuracy: -m0
  Conclusion: CDDA 100%
  Signature: 7FD4521F631861DB7606E091877067D782A3795A
FILE: 01 Run-D.M.C. - Christmas In Hollis.flac
  Size: 18206194 Hash: F705B9A72D7FEC1851E204BAAB51A33C Accuracy: -m0
  Conclusion: CDDA 100%
  Signature: 0865B394DB8C7462CFEB1D7963D3CB3024918397
-

sergej644

Пост 16-Июл-2013 09:29

[Цитировать]

-Легенды Про... - Две Стороны Одной Медали (2СD)- Страна: Россия
Жанр: Rap
Год выпуска: 2013
Формат: FLAC (tracks)
Битрейт аудио: lossless
Продолжительность: 01:02:34+00:58:19
- -

Светлая сторона

01. Мои года (04:52)
02. Громкие разговоры (04:05)
03. Бутерброд (02:50)
04. Рингтон (03:03)
05. Повод смириться (02:58)
06. Somebody's love (04:38)
07. Кто знал (04:23)
08. Космос (06:07)
09. Лодка (04:12)
10. Вороны (03:55)
11. Прости (03:28)
12. Колыбельная района (04:11)
13. Воздух (05:23)
14. Виною всему слова (04:09)
15. Не последний трек (04:14)
-

Тёмная сторона

01. Оппозиция молчанию (03:18)
02. Побег (03:34)
03. Телек (04:36)
04. Гарри (03:31)
05. Go down (03:21)
06. Fuck dat (03:59)
07. X (03:15)
08. Хорошо (03:02)
09. Бесконечная пати (04:00)
10. Почему пустеют улицы (03:14)
11. Дверь (05:49)
12. Гиганты слова (03:30)
13. Толпы (feat. Искра) (03:38)
14. Одеяло (feat. iZReal) (05:42)
15. Снова (03:45)
- -

лог создания рипа

CD 1

Код:
Exact Audio Copy V1.0 beta 3 from 29. August 2011
Отчёт EAC об извлечении, выполненном 3. марта 2013, 23:16
Легенды Про... / Две Стороны Одной Медали
Дисковод: Optiarc DVD RW AD-7280S   Adapter: 0  ID: 0
Режим чтения                 : Достоверность
Использование точного потока : Да
Отключение кэша аудио        : Да
Использование указателей C2  : Нет
Коррекция смещения при чтении                     : 48
Способность читать области Lead-in и Lead-out     : Нет
Заполнение пропущенных сэмплов тишиной            : Да
Удаление блоков с тишиной в начале и конце        : Нет
При вычислениях CRC использовались нулевые сэмплы : Да
Интерфейс                                         : Встроенный Win32-интерфейс для Win NT/2000
Обработка зазоров                                 : Добавлено к предыдущему треку
Выходной формат          : Пользовательский кодировщик
Выбранный битрейт        : 128 kBit/s
Качество                 : Высокий
Добавление ID3-тега      : Нет
Утилита сжатия           : C:\Program Files (x86)\FLAC\flac.exe
Дополнительные параметры :  -V -8 -T "Genre=%genre%" -T "Artist=%artist%" -T "Title=%title%" -T "Album=%albumtitle%" -T "Date=%year%" -T "Tracknumber=%tracknr%" -T "Comment=%comment%" %source%
TOC извлечённого CD
     Трек |   Старт  | Длительность | Начальный сектор | Конечный сектор
    ---------------------------------------------------------------------
       1  |  0:00.00 |    4:52.19   |           0      |      21918
       2  |  4:52.19 |    4:05.50   |       21919      |      40343
       3  |  8:57.69 |    2:50.24   |       40344      |      53117
       4  | 11:48.18 |    3:03.32   |       53118      |      66874
       5  | 14:51.50 |    2:58.27   |       66875      |      80251
       6  | 17:50.02 |    4:38.08   |       80252      |     101109
       7  | 22:28.10 |    4:23.30   |      101110      |     120864
       8  | 26:51.40 |    6:07.04   |      120865      |     148393
       9  | 32:58.44 |    4:12.06   |      148394      |     167299
      10  | 37:10.50 |    3:55.63   |      167300      |     184987
      11  | 41:06.38 |    3:28.31   |      184988      |     200618
      12  | 44:34.69 |    4:11.66   |      200619      |     219509
      13  | 48:46.60 |    5:23.23   |      219510      |     243757
      14  | 54:10.08 |    4:09.60   |      243758      |     262492
      15  | 58:19.68 |    4:14.14   |      262493      |     281556
Трек  1
     Имя файла D:\не удалять!!\Легенды Про... - Две Стороны Одной Медали\Светлая сторона\01 Мои года.wav
     Длина предзазора  0:00:02.00
     Пиковый уровень 98.8 %
     Скорость извлечения 4.6 X
     Качество трека 100.0 %
     CRC теста F8142DA9
     CRC копии F8142DA9
     Трек не обнаружен в базе AccurateRip
     Копирование... OK
Трек  2
     Имя файла D:\не удалять!!\Легенды Про... - Две Стороны Одной Медали\Светлая сторона\02 Громкие разговоры.wav
     Длина предзазора  0:00:02.00
     Пиковый уровень 100.0 %
     Скорость извлечения 3.6 X
     Качество трека 99.9 %
     CRC теста 776FDFAC
     CRC копии 776FDFAC
     Трек не обнаружен в базе AccurateRip
     Копирование... OK
Трек  3
     Имя файла D:\не удалять!!\Легенды Про... - Две Стороны Одной Медали\Светлая сторона\03 Бутерброд.wav
     Длина предзазора  0:00:02.00
     Пиковый уровень 100.0 %
     Скорость извлечения 3.3 X
     Качество трека 99.9 %
     CRC теста 295F55F8
     CRC копии 295F55F8
     Трек не обнаружен в базе AccurateRip
     Копирование... OK
Трек  4
     Имя файла D:\не удалять!!\Легенды Про... - Две Стороны Одной Медали\Светлая сторона\04 Рингтон.wav
     Длина предзазора  0:00:02.00
     Пиковый уровень 100.0 %
     Скорость извлечения 5.4 X
     Качество трека 100.0 %
     CRC теста 9F65A6DE
     CRC копии 9F65A6DE
     Трек не обнаружен в базе AccurateRip
     Копирование... OK
Трек  5
     Имя файла D:\не удалять!!\Легенды Про... - Две Стороны Одной Медали\Светлая сторона\05 Повод смириться.wav
     Длина предзазора  0:00:02.00
     Пиковый уровень 100.0 %
     Скорость извлечения 5.7 X
     Качество трека 100.0 %
     CRC теста 31AE1E75
     CRC копии 31AE1E75
     Трек не обнаружен в базе AccurateRip
     Копирование... OK
Трек  6
     Имя файла D:\не удалять!!\Легенды Про... - Две Стороны Одной Медали\Светлая сторона\06 Somebody's love.wav
     Длина предзазора  0:00:02.00
     Пиковый уровень 100.0 %
     Скорость извлечения 6.4 X
     Качество трека 100.0 %
     CRC теста 07016B42
     CRC копии 07016B42
     Трек не обнаружен в базе AccurateRip
     Копирование... OK
Трек  7
     Имя файла D:\не удалять!!\Легенды Про... - Две Стороны Одной Медали\Светлая сторона\07 Кто знал.wav
     Длина предзазора  0:00:02.00
     Пиковый уровень 100.0 %
     Скорость извлечения 6.8 X
     Качество трека 100.0 %
     CRC теста 5053F08D
     CRC копии 5053F08D
     Трек не обнаружен в базе AccurateRip
     Копирование... OK
Трек  8
     Имя файла D:\не удалять!!\Легенды Про... - Две Стороны Одной Медали\Светлая сторона\08 Космос.wav
     Длина предзазора  0:00:02.00
     Пиковый уровень 100.0 %
     Скорость извлечения 7.4 X
     Качество трека 100.0 %
     CRC теста 47E4E4B5
     CRC копии 47E4E4B5
     Трек не обнаружен в базе AccurateRip
     Копирование... OK
Трек  9
     Имя файла D:\не удалять!!\Легенды Про... - Две Стороны Одной Медали\Светлая сторона\09 Лодка.wav
     Длина предзазора  0:00:02.00
     Пиковый уровень 100.0 %
     Скорость извлечения 7.6 X
     Качество трека 100.0 %
     CRC теста F73F4BDD
     CRC копии F73F4BDD
     Трек не обнаружен в базе AccurateRip
     Копирование... OK
Трек 10
     Имя файла D:\не удалять!!\Легенды Про... - Две Стороны Одной Медали\Светлая сторона\10 Вороны.wav
     Длина предзазора  0:00:02.00
     Пиковый уровень 100.0 %
     Скорость извлечения 7.7 X
     Качество трека 100.0 %
     CRC теста 0FB2C00E
     CRC копии 0FB2C00E
     Трек не обнаружен в базе AccurateRip
     Копирование... OK
Трек 11
     Имя файла D:\не удалять!!\Легенды Про... - Две Стороны Одной Медали\Светлая сторона\11 Прости.wav
     Длина предзазора  0:00:02.00
     Пиковый уровень 100.0 %
     Скорость извлечения 7.8 X
     Качество трека 100.0 %
     CRC теста 1F9F3927
     CRC копии 1F9F3927
     Трек не обнаружен в базе AccurateRip
     Копирование... OK
Трек 12
     Имя файла D:\не удалять!!\Легенды Про... - Две Стороны Одной Медали\Светлая сторона\12 Колыбельная района.wav
     Длина предзазора  0:00:02.00
     Пиковый уровень 100.0 %
     Скорость извлечения 8.2 X
     Качество трека 100.0 %
     CRC теста 11C27AA2
     CRC копии 11C27AA2
     Трек не обнаружен в базе AccurateRip
     Копирование... OK
Трек 13
     Имя файла D:\не удалять!!\Легенды Про... - Две Стороны Одной Медали\Светлая сторона\13 Воздух.wav
     Длина предзазора  0:00:02.00
     Пиковый уровень 100.0 %
     Скорость извлечения 8.7 X
     Качество трека 100.0 %
     CRC теста 48864323
     CRC копии 48864323
     Трек не обнаружен в базе AccurateRip
     Копирование... OK
Трек 14
     Имя файла D:\не удалять!!\Легенды Про... - Две Стороны Одной Медали\Светлая сторона\14 Виною всему слова.wav
     Длина предзазора  0:00:02.00
     Пиковый уровень 100.0 %
     Скорость извлечения 8.7 X
     Качество трека 100.0 %
     CRC теста 4EE2D40D
     CRC копии 4EE2D40D
     Трек не обнаружен в базе AccurateRip
     Копирование... OK
Трек 15
     Имя файла D:\не удалять!!\Легенды Про... - Две Стороны Одной Медали\Светлая сторона\15 Не последний трек.wav
     Длина предзазора  0:00:02.00
     Пиковый уровень 100.0 %
     Скорость извлечения 8.8 X
     Качество трека 100.0 %
     CRC теста C0182E79
     CRC копии C0182E79
     Трек не обнаружен в базе AccurateRip
     Копирование... OK
Ни одного трека нет в базе AccurateRip
Ошибок не произошло
Конец отчёта

CD 2

Код:
Exact Audio Copy V1.0 beta 3 from 29. August 2011
Отчёт EAC об извлечении, выполненном 3. марта 2013, 20:08
Легенды Про... / Две Стороны Одной Медали
Дисковод: Optiarc DVD RW AD-7280S   Adapter: 0  ID: 0
Режим чтения                 : Достоверность
Использование точного потока : Да
Отключение кэша аудио        : Да
Использование указателей C2  : Нет
Коррекция смещения при чтении                     : 48
Способность читать области Lead-in и Lead-out     : Нет
Заполнение пропущенных сэмплов тишиной            : Да
Удаление блоков с тишиной в начале и конце        : Нет
При вычислениях CRC использовались нулевые сэмплы : Да
Интерфейс                                         : Встроенный Win32-интерфейс для Win NT/2000
Обработка зазоров                                 : Добавлено к предыдущему треку
Выходной формат          : Пользовательский кодировщик
Выбранный битрейт        : 128 kBit/s
Качество                 : Высокий
Добавление ID3-тега      : Нет
Утилита сжатия           : C:\Program Files (x86)\FLAC\flac.exe
Дополнительные параметры :  -V -8 -T "Genre=%genre%" -T "Artist=%artist%" -T "Title=%title%" -T "Album=%albumtitle%" -T "Date=%year%" -T "Tracknumber=%tracknr%" -T "Comment=%comment%" %source%
TOC извлечённого CD
     Трек |   Старт  | Длительность | Начальный сектор | Конечный сектор
    ---------------------------------------------------------------------
       1  |  0:00.00 |    3:18.10   |           0      |      14859
       2  |  3:18.10 |    3:34.10   |       14860      |      30919
       3  |  6:52.20 |    4:36.70   |       30920      |      51689
       4  | 11:29.15 |    3:31.58   |       51690      |      67572
       5  | 15:00.73 |    3:21.02   |       67573      |      82649
       6  | 18:22.00 |    3:59.66   |       82650      |     100640
       7  | 22:21.66 |    3:15.05   |      100641      |     115270
       8  | 25:36.71 |    3:02.17   |      115271      |     128937
       9  | 28:39.13 |    4:00.00   |      128938      |     146937
      10  | 32:39.13 |    3:14.59   |      146938      |     161546
      11  | 35:53.72 |    5:49.74   |      161547      |     187795
      12  | 41:43.71 |    3:30.31   |      187796      |     203576
      13  | 45:14.27 |    3:38.30   |      203577      |     219956
      14  | 48:52.57 |    5:42.01   |      219957      |     245607
      15  | 54:34.58 |    3:45.00   |      245608      |     262482
Трек  1
     Имя файла D:\не удалять!!\Легенды Про... - Две Стороны Одной Медали\Тёмная сторона\01 Оппозиция молчанию.wav
     Длина предзазора  0:00:02.00
     Пиковый уровень 100.0 %
     Скорость извлечения 2.2 X
     Качество трека 100.0 %
     CRC теста 4B5FD220
     CRC копии 4B5FD220
     Трек не обнаружен в базе AccurateRip
     Копирование... OK
Трек  2
     Имя файла D:\не удалять!!\Легенды Про... - Две Стороны Одной Медали\Тёмная сторона\02 Побег.wav
     Длина предзазора  0:00:02.00
     Пиковый уровень 100.0 %
     Скорость извлечения 2.2 X
     Качество трека 99.9 %
     CRC теста 97AED36E
     CRC копии 97AED36E
     Трек не обнаружен в базе AccurateRip
     Копирование... OK
Трек  3
     Имя файла D:\не удалять!!\Легенды Про... - Две Стороны Одной Медали\Тёмная сторона\03 Телек.wav
     Длина предзазора  0:00:02.00
     Пиковый уровень 98.8 %
     Скорость извлечения 2.8 X
     Качество трека 100.0 %
     CRC теста DA8F92CF
     CRC копии DA8F92CF
     Трек не обнаружен в базе AccurateRip
     Копирование... OK
Трек  4
     Имя файла D:\не удалять!!\Легенды Про... - Две Стороны Одной Медали\Тёмная сторона\04 Гарри.wav
     Длина предзазора  0:00:02.00
     Пиковый уровень 100.0 %
     Скорость извлечения 3.0 X
     Качество трека 100.0 %
     CRC теста A6089951
     CRC копии A6089951
     Трек не обнаружен в базе AccurateRip
     Копирование... OK
Трек  5
     Имя файла D:\не удалять!!\Легенды Про... - Две Стороны Одной Медали\Тёмная сторона\05 Go down.wav
     Длина предзазора  0:00:02.00
     Пиковый уровень 100.0 %
     Скорость извлечения 3.1 X
     Качество трека 100.0 %
     CRC теста 2C92B048
     CRC копии 2C92B048
     Трек не обнаружен в базе AccurateRip
     Копирование... OK
Трек  6
     Имя файла D:\не удалять!!\Легенды Про... - Две Стороны Одной Медали\Тёмная сторона\06 Fuck dat.wav
     Длина предзазора  0:00:02.00
     Пиковый уровень 100.0 %
     Скорость извлечения 3.4 X
     Качество трека 100.0 %
     CRC теста 164263B4
     CRC копии 164263B4
     Трек не обнаружен в базе AccurateRip
     Копирование... OK
Трек  7
     Имя файла D:\не удалять!!\Легенды Про... - Две Стороны Одной Медали\Тёмная сторона\07 X.wav
     Длина предзазора  0:00:02.00
     Пиковый уровень 100.0 %
     Скорость извлечения 3.4 X
     Качество трека 100.0 %
     CRC теста 177CC7B8
     CRC копии 177CC7B8
     Трек не обнаружен в базе AccurateRip
     Копирование... OK
Трек  8
     Имя файла D:\не удалять!!\Легенды Про... - Две Стороны Одной Медали\Тёмная сторона\08 Хорошо.wav
     Длина предзазора  0:00:02.00
     Пиковый уровень 100.0 %
     Скорость извлечения 3.1 X
     Качество трека 99.9 %
     CRC теста A2D64420
     CRC копии A2D64420
     Трек не обнаружен в базе AccurateRip
     Копирование... OK
Трек  9
     Имя файла D:\не удалять!!\Легенды Про... - Две Стороны Одной Медали\Тёмная сторона\09 Бесконечная пати.wav
     Длина предзазора  0:00:02.00
     Пиковый уровень 98.8 %
     Скорость извлечения 3.4 X
     Качество трека 99.9 %
     CRC теста DC75F85B
     CRC копии DC75F85B
     Трек не обнаружен в базе AccurateRip
     Копирование... OK
Трек 10
     Имя файла D:\не удалять!!\Легенды Про... - Две Стороны Одной Медали\Тёмная сторона\10 Почему пустеют улицы.wav
     Длина предзазора  0:00:02.00
     Пиковый уровень 100.0 %
     Скорость извлечения 3.8 X
     Качество трека 100.0 %
     CRC теста 3B3581A3
     CRC копии 3B3581A3
     Трек не обнаружен в базе AccurateRip
     Копирование... OK
Трек 11
     Имя файла D:\не удалять!!\Легенды Про... - Две Стороны Одной Медали\Тёмная сторона\11 Дверь.wav
     Длина предзазора  0:00:02.00
     Пиковый уровень 100.0 %
     Скорость извлечения 4.3 X
     Качество трека 100.0 %
     CRC теста AFD63A19
     CRC копии AFD63A19
     Трек не обнаружен в базе AccurateRip
     Копирование... OK
Трек 12
     Имя файла D:\не удалять!!\Легенды Про... - Две Стороны Одной Медали\Тёмная сторона\12 Гиганты слова.wav
     Длина предзазора  0:00:02.00
     Пиковый уровень 100.0 %
     Скорость извлечения 4.2 X
     Качество трека 100.0 %
     CRC теста 7705157D
     CRC копии 7705157D
     Трек не обнаружен в базе AccurateRip
     Копирование... OK
Трек 13
     Имя файла D:\не удалять!!\Легенды Про... - Две Стороны Одной Медали\Тёмная сторона\13 Толпы (feat. Искра).wav
     Длина предзазора  0:00:02.00
     Пиковый уровень 100.0 %
     Скорость извлечения 4.4 X
     Качество трека 100.0 %
     CRC теста C05817AF
     CRC копии C05817AF
     Трек не обнаружен в базе AccurateRip
     Копирование... OK
Трек 14
     Имя файла D:\не удалять!!\Легенды Про... - Две Стороны Одной Медали\Тёмная сторона\14 Одеяло (feat. iZReal).wav
     Длина предзазора  0:00:02.00
     Пиковый уровень 98.8 %
     Скорость извлечения 4.8 X
     Качество трека 100.0 %
     CRC теста 6300F4BA
     CRC копии 6300F4BA
     Трек не обнаружен в базе AccurateRip
     Копирование... OK
Трек 15
     Имя файла D:\не удалять!!\Легенды Про... - Две Стороны Одной Медали\Тёмная сторона\15 Снова.wav
     Длина предзазора  0:00:02.00
     Пиковый уровень 100.0 %
     Скорость извлечения 4.7 X
     Качество трека 100.0 %
     CRC теста A4E3811F
     CRC копии A4E3811F
     Трек не обнаружен в базе AccurateRip
     Копирование... OK
Ни одного трека нет в базе AccurateRip
Ошибок не произошло
Конец отчёта

содержание индексной карты *cue

CD 1

Код:
REM GENRE Rap
REM DATE 2013
REM DISCID CA0EAA0F
REM COMMENT "ExactAudioCopy v1.0b3"
PERFORMER "Легенды Про..."
TITLE "Две Стороны Одной Медали"
FILE "01 Мои года.wav" WAVE
  TRACK 01 AUDIO
    TITLE "Мои года"
    PERFORMER "Легенды Про..."
    FLAGS DCP
    INDEX 01 00:00:00
  TRACK 02 AUDIO
    TITLE "Громкие разговоры"
    PERFORMER "Легенды Про..."
    FLAGS DCP
    INDEX 00 04:50:19
FILE "02 Громкие разговоры.wav" WAVE
    INDEX 01 00:00:00
  TRACK 03 AUDIO
    TITLE "Бутерброд"
    PERFORMER "Легенды Про..."
    FLAGS DCP
    INDEX 00 04:03:50
FILE "03 Бутерброд.wav" WAVE
    INDEX 01 00:00:00
  TRACK 04 AUDIO
    TITLE "Рингтон"
    PERFORMER "Легенды Про..."
    FLAGS DCP
    INDEX 00 02:48:24
FILE "04 Рингтон.wav" WAVE
    INDEX 01 00:00:00
  TRACK 05 AUDIO
    TITLE "Повод смириться"
    PERFORMER "Легенды Про..."
    FLAGS DCP
    INDEX 00 03:01:32
FILE "05 Повод смириться.wav" WAVE
    INDEX 01 00:00:00
  TRACK 06 AUDIO
    TITLE "Somebody's love"
    PERFORMER "Легенды Про..."
    FLAGS DCP
    INDEX 00 02:56:27
FILE "06 Somebody's love.wav" WAVE
    INDEX 01 00:00:00
  TRACK 07 AUDIO
    TITLE "Кто знал"
    PERFORMER "Легенды Про..."
    FLAGS DCP
    INDEX 00 04:36:08
FILE "07 Кто знал.wav" WAVE
    INDEX 01 00:00:00
  TRACK 08 AUDIO
    TITLE "Космос"
    PERFORMER "Легенды Про..."
    FLAGS DCP
    INDEX 00 04:21:30
FILE "08 Космос.wav" WAVE
    INDEX 01 00:00:00
  TRACK 09 AUDIO
    TITLE "Лодка"
    PERFORMER "Легенды Про..."
    FLAGS DCP
    INDEX 00 06:05:04
FILE "09 Лодка.wav" WAVE
    INDEX 01 00:00:00
  TRACK 10 AUDIO
    TITLE "Вороны"
    PERFORMER "Легенды Про..."
    FLAGS DCP
    INDEX 00 04:10:06
FILE "10 Вороны.wav" WAVE
    INDEX 01 00:00:00
  TRACK 11 AUDIO
    TITLE "Прости"
    PERFORMER "Легенды Про..."
    FLAGS DCP
    INDEX 00 03:53:63
FILE "11 Прости.wav" WAVE
    INDEX 01 00:00:00
  TRACK 12 AUDIO
    TITLE "Колыбельная района"
    PERFORMER "Легенды Про..."
    FLAGS DCP
    INDEX 00 03:26:31
FILE "12 Колыбельная района.wav" WAVE
    INDEX 01 00:00:00
  TRACK 13 AUDIO
    TITLE "Воздух"
    PERFORMER "Легенды Про..."
    FLAGS DCP
    INDEX 00 04:09:66
FILE "13 Воздух.wav" WAVE
    INDEX 01 00:00:00
  TRACK 14 AUDIO
    TITLE "Виною всему слова"
    PERFORMER "Легенды Про..."
    FLAGS DCP
    INDEX 00 05:21:23
FILE "14 Виною всему слова.wav" WAVE
    INDEX 01 00:00:00
  TRACK 15 AUDIO
    TITLE "Не последний трек"
    PERFORMER "Легенды Про..."
    FLAGS DCP
    INDEX 00 04:07:60
FILE "15 Не последний трек.wav" WAVE
    INDEX 01 00:00:00

CD 2

Код:
REM GENRE Rap
REM DATE 2013
REM DISCID B30DAB0F
REM COMMENT "ExactAudioCopy v1.0b3"
PERFORMER "Легенды Про..."
TITLE "Две Стороны Одной Медали"
FILE "01 Оппозиция молчанию.wav" WAVE
  TRACK 01 AUDIO
    TITLE "Оппозиция молчанию"
    PERFORMER "Легенды Про..."
    FLAGS DCP
    INDEX 01 00:00:00
  TRACK 02 AUDIO
    TITLE "Побег"
    PERFORMER "Легенды Про..."
    FLAGS DCP
    INDEX 00 03:16:10
FILE "02 Побег.wav" WAVE
    INDEX 01 00:00:00
  TRACK 03 AUDIO
    TITLE "Телек"
    PERFORMER "Легенды Про..."
    FLAGS DCP
    INDEX 00 03:32:10
FILE "03 Телек.wav" WAVE
    INDEX 01 00:00:00
  TRACK 04 AUDIO
    TITLE "Гарри"
    PERFORMER "Легенды Про..."
    FLAGS DCP
    INDEX 00 04:34:70
FILE "04 Гарри.wav" WAVE
    INDEX 01 00:00:00
  TRACK 05 AUDIO
    TITLE "Go down"
    PERFORMER "Легенды Про..."
    FLAGS DCP
    INDEX 00 03:29:58
FILE "05 Go down.wav" WAVE
    INDEX 01 00:00:00
  TRACK 06 AUDIO
    TITLE "Fuck dat"
    PERFORMER "Легенды Про..."
    FLAGS DCP
    INDEX 00 03:19:02
FILE "06 Fuck dat.wav" WAVE
    INDEX 01 00:00:00
  TRACK 07 AUDIO
    TITLE "X"
    PERFORMER "Легенды Про..."
    FLAGS DCP
    INDEX 00 03:57:66
FILE "07 X.wav" WAVE
    INDEX 01 00:00:00
  TRACK 08 AUDIO
    TITLE "Хорошо"
    PERFORMER "Легенды Про..."
    FLAGS DCP
    INDEX 00 03:13:05
FILE "08 Хорошо.wav" WAVE
    INDEX 01 00:00:00
  TRACK 09 AUDIO
    TITLE "Бесконечная пати"
    PERFORMER "Легенды Про..."
    FLAGS DCP
    INDEX 00 03:00:17
FILE "09 Бесконечная пати.wav" WAVE
    INDEX 01 00:00:00
  TRACK 10 AUDIO
    TITLE "Почему пустеют улицы"
    PERFORMER "Легенды Про..."
    FLAGS DCP
    INDEX 00 03:58:00
FILE "10 Почему пустеют улицы.wav" WAVE
    INDEX 01 00:00:00
  TRACK 11 AUDIO
    TITLE "Дверь"
    PERFORMER "Легенды Про..."
    FLAGS DCP
    INDEX 00 03:12:59
FILE "11 Дверь.wav" WAVE
    INDEX 01 00:00:00
  TRACK 12 AUDIO
    TITLE "Гиганты слова"
    PERFORMER "Легенды Про..."
    FLAGS DCP
    INDEX 00 05:47:74
FILE "12 Гиганты слова.wav" WAVE
    INDEX 01 00:00:00
  TRACK 13 AUDIO
    TITLE "Толпы (feat. Искра)"
    PERFORMER "Легенды Про..."
    FLAGS DCP
    INDEX 00 03:28:31
FILE "13 Толпы (feat. Искра).wav" WAVE
    INDEX 01 00:00:00
  TRACK 14 AUDIO
    TITLE "Одеяло (feat. iZReal)"
    PERFORMER "Легенды Про..."
    FLAGS DCP
    INDEX 00 03:36:30
FILE "14 Одеяло (feat. iZReal).wav" WAVE
    INDEX 01 00:00:00
  TRACK 15 AUDIO
    TITLE "Снова"
    PERFORMER "Легенды Про..."
    FLAGS DCP
    INDEX 00 05:40:01
FILE "15 Снова.wav" WAVE
    INDEX 01 00:00:00
--
 

Текущее время: Сегодня 15:25

Часовой пояс: GMT + 3