Сегодня идет свободное скачивание без начисления Download

Результатов поиска: 10

Автор Сообщение

UndegraundMen

Пост 07-Окт-2013 21:46

[Цитировать]

Yes - Fragile (1971)- Жанр: Art-Rock
Год выпуска: 1971
Label: Atlantic
Catalog#: K 50009
Страна-производитель: UK
Аудио кодек: APE
Тип рипа: image+.cue
Формат записи: 24/96
Формат раздачи: 24/96
Продолжительность: 00:41:10
Треклист:
Side1
01. Roundabout (8:36)
02. Cans And Brahms (1:43)
03. We Have Heaven (1:29)
04. South Side Of The Sky (8:05)
Side2
01. Five Per Cent For Nothing (0:37)
02. Long Distance Runaround (3:34)
03. The Fish (Shindleria Praematurus) (2:39)
04. Mood For A Day (3:03)
05. Heart Of The Sunrise (11:24)
  • Personnel:
  • Jon Anderson – vocals
  • Bill Bruford – drums, percussion
  • Steve Howe – electric and acoustic guitars, backing vocals
  • Chris Squire – bass guitars, backing vocals
  • Rick Wakeman – Hammond organ, piano, RMI 368 Electra-Piano and Harpsichord, Mellotron, Moog synthesizer

Тех. информация:

-Источник оцифровки: NoOneIsThere
Код класса состояния винила: Ex
Устройство воспроизведения: Technics SL-1500 + Shure M24H + Type IV
Фонокорректор: 2-x блочный, гибридный (Mullard ECC83 + E88CC)
АЦП: SB E-MU 0404 USB
Программа-оцифровщик: MAGIX Samplitude 10
Обработка: Нет-

Спектр, АЧХ и уровень записи

   

Mediainfo

Код:
Общее
Полное имя                               : D:\MEDIA\AUDIO\Yes - Fragile (1971)\Yes - Fragile - 1971.ape
Формат                                   : Monkey's Audio
Размер файла                             : 862 Мбайт
Продолжительность                        : 41 м.
Общий поток                              : 2929 Кбит/сек
Аудио
Формат                                   : Monkey's Audio
Продолжительность                        : 41 м.
Битрейт                                  : 2929 Кбит/сек
Каналы                                   : 2 канала
Частота                                  : 96,0 КГц
Битовая глубина                          : 24 бит
Метод сжатия                             : Без потерь
Степень сжатия                           : 1.573
Размер потока                            : 862 Мбайт (100%)
Настройки программы                      : Normal

Label:

   
Время раздачи: с 08:00 до 24:00

Dracula

Пост 20-Май-2013 07:15

[Цитировать]

Топик был перенесен из форума Операционные системы в форум Alternative


RUGUI

UndegraundMen

Пост 20-Май-2013 05:13

[Цитировать]

Graham Coxon - A+E (2012)- Год: 2012
Жанр: Alternative rock, Indie rock
Продолжительность: 00:47:59
Лейбл: EMI Music Japan
Каталожный №: TOCP-71278
Сканы: Комплект
Кодек: FLAC (image+.cue)
Битрейт: Lossless
Трек лист:
01. Advice [2:35]
02. City Hall [4:20]
03. What'll It Take? [4:30]
04. Meet and Drink and Pollinate [5:22]
05. The Truth [4:44]
06. Seven Naked Valleys [5:45]
07. Running for Your Life [4:56]
08. Bah Singer [4:01]
09. Knife in the Cast [6:36]
10. Ooh, Yeh Yeh [5:12]
-

Содержимое индексной карты (.cue):

Код:
REM GENRE BritPop
REM DATE 2012
REM DISCID 870B3F0A
REM COMMENT "ExactAudioCopy v1.0b3"
PERFORMER "Graham Coxon"
TITLE "A+E"
FILE "Graham Coxon - A+E.flac" WAVE
  TRACK 01 AUDIO
    TITLE "Advice"
    PERFORMER "Graham Coxon"
    INDEX 01 00:00:00
  TRACK 02 AUDIO
    TITLE "City Hall"
    PERFORMER "Graham Coxon"
    INDEX 01 02:34:47
  TRACK 03 AUDIO
    TITLE "What'll It Take?"
    PERFORMER "Graham Coxon"
    INDEX 01 06:54:32
  TRACK 04 AUDIO
    TITLE "Meet and Drink and Pollinate"
    PERFORMER "Graham Coxon"
    INDEX 01 11:24:25
  TRACK 05 AUDIO
    TITLE "The Truth"
    PERFORMER "Graham Coxon"
    INDEX 01 16:46:12
  TRACK 06 AUDIO
    TITLE "Seven Naked Valleys"
    PERFORMER "Graham Coxon"
    INDEX 01 21:29:52
  TRACK 07 AUDIO
    TITLE "Running for Your Life"
    PERFORMER "Graham Coxon"
    INDEX 01 27:15:14
  TRACK 08 AUDIO
    TITLE "Bah Singer"
    PERFORMER "Graham Coxon"
    INDEX 01 32:11:23
  TRACK 09 AUDIO
    TITLE "Knife in the Cast"
    PERFORMER "Graham Coxon"
    INDEX 00 36:09:33
    INDEX 01 36:11:69
  TRACK 10 AUDIO
    TITLE "Ooh, Yeh Yeh"
    PERFORMER "Graham Coxon"
    INDEX 01 42:47:38

Отчёт ЕАС:

Код:
Exact Audio Copy V1.0 beta 3 from 29. August 2011
EAC extraction logfile from 6. April 2013, 14:52
Graham Coxon / A+E
Used drive  : TEAC    DV-W516GD   Adapter: 0  ID: 0
Read mode               : Secure
Utilize accurate stream : Yes
Defeat audio cache      : Yes
Make use of C2 pointers : No
Read offset correction                      : 6
Overread into Lead-In and Lead-Out          : No
Fill up missing offset samples with silence : Yes
Delete leading and trailing silent blocks   : No
Null samples used in CRC calculations       : Yes
Used interface                              : Installed external ASPI interface
Used output format : Internal WAV Routines
Sample format      : 44.100 Hz; 16 Bit; Stereo
TOC of the extracted CD
     Track |   Start  |  Length  | Start sector | End sector
    ---------------------------------------------------------
        1  |  0:00.00 |  2:34.47 |         0    |    11596
        2  |  2:34.47 |  4:19.60 |     11597    |    31081
        3  |  6:54.32 |  4:29.68 |     31082    |    51324
        4  | 11:24.25 |  5:21.62 |     51325    |    75461
        5  | 16:46.12 |  4:43.40 |     75462    |    96726
        6  | 21:29.52 |  5:45.37 |     96727    |   122638
        7  | 27:15.14 |  4:56.09 |    122639    |   144847
        8  | 32:11.23 |  4:00.46 |    144848    |   162893
        9  | 36:11.69 |  6:35.44 |    162894    |   192562
       10  | 42:47.38 |  5:11.53 |    192563    |   215940
Range status and errors
Selected range
     Filename D:\Media\Graham Coxon - A+E\Graham Coxon - A+E.wav
     Peak level 98.8 %
     Extraction speed 2.4 X
     Range quality 100.0 %
     Test CRC CB62A353
     Copy CRC CB62A353
     Copy OK
No errors occurred
AccurateRip summary
Track  1  cannot be verified as accurate (confidence 5)  [B519FFAE], AccurateRip returned [C3ACE60B]  (AR v2)
Track  2  cannot be verified as accurate (confidence 5)  [CFF16C18], AccurateRip returned [F8A10E8F]  (AR v2)
Track  3  cannot be verified as accurate (confidence 5)  [8E25F23B], AccurateRip returned [6E3C4DE3]  (AR v2)
Track  4  cannot be verified as accurate (confidence 5)  [866A85B5], AccurateRip returned [A64ED793]  (AR v2)
Track  5  cannot be verified as accurate (confidence 5)  [69245BFC], AccurateRip returned [5BE78EDA]  (AR v2)
Track  6  cannot be verified as accurate (confidence 5)  [80C36BEF], AccurateRip returned [9C8FFE24]  (AR v2)
Track  7  cannot be verified as accurate (confidence 5)  [E2114894], AccurateRip returned [D769207F]  (AR v2)
Track  8  cannot be verified as accurate (confidence 5)  [8829A25A], AccurateRip returned [AD794346]  (AR v2)
Track  9  cannot be verified as accurate (confidence 5)  [7C1BD8B7], AccurateRip returned [827C1065]  (AR v2)
Track 10  cannot be verified as accurate (confidence 5)  [6E86D1B3], AccurateRip returned [88E7A58B]  (AR v2)
No tracks could be verified as accurate
You may have a different pressing from the one(s) in the database
End of status report
---- CUETools DB Plugin V2.1.3
[CTDB TOCID: l9pHbq1IWA013_I4Sh_iMoufUrE-] database access error: Время ожидания операции истекло
==== Log checksum 3B7E993D576591A46B5AFDB5AB5C4D378D969D24FC52FCB5FB28AA2BFB65C7CB ====

Отчёт auCDtect Task Manager:

Код:
-----------------------
DON'T MODIFY THIS FILE
-----------------------
PERFORMER: auCDtect Task Manager, ver. 1.5.1RC3 build 1.5.1.4
Copyright (c) 2008-2010 y-soft. All rights reserved
http://y-soft.org
ANALYZER: auCDtect: CD records authenticity detector, version 0.8.2
Copyright (c) 2004 Oleg Berngardt. All rights reserved.
Copyright (c) 2004 Alexander Djourik. All rights reserved.
FILE: Graham Coxon - A+E.flac
  Size: 349876652 Hash: 3B293A959B3B21FAC8ABE61FDA88F210 Accuracy: -m0
  Conclusion: CDDA 99%
  Signature: DDDE7619E9BC944D2DC107DA80370488833314B5
-Время раздачи: Круглосуточно (до первых сидов, далее по возможности)-
Поглощение/вытеснение
Только с согласия релизера

J_Man

Koralina

Пост 23-Ноя-2011 11:23

[Цитировать]

Garbage - Platinum Collection '2000 "Greatest Hits" Жанр: Alternative
Год выпуска диска: 2000
Производитель диска: n/a
Аудио кодек: FLAC
Тип рипа: tracks+.cue
Битрейт аудио: lossless
Продолжительность: 01:13:24
01. The World Is Not Enough [0:03:57.86]
02. When I Grow Up [0:03:23.38]
03. Milk [0:03:54.17]
04. Special [0:03:44.06]
05. Stupid Girl [0:04:19.08]
06. You Look So Fine [0:05:24.06]
07. Only Happy When Tt Rains [0:03:56.40]
08. The Trick Is To Keep Breatthing [0:04:12.04]
09. Queer [0:04:36.81]
10. Push It [0:04:02.13]
11. 1# Crush (from Romeo & Juliet) [0:04:45.74]
12. I Think I'm Paranoid [0:03:37.73]
13. Thirteen [0:03:29.26]
14. 13 X Forever [0:03:54.73]
15. Medication [0:04:07.45]
16. Tornado [0:03:42.62]
17. Deadwood [0:04:21.13]
18. Supervixen [0:03:55.48]

EAC отчёт

Exact Audio Copy V0.99 prebeta 5 from 4. May 2009
Отчёт EAC об извлечении, выполненном 11. ноября 2009, 14:12
Garbage / Platinum Collection' 2000
Дисковод: Optiarc DVD RW AD-7173A Adapter: 4 ID: 1
Режим чтения : Достоверность
Использование точного потока : Да
Отключение кэша аудио : Да
Использование указателей C2 : Нет
Коррекция смещения при чтении : 48
Способность читать области Lead-in и Lead-out : Нет
Заполнение пропущенных сэмплов тишиной : Да
Удаление блоков с тишиной в начале и конце : Нет
При вычислениях CRC использовались нулевые сэмплы : Да
Интерфейс : Встроенный Win32-интерфейс для Win NT/2000
Обработка зазоров : Добавлено к предыдущему треку
Выходной формат : Пользовательский кодировщик
Выбранный битрейт : 1024 kBit/s
Качество : Высокий
Добавление ID3-тэга : Нет
Утилита сжатия : C:\Program Files\Exact Audio Copy\FLAC\FLAC.EXE
Дополнительные параметры : -8 -V -T "ARTIST=%a" -T "TITLE=%t" -T "ALBUM=%g" -T "DATE=%y" -T "TRACKNUMBER=%n" -T "GENRE=%m" -T "COMMENT=%e" %s -o %d
TOC извлечённого CD
Трек | Старт | Длительность | Начальный сектор | Конечный сектор
---------------------------------------------------------------------
1 | 0:00.00 | 3:57.65 | 0 | 17839
2 | 3:57.65 | 3:23.29 | 17840 | 33093
3 | 7:21.19 | 3:54.13 | 33094 | 50656
4 | 11:15.32 | 3:44.05 | 50657 | 67461
5 | 14:59.37 | 4:19.06 | 67462 | 86892
6 | 19:18.43 | 5:24.05 | 86893 | 111197
7 | 24:42.48 | 3:56.30 | 111198 | 128927
8 | 28:39.03 | 4:12.03 | 128928 | 147830
9 | 32:51.06 | 4:36.61 | 147831 | 168591
10 | 37:27.67 | 4:02.10 | 168592 | 186751
11 | 41:30.02 | 4:45.56 | 186752 | 208182
12 | 46:15.58 | 3:37.55 | 208183 | 224512
13 | 49:53.38 | 3:29.20 | 224513 | 240207
14 | 53:22.58 | 3:54.55 | 240208 | 257812
15 | 57:17.38 | 4:07.34 | 257813 | 276371
16 | 61:24.72 | 3:42.47 | 276372 | 293068
17 | 65:07.44 | 4:21.10 | 293069 | 312653
18 | 69:28.54 | 3:55.36 | 312654 | 330314
Трек 1
Имя файла C:\Users\SMITH\Music\01 - The World Is Not Enough.wav
Длина предзазора 0:00:02.00
Пиковый уровень 98.8 %
Качество трека 100.0 %
CRC копии 6BEA00AF
Трек не обнаружен в базе AccurateRip
Копирование... OK
Трек 2
Имя файла C:\Users\SMITH\Music\02 - When I Grow Up.wav
Пиковый уровень 100.0 %
Качество трека 100.0 %
CRC копии 0755E105
Трек не обнаружен в базе AccurateRip
Копирование... OK
Трек 3
Имя файла C:\Users\SMITH\Music\03 - Milk.wav
Пиковый уровень 99.9 %
Качество трека 100.0 %
CRC копии 8ADF163D
Трек не обнаружен в базе AccurateRip
Копирование... OK
Трек 4
Имя файла C:\Users\SMITH\Music\04 - Special.wav
Пиковый уровень 100.0 %
Качество трека 100.0 %
CRC копии EB0A4CD6
Трек не обнаружен в базе AccurateRip
Копирование... OK
Трек 5
Имя файла C:\Users\SMITH\Music\05 - Stupid Girl.wav
Пиковый уровень 100.0 %
Качество трека 100.0 %
CRC копии B76CA800
Трек не обнаружен в базе AccurateRip
Копирование... OK
Трек 6
Имя файла C:\Users\SMITH\Music\06 - You Look So Fine.wav
Пиковый уровень 100.0 %
Качество трека 99.9 %
CRC копии E0B978F9
Трек не обнаружен в базе AccurateRip
Копирование... OK
Трек 7
Имя файла C:\Users\SMITH\Music\07 - Only Happy When Tt Rains.wav
Пиковый уровень 99.9 %
Качество трека 100.0 %
CRC копии AAF6610A
Трек не обнаружен в базе AccurateRip
Копирование... OK
Трек 8
Имя файла C:\Users\SMITH\Music\08 - The Trick Is To Keep Breatthing.wav
Пиковый уровень 100.0 %
Качество трека 99.9 %
CRC копии 574C09AC
Трек не обнаружен в базе AccurateRip
Копирование... OK
Трек 9
Имя файла C:\Users\SMITH\Music\09 - Queer.wav
Пиковый уровень 100.0 %
Качество трека 100.0 %
CRC копии B3874AFC
Трек не обнаружен в базе AccurateRip
Копирование... OK
Трек 10
Имя файла C:\Users\SMITH\Music\10 - Push It.wav
Пиковый уровень 100.0 %
Качество трека 100.0 %
CRC копии 329BCC96
Трек не обнаружен в базе AccurateRip
Копирование... OK
Трек 11
Имя файла C:\Users\SMITH\Music\11 - 1# Crush (from Romeo & Juliet).wav
Пиковый уровень 99.0 %
Качество трека 100.0 %
CRC копии 848E1F8C
Трек не обнаружен в базе AccurateRip
Копирование... OK
Трек 12
Имя файла C:\Users\SMITH\Music\12 - I Think I'm Paranoid.wav
Пиковый уровень 100.0 %
Качество трека 100.0 %
CRC копии 66E71B08
Трек не обнаружен в базе AccurateRip
Копирование... OK
Трек 13
Имя файла C:\Users\SMITH\Music\13 - Thirteen.wav
Пиковый уровень 97.7 %
Качество трека 100.0 %
CRC копии CAA6F97C
Трек не обнаружен в базе AccurateRip
Копирование... OK
Трек 14
Имя файла C:\Users\SMITH\Music\14 - 13 X Forever.wav
Пиковый уровень 96.1 %
Качество трека 100.0 %
CRC копии 6794B3BA
Трек не обнаружен в базе AccurateRip
Копирование... OK
Трек 15
Имя файла C:\Users\SMITH\Music\15 - Medication.wav
Пиковый уровень 100.0 %
Качество трека 100.0 %
CRC копии 9B686DAB
Трек не обнаружен в базе AccurateRip
Копирование... OK
Трек 16
Имя файла C:\Users\SMITH\Music\16 - Tornado.wav
Пиковый уровень 98.8 %
Качество трека 100.0 %
CRC копии A891534D
Трек не обнаружен в базе AccurateRip
Копирование... OK
Трек 17
Имя файла C:\Users\SMITH\Music\17 - Deadwood.wav
Пиковый уровень 98.8 %
Качество трека 100.0 %
CRC копии 416BE214
Трек не обнаружен в базе AccurateRip
Копирование... OK
Трек 18
Имя файла C:\Users\SMITH\Music\18 - Supervixen.wav
Пиковый уровень 100.0 %
Качество трека 100.0 %
CRC копии AF2C417D
Трек не обнаружен в базе AccurateRip
Копирование... OK
Ни одного трека нет в базе AccurateRip
Ошибок не произошло
Конец отчёта
-

AUDIOCHECKER Log

AUDIOCHECKER v2.0 beta (build 457) - by Dester - opdester@freemail.hu
~~~~~~~~~~~~~~~~~~~~~~~~~~~~~~~~~~
Started at: среда, 11. 11. 2009. - 14:46.39
36 files found
01 -===- C:\Users\SMITH\Music\Platinum Collection' 2000\01 - The World Is Not Enough.flac
Extracted successfully
Conclusion: this track is CDDA with probability 100%
Tempfile successfully deleted.
02 -===- C:\Users\SMITH\Music\Platinum Collection' 2000\02 - When I Grow Up.flac
Extracted successfully
Conclusion: this track is CDDA with probability 100%
Tempfile successfully deleted.
03 -===- C:\Users\SMITH\Music\Platinum Collection' 2000\03 - Milk.flac
Extracted successfully
Conclusion: this track is CDDA with probability 100%
Tempfile successfully deleted.
04 -===- C:\Users\SMITH\Music\Platinum Collection' 2000\04 - Special.flac
Extracted successfully
Conclusion: this track is CDDA with probability 100%
Tempfile successfully deleted.
05 -===- C:\Users\SMITH\Music\Platinum Collection' 2000\05 - Stupid Girl.flac
Extracted successfully
Conclusion: this track is CDDA with probability 99%
Tempfile successfully deleted.
06 -===- C:\Users\SMITH\Music\Platinum Collection' 2000\06 - You Look So Fine.flac
Extracted successfully
Conclusion: this track is CDDA with probability 100%
Tempfile successfully deleted.
07 -===- C:\Users\SMITH\Music\Platinum Collection' 2000\07 - Only Happy When Tt Rains.flac
Extracted successfully
Conclusion: this track is CDDA with probability 100%
Tempfile successfully deleted.
08 -===- C:\Users\SMITH\Music\Platinum Collection' 2000\08 - The Trick Is To Keep Breatthing.flac
Extracted successfully
Conclusion: this track is CDDA with probability 100%
Tempfile successfully deleted.
09 -===- C:\Users\SMITH\Music\Platinum Collection' 2000\09 - Queer.flac
Extracted successfully
Conclusion: this track is CDDA with probability 100%
Tempfile successfully deleted.
10 -===- C:\Users\SMITH\Music\Platinum Collection' 2000\10 - Push It.flac
Extracted successfully
Conclusion: this track is CDDA with probability 99%
Tempfile successfully deleted.
11 -===- C:\Users\SMITH\Music\Platinum Collection' 2000\11 - 1# Crush (from Romeo & Juliet).flac
Extracted successfully
Conclusion: this track is CDDA with probability 100%
Tempfile successfully deleted.
12 -===- C:\Users\SMITH\Music\Platinum Collection' 2000\12 - I Think I'm Paranoid.flac
Extracted successfully
Conclusion: this track is CDDA with probability 100%
Tempfile successfully deleted.
13 -===- C:\Users\SMITH\Music\Platinum Collection' 2000\13 - Thirteen.flac
Extracted successfully
Conclusion: this track is CDDA with probability 100%
Tempfile successfully deleted.
14 -===- C:\Users\SMITH\Music\Platinum Collection' 2000\14 - 13 X Forever.flac
Extracted successfully
Conclusion: this track is CDDA with probability 100%
Tempfile successfully deleted.
15 -===- C:\Users\SMITH\Music\Platinum Collection' 2000\15 - Medication.flac
Extracted successfully
Conclusion: this track is CDDA with probability 100%
Tempfile successfully deleted.
16 -===- C:\Users\SMITH\Music\Platinum Collection' 2000\16 - Tornado.flac
Extracted successfully
Conclusion: this track is CDDA with probability 99%
Tempfile successfully deleted.
17 -===- C:\Users\SMITH\Music\Platinum Collection' 2000\17 - Deadwood.flac
Extracted successfully
Conclusion: this track is CDDA with probability 100%
Tempfile successfully deleted.
18 -===- C:\Users\SMITH\Music\Platinum Collection' 2000\18 - Supervixen.flac
Extracted successfully
Conclusion: this track is CDDA with probability 100%
Tempfile successfully deleted.
Finished at: среда, 11. 11. 2009. - 14:58.54 (operation time: 0:12.15)
-

обложки

YouTube

Nugeiro

Пост 11-Сен-2011 09:03

[Цитировать]

A Day To Remember - Homesick
Жанр: Post Hardcore
Год выпуска диска: 2009
Производитель диска: USA
Аудио кодек: FLAC
Тип рипа: tracks+.cue
Битрейт аудио: lossless
Продолжительность: 40:36
Трэклист:
01. The Downfall Of Us All ( 3:29)
02. My Life For Hire ( 3:33)
03. I'm Made Of Wax, Larry, What Are You Made Of? ( 3:00)
04. NJ Legion Iced Tea ( 3:31)
05. Mr. Highway's Thinking About The End ( 4:15)
06. Have Faith In Me ( 3:08)
07. Welcome To My Family ( 3:00)
08. Homesick ( 3:56)
09. Holdin' It Down For The Underground ( 3:23)
10. You Already Know What You Are ( 1:27)
11. Another Song About The Weekend ( 3:45)
12. If It Means A Lot To You ( 4:03)

Отчёт EAC

Код:
Exact Audio Copy V0.99 prebeta 4 from 23. January 2008
EAC extraction logfile from 2. February 2009, 19:03
A Day To Remember / Homesick
Used drive  : HL-DT-STDVDRW  GSA-S10N6   Adapter: 0  ID: 0
Read mode               : SecureUtilize accurate stream : YesDefeat audio cache      : YesMake use of C2 pointers : No
Read offset correction                      : 667Overread into Lead-In and Lead-Out          : NoFill up missing offset samples with silence : YesDelete leading and trailing silent blocks   : NoNull samples used in CRC calculations       : YesUsed interface                              : Installed external ASPI interfaceGap handling                                : Appended to previous track
Used output format              : User Defined EncoderSelected bitrate                : 768 kBit/sQuality                         : HighAdd ID3 tag                     : NoCommand line compressor         : C:\Program Files\Exact Audio Copy\FLAC\FLAC.EXEAdditional command line options : -8 -A tukey(0.25) -A gauss(0.1875) -b 4096 -V -T "artist=%a" -T "title=%t" -T "album=%g" -T "date=%y" -T "tracknumber=%n" -T "genre=%m" %s --sector-align
TOC of the extracted CD
Track |   Start  |  Length  | Start sector | End sector    ---------------------------------------------------------        1  |  0:00.00 |  3:29.07 |         0    |    15681        2  |  3:29.07 |  3:33.60 |     15682    |    31716        3  |  7:02.67 |  3:00.63 |     31717    |    45279        4  | 10:03.55 |  3:31.10 |     45280    |    61114        5  | 13:34.65 |  4:15.62 |     61115    |    80301        6  | 17:50.52 |  3:08.61 |     80302    |    94462        7  | 20:59.38 |  2:59.70 |     94463    |   107957        8  | 23:59.33 |  3:56.46 |    107958    |   125703        9  | 27:56.04 |  3:23.67 |    125704    |   140995       10  | 31:19.71 |  1:27.39 |    140996    |   147559       11  | 32:47.35 |  3:45.49 |    147560    |   164483       12  | 36:33.09 |  4:03.17 |    164484    |   182725
Track  1
Filename C:\FLACS\A Day To Remember - Homesick [FLAC]\01 The Downfall Of Us All.wav
Pre-gap length  0:00:02.00
Peak level 99.1 %     Track quality 100.0 %     Test CRC 65BC744D     Copy CRC 65BC744D     Track not present in AccurateRip database     Copy OK
Track  2
Filename C:\FLACS\A Day To Remember - Homesick [FLAC]\02 My Life For Hire.wav
Peak level 99.1 %     Track quality 100.0 %     Test CRC CD180436     Copy CRC CD180436     Track not present in AccurateRip database     Copy OK
Track  3
Filename C:\FLACS\A Day To Remember - Homesick [FLAC]\03 I'm Made Of Wax, Larry, What Are You Made Of .wav
Peak level 99.1 %     Track quality 100.0 %     Test CRC DDAFF505     Copy CRC DDAFF505     Track not present in AccurateRip database     Copy OK
Track  4
Filename C:\FLACS\A Day To Remember - Homesick [FLAC]\04 NJ Legion Iced Tea.wav
Peak level 99.1 %     Track quality 100.0 %     Test CRC 26148530     Copy CRC 26148530     Track not present in AccurateRip database     Copy OK
Track  5
Filename C:\FLACS\A Day To Remember - Homesick [FLAC]\05 Mr. Highway's Thinking About The End.wav
Peak level 99.1 %     Track quality 100.0 %     Test CRC 990A8B33     Copy CRC 990A8B33     Track not present in AccurateRip database     Copy OK
Track  6
Filename C:\FLACS\A Day To Remember - Homesick [FLAC]\06 Have Faith In Me.wav
Peak level 99.1 %     Track quality 100.0 %     Test CRC A4ED5230     Copy CRC A4ED5230     Track not present in AccurateRip database     Copy OK
Track  7
Filename C:\FLACS\A Day To Remember - Homesick [FLAC]\07 Welcome To The Family.wav
Peak level 99.1 %     Track quality 100.0 %     Test CRC 94924F19     Copy CRC 94924F19     Track not present in AccurateRip database     Copy OK
Track  8
Filename C:\FLACS\A Day To Remember - Homesick [FLAC]\08 Homesick.wav
Peak level 99.1 %     Track quality 100.0 %     Test CRC D0CF9353     Copy CRC D0CF9353     Track not present in AccurateRip database     Copy OK
Track  9
Filename C:\FLACS\A Day To Remember - Homesick [FLAC]\09 Holdin' It Down For The Underground.wav
Peak level 99.1 %     Track quality 99.9 %     Test CRC 5DED4B61     Copy CRC 5DED4B61     Track not present in AccurateRip database     Copy OK
Track 10
Filename C:\FLACS\A Day To Remember - Homesick [FLAC]\10 You Already Know What You Are.wav
Peak level 99.1 %     Track quality 100.0 %     Test CRC 86C2158B     Copy CRC 86C2158B     Track not present in AccurateRip database     Copy OK
Track 11
Filename C:\FLACS\A Day To Remember - Homesick [FLAC]\11 Another Song About The Weekend.wav
Peak level 99.1 %     Track quality 100.0 %     Test CRC FA900E0C     Copy CRC FA900E0C     Track not present in AccurateRip database     Copy OK
Track 12
Filename C:\FLACS\A Day To Remember - Homesick [FLAC]\12 If It Means A Lot To You.wav
Peak level 99.1 %     Track quality 100.0 %     Test CRC 281A73AA     Copy CRC 281A73AA     Track not present in AccurateRip database     Copy OK
None of the tracks are present in the AccurateRip database
No errors occurred
End of status report

Nugeiro

Пост 11-Сен-2011 08:59

[Цитировать]

Egypt Central - Egypt Central
Жанр: Alternative
Год выпуска диска: 2008
Производитель диска: USA (Fat Lady Music/ILG)
Аудио кодек: FLAC
Тип рипа: tracks+.cue
Битрейт аудио: lossless
Продолжительность: 38:06
Трэклист:
1. Different
2. You Make Me Sick
3. Over And Under
4. Taking You Down
5. Leap Of Faith
6. The Way
7. Push Away
8. Walls Of Innocence
9. Locked And Caged
10. Just Another Lie
11. Home

Отчёт EAC

Код:
EAC extraction logfile from 15. January 2008, 15:10 for CD
Egypt Central / Egypt Central
Used drive : HP DVD Writer 740e Adapter: 2 ID: 0
Read mode : Secure with NO C2, accurate stream, disable cache
Read offset correction : 102
Overread into Lead-In and Lead-Out : No
Used output format : C:\Program Files\FLAC\flac.exe (User Defined Encoder)
192 kBit/s
Additional command line options : -V -8 -T "artist=%a" -T "title=%t" -T "album=%g" -T "date=%y" -T "tracknumber=%n" -T "genre=%m" %s
Other options :
Fill up missing offset samples with silence : Yes
Delete leading and trailing silent blocks : No
Native Win32 interface for Win NT & 2000
Track 1
Filename D:\FlacRip\Egypt Central - Egypt Central (2008)\01 - Different.wav
Pre-gap length 0:00:02.00
Peak level 99.9 %
Track quality 100.0 %
Test CRC A160550A
Copy CRC A160550A
Copy OK
Track 2
Filename D:\FlacRip\Egypt Central - Egypt Central (2008)\02 - You Make Me Sick.wav
Peak level 99.9 %
Track quality 100.0 %
Test CRC 1F65F187
Copy CRC 1F65F187
Copy OK
Track 3
Filename D:\FlacRip\Egypt Central - Egypt Central (2008)\03 - Over And Under.wav
Peak level 97.0 %
Track quality 100.0 %
Test CRC 0585B7B0
Copy CRC 0585B7B0
Copy OK
Track 4
Filename D:\FlacRip\Egypt Central - Egypt Central (2008)\04 - Taking You Down.wav
Peak level 99.9 %
Track quality 99.9 %
Test CRC E22C6913
Copy CRC E22C6913
Copy OK
Track 5
Filename D:\FlacRip\Egypt Central - Egypt Central (2008)\05 - Leap Of Faith.wav
Peak level 100.0 %
Track quality 100.0 %
Test CRC 7FF43A99
Copy CRC 7FF43A99
Copy OK
Track 6
Filename D:\FlacRip\Egypt Central - Egypt Central (2008)\06 - The Way.wav
Peak level 99.9 %
Track quality 100.0 %
Test CRC 06C78B41
Copy CRC 06C78B41
Copy OK
Track 7
Filename D:\FlacRip\Egypt Central - Egypt Central (2008)\07 - Push Away.wav
Peak level 99.9 %
Track quality 100.0 %
Test CRC 5C92FF47
Copy CRC 5C92FF47
Copy OK
Track 8
Filename D:\FlacRip\Egypt Central - Egypt Central (2008)\08 - Walls Of Innocence.wav
Peak level 99.9 %
Track quality 100.0 %
Test CRC 68B85703
Copy CRC 68B85703
Copy OK
Track 9
Filename D:\FlacRip\Egypt Central - Egypt Central (2008)\09 - Locked And Caged.wav
Peak level 99.9 %
Track quality 100.0 %
Test CRC 684290D2
Copy CRC 684290D2
Copy OK
Track 10
Filename D:\FlacRip\Egypt Central - Egypt Central (2008)\10 - Just Another Lie.wav
Peak level 99.9 %
Track quality 99.9 %
Test CRC 773D80B3
Copy CRC 773D80B3
Copy OK
Track 11
Filename D:\FlacRip\Egypt Central - Egypt Central (2008)\11 - Home.wav
Peak level 99.9 %
Track quality 99.9 %
Test CRC 2B9E24B5
Copy CRC 2B9E24B5
Copy OK
No errors occured
End of status report

Nugeiro

Пост 11-Сен-2011 08:55

[Цитировать]

Egypt Central / White Rabbit
Жанр: Alternative Rock/Alternative Metal
Страна-производитель диска: USA
Год издания диска: 2011
Страна: USA
Аудио кодек: FLAC (*.flac)
Тип рипа: tracks+.cue
Битрейт аудио: lossless
Продолжительность: 00:43:16
Наличие сканов в содержимом раздачи: да
Треклист:
01. Ghost Town (3:45)
02. White Rabbit (3:38)
03. Goodnight (3:45)
04. Kick Ass (3:19)
05. Change (3:40)
06. The Drug (Part One) (3:15)
07. Down In Flames (3:54)
08. Enemy Inside (Part Two) (4:13)
09. Blame (3:19)
10. Dying To Leave (3:27)
11. Surrender (3:02)
12. Backfire (4:06)

Лог создания рипа

Код:
Exact Audio Copy V1.0 beta 1 from 15. November 2010
EAC extraction logfile from 6. July 2011, 23:18
Egypt Central / White Rabbit
Used drive  : Optiarc DVD RW AD-7191A   Adapter: 4  ID: 0
Read mode               : SecureUtilize accurate stream : YesDefeat audio cache      : YesMake use of C2 pointers : No
Read offset correction                      : 6Overread into Lead-In and Lead-Out          : NoFill up missing offset samples with silence : YesDelete leading and trailing silent blocks   : NoNull samples used in CRC calculations       : YesUsed interface                              : Native Win32 interface for Win NT & 2000Gap handling                                : Appended to previous track
Used output format              : User Defined EncoderSelected bitrate                : 1024 kBit/sQuality                         : HighAdd ID3 tag                     : NoCommand line compressor         : C:\Program Files\Exact Audio Copy\Flac\flac.exeAdditional command line options : -V -8 -T "artist=%a" -T "title=%t" -T "album=%g" -T "date=%y" -T "tracknumber=%n" -T "genre=%m" %s
TOC of the extracted CD
Track |   Start  |  Length  | Start sector | End sector    ---------------------------------------------------------        1  |  0:00.00 |  3:44.52 |         0    |    16851        2  |  3:44.52 |  3:37.59 |     16852    |    33185        3  |  7:22.36 |  3:44.66 |     33186    |    50051        4  | 11:07.27 |  3:18.71 |     50052    |    64972        5  | 14:26.23 |  3:40.12 |     64973    |    81484        6  | 18:06.35 |  3:14.59 |     81485    |    96093        7  | 21:21.19 |  3:54.30 |     96094    |   113673        8  | 25:15.49 |  4:13.03 |    113674    |   132651        9  | 29:28.52 |  3:19.31 |    132652    |   147607       10  | 32:48.08 |  3:27.24 |    147608    |   163156       11  | 36:15.32 |  3:01.44 |    163157    |   176775       12  | 39:17.01 |  4:05.65 |    176776    |   195215
Track  1
Filename C:\Documents and Settings\LEXUS\My Documents\My Music\Egypt Central\Egypt Central - White Rabbit FLAC\01 – Ghost Town.wav
Pre-gap length  0:00:02.00
Peak level 96.6 %     Extraction speed 4.4 X     Track quality 100.0 %     Test CRC 351A35A0     Copy CRC 351A35A0     Track not present in AccurateRip database     Copy OK
Track  2
Filename C:\Documents and Settings\LEXUS\My Documents\My Music\Egypt Central\Egypt Central - White Rabbit FLAC\02 – White Rabbit.wav
Peak level 96.6 %     Extraction speed 4.8 X     Track quality 100.0 %     Test CRC CE4203CB     Copy CRC CE4203CB     Track not present in AccurateRip database     Copy OK
Track  3
Filename C:\Documents and Settings\LEXUS\My Documents\My Music\Egypt Central\Egypt Central - White Rabbit FLAC\03 – Goodnight.wav
Peak level 96.6 %     Extraction speed 5.3 X     Track quality 100.0 %     Test CRC C156E678     Copy CRC C156E678     Track not present in AccurateRip database     Copy OK
Track  4
Filename C:\Documents and Settings\LEXUS\My Documents\My Music\Egypt Central\Egypt Central - White Rabbit FLAC\04 – Kick Ass.wav
Peak level 96.6 %     Extraction speed 5.5 X     Track quality 100.0 %     Test CRC B4495B57     Copy CRC B4495B57     Track not present in AccurateRip database     Copy OK
Track  5
Filename C:\Documents and Settings\LEXUS\My Documents\My Music\Egypt Central\Egypt Central - White Rabbit FLAC\05 – Change.wav
Peak level 96.6 %     Extraction speed 4.7 X     Track quality 99.9 %     Test CRC E4565397     Copy CRC E4565397     Track not present in AccurateRip database     Copy OK
Track  6
Filename C:\Documents and Settings\LEXUS\My Documents\My Music\Egypt Central\Egypt Central - White Rabbit FLAC\06 – The Drug (Part One).wav
Peak level 96.6 %     Extraction speed 6.2 X     Track quality 100.0 %     Test CRC 4A7D0B20     Copy CRC 4A7D0B20     Track not present in AccurateRip database     Copy OK
Track  7
Filename C:\Documents and Settings\LEXUS\My Documents\My Music\Egypt Central\Egypt Central - White Rabbit FLAC\07 – Down In Flames.wav
Peak level 96.6 %     Extraction speed 6.6 X     Track quality 100.0 %     Test CRC 4A876AC5     Copy CRC 4A876AC5     Track not present in AccurateRip database     Copy OK
Track  8
Filename C:\Documents and Settings\LEXUS\My Documents\My Music\Egypt Central\Egypt Central - White Rabbit FLAC\08 – Enemy Inside (Part Two).wav
Peak level 96.6 %     Extraction speed 5.7 X     Track quality 99.9 %     Test CRC 6FF9F169     Copy CRC 6FF9F169     Track not present in AccurateRip database     Copy OK
Track  9
Filename C:\Documents and Settings\LEXUS\My Documents\My Music\Egypt Central\Egypt Central - White Rabbit FLAC\09 – Blame.wav
Peak level 96.6 %     Extraction speed 7.1 X     Track quality 100.0 %     Test CRC 2CD26C96     Copy CRC 2CD26C96     Track not present in AccurateRip database     Copy OK
Track 10
Filename C:\Documents and Settings\LEXUS\My Documents\My Music\Egypt Central\Egypt Central - White Rabbit FLAC\10 – Dying To Leave.wav
Peak level 96.6 %     Extraction speed 7.3 X     Track quality 100.0 %     Test CRC 3A4BD517     Copy CRC 3A4BD517     Track not present in AccurateRip database     Copy OK
Track 11
Filename C:\Documents and Settings\LEXUS\My Documents\My Music\Egypt Central\Egypt Central - White Rabbit FLAC\11 – Surrender.wav
Peak level 96.6 %     Extraction speed 7.4 X     Track quality 100.0 %     Test CRC 715F1EDE     Copy CRC 715F1EDE     Track not present in AccurateRip database     Copy OK
Track 12
Filename C:\Documents and Settings\LEXUS\My Documents\My Music\Egypt Central\Egypt Central - White Rabbit FLAC\12 – Backfire.wav
Peak level 96.6 %     Extraction speed 8.0 X     Track quality 100.0 %     Test CRC 3CF98AF8     Copy CRC 3CF98AF8     Track not present in AccurateRip database     Copy OK
None of the tracks are present in the AccurateRip database
No errors occurred
End of status report
[/spoiler]
[spoiler="Содержание индексной карты (.CUE)"]
REM GENRE Alt.Rock/Alt.MetalREM DATE 2011REM DISCID B40A2A0CREM COMMENT "ExactAudioCopy v1.0b1"PERFORMER "Egypt Central"TITLE "White Rabbit"FILE "01 – Ghost Town.wav" WAVE  TRACK 01 AUDIO    TITLE "Ghost Town"    PERFORMER "Egypt Central"    FLAGS DCP    INDEX 01 00:00:00FILE "02 – White Rabbit.wav" WAVE  TRACK 02 AUDIO    TITLE "White Rabbit"    PERFORMER "Egypt Central"    FLAGS DCP    INDEX 01 00:00:00FILE "03 – Goodnight.wav" WAVE  TRACK 03 AUDIO    TITLE "Goodnight"    PERFORMER "Egypt Central"    FLAGS DCP    INDEX 01 00:00:00FILE "04 – Kick Ass.wav" WAVE  TRACK 04 AUDIO    TITLE "Kick Ass"    PERFORMER "Egypt Central"    FLAGS DCP    INDEX 01 00:00:00FILE "05 – Change.wav" WAVE  TRACK 05 AUDIO    TITLE "Change"    PERFORMER "Egypt Central"    FLAGS DCP    INDEX 01 00:00:00FILE "06 – The Drug (Part One).wav" WAVE  TRACK 06 AUDIO    TITLE "The Drug (Part One)"    PERFORMER "Egypt Central"    FLAGS DCP    INDEX 01 00:00:00FILE "07 – Down In Flames.wav" WAVE  TRACK 07 AUDIO    TITLE "Down In Flames"    PERFORMER "Egypt Central"    FLAGS DCP    INDEX 01 00:00:00FILE "08 – Enemy Inside (Part Two).wav" WAVE  TRACK 08 AUDIO    TITLE "Enemy Inside (Part Two)"    PERFORMER "Egypt Central"    FLAGS DCP    INDEX 01 00:00:00FILE "09 – Blame.wav" WAVE  TRACK 09 AUDIO    TITLE "Blame"    PERFORMER "Egypt Central"    FLAGS DCP    INDEX 01 00:00:00FILE "10 – Dying To Leave.wav" WAVE  TRACK 10 AUDIO    TITLE "Dying To Leave"    PERFORMER "Egypt Central"    FLAGS DCP    INDEX 01 00:00:00FILE "11 – Surrender.wav" WAVE  TRACK 11 AUDIO    TITLE "Surrender"    PERFORMER "Egypt Central"    FLAGS DCP    INDEX 01 00:00:00FILE "12 – Backfire.wav" WAVE  TRACK 12 AUDIO    TITLE "Backfire"    PERFORMER "Egypt Central"    FLAGS DCP    INDEX 01 00:00:00
Доп. информация:
http://www.myspace.com/egyptcentral88
http://www.egyptcentral.net/

Об исполнителе (группе)

According to Songfacts, alternative metal band Egypt Central formed on October 2, 2002 in their hometown of Memphis, Tennessee, borrowing their name from one of the toughest roads running through the city. After eight shows they caught the attention of former Lava Records CEO Jason Flom, who offered the band a record deal. Their self-titled debut album was recorded with producer Josh Abraham in Los Angeles.

Об альбоме (сборнике)

White Rabbit is the second studio album by the rock music group Egypt Central, to be released on May 31, 2011. The first single is "White Rabbit", and was released to radio stations on February 15, 2011 and made available on iTunes on March 1, 2011. [1]A 30 seconds preview of the album was posted on the Official Egypt Central Youtube Channel.

Состав

Skidd Mills – producer
Blake "Black" Allison – drums, vocals
Joey Chicago – bass guitar, vocals
John Falls – lead vocals
Jeff James – guitar, vocals

RUGUI

Пост 16-Авг-2011 15:44

[Цитировать]

The Constant-Исполнитель: Story Of The Year
Год: 2010
Жанр: post-hardcore, alternative rock, punk metal, post-grunge
Страна: St. Louis, Missouri, USA-Продолжительность: 00:41:42
Формат/Кодек: FLAC
Битрейт аудио: Lossless-WIKI: Story of the Year (также известная как Story или SOTY)-Треклист:-01.The Children Sing
02.The Ghost Of You and I
03.I'm Alive
04.To The Burial
05.The Dream Is Over
06.Remember A Time
07.Holding On To You
08.Won Threw Ate
09.Ten Years Down
10.Time Goes On
11.Eye For An Eye
-Дополнительная информация:Четвертый альбом Story Of The Year "The Constant", вышедший в 2010 году-

Nugeiro

Пост 07-Апр-2011 19:51

[Цитировать]

Foo Fighters - Wasting Light
Страна: США
Жанр: Alternative Rock, Post-grunge
Год выпуска: 2011
Формат: FLAC (tracks)
Битрейт аудио: lossless
Продолжительность: 00:47:50
Трэклист:
1. Bridge Burning
2. Rope
3. Dear Rosemary
4. White Limo
5. Arlandria
6. These Days
7. Back & Forth
8. A Matter of Time
9. Miss the Misery
10. I Should Have Known
11. Walk

Paullo

Пост 11-Янв-2011 21:06

[Цитировать]

Cage the Elephant - Thank You, Happy Birthday
Производство: US
Жанр: Alternative Rock
Год выпуска альбома: 2011
Аудиокодек: FLAC
Тип рипа: tracks+cue
Год выпуска издания: 2011
Лейбл издания: Relentless Records
Полный скан буклета: Нет
Продолжительность: 44:36


01. Always Something (3:41)
02. Aberdeen (3:12)
03. Indy Kidz (5:02)
04. Shake Me Down (3:31)
05. 2024 (3:10)
06. Sell Yourself (2:11)
07. Rubber Ball (3:47)
08. Right Before My Eyes (3:14)
09. Around My Head (3:11)
10. Sabertooth Tiger (2:51)
11. Japanese Buffalo (3:03)
12. Flow (7:43)

LOG

Exact Audio Copy V0.99 prebeta 5 from 4. May 2009
EAC extraction logfile from 10. January 2011, 23:57
Cage the Elephant / Thank You, Happy Birthday
Used drive : ASUS DRW-1608P Adapter: 1 ID: 0
Read mode : Secure
Utilize accurate stream : Yes
Defeat audio cache : Yes
Make use of C2 pointers : No
Read offset correction : 48
Overread into Lead-In and Lead-Out : No
Fill up missing offset samples with silence : Yes
Delete leading and trailing silent blocks : No
Null samples used in CRC calculations : Yes
Used interface : Native Win32 interface for Win NT & 2000
Gap handling : Appended to previous track
Used output format : User Defined Encoder
Selected bitrate : 320 kBit/s
Quality : High
Add ID3 tag : No
Command line compressor : C:\Program Files (x86)\Exact Audio Copy\Flac\flac.exe
Additional command line options : -V -8 -T "artist=%a" -T "title=%t" -T "album=%g" -T "date=%y" -T "tracknumber=%n" -T "genre=%m" %s
TOC of the extracted CD
Track | Start | Length | Start sector | End sector
---------------------------------------------------------
1 | 0:00.00 | 3:41.71 | 0 | 16645
2 | 3:41.71 | 3:12.69 | 16646 | 31114
3 | 6:54.65 | 5:02.61 | 31115 | 53825
4 | 11:57.51 | 3:31.28 | 53826 | 69678
5 | 15:29.04 | 3:10.25 | 69679 | 83953
6 | 18:39.29 | 2:11.27 | 83954 | 93805
7 | 20:50.56 | 3:47.59 | 93806 | 110889
8 | 24:38.40 | 3:14.62 | 110890 | 125501
9 | 27:53.27 | 3:11.45 | 125502 | 139871
10 | 31:04.72 | 2:51.41 | 139872 | 152737
11 | 33:56.38 | 3:03.08 | 152738 | 166470
12 | 36:59.46 | 7:43.39 | 166471 | 201234
Track 1
Filename G:\EAC Rips\Cage the Elephant\Thank You, Happy Birthday\01 Always Something.wav
Pre-gap length 0:00:02.00
Peak level 98.9 %
Track quality 100.0 %
Test CRC 93671F88
Copy CRC 93671F88
Track not present in AccurateRip database
Copy OK
Track 2
Filename G:\EAC Rips\Cage the Elephant\Thank You, Happy Birthday\02 Aberdeen.wav
Peak level 98.7 %
Track quality 99.9 %
Test CRC D62E1381
Copy CRC D62E1381
Track not present in AccurateRip database
Copy OK
Track 3
Filename G:\EAC Rips\Cage the Elephant\Thank You, Happy Birthday\03 Indy Kidz.wav
Peak level 98.5 %
Track quality 99.9 %
Test CRC 0E2E247A
Copy CRC 0E2E247A
Track not present in AccurateRip database
Copy OK
Track 4
Filename G:\EAC Rips\Cage the Elephant\Thank You, Happy Birthday\04 Shake Me Down.wav
Peak level 98.7 %
Track quality 100.0 %
Test CRC CEB87301
Copy CRC CEB87301
Track not present in AccurateRip database
Copy OK
Track 5
Filename G:\EAC Rips\Cage the Elephant\Thank You, Happy Birthday\05 2024.wav
Peak level 98.5 %
Track quality 100.0 %
Test CRC 45B59201
Copy CRC 45B59201
Track not present in AccurateRip database
Copy OK
Track 6
Filename G:\EAC Rips\Cage the Elephant\Thank You, Happy Birthday\06 Sell Yourself.wav
Peak level 100.0 %
Track quality 100.0 %
Test CRC 2168BCD1
Copy CRC 2168BCD1
Track not present in AccurateRip database
Copy OK
Track 7
Filename G:\EAC Rips\Cage the Elephant\Thank You, Happy Birthday\07 Rubber Ball.wav
Peak level 64.5 %
Track quality 99.9 %
Test CRC D59C3C2E
Copy CRC D59C3C2E
Track not present in AccurateRip database
Copy OK
Track 8
Filename G:\EAC Rips\Cage the Elephant\Thank You, Happy Birthday\08 Right Before My Eyes.wav
Peak level 98.7 %
Track quality 100.0 %
Test CRC 133C911C
Copy CRC 133C911C
Track not present in AccurateRip database
Copy OK
Track 9
Filename G:\EAC Rips\Cage the Elephant\Thank You, Happy Birthday\09 Around my Head.wav
Peak level 98.5 %
Track quality 99.9 %
Test CRC 73BFF7B9
Copy CRC 73BFF7B9
Track not present in AccurateRip database
Copy OK
Track 10
Filename G:\EAC Rips\Cage the Elephant\Thank You, Happy Birthday\10 Sabertooth Tiger.wav
Peak level 100.0 %
Track quality 100.0 %
Test CRC 581AE95B
Copy CRC 581AE95B
Track not present in AccurateRip database
Copy OK
Track 11
Filename G:\EAC Rips\Cage the Elephant\Thank You, Happy Birthday\11 Japanese Buffalo.wav
Peak level 98.5 %
Track quality 100.0 %
Test CRC 64142099
Copy CRC 64142099
Track not present in AccurateRip database
Copy OK
Track 12
Filename G:\EAC Rips\Cage the Elephant\Thank You, Happy Birthday\12 Flow.wav
Peak level 100.0 %
Track quality 100.0 %
Test CRC 6085FF27
Copy CRC 6085FF27
Track not present in AccurateRip database
Copy OK
None of the tracks are present in the AccurateRip database
No errors occurred
End of status report
 

Текущее время: Сегодня 15:31

Часовой пояс: GMT + 3