Сегодня идет свободное скачивание без начисления Download

Результатов поиска: 33

Автор Сообщение

Kaustikk

Пост 05-Фев-2018 20:55

[Цитировать]

Торрент-файл перезалит 05.02.2018. В раздачу внесены изменения: из раздачи удалён файл спекторграммы. Просьба перекачать.

Kaustikk

Пост 05-Фев-2018 00:15

[Цитировать]

Accu§er (Accuser) / Double Talk (1991) [KOCH International, 332 422; Reissue, Remastered; Austria, 1997]- Жанр: Thrash Metal
Носитель: CD
Страна-производитель диска (релиза): Austria
Год издания: 1991
Год переиздания: 1997
Издатель (лейбл): KOCH International
Номер по каталогу: 332 422
Страна исполнителя (группы): Germany
Аудиокодек: FLAC (*.flac)
Тип рипа: image+.cue
Битрейт аудио: lossless
Продолжительность: 01:04:53
Источник (релизер): собственный рип
Наличие сканов в содержимом раздачи: да (взяты в сети)
Трэклист:
01. Double Talk (02:55)
02. The Freeze (05:31)
03. Money (07:03)
04. Flag Waver (08:14)
05. Why Me (05:05)
06. Indistinct Articulation (00:34)
07. Revolution (08:07)
08. Alcowhore (07:26)
09. Accuser* (10:24)
10. Sadistic Terror* (03:21)
11. The Conviction* (06:09)

Доп. информация:

Album info.:

Originally issued in 1991 by Atom H Records then for the first time was re-released by No Bull/KOCH International in 1997, remastered.
* - CD edition bonus tracks, taken from 1987 "The Conviction" album.
Recording line-up:
Eberhard Weyel - Bass/Vocals
Frank Thoms - Guitars
Milan Peschel - Guitars
Volker Borchert - Drums
Barcode and other Identities:
Barcode: 099923324225
Matrix/Runout: 000.000.332.422.0 Made by KOCH #1
Mastering SID Code: ifpi L1725
Mould SID Code: IFPI 3052

Об исполнителе (группе):

Wikipedia
Dark-World
Discogs

Состав

Frank Thoms - Rhythm Guitars (1986-1996, 2002-2004, 2008-present), Vocals (1986-1996, 2002-2004, 2008-present) [ex-Scartribe, ex-Breaker, ex-Expect No Mercy]
Olli Fechner - Drums (2002-2004, 2008-present) [ex-Panacea, ex-Scartribe]
Frank Kimpel - Bass (2008-present) [ex-Scartribe]
Dennis Rybakowski - Lead Guitars (2014-present)
Former members:
Eberhard Weyel - Bass (1986-1991), Vocals (1986-1991) [ex-Breaker]
Thomas Kircher - Bass (1986) [ex-Breaker]
Volker Borchert - Drums (1986-1995) [ex-Breaker, ex-Die Krupps]
René Schütz - Lead Guitars (1987-1990, 1992-2004, 2008-2011) [Dead
Sun Halo, ex-Scartribe, ex-Act of Creation, ex-Face Down Hero, ex-Expect No Mercy, ex-Thunderbolt, ex-Mandylion]
Milan Peschel - Guitars (1990-1991), Bass (1992) [A Dead Lament, ex-The Animatronic]
Guido Venzlaff - Bass (1993-1995)
Uwe Schmidt - Bass (2002-2003), Lead Guitars (2011-2014) [ex-Panacea]

Для ознакомления:

Лог создания рипа

Код:
Exact Audio Copy V1.3 from 2. September 2016
EAC extraction logfile from 1. February 2018, 12:33
Accu§er / Double Talk (1991) [KOCH International, 332 422; Austria, 1997]
Used drive  : HL-DT-STDVDRAM GH24NS95   Adapter: 1  ID: 0
Read mode               : Secure
Utilize accurate stream : Yes
Defeat audio cache      : Yes
Make use of C2 pointers : No
Read offset correction                      : 6
Overread into Lead-In and Lead-Out          : No
Fill up missing offset samples with silence : Yes
Delete leading and trailing silent blocks   : No
Null samples used in CRC calculations       : Yes
Used interface                              : Native Win32 interface for Win NT & 2000
Used output format : Internal WAV Routines
Sample format      : 44.100 Hz; 16 Bit; Stereo
TOC of the extracted CD
     Track |   Start  |  Length  | Start sector | End sector
    ---------------------------------------------------------
        1  |  0:00.00 |  2:55.55 |         0    |    13179
        2  |  2:55.55 |  5:31.60 |     13180    |    38064
        3  |  8:27.40 |  7:03.12 |     38065    |    69801
        4  | 15:30.52 |  8:14.45 |     69802    |   106896
        5  | 23:45.22 |  5:05.13 |    106897    |   129784
        6  | 28:50.35 |  0:34.17 |    129785    |   132351
        7  | 29:24.52 |  8:07.05 |    132352    |   168881
        8  | 37:31.57 |  7:26.58 |    168882    |   202389
        9  | 44:58.40 | 10:24.27 |    202390    |   249216
       10  | 55:22.67 |  3:21.08 |    249217    |   264299
       11  | 58:44.00 |  6:09.50 |    264300    |   292024
Range status and errors
Selected range
     Filename D:\To be checked out\EAC Extraction & Convertation\Accu§er - Double Talk (1991) [KOCH International, 332 422; Austria, 1997].wav
     Peak level 100.0 %
     Extraction speed 7.7 X
     Range quality 99.9 %
     Test CRC 6E8CB40E
     Copy CRC 6E8CB40E
     Copy OK
No errors occurred
AccurateRip summary
Track  1  not present in database
Track  2  not present in database
Track  3  not present in database
Track  4  not present in database
Track  5  not present in database
Track  6  not present in database
Track  7  not present in database
Track  8  not present in database
Track  9  not present in database
Track 10  not present in database
Track 11  not present in database
None of the tracks are present in the AccurateRip database
End of status report
---- CUETools DB Plugin V2.1.6
[CTDB TOCID: G0pHm1BKqLolNcGnpiHuESSuEh4-] found
Submit result: G0pHm1BKqLolNcGnpiHuESSuEh4- has been confirmed
Track | CTDB Status
  1   | (1/1) Accurately ripped
  2   | (1/1) Accurately ripped
  3   | (1/1) Accurately ripped
  4   | (1/1) Accurately ripped
  5   | (1/1) Accurately ripped
  6   | (1/1) Accurately ripped
  7   | (1/1) Accurately ripped
  8   | (1/1) Accurately ripped
  9   | (1/1) Accurately ripped
10   | (1/1) Accurately ripped
11   | (1/1) Accurately ripped
==== Log checksum 6BA0DF7B23A82CE95B8655EC3DF9B71E43848A276C08BB4E1B6AA5CFA8CACDA0 ====

Содержание индексной карты (.CUE)

Код:
REM GENRE "Thrash Metal"
REM DATE 1991
REM DISCID 8D0F350B
REM COMMENT ExactAudioCopy v1.3
PERFORMER "Accu§er"
TITLE "Double Talk (1991) [KOCH International, 332 422; Austria, 1997]"
FILE "Accu§er - Double Talk (1991) [KOCH International, 332 422; Austria, 1997].flac" WAVE
  TRACK 01 AUDIO
    TITLE "Double Talk"
    INDEX 01 00:00:00
  TRACK 02 AUDIO
    TITLE "The Freeze"
    INDEX 00 02:54:07
    INDEX 01 02:55:55
  TRACK 03 AUDIO
    TITLE "Money"
    INDEX 00 08:26:00
    INDEX 01 08:27:40
  TRACK 04 AUDIO
    TITLE "Flag Waver"
    INDEX 00 15:29:05
    INDEX 01 15:30:52
  TRACK 05 AUDIO
    TITLE "Why Me"
    INDEX 00 23:43:50
    INDEX 01 23:45:22
  TRACK 06 AUDIO
    TITLE "Indistinct Articulation"
    INDEX 00 28:48:57
    INDEX 01 28:50:35
  TRACK 07 AUDIO
    TITLE "Revolution"
    INDEX 00 29:23:07
    INDEX 01 29:24:52
  TRACK 08 AUDIO
    TITLE "Alcowhore"
    INDEX 00 37:30:22
    INDEX 01 37:31:57
  TRACK 09 AUDIO
    TITLE "Accuser [bonus track]"
    INDEX 00 44:57:05
    INDEX 01 44:58:40
  TRACK 10 AUDIO
    TITLE "Sadistic Terror [bonus track]"
    INDEX 00 55:21:25
    INDEX 01 55:22:67
  TRACK 11 AUDIO
    TITLE "The Conviction [bonus track]"
    INDEX 00 58:42:27
    INDEX 01 58:44:00

Лог проверки качества

Код:
-----------------------
DON'T MODIFY THIS FILE
-----------------------
PERFORMER: auCDtect Task Manager, ver. 1.6.0 RC1 build 1.6.0.1
Copyright (c) 2008-2010 y-soft. All rights reserved
http://y-soft.org
ANALYZER: auCDtect: CD records authenticity detector, version 0.8.2
Copyright (c) 2004 Oleg Berngardt. All rights reserved.
Copyright (c) 2004 Alexander Djourik. All rights reserved.
FILE: Accu§er - Double Talk (1991) [KOCH International, 332 422; Austria, 1997].flac
  Size: 452306139 Hash: 052298647C96DE82DB47A4F759A13848 Accuracy: -m0
  Conclusion: CDDA 100%
  Signature: 9300176BB9ECE4C6486ABFAE576E989191BEC0BE

sergej644

Пост 28-Янв-2018 13:18

[Цитировать]

-Кипелов - Звёзды и кресты (MediaBox)--
Год издания: 2017
Страна: Russia
Жанр: Heavy Metal
Продолжительность: -Лейбл издания: Navigator Records
Страна-выпуска диска: Russia
Номер по каталогу: NR 2217 CDp DL-LTD-Формат: FLAC
Битрейт аудио: Lossless
Тип рипа: image +.cue
Наличие сканов в содержимом раздачи: да
-

Трэклист


01. Интро (1:50)
02. Звёзды и Кресты (5:24)
03. Рождённый Летать (5:18)
04. Дама Пик (6:35)
05. Ледяной Дождь (5:54)
06. Белый Ад (4:07)
07. Выше (5:43)
08. Жажда Невозможного (6:39)
09. Тёмная Башня (5:47)
10. Косово Поле (10:04)
11. Ледяной Дождь (Инструментальная версия) (5:54)
-

Лог создания рипа

Код:
Exact Audio Copy V1.3 from 2. September 2016
EAC extraction logfile from 3. November 2017, 22:36
Кипелов / Звезды и Кресты
Used drive  : ASUS    DRW-24B3LT   Adapter: 1  ID: 0
Read mode               : Secure
Utilize accurate stream : Yes
Defeat audio cache      : Yes
Make use of C2 pointers : No
Read offset correction                      : 6
Overread into Lead-In and Lead-Out          : No
Fill up missing offset samples with silence : Yes
Delete leading and trailing silent blocks   : No
Null samples used in CRC calculations       : Yes
Used interface                              : Native Win32 interface for Win NT & 2000
Used output format : Internal WAV Routines
Sample format      : 44.100 Hz; 16 Bit; Stereo
TOC of the extracted CD
     Track |   Start  |  Length  | Start sector | End sector
    ---------------------------------------------------------
        1  |  0:00.00 |  1:50.35 |         0    |     8284
        2  |  1:50.35 |  5:24.22 |      8285    |    32606
        3  |  7:14.57 |  5:17.71 |     32607    |    56452
        4  | 12:32.53 |  6:35.37 |     56453    |    86114
        5  | 19:08.15 |  5:54.14 |     86115    |   112678
        6  | 25:02.29 |  4:07.04 |    112679    |   131207
        7  | 29:09.33 |  5:43.32 |    131208    |   156964
        8  | 34:52.65 |  6:39.06 |    156965    |   186895
        9  | 41:31.71 |  5:46.41 |    186896    |   212886
       10  | 47:18.37 | 10:03.73 |    212887    |   258184
       11  | 57:22.35 |  5:54.16 |    258185    |   284750
Range status and errors
Selected range
     Filename D:\Osieron\My Documents\Desktop\Test&Copy\Кипелов - Звезды и Кресты.wav
     Peak level 90.8 %
     Extraction speed 6.3 X
     Range quality 100.0 %
     Test CRC 6C9E5E2F
     Copy CRC 6C9E5E2F
     Copy OK
No errors occurred
AccurateRip summary
Track  1  not present in database
Track  2  not present in database
Track  3  not present in database
Track  4  not present in database
Track  5  not present in database
Track  6  not present in database
Track  7  not present in database
Track  8  not present in database
Track  9  not present in database
Track 10  not present in database
Track 11  not present in database
None of the tracks are present in the AccurateRip database
End of status report

Индексная карта (non-compilant .cue)

Код:
REM GENRE "Hard Rock"
REM DATE 2017
REM DISCID 800ED40B
REM COMMENT "(Mould ring text): UEP-CD Лицензия МПТР России ВАФ № 77-15"
PERFORMER "Кипелов"
TITLE "Звёзды и кресты"
REM COMPOSER ""
CATALOG 4692655990988
REM DISCNUMBER 1
REM TOTALDISCS 1
FILE "Кипелов - Звёзды и кресты.flac" WAVE
  TRACK 01 AUDIO
    TITLE "Интро"
    PERFORMER "Кипелов"
    REM COMPOSER ""
    INDEX 01 00:00:00
  TRACK 02 AUDIO
    TITLE "Звёзды и Кресты"
    PERFORMER "Кипелов"
    REM COMPOSER ""
    INDEX 01 01:50:35
  TRACK 03 AUDIO
    TITLE "Рождённый Летать"
    PERFORMER "Кипелов"
    REM COMPOSER ""
    INDEX 01 07:14:57
  TRACK 04 AUDIO
    TITLE "Дама Пик"
    PERFORMER "Кипелов"
    REM COMPOSER ""
    INDEX 01 12:32:53
  TRACK 05 AUDIO
    TITLE "Ледяной Дождь"
    PERFORMER "Кипелов"
    REM COMPOSER ""
    INDEX 01 19:08:15
  TRACK 06 AUDIO
    TITLE "Белый Ад"
    PERFORMER "Кипелов"
    REM COMPOSER ""
    INDEX 01 25:02:29
  TRACK 07 AUDIO
    TITLE "Выше"
    PERFORMER "Кипелов"
    REM COMPOSER ""
    INDEX 01 29:09:33
  TRACK 08 AUDIO
    TITLE "Жажда Невозможного"
    PERFORMER "Кипелов"
    REM COMPOSER ""
    INDEX 01 34:52:65
  TRACK 09 AUDIO
    TITLE "Тёмная Башня"
    PERFORMER "Кипелов"
    REM COMPOSER ""
    INDEX 01 41:31:71
  TRACK 10 AUDIO
    TITLE "Косово Поле"
    PERFORMER "Кипелов"
    REM COMPOSER ""
    INDEX 01 47:18:37
  TRACK 11 AUDIO
    TITLE "Ледяной Дождь (Инструментальная версия)"
    PERFORMER "Кипелов"
    REM COMPOSER ""
    INDEX 01 57:22:35
--

Kaustikk

Пост 13-Дек-2017 19:09

[Цитировать]

Abigor / Leytmotif Luzifer - The VII Temptations of Man (2014)- Жанр: Progressive Black/Avant-garde Metal
Носитель: CD
Страна-производитель диска (релиза): Italy
Год издания: 2014
Издатель (лейбл): Avantgarde Music
Номер по каталогу: AV666CD
Страна исполнителя (группы): Austria
Аудиокодек: FLAC (*.flac)
Тип рипа: image+.cue
Битрейт аудио: lossless
Продолжительность: 00:42:12
Источник (релизер): Hammer World (darksage)/MMT
Наличие сканов в содержимом раздачи: да
Треклист:
01. Temptation I : Ego (04:38)
02. Temptation II: Stasis (05:17)
03. Temptation III: Akrasia (05:31)
04. Temptation IV: Indulgence (05:21)
05. Temptation V: Neglect (04:44)
06. Temptation VI: Compos Mentis (05:34)
07. Temptation VII: Excessus (11:04)

Лог создания рипа

Код:
Exact Audio Copy V1.0 beta 3 from 29. August 2011
EAC extraction logfile from 7. August 2014, 5:56
Abigor / Leytmotif Luzifer
Used drive  : PLEXTOR BD-R  PX-LB950SA   Adapter: 2  ID: 0
Read mode               : Secure
Utilize accurate stream : Yes
Defeat audio cache      : Yes
Make use of C2 pointers : No
Read offset correction                      : 6
Overread into Lead-In and Lead-Out          : No
Fill up missing offset samples with silence : Yes
Delete leading and trailing silent blocks   : No
Null samples used in CRC calculations       : Yes
Used interface                              : Native Win32 interface for Win NT & 2000
Used output format              : User Defined Encoder
Selected bitrate                : 896 kBit/s
Quality                         : High
Add ID3 tag                     : No
Command line compressor         : C:\Program Files (x86)\FLAC\flac.exe
Additional command line options : -6 -V %source%
TOC of the extracted CD
     Track |   Start  |  Length  | Start sector | End sector
    ---------------------------------------------------------
        1  |  0:00.00 |  4:38.43 |         0    |    20892
        2  |  4:38.43 |  5:17.44 |     20893    |    44711
        3  |  9:56.12 |  5:31.29 |     44712    |    69565
        4  | 15:27.41 |  5:21.56 |     69566    |    93696
        5  | 20:49.22 |  4:44.14 |     93697    |   115010
        6  | 25:33.36 |  5:34.47 |    115011    |   140107
        7  | 31:08.08 | 11:04.42 |    140108    |   189949
Range status and errors
Selected range
     Filename C:\Trash\Abigor - Leytmotif Luzifer\Abigor - Leytmotif Luzifer.wav
     Peak level 94.0 %
     Extraction speed 3.1 X
     Range quality 100.0 %
     Test CRC E7B0E8BA
     Copy CRC E7B0E8BA
     Copy OK
No errors occurred
AccurateRip summary
Track  1  accurately ripped (confidence 2)  [02B9E3C5]  (AR v2)
Track  2  accurately ripped (confidence 2)  [A45729F7]  (AR v2)
Track  3  accurately ripped (confidence 2)  [7A6625A9]  (AR v2)
Track  4  accurately ripped (confidence 2)  [0BC301DC]  (AR v2)
Track  5  accurately ripped (confidence 2)  [C0F13F14]  (AR v2)
Track  6  accurately ripped (confidence 2)  [A5497920]  (AR v2)
Track  7  accurately ripped (confidence 2)  [C9D7FBC8]  (AR v2)
All tracks accurately ripped
End of status report
==== Log checksum 6F733F8FC56572FD562063E5E819166B857B6F38FAB01BF42A41318FCB683834 ====

Содержание индексной карты (.CUE)

Код:
REM GENRE "Black Metal"
REM DATE 2014
REM DISCID 5D09E407
REM COMMENT "ExactAudioCopy v1.0b3"
PERFORMER "Abigor"
TITLE "Leytmotif Luzifer"
FILE "Abigor - Leytmotif Luzifer.flac" WAVE
  TRACK 01 AUDIO
    TITLE "Temptation I"
    PERFORMER "Abigor"
    FLAGS DCP
    INDEX 01 00:00:00
  TRACK 02 AUDIO
    TITLE "Temptation II"
    PERFORMER "Abigor"
    FLAGS DCP
    INDEX 01 04:38:43
  TRACK 03 AUDIO
    TITLE "Temptation III"
    PERFORMER "Abigor"
    FLAGS DCP
    INDEX 01 09:56:12
  TRACK 04 AUDIO
    TITLE "Temptation IV"
    PERFORMER "Abigor"
    FLAGS DCP
    INDEX 01 15:27:41
  TRACK 05 AUDIO
    TITLE "Temptation V"
    PERFORMER "Abigor"
    FLAGS DCP
    INDEX 01 20:49:22
  TRACK 06 AUDIO
    TITLE "Temptation VI"
    PERFORMER "Abigor"
    FLAGS DCP
    INDEX 01 25:33:36
  TRACK 07 AUDIO
    TITLE "Temptation VII"
    PERFORMER "Abigor"
    FLAGS DCP
    INDEX 01 31:08:08

Лог проверки качества

Код:
-----------------------
DON'T MODIFY THIS FILE
-----------------------
PERFORMER: auCDtect Task Manager, ver. 1.6.0 RC1 build 1.6.0.1
Copyright (c) 2008-2010 y-soft. All rights reserved
http://y-soft.org
ANALYZER: auCDtect: CD records authenticity detector, version 0.8.2
Copyright (c) 2004 Oleg Berngardt. All rights reserved.
Copyright (c) 2004 Alexander Djourik. All rights reserved.
FILE: Abigor - Leytmotif Luzifer.flac
  Size: 324039150 Hash: D8EED23EFDF2E9926B144EBED316FDEA Accuracy: -m0
  Conclusion: CDDA 100%
  Signature: FF4AB63BE27ADFE469D7AC711853D6B88EC23113

Об исполнителе (группе)

Музыкальный коллектив Abigor создали в середине 1993 года Томас Танненбергер и Петер Кубик, которые в качестве псевдонимов использовали свои инициалы (соответственно T.T. и P.K.). Вскоре вокалистом стал Rune (также известный как Tharen).
Осенью 1993 года было записано первое демо, "Ash Nazg", в декабре второе - "Lux Devicta Est". В 1994 году последовали ещё две демо записи: "Promo '94" (февраль) и "Moonrise" (март). После записи "Moonrise", Tharen оставил Abigor (хотя позднее он неоднократно участвовал в записи альбомов в качестве сессионного клавишника), и вместо него был взят Silenius (Михаэль Грегор), бессменный участник Summoning. С ним Abigor записали демо "In Hate & Sin", которое попало на Napalm Records. С этим лейблом был заключён контракт на несколько альбомов, и в течение недели с момента записи последнего демо, уже в июне 1994 года был записан дебютный альбом "Verwüstung/Invoke the Dark Age". На этом альбоме группа пыталась передать дух мрачного Средневековья - то, что будет отличать ранние работы.
Цитата (Томас Танненбергер): "Единственной вещью нас интересовавшей - была возможность работать в хорошей студии. Первым лейблом, давшим нам такую возможность, был именно Napalm. Мы не заботимся о том, чтобы зарабатывать бабки на продаже наших дисков. Нас вообще не интересуют деньги. Единственное, что для нас важно - чтобы мы могли войти в студию в момент готовности и записать новый материал. Кроме того Napalm Rec. - неплохая фирма, на ней пишутся Belmez, Korova, Unpure, Summoning, очень хорошие блэк-группы."
Томас Танненбергер впоследствии утверждал, что между музыкой альбома и музыкой некоторых норвежских групп существует определённое сходство, так как в качестве источников вдохновения и Abigor, и указанные группы используют места с сохранившимися традициями, дикой природой и нашей историей.
Через несколько месяцев Abigor снова отправились в студию, а в 1995 году появился концептуальный мини-альбом "Orkblut - The Retaliation", состоящий из 11 композиций (продолжительность звучания около 20 минут) и повествующий о воине-язычнике, погибшем на поле боя. Помимо традиционных для блэк-метала инструментов, при записи в большом количестве использовались флейта и акустическая гитара. Тогда же композиция "Shadowlord", которая впервые появилась ещё на "Ash Nazg", была записана для сборника Napalm Records "With Us or Against Us Vol.1".
В течение этого и следующего года Abigor выпустили альбомы: "Nachthymnen (From the Twilight Kingdom)" и "Opus IV", которые продолжали линию "средневекового блэка". К записи альбома "Nachthymnen (From the Twilight Kingdom)" группа приступила ещё в мае 1995 года, а в качестве приглашённого музыканта на релизе присутствовала вокалиста Элизабет Торрайзер. Запись "Opus IV" производилась поглавно: так, запись первой главы, "Horns Lurk Beyond The Stars", началась с ноября 1995 года, а вторая, "Blut aus Aeonen", была записана уже к маю 1996 года. В июле этого же года вышел и сам альбом.
В январе 1997 года всего за два дня Abigor записали миньон "Apokalypse", отличавшийся скоростным и агрессивным настроем. В 1998 году вышли альбом "Supreme Immortal Art" (записан с ноября 1997 по январь 1998 годов), а также сборник песен с первых демо под названием "Origo Regium 1993-1994" (ограниченным тиражом в 1500 копий). Помимо этого в 1998 году ограниченным тиражом в 500 экземпляров вышла 7-дюймовая грампластинка "Structures of Immortality". В январе-марте 1999 года был записан альбом "Channeling the Quintessence of Satan".
В ходе записей оставил группу Silenius, который утратил интерес к блэку, а еще раньше из Abigor ушел Танненбергер. Новым вокалистом стал Thurisaz, ранее работавший с Кубиком в его авангардном сайд-проекте Heidenreich. Релиз был издан на лейбле Napalm Records и, по словам Танненбергера, стал самой зрелой работой Abigor. Он был выдержан в направлении интенсивного и сложного блэк-метала, а лирика была основана на темах оккультизма, смерти, черного искусства, уничтожения человеческой расы и прихода новой эры. Однако в то же время лирическая часть стала несколько абстрактной и более трудновоспринимаемой. 8 и 9 мая 1999 года была записана кавер-версия Slayer "Crionics" для американского лейбла Dwell Records. В ноябре 1999 года записан кавер Kreator "Terrible Certainty" снова для Dwell Records. Обе кавер-версии представляли собой композиции для трибьют-альбомов, которые должны были выйти только в США в 2000 году. Впоследствии данные песни вошли на мини-альбом "In Memory" и стали бонус-треками для грядущего полноформатника.
В апреле 2000 года был вновь подписан контракт с Napalm Records на несколько альбомов, и в октябре 2000 коллектив приступил к записи альбома "Satanized (A Journey Through Cosmic Infinity)", который вышел в 2001 году. Но перед этим в августе вышел мини-альбом "In Memory", содержащий 5 композиций, в том числе упомянутые выше каверы, редкую версию композиции "Shadowlord", репетиционную версию "Crimson Horizons" и черновой вариант "Verwüstung". "Satanized" был записан в течение октября-ноября 2000 года в студии Tonstudio Hörnix.
В конце мая 2000 года Томас Танненбергер снова покинул группу, его место занял Моритц Нойнер. В 2003 году Abigor прекратила существование, однако спустя три года Кубик вместе с вернувшимся Танненбергером и совсем новым вокалистом Артуром Росаром (A.R.) собрались вместе, чтобы возобновить работу. В 2007 вышел новый альбом "Fractal Possession". Abigor вернулись из небытия с новым альбомом, и творческая пауза, как показал данный релиз, была взята очень уместно. "Fractal Possession" - яркий пример современного метала, корни которого уходят в блэк и частично в дэт.
В начале 2010 года вышел новый альбом - "Time Is the Sulphur in the Veins of the Saint - An Excursion on Satan's Fragmenting Principle", который также является частью сплита с Blacklodge, выпущенном на виниле.
В 2012 году коллектив выпустил компиляцию "Quintessence" на двух дисках в формате А5-Digibook. Первый диск являет собой полностью перезаписанную версию альбома "Channeling the Quintessence of Satan". Второй диск является сборником демо-записей периода 1993-1994 годов.
В 2013 году вокалист Артур Росар принял решение покинуть коллектив по личным причинам. В сентябре Abigor выпустили сингл "Supreme and Immortal Is the Art of the Devil". Место вокалиста занял уже всем известный Силениус, но сессионно, так что о окончательном его возвращении в группу речи не шло.
2014 год порадовал поклонников новым альбомом под названием "Leytmotif Luzifer (The VII Temptations of Man)", выпущенным посредством Avantgarde Music на CD и виниле. Вокальные партии исполнил Силениус, опять же - сессионно.
В 2015 году формация выпустила бокс-сет "1994-1998: The Complete Hörnix Recordings", в который вошли 4 полноформатника и 2 миньона. Также группа представила демо "Supreme Immortal Art" - инструментальную версию одноимённого альбома 1998 года. Данный релиз существует только в цифровом формате.
В апреле 2016 Abigor издали сплит с Thy Darkened Shade, представляющий собой тейп-бокс, на котором представлены по альбому от групп за 2014 год. В октябре 2016 на лейбле Nuclear War Now! ограниченным тиражом выходит на виниле 7-дюймовый мини-альбом "Kingdom of Darkness", в который вошли 3 композиции: перезаписанная Kingdom of Darkness, а также репетиционные треки времен "Orkblut" и "Apokalypse" соответственно - Severance и Cellestial. Уже в марте 2017-го он был переиздан только в цифровом формате, дополненный ещё одним репетиционным треком "Eerie Constellation" для "Opus IV". Чуть ранее, в феврале 2017, самиздатом был выпущен сплит с участием ещё трёх коллективов - Nightbringer, Thy Darkened Shade и Mortuus. Название релиза - "Abigor/Nightbringer/Thy Darkened Shade/Mortuus", который включает в себя 4 композиции: по одной от каждой из групп соответственно, названия треков - аналогичны названиям коллективов. К концу года коллектив обещает новый альбом "Höllenzwang (Chronicles of Perdition)", который будет выпущен на Avantgarde Music.

Об альбоме (сборнике)

Album subtitle: "The VII Temptations of Man", the tracks 1-7 are numbered in roman literals from "Temptation I" to "Temptation VII".
Is an album written in liturgic form dedicated to the 3rd path to the mysteries of Satan, namely, pure and uncompromising worship, and the pitfalls man has to navigate through, the temptations.
Musically, no synthetic elements have been used, the guitars are completely free of any effects, neither reverb nor any special effects edit were allowed to touch the string intruments on this album. for vocals only reverb and delay has been used, no pitch or chorus or any other effect stained the purity and directness.
Standard edition A5 Digipak with 16 pages booklet printed on thick textured paper.
Pre-order copies included a silkscreen art print (A5) limited to 100 copies. Part of the label's "Affiliation Program".
Recording Line-up:
P.K. (Virus 666, Peter Kubik) - Guitars, Bass
T.T. (Thomas Tannenberger) - Guitars, Drums, Bass
Silenius - Vocals
Protector - Vocals (backing)
Barcode and other Identities:

Barcode: 8 033224 116662
Matrix: 2100005036535 8MERCH.COM
Mastering SID: IFPI LK97
Mould SID: IFPI 9R95

Состав

P.K. (Virus 666, Peter Kubik) - Guitars, Bass
T.T. (Thomas Tannenberger) - Guitars, Drums, Bass

Kaustikk

Пост 22-Авг-2017 19:54

[Цитировать]

   -Vio-lence - Discography (1988-1993) [Reissues 1997, 2005]- Страна: United States
Жанр: Thrash Metal
Носитель: CD
Продолжительность: 03:28:05 (3 альбома, 4 CD)
Формат: FLAC
Тип рипа: image + .cue
Битрейт аудио: lossless
Источник (релизер): собственные рипы
Наличие сканов в содержимом раздачи: да

Альбомы:

1988 - Eternal Nightmare [Megaforce, 2CD Reissue, Remastered; E.U., 2005]

Издатель (лейбл): Megaforce
Номер по каталогу: mega1999
Страна-производитель: E.U.
Год переиздания: 2005
Продолжительность: 01:43:16

Disc 1 - Eternal Nightmare (Remastered)

Треклист:
01. Eternal Nightmare (06:11)
02. Serial Killer (02:59)
03. Phobophobia (06:31)
04. Calling In the Coroner (03:55)
05. T.D.S. (Take It as You Will) (05:04)
06. Bodies on Bodies (05:48)
07. Kill on Command (04:56)
Продолжительность: 00:35:27

Доп. инфо.:

Line-up:
Sean Killian – vocals
Deen Dell – bass
Perry Strickland – drums
Robb Flynn – guitars
Phil Demmel – guitars
Notes:
Eternal Nightmare recorded at Music Grinder, Los Angeles and Alpha & Omega, SF. Mixed at Alpha & Omega, SF.
Produced, engineered & mixed by John Cuniberti
Second engineers – Casey McMakin & David Plank
Remastered by Chris Hanson
Original Edition Cover Art by Edward J. Repka
Rerelease Layout by Tero Salonen
Photography by Mark Leialoha
Barcode and Other Identifiers:
This Release:
Barcode: 0 20286 19992 2
Matrix/Runout (CD1 - Variant 1): CCB0453 DISC MAKERS
Other Versions:
Matrix/Runout (CD1 - Variant 2): MWE4667 [Disc Makers 'logo']
Mastering SID Code (CD1 - Variant 2): IFPI LZ72
Mould SID Code (CD1 - Variant 2): IFPI ALK08
Matrix/Runout (CD1 - Variant 3): CCB0453 [DISC MAKERS logo]

Отчёт EAC:

Код:
Exact Audio Copy V1.3 from 2. September 2016
EAC extraction logfile from 21. August 2017, 12:59
Vio-lence / Eternal Nightmare (1988) [Megaforce, mega1999; 2CD Reissue; E.U., 2005] (Disc 1 - Eternal Nightmare)
Used drive  : HL-DT-STDVDRAM GH24NS95   Adapter: 1  ID: 0
Read mode               : Secure
Utilize accurate stream : Yes
Defeat audio cache      : Yes
Make use of C2 pointers : No
Read offset correction                      : 6
Overread into Lead-In and Lead-Out          : No
Fill up missing offset samples with silence : Yes
Delete leading and trailing silent blocks   : No
Null samples used in CRC calculations       : Yes
Used interface                              : Native Win32 interface for Win NT & 2000
Used output format : Internal WAV Routines
Sample format      : 44.100 Hz; 16 Bit; Stereo
TOC of the extracted CD
     Track |   Start  |  Length  | Start sector | End sector
    ---------------------------------------------------------
        1  |  0:00.00 |  6:11.70 |         0    |    27894
        2  |  6:11.70 |  2:59.08 |     27895    |    41327
        3  |  9:11.03 |  6:31.50 |     41328    |    70702
        4  | 15:42.53 |  3:55.28 |     70703    |    88355
        5  | 19:38.06 |  5:04.48 |     88356    |   111203
        6  | 24:42.54 |  5:48.00 |    111204    |   137303
        7  | 30:30.54 |  4:56.38 |    137304    |   159541
Range status and errors
Selected range
     Filename D:\To be checked out\EAC Extraction & Convertation\Vio-lence - Eternal Nightmare (1988) [Megaforce, mega1999; 2CD Reissue; E.U., 2005] (Disc 1 - Eternal Nightmare).wav
     Peak level 100.0 %
     Extraction speed 6.4 X
     Range quality 100.0 %
     Test CRC D58DD69A
     Copy CRC D58DD69A
     Copy OK
No errors occurred
AccurateRip summary
Track  1  accurately ripped (confidence 2)  [00CB2296]  (AR v2)
Track  2  accurately ripped (confidence 2)  [216F6969]  (AR v2)
Track  3  accurately ripped (confidence 2)  [3937C8CE]  (AR v2)
Track  4  accurately ripped (confidence 2)  [5E2E4B93]  (AR v2)
Track  5  accurately ripped (confidence 2)  [19AD0832]  (AR v2)
Track  6  accurately ripped (confidence 2)  [82D02896]  (AR v2)
Track  7  accurately ripped (confidence 2)  [2270293B]  (AR v2)
All tracks accurately ripped
End of status report
---- CUETools DB Plugin V2.1.6
[CTDB TOCID: qHD4YEj1xqszF8G9Qr07dHP1Xts-] found
Submit result: already submitted
Track | CTDB Status
  1   | (29/29) Accurately ripped
  2   | (29/29) Accurately ripped
  3   | (29/29) Accurately ripped
  4   | (29/29) Accurately ripped
  5   | (29/29) Accurately ripped
  6   | (29/29) Accurately ripped
  7   | (29/29) Accurately ripped
==== Log checksum EB014D48C6CA8D33A20799F669B5BEDB17ECDE41E80C29F12493B4C89C86A975 ====

Cue Sheet (.cue):

Код:
REM GENRE "Thrash Metal"
REM DATE 1988
REM DISCID 56084F07
REM COMMENT ExactAudioCopy v1.3
PERFORMER "Vio-lence"
TITLE "Eternal Nightmare (1988) [Megaforce, mega1999; 2CD Reissue; E.U., 2005] (Disc 1 - Eternal Nightmare)"
FILE "Vio-lence - Eternal Nightmare (1988) [Megaforce, mega1999; 2CD Reissue; E.U., 2005] (Disc 1 - Eternal Nightmare).flac" WAVE
  TRACK 01 AUDIO
    TITLE "Eternal Nightmare"
    INDEX 01 00:00:00
  TRACK 02 AUDIO
    TITLE "Serial Killer"
    INDEX 01 06:11:70
  TRACK 03 AUDIO
    TITLE "Phobophobia"
    INDEX 01 09:11:03
  TRACK 04 AUDIO
    TITLE "Calling In the Coroner"
    INDEX 01 15:42:53
  TRACK 05 AUDIO
    TITLE "T.D.S. (Take It as You Will)"
    INDEX 01 19:38:06
  TRACK 06 AUDIO
    TITLE "Bodies on Bodies"
    INDEX 01 24:42:54
  TRACK 07 AUDIO
    TITLE "Kill on Command"
    INDEX 01 30:30:54

Отчёт auCDtect Task manager:

Код:
-----------------------
DON'T MODIFY THIS FILE
-----------------------
PERFORMER: auCDtect Task Manager, ver. 1.6.0 RC1 build 1.6.0.1
Copyright (c) 2008-2010 y-soft. All rights reserved
http://y-soft.org
ANALYZER: auCDtect: CD records authenticity detector, version 0.8.2
Copyright (c) 2004 Oleg Berngardt. All rights reserved.
Copyright (c) 2004 Alexander Djourik. All rights reserved.
FILE: Vio-lence - Eternal Nightmare (1988) [Megaforce, mega1999; 2CD Reissue; E.U., 2005] (Disc 1 - Eternal Nightmare).flac
  Size: 285901446 Hash: 05DBB5353A27A93D66B801733D8D8BF5 Accuracy: -m0
  Conclusion: CDDA 100%
  Signature: E50D502C95B4153C4B0E566F49C6A2151B0A1616

Disc 2 - Live @ Slims SF 12/14/2001

Треклист:
01. Liquid Courage (06:26)
02. Ageless Eyes (04:23)
03. Calling In the Coroner (04:13)
04. World in a World (04:53)
05. Officer Nice (05:21)
06. Subterfuge (04:45)
07. Kill on Command (05:23)
08. Phobophobia (06:38)
09. Bodies on Bodies (07:39)
10. I Profit (07:29)
11. T.D.S. (05:27)
12. Paraplegic (05:08)
Продолжительность: 00:35:27

Доп. инфо.:

Line-up:
Sean Killian – vocals
Deen Dell – bass
Perry Strickland – drums
Steve Schmidt – guitars (tracks: 1-6, 10, 11)
Troy Fua – guitars (tracks: 7-9, 12)
Notes:
Live @ Slims SF 12/14/2001 recorded at Slims, SF, Ca. December 14th, 2001
Recorded, Edited & Mixed by – Chris Hanson (tracks: 1-12)
Barcode and Other Identifiers:
This Release:
Barcode: 0 20286 19992 2
Matrix/Runout (CD2 - Variant 1): CCB0454 08110USA
Other Versions:
Matrix/Runout (CD2 - Variant 2): MWE4668 [Disc Makers 'logo']
Mastering SID Code (CD2 - Variant 2): IFPI LZ71
Mould SID Code (CD2 - Variant 2): IFPI ALK03
Matrix/Runout (CD2 - Variant 3): CCB0454 [DISC MAKERS logo]

Отчёт EAC:

Код:
Exact Audio Copy V1.3 from 2. September 2016
EAC extraction logfile from 21. August 2017, 14:20
Vio-lence / Vio-lence - Eternal Nightmare (1988) [Megaforce, mega1999; 2CD Reissue; E.U., 2005] (Disc 2 - Live @ Slims SF 12.14.2001)
Used drive  : HL-DT-STDVDRAM GH24NS95   Adapter: 1  ID: 0
Read mode               : Secure
Utilize accurate stream : Yes
Defeat audio cache      : Yes
Make use of C2 pointers : No
Read offset correction                      : 6
Overread into Lead-In and Lead-Out          : No
Fill up missing offset samples with silence : Yes
Delete leading and trailing silent blocks   : No
Null samples used in CRC calculations       : Yes
Used interface                              : Native Win32 interface for Win NT & 2000
Used output format : Internal WAV Routines
Sample format      : 44.100 Hz; 16 Bit; Stereo
TOC of the extracted CD
     Track |   Start  |  Length  | Start sector | End sector
    ---------------------------------------------------------
        1  |  0:00.00 |  6:26.36 |         0    |    28985
        2  |  6:26.36 |  4:23.03 |     28986    |    48713
        3  | 10:49.39 |  4:13.23 |     48714    |    67711
        4  | 15:02.62 |  4:53.39 |     67712    |    89725
        5  | 19:56.26 |  5:21.31 |     89726    |   113831
        6  | 25:17.57 |  4:45.31 |    113832    |   135237
        7  | 30:03.13 |  5:23.08 |    135238    |   159470
        8  | 35:26.21 |  6:38.03 |    159471    |   189323
        9  | 42:04.24 |  7:39.19 |    189324    |   223767
       10  | 49:43.43 |  7:29.45 |    223768    |   257487
       11  | 57:13.13 |  5:27.68 |    257488    |   282080
       12  | 62:41.06 |  5:08.07 |    282081    |   305187
Range status and errors
Selected range
     Filename D:\To be checked out\EAC Extraction & Convertation\Vio-lence - Vio-lence - Eternal Nightmare (1988) [Megaforce, mega1999; 2CD Reissue; E.U., 2005] (Disc 2 - Live @ Slims SF 12.14.2001).wav
     Peak level 100.0 %
     Extraction speed 7.9 X
     Range quality 100.0 %
     Test CRC CA0B5D7D
     Copy CRC CA0B5D7D
     Copy OK
No errors occurred
AccurateRip summary
Track  1  accurately ripped (confidence 3)  [9793C2B0]  (AR v2)
Track  2  accurately ripped (confidence 3)  [0D978265]  (AR v2)
Track  3  accurately ripped (confidence 3)  [B1E5C108]  (AR v2)
Track  4  accurately ripped (confidence 3)  [3B51F1B4]  (AR v2)
Track  5  accurately ripped (confidence 3)  [23AFF93E]  (AR v2)
Track  6  accurately ripped (confidence 3)  [458D5B1A]  (AR v2)
Track  7  accurately ripped (confidence 3)  [080A7667]  (AR v2)
Track  8  accurately ripped (confidence 3)  [4E7321EB]  (AR v2)
Track  9  accurately ripped (confidence 3)  [4D63BD52]  (AR v2)
Track 10  accurately ripped (confidence 3)  [4FA8D069]  (AR v2)
Track 11  accurately ripped (confidence 3)  [B259ACCB]  (AR v2)
Track 12  accurately ripped (confidence 3)  [0221C042]  (AR v2)
All tracks accurately ripped
End of status report
---- CUETools DB Plugin V2.1.6
[CTDB TOCID: 1KVTUAjgIfe5wA5BfEE58epP4No-] found
Submit result: already submitted
Track | CTDB Status
  1   | (22/22) Accurately ripped
  2   | (22/22) Accurately ripped
  3   | (22/22) Accurately ripped
  4   | (22/22) Accurately ripped
  5   | (22/22) Accurately ripped
  6   | (22/22) Accurately ripped
  7   | (22/22) Accurately ripped
  8   | (22/22) Accurately ripped
  9   | (22/22) Accurately ripped
10   | (22/22) Accurately ripped
11   | (22/22) Accurately ripped
12   | (21/22) Accurately ripped
==== Log checksum 1F648A57A319EBA1A969DA64B16BBC939F610F271D1B68CD8034CECAAD4E811B ====

Cue Sheet (.cue):

Код:
REM GENRE "Thrash Metal"
REM DATE 1988
REM DISCID B50FE50C
REM COMMENT ExactAudioCopy v1.3
PERFORMER "Vio-lence"
TITLE "Vio-lence - Eternal Nightmare (1988) [Megaforce, mega1999; 2CD Reissue; E.U., 2005] (Disc 2 - Live @ Slims SF 12/14/2001)"
FILE "Vio-lence - Vio-lence - Eternal Nightmare (1988) [Megaforce, mega1999; 2CD Reissue; E.U., 2005] (Disc 2 - Live @ Slims SF 12.14.2001).flac" WAVE
  TRACK 01 AUDIO
    TITLE "Liquid Courage"
    INDEX 01 00:00:00
  TRACK 02 AUDIO
    TITLE "Ageless Eyes"
    INDEX 01 06:26:36
  TRACK 03 AUDIO
    TITLE "Calling In the Coroner"
    INDEX 01 10:49:39
  TRACK 04 AUDIO
    TITLE "World in a World"
    INDEX 01 15:02:62
  TRACK 05 AUDIO
    TITLE "Officer Nice"
    INDEX 01 19:56:26
  TRACK 06 AUDIO
    TITLE "Subterfuge"
    INDEX 01 25:17:57
  TRACK 07 AUDIO
    TITLE "Kill on Command"
    INDEX 01 30:03:13
  TRACK 08 AUDIO
    TITLE "Phobophobia"
    INDEX 01 35:26:21
  TRACK 09 AUDIO
    TITLE "Bodies on Bodies"
    INDEX 01 42:04:24
  TRACK 10 AUDIO
    TITLE "I Profit"
    INDEX 01 49:43:43
  TRACK 11 AUDIO
    TITLE "T.D.S."
    INDEX 01 57:13:13
  TRACK 12 AUDIO
    TITLE "Paraplegic"
    INDEX 01 62:41:06

Отчёт auCDtect Task manager:

Код:
-----------------------
DON'T MODIFY THIS FILE
-----------------------
PERFORMER: auCDtect Task Manager, ver. 1.6.0 RC1 build 1.6.0.1
Copyright (c) 2008-2010 y-soft. All rights reserved
http://y-soft.org
ANALYZER: auCDtect: CD records authenticity detector, version 0.8.2
Copyright (c) 2004 Oleg Berngardt. All rights reserved.
Copyright (c) 2004 Alexander Djourik. All rights reserved.
FILE: Vio-lence - Vio-lence - Eternal Nightmare (1988) [Megaforce, mega1999; 2CD Reissue; E.U., 2005] (Disc 2 - Live @ Slims SF 12.14.2001).flac
  Size: 540407518 Hash: 14D1BF65677EEFFED698C2AEB41824DB Accuracy: -m0
  Conclusion: CDDA 100%
  Signature: 52DDD1EEC8D67081F813E83254A1D405B85697E7

1990/1991 - Oppressing the Masses/Torture Tactics (EP) [Megaforce, Reissue; U.S, 2005]

Издатель (лейбл): Megaforce
Номер по каталогу: MEGA1990
Страна-производитель: U.S.
Год переиздания: 2005
Продолжительность: 00:59:41
Треклист:
01. I Profit (07:05)
02. Officer Nice (05:23)
03. Subterfuge (04:38)
04. Engulfed by Flames (03:54)
05. World in a World (04:11)
06. Mentally Afflicted (05:49)
07. Liquid Courage (05:27)
08. Oppressing the Masses (04:57)
09. Torture Tactics (05:20)
10. Officer Nice (live) (05:49)
11. Gutterslut (03:22)
12. Dicks of Death (03:40)

Доп. инфо.:

Tracks 9-12 are taken from the 1991 EP "Torture Tactics".
Track 10 is a fake live track. The live intro is taken from Vio-lence's show in Hallendale, FL, from August 1988.
Tracks 9 and 11 are the two outtakes from the 1989 "Oppressing the Masses" sessions.
Line-up:
Sean Killian – vocals
Deen Dell – bass
Perry Strickland – drums
Robb Flynn – guitars
Phil Demmel – guitars
Notes:
Recorded December 1989 at Pyramid Studios, Ithaca, N. Y.
Produced, recorded & mixed by – Alex Perialas, Doug Mann (tracks: 10, 12)
Engineered by – Rob "Wacko" Hunter
Barcode and Other Identifiers:
Barcode: 0 20286 19902 1
This Release:
Matrix/Runout : MRH5035 DISC MAKERS [Logo]
Other Versions:
Matrix/Runout (Variant 2): MWJ0269 [Disc Makers 'logo']
Mastering SID Code (Variant 2): IFPI LZ72
Mould SID Code (Variant 2): IFPI ALK08
Matrix/Runout (Variant 3): MEGA1990 03060498 DISC MAKERS

Отчёт EAC:

Код:
Exact Audio Copy V1.3 from 2. September 2016
EAC extraction logfile from 16. August 2017, 17:24
Vio-lence / Oppressing the Masses/Torture Tactics (2005) [Megaforce, MEGA1990; U.S., 2005]
Used drive  : HL-DT-STDVDRAM GH24NS95   Adapter: 1  ID: 0
Read mode               : Secure
Utilize accurate stream : Yes
Defeat audio cache      : Yes
Make use of C2 pointers : No
Read offset correction                      : 6
Overread into Lead-In and Lead-Out          : No
Fill up missing offset samples with silence : Yes
Delete leading and trailing silent blocks   : No
Null samples used in CRC calculations       : Yes
Used interface                              : Native Win32 interface for Win NT & 2000
Used output format : Internal WAV Routines
Sample format      : 44.100 Hz; 16 Bit; Stereo
TOC of the extracted CD
     Track |   Start  |  Length  | Start sector | End sector
    ---------------------------------------------------------
        1  |  0:00.00 |  7:05.39 |         0    |    31913
        2  |  7:05.39 |  5:23.41 |     31914    |    56179
        3  | 12:29.05 |  4:38.68 |     56180    |    77097
        4  | 17:07.73 |  3:54.26 |     77098    |    94673
        5  | 21:02.24 |  4:11.27 |     94674    |   113525
        6  | 25:13.51 |  5:49.02 |    113526    |   139702
        7  | 31:02.53 |  5:27.55 |    139703    |   164282
        8  | 36:30.33 |  4:57.33 |    164283    |   186590
        9  | 41:27.66 |  5:20.45 |    186591    |   210635
       10  | 46:48.36 |  5:49.09 |    210636    |   236819
       11  | 52:37.45 |  3:22.53 |    236820    |   252022
       12  | 56:00.23 |  3:40.66 |    252023    |   268588
Range status and errors
Selected range
     Filename D:\To be checked out\EAC Extraction & Convertation\Vio-lence - Oppressing the Masses-Torture Tactics (2005) [Megaforce, MEGA1990; U.S., 2005].wav
     Peak level 100.0 %
     Extraction speed 7.6 X
     Range quality 100.0 %
     Test CRC 7590A570
     Copy CRC 7590A570
     Copy OK
No errors occurred
AccurateRip summary
Track  1  accurately ripped (confidence 5)  [8E2EAC50]  (AR v2)
Track  2  accurately ripped (confidence 5)  [D188FE97]  (AR v2)
Track  3  accurately ripped (confidence 5)  [79AB8F86]  (AR v2)
Track  4  accurately ripped (confidence 5)  [1CF9B317]  (AR v2)
Track  5  accurately ripped (confidence 5)  [732AFE37]  (AR v2)
Track  6  accurately ripped (confidence 5)  [DD620C34]  (AR v2)
Track  7  accurately ripped (confidence 5)  [A237D5BB]  (AR v2)
Track  8  accurately ripped (confidence 5)  [33705933]  (AR v2)
Track  9  accurately ripped (confidence 5)  [CE4AC732]  (AR v2)
Track 10  accurately ripped (confidence 4)  [B0C3E2AC]  (AR v2)
Track 11  accurately ripped (confidence 4)  [1531CBDD]  (AR v2)
Track 12  accurately ripped (confidence 4)  [5E29229A]  (AR v2)
All tracks accurately ripped
End of status report
---- CUETools DB Plugin V2.1.6
[CTDB TOCID: YDriH2RtK6OFcufvlO5puR2FaEo-] found
Submit result: already submitted
Track | CTDB Status
  1   | (12/12) Accurately ripped
  2   | (12/12) Accurately ripped
  3   | (12/12) Accurately ripped
  4   | (12/12) Accurately ripped
  5   | (12/12) Accurately ripped
  6   | (12/12) Accurately ripped
  7   | (12/12) Accurately ripped
  8   | (12/12) Accurately ripped
  9   | (12/12) Accurately ripped
10   | (12/12) Accurately ripped
11   | (12/12) Accurately ripped
12   | (12/12) Accurately ripped
==== Log checksum ECAAC098722C89108356C679ED0F83D2C9F10799F57BE44AE693543064DB70C0 ====

Cue Sheet (.cue):

Код:
REM GENRE "Thrash Metal"
REM DATE 2005
REM DISCID A40DFD0C
REM COMMENT ExactAudioCopy v1.3
PERFORMER "Vio-lence"
TITLE "Oppressing the Masses/Torture Tactics (2005) [Megaforce, MEGA1990; U.S., 2005]"
FILE "Vio-lence - Oppressing the Masses-Torture Tactics (2005) [Megaforce, MEGA1990; U.S., 2005].flac" WAVE
  TRACK 01 AUDIO
    TITLE "I Profit"
    INDEX 01 00:00:00
  TRACK 02 AUDIO
    TITLE "Officer Nice"
    INDEX 01 07:05:39
  TRACK 03 AUDIO
    TITLE "Subterfuge"
    INDEX 01 12:29:05
  TRACK 04 AUDIO
    TITLE "Engulfed by Flames"
    INDEX 01 17:07:73
  TRACK 05 AUDIO
    TITLE "World in a World"
    INDEX 01 21:02:24
  TRACK 06 AUDIO
    TITLE "Mentally Afflicted"
    INDEX 01 25:13:51
  TRACK 07 AUDIO
    TITLE "Liquid Courage"
    INDEX 01 31:02:53
  TRACK 08 AUDIO
    TITLE "Oppressing the Masses"
    INDEX 01 36:30:33
  TRACK 09 AUDIO
    TITLE "Torture Tactics"
    INDEX 01 41:27:66
  TRACK 10 AUDIO
    TITLE "Officer Nice (live)"
    INDEX 01 46:48:36
  TRACK 11 AUDIO
    TITLE "Gutterslut"
    INDEX 01 52:37:45
  TRACK 12 AUDIO
    TITLE "Dicks of Death"
    INDEX 01 56:00:23

Отчёт auCDtect Task manager:

Код:
-----------------------
DON'T MODIFY THIS FILE
-----------------------
PERFORMER: auCDtect Task Manager, ver. 1.6.0 RC1 build 1.6.0.1
Copyright (c) 2008-2010 y-soft. All rights reserved
http://y-soft.org
ANALYZER: auCDtect: CD records authenticity detector, version 0.8.2
Copyright (c) 2004 Oleg Berngardt. All rights reserved.
Copyright (c) 2004 Alexander Djourik. All rights reserved.
FILE: Vio-lence - Oppressing the Masses-Torture Tactics (2005) [Megaforce, MEGA1990; U.S., 2005].flac
  Size: 436615271 Hash: A5053EB7F86D9369819932A6A4AD0983 Accuracy: -m0
  Conclusion: CDDA 100%
  Signature: F7065D06A51DD6C3859159FEF489B43409447581

1993 - Nothing to Gain [Powerage, Reissue; England, 1997]

Издатель (лейбл): Powerage
Номер по каталогу: PRAGE011CD
Страна-производитель: England
Год переиздания: 1997
Продолжительность: 00:45:08
Треклист:
01. Atrocity (05:02)
02. Twelve Gauge Justice (04:46)
03. Ageless Eyes (04:09)
04. Pain of Pleasure/Virtues of Vice (05:45)
05. Killing My Words (04:21)
06. Psychotic Memories (05:23)
07. No Chains (05:03)
08. Welcoming Party/This Is System (06:54)
09. Colour of Life (03:39)

Доп. инфо.:

Line-up:
Sean Killian – vocals
Deen Dell – bass
Perry Strickland – drums
Robb Flynn – guitars
Phil Demmel – guitars
Notes:
1997 Reissue on Powerage
Recorded and mixed at Fantasy Studios, Berkeley, California, August 1990, but only released in 1993.
There were two additional songs recorded during the albums sessions (“All Good Dies” and “Put Them In”), which did not make the final album and which still remain unreleased.
Barcode and Other Identifiers:
Barcode: 5028563242724
Matrix/Runout: AAC1122 51500 PRAGE011CDN
Other: IFPI L153

Отчёт EAC:

Код:
Exact Audio Copy V1.3 from 2. September 2016
EAC extraction logfile from 16. August 2017, 20:27
Vio-lence / Nothing to Gain (1993) [Powerage, PRAGE011CD; England, 1997]
Used drive  : HL-DT-STDVDRAM GH24NS95   Adapter: 1  ID: 0
Read mode               : Secure
Utilize accurate stream : Yes
Defeat audio cache      : Yes
Make use of C2 pointers : No
Read offset correction                      : 6
Overread into Lead-In and Lead-Out          : No
Fill up missing offset samples with silence : Yes
Delete leading and trailing silent blocks   : No
Null samples used in CRC calculations       : Yes
Used interface                              : Native Win32 interface for Win NT & 2000
Used output format : Internal WAV Routines
Sample format      : 44.100 Hz; 16 Bit; Stereo
TOC of the extracted CD
     Track |   Start  |  Length  | Start sector | End sector
    ---------------------------------------------------------
        1  |  0:00.32 |  5:02.25 |        32    |    22706
        2  |  5:02.57 |  4:46.70 |     22707    |    44226
        3  |  9:49.52 |  4:09.65 |     44227    |    62966
        4  | 13:59.42 |  5:45.63 |     62967    |    88904
        5  | 19:45.30 |  4:21.52 |     88905    |   108531
        6  | 24:07.07 |  5:23.58 |    108532    |   132814
        7  | 29:30.65 |  5:03.12 |    132815    |   155551
        8  | 34:34.02 |  6:54.43 |    155552    |   186644
        9  | 41:28.45 |  3:39.67 |    186645    |   203136
Range status and errors
Selected range
     Filename D:\To be checked out\EAC Extraction & Convertation\Vio-lence - Nothing to Gain (1993) [Powerage, PRAGE011CD; England, 1997].wav
     Peak level 100.0 %
     Extraction speed 1.7 X
     Range quality 99.9 %
     Test CRC 9FEADC77
     Copy CRC 9FEADC77
     Copy OK
No errors occurred
AccurateRip summary
Track  1  accurately ripped (confidence 4)  [33542A17]  (AR v2)
Track  2  accurately ripped (confidence 4)  [1852CA24]  (AR v2)
Track  3  accurately ripped (confidence 4)  [92410B82]  (AR v2)
Track  4  accurately ripped (confidence 4)  [C0B1A89D]  (AR v2)
Track  5  accurately ripped (confidence 4)  [E8354B89]  (AR v2)
Track  6  accurately ripped (confidence 4)  [36CA43FF]  (AR v2)
Track  7  accurately ripped (confidence 4)  [45C39B17]  (AR v2)
Track  8  accurately ripped (confidence 4)  [950AE8AE]  (AR v2)
Track  9  accurately ripped (confidence 4)  [7B4EEA0F]  (AR v2)
All tracks accurately ripped
End of status report
---- CUETools DB Plugin V2.1.6
[CTDB TOCID: s3NUDqtX491g2rQx7jSYrgqvFSY-] found
Submit result: already submitted
Track | CTDB Status
  1   | (7/7) Accurately ripped
  2   | (6/7) Accurately ripped
  3   | (6/7) Accurately ripped
  4   | (7/7) Accurately ripped
  5   | (7/7) Accurately ripped
  6   | (7/7) Accurately ripped
  7   | (7/7) Accurately ripped
  8   | (7/7) Accurately ripped
  9   | (7/7) Accurately ripped
==== Log checksum D792E4CF4C1C1DBD79BB9AB2F245AF9AB9023CCC5C2ACA0D737BEDEDBF7E7D64 ====

Cue Sheet (.cue):

Код:
REM GENRE "Thrash Metal"
REM DATE 1993
REM DISCID 770A9409
REM COMMENT ExactAudioCopy v1.3
PERFORMER "Vio-lence"
TITLE "Nothing to Gain (1993) [Powerage, PRAGE011CD; England, 1997] "
FILE "Vio-lence - Nothing to Gain (1993) [Powerage, PRAGE011CD; England, 1997].flac" WAVE
  TRACK 01 AUDIO
    TITLE "Atrocity"
    INDEX 00 00:00:00
    INDEX 01 00:00:32
  TRACK 02 AUDIO
    TITLE "Twelve Gauge Justice"
    INDEX 01 05:02:57
  TRACK 03 AUDIO
    TITLE "Ageless Eyes"
    INDEX 01 09:49:52
  TRACK 04 AUDIO
    TITLE "Pain of Pleasure/Virtues of Vice"
    INDEX 01 13:59:42
  TRACK 05 AUDIO
    TITLE "Killing My Words"
    INDEX 01 19:45:30
  TRACK 06 AUDIO
    TITLE "Psychotic Memories"
    INDEX 01 24:07:07
  TRACK 07 AUDIO
    TITLE "No Chains"
    INDEX 01 29:30:65
  TRACK 08 AUDIO
    TITLE "Welcoming Party/This Is System"
    INDEX 01 34:34:02
  TRACK 09 AUDIO
    TITLE "Colour of Life"
    INDEX 01 41:28:45

Отчёт auCDtect Task manager:

Код:
-----------------------
DON'T MODIFY THIS FILE
-----------------------
PERFORMER: auCDtect Task Manager, ver. 1.6.0 RC1 build 1.6.0.1
Copyright (c) 2008-2010 y-soft. All rights reserved
http://y-soft.org
ANALYZER: auCDtect: CD records authenticity detector, version 0.8.2
Copyright (c) 2004 Oleg Berngardt. All rights reserved.
Copyright (c) 2004 Alexander Djourik. All rights reserved.
FILE: Vio-lence - Nothing to Gain (1993) [Powerage, PRAGE011CD; England, 1997].flac
  Size: 323199573 Hash: 94F6134888348FA4ADB67700C420F961 Accuracy: -m0
  Conclusion: CDDA 100%
  Signature: E977C8822EF0929D31FB08D55479D16A0FAF8A90

Об исполнителе (группе):

Неотъемлемой частью трэшевой сцены американского западного побережья середины 80-х можно считать Vio-lence. Группа появилась в 1985 году, а ее стартовая конфигурация выглядела так: Джерри Бирр (вокал), Фил Деммел (гитара), Трой Фуа (гитара), Эдди Билли (бас) и Перри Стриклэнд (ударные). Первое время квинтет выступал под маркой Death Penalty, затем переименовался в Violence, а чуть позже парни застолбили копирайт, переделав название в Vio-lence. В марте 1986-го команда провела пробную репетиционную запись, после чего в течение года неоднократно подвергалась кадровым перестановкам. Сначала исчезли Бирр и Билли, уступившие должности Шону Киллиану и Дину Деллу, а в феврале 1987-го на место Фуа прибыл Роб Флинн, завершивший формирование классического состава.
К тому времени Vio-lence уже успели поддать жару в окрестностях Сан-Франциско, и их считали одним из самых бескомпромиссных актов. Примечательно то, что на ранней стадии ребята сами не писали тексты, а пользовались услугами друзей и знакомых, поставлявших им всякий прикольный материал. Ситуация изменилась с появлением
Шона, который лично взялся за лирику и, изгнав всякий юмор, начинил ее злобными эпитафиями.
В начале 1988-го команда прибыла на лейбл Mechanic, являвшийся подразделением MCA, и выпустила под его прикрытием второе демо. Фирма за бесплатно рассылала пленку всем желающим, и таким образом разошлось 4000 экземпляров, что заставило андеграунд нетерпеливо почесываться в предвкушении дебютника Vio-lence. Впрочем, ждать слушателям пришлось недолго, и диск "Eternal Nightmare" вскоре поступил в продажу. Сногсшибательные риффы и яростный напор обеспечили альбому место в заветном Топ 200, а тираж пластинки превысил 30000 экземпляров. Сопутствующие релизу туры группа провела в компании с Testament и Forbidden, а на следующий год сопровождала еще одних братьев по трэшу, Voivod.
Во время подготовки второй полнометражки коллективу пришлось сменить лейбл, и музыканты нашли себе пристанище на Megaforce Records, где уже тусовались их соратники Anthrax, Testament, Overkill и M.O.D. Записанный в нью-йоркской студии "Pyramid" под руководством небезызвестного Алекса Периалеса, альбом "Oppressing the Masses" не уступал по энергетике своему предшественнику и вызвал у народа эмоции, схожие с появлением "Eternal Nightmare".
Впрочем, на этот раз не обошлось без ложки дегтя, поскольку дистрибьюторы с Atlantic придрались к тексту песни "Torture Tactics", и весь первый тираж (20000 копий) был уничтожен. Альбом вышел в отредактированном варианте, а злополучный трек все же увидел свет на одноименном EP 1991 года, который отважился издать лейбл Caroline Records. Пока продолжалась вся эта неразбериха, музыканты опрометчиво расстались со своим менеджером Дебби Абоно, о чем им позже пришлось пожалеть. Уже в турне 1990 года, которое "Vio-lence" наполовину провели в статусе хедлайнеров, стала проявляться неорганизованность, а когда дело дошло до очередных сессий, отношения в коллективе сильно подпортились. Оправдывавший свое название альбом "Nothing to Gain" отличался от двух первых работ в худшую сторону, и потому материал был заброшен на полку, а позже Megaforce вообще разорвала контракт.
Пластинка была все же реализована в 1993 году через европейскую контору Bleeding Hearts, но к тому времени Флинн ушел сколачивать новую команду, Machine Head. С заменившим его Рэем Вегасом и Марком Хернандесом на ударных группа записала одно демо и провела серию концертов, после чего спустила флаг Vio-lence. В начале 21-го века "насильники" с вернувшимися в строй Перри и Троем устроили реюнион, однако с уходом Деммела в Machine Head проект вновь впал в кому, а в 2003 и вовсе прекратил своё существование.

Доп. инфо.:

Encyclopaedia Metallum
Wikipedia

Для ознакомления:




O.S.A.

Пост 04-Мар-2016 08:46

[Цитировать]

-Алексей Чернышёв - Пресвятая Русь--
Год издания: 2015
Страна: Russia
Жанр: Heavy Metal
Продолжительность: 00:33:22-Лейбл издания: Metalist Records
Страна-выпуска диска: Russia
Номер по каталогу: MR 137-15-Формат: FLAC
Битрейт аудио: Lossless
Тип рипа: image +.cue
Наличие сканов в содержимом раздачи: да
-

Трэклист


01. Пресвятая Русь (04:22)
02. Потребитель (демо) (03:08)
03. The Golden Eagle (04:22)
04. Пресвятая Русь (инструментальная версия) (04:14)
05. Хозяин зла (демо) (05:34)
06. Армагеддон (демо) (04:21)
07. Смотритель маяка (демо) (03:37)
08. Мой друг (демо) (03:47)
-

Лог создания рипа

Код:
Exact Audio Copy V1.0 beta 3 from 29. August 2011
Отчёт EAC об извлечении, выполненном 12. сентября 2015, 0:15
Алексей Чернышёв / Пресвятая Русь
Дисковод: ASUS    DRW-24F1ST   a   Adapter: 2  ID: 0
Режим чтения                 : Достоверность
Использование точного потока : Да
Отключение кэша аудио        : Да
Использование указателей C2  : Нет
Коррекция смещения при чтении                     : 6
Способность читать области Lead-in и Lead-out     : Нет
Заполнение пропущенных сэмплов тишиной            : Да
Удаление блоков с тишиной в начале и конце        : Нет
При вычислениях CRC использовались нулевые сэмплы : Да
Интерфейс                                         : Встроенный Win32-интерфейс для Win NT/2000
Выходной формат : Внутренние WAV-операции
Формат сэмплов  : 44.100 Гц; 16 бит; стерео
TOC извлечённого CD
     Трек |   Старт  | Длительность | Начальный сектор | Конечный сектор
    ---------------------------------------------------------------------
       1  |  0:00.00 |    4:21.58   |           0      |      19632
       2  |  4:21.58 |    3:08.00   |       19633      |      33732
       3  |  7:29.58 |    4:21.44   |       33733      |      53351
       4  | 11:51.27 |    4:13.22   |       53352      |      72348
       5  | 16:04.49 |    5:33.56   |       72349      |      97379
       6  | 21:38.30 |    4:20.24   |       97380      |     116903
       7  | 25:58.54 |    3:36.46   |      116904      |     133149
       8  | 29:35.25 |    3:46.02   |      133150      |     150101
Характеристики диапазона извлечения и сообщения об ошибках
Выбранный диапазон
     Имя файла X:\Temps\Алексей Чернышёв - Пресвятая Русь.wav
     Пиковый уровень 100.0 %
     Скорость извлечения 2.8 X
     Качество диапазона 100.0 %
     CRC теста 632236CB
     CRC копии 632236CB
     Копирование... OK
Ошибок не произошло
AccurateRip: сводка
Трек  1  отсутствует в базе данных
Трек  2  отсутствует в базе данных
Трек  3  отсутствует в базе данных
Трек  4  отсутствует в базе данных
Трек  5  отсутствует в базе данных
Трек  6  отсутствует в базе данных
Трек  7  отсутствует в базе данных
Трек  8  отсутствует в базе данных
Ни одного трека нет в базе AccurateRip
Конец отчёта

Индексная карта (non-compilant .cue)

Код:
REM GENRE "Heavy Metal"
REM DATE 2015
REM DISCID 5D07D108
REM COMMENT "ExactAudioCopy v1.0b3"
PERFORMER "Алексей Чернышёв"
TITLE "Пресвятая Русь"
FILE "Алексей Чернышёв - Пресвятая Русь.flac" WAVE
  TRACK 01 AUDIO
    TITLE "Пресвятая Русь"
    PERFORMER "Алексей Чернышёв"
    INDEX 01 00:00:00
  TRACK 02 AUDIO
    TITLE "Потребитель (демо)"
    PERFORMER "Алексей Чернышёв"
    INDEX 01 04:21:58
  TRACK 03 AUDIO
    TITLE "The Golden Eagle"
    PERFORMER "Алексей Чернышёв"
    INDEX 01 07:29:58
  TRACK 04 AUDIO
    TITLE "Пресвятая Русь (инструментальная версия)"
    PERFORMER "Алексей Чернышёв"
    INDEX 01 11:51:27
  TRACK 05 AUDIO
    TITLE "Хозяин зла (демо)"
    PERFORMER "Алексей Чернышёв"
    INDEX 01 16:04:49
  TRACK 06 AUDIO
    TITLE "Армагеддон (демо)"
    PERFORMER "Алексей Чернышёв"
    INDEX 01 21:38:30
  TRACK 07 AUDIO
    TITLE "Смотритель маяка (демо)"
    PERFORMER "Алексей Чернышёв"
    INDEX 01 25:58:54
  TRACK 08 AUDIO
    TITLE "Мой друг (демо)"
    PERFORMER "Алексей Чернышёв"
    INDEX 01 29:35:25
-- -Оформление: sergej644-

Haron

Пост 29-Апр-2012 02:57

[Цитировать]

Блин! Что за нахрен! Что это за Ё...ый неведомый формат аудио???!!!! WTF??! КАГ мне из этого говна сделать нормальное аудио??!!

Haron

Пост 08-Мар-2012 13:08

[Цитировать]

новый альбомчик появится на трекере??)

Nugeiro

Пост 08-Янв-2012 13:39

[Цитировать]

Эпидемия - Эльфийская Рукопись. Сказание На Все Времена
Страна: Россия
Жанр: Power Metall
Год выпуска: 2007
Формат: ALAC (tracks)
Битрейт аудио: lossless
Продолжительность: 01:04:13
Трэклист:
01 Пролог
02 Звёздный Портал
03 Владыки Гор
04 Исповедь Первого Бога
05 Сказание Снегов
06 Нити Судьбы
07 Без Сердца И Души
08 Океан Пустоты
09 Сказание Огня
10 Остров Драконов
11 Сказание На Все Времена
12 Солнца Свет
13 В Небеса

Отчёт EAC

Код:
Exact Audio Copy V0.99 prebeta 5 from 4. May 2009
Отчёт EAC об извлечении, выполненном 11. июня 2010, 19:06
Эпидемия / Эльфийская Рукопись. Сказание На Все Времена
Дисковод: Optiarc DVD RW AD-7173A Adapter: 0 ID: 1
Режим чтения : Достоверность
Использование точного потока : Да
Отключение кэша аудио : Да
Использование указателей C2 : Нет
Коррекция смещения при чтении : 48
Способность читать области Lead-in и Lead-out : Нет
Заполнение пропущенных сэмплов тишиной : Да
Удаление блоков с тишиной в начале и конце : Нет
При вычислениях CRC использовались нулевые сэмплы : Да
Интерфейс : Установленный внешний ASPI-интерфейс
Выходной формат : Внутренние WAV-операции
Формат сэмплов : 44.100 Гц; 16 бит; стерео
TOC извлечённого CD
Трек | Старт | Длительность | Начальный сектор | Конечный сектор
---------------------------------------------------------------------
1 | 0:00.00 | 2:09.40 | 0 | 9714
2 | 2:09.40 | 5:21.10 | 9715 | 33799
3 | 7:30.50 | 5:24.03 | 33800 | 58102
4 | 12:54.53 | 4:46.06 | 58103 | 79558
5 | 17:40.59 | 1:43.18 | 79559 | 87301
6 | 19:24.02 | 5:39.24 | 87302 | 112750
7 | 25:03.26 | 8:31.29 | 112751 | 151104
8 | 33:34.55 | 5:06.69 | 151105 | 174123
9 | 38:41.49 | 0:46.04 | 174124 | 177577
10 | 39:27.53 | 4:31.03 | 177578 | 197905
11 | 43:58.56 | 12:43.17 | 197906 | 255147
12 | 56:41.73 | 5:03.41 | 255148 | 277913
13 | 61:45.39 | 2:31.31 | 277914 | 289269
Характеристики диапазона извлечения и сообщения об ошибках
Выбранный диапазон
Имя файла D:\RIP\Эпидемия - Эльфийская Рукопись. Сказание На Все Времена\Эпидемия - Эльфийская Рукопись. Сказание На Все Времена.wav
Пиковый уровень 97.7 %
Качество диапазона 99.9 %
CRC теста F9A93C93
CRC копии F9A93C93
Копирование... OK
Ошибок не произошло
AccurateRip: сводка
Трек 1 точное извлечение (доверие 6) [4484D338]
Трек 2 точное извлечение (доверие 6) [54896393]
Трек 3 точное извлечение (доверие 6) [C565C38E]
Трек 4 точное извлечение (доверие 6) [1FB5C85A]
Трек 5 точное извлечение (доверие 6) [02320B0C]
Трек 6 точное извлечение (доверие 5) [5D4D03C8]
Трек 7 точное извлечение (доверие 5) [7E449B07]
Трек 8 точное извлечение (доверие 5) [A57FB326]
Трек 9 точное извлечение (доверие 6) [13FB7B56]
Трек 10 точное извлечение (доверие 6) [E5D34E07]
Трек 11 точное извлечение (доверие 6) [DF7BAE82]
Трек 12 точное извлечение (доверие 6) [967BCCFB]
Трек 13 точное извлечение (доверие 6) [A62EDBA6]
Все треки извлечены точно
Конец отчёта
--

Nugeiro

Пост 08-Янв-2012 13:35

[Цитировать]

Эпидемия - Дорога домой
Страна: Россия
Жанр: Power Metall
Год выпуска: 2010
Формат: ALAC (tracks)
Битрейт аудио: lossless
Продолжительность: 01:12:43
Трэклист:
01. Последний рассвет (4:41)
02. Время выбора (4:00)
03. Беззвездная ночь (6:14)
04. В дюйме от паденья (5:33)
05. Дорога домой (8:46)
06. Страна забвения (3:55)
07. Сумеречный ангел (5:38)
08. В этом сне (6:26)
09. Не остановить мечту (5:43)
10. Взошла луна (4:34)
11. Встречный ветер (5:41)
12. Феникс (6:22)
13. Вернись (5:16)

EAC

Код:
Exact Audio Copy V1.0 beta 1 from 15. November 2010
EAC extraction logfile from 8. January 2011, 1:02
Эпидемия / Дорога Домой
Used drive  : HL-DT-STDVDRAM_GH15N   Adapter: 3  ID: 1
Read mode               : Secure
Utilize accurate stream : Yes
Defeat audio cache      : Yes
Make use of C2 pointers : No
Read offset correction                      : 667
Overread into Lead-In and Lead-Out          : No
Fill up missing offset samples with silence : Yes
Delete leading and trailing silent blocks   : No
Null samples used in CRC calculations       : Yes
Used interface                              : Native Win32 interface for Win NT & 2000
Used output format              : User Defined Encoder
Selected bitrate                : 1024 kBit/s
Quality                         : High
Add ID3 tag                     : No
Command line compressor         : C:\Program Files\Exact Audio Copy\Flac\flac.exe
Additional command line options :  -8 -V %s
TOC of the extracted CD
     Track |   Start  |  Length  | Start sector | End sector
    ---------------------------------------------------------
        1  |  0:00.00 |  4:40.66 |         0    |    21065
        2  |  4:40.66 |  4:00.07 |     21066    |    39072
        3  |  8:40.73 |  6:14.37 |     39073    |    67159
        4  | 14:55.35 |  5:33.24 |     67160    |    92158
        5  | 20:28.59 |  8:45.50 |     92159    |   131583
        6  | 29:14.34 |  3:54.74 |    131584    |   149207
        7  | 33:09.33 |  5:37.46 |    149208    |   174528
        8  | 38:47.04 |  6:26.18 |    174529    |   203496
        9  | 45:13.22 |  5:42.43 |    203497    |   229189
       10  | 50:55.65 |  4:34.08 |    229190    |   249747
       11  | 55:29.73 |  5:41.13 |    249748    |   275335
       12  | 61:11.11 |  6:21.67 |    275336    |   303977
       13  | 67:33.03 |  5:16.14 |    303978    |   327691
Range status and errors
Selected range
     Filename C:\Downloads\Эпидемия - Дорога Домой.wav
     Peak level 100.0 %
     Extraction speed 0.5 X
     Range quality 100.0 %
     Copy CRC 9FA515A6
     Copy OK
No errors occurred
AccurateRip summary
Track  1  accurately ripped (confidence 5)  [F8FFA118]
Track  2  accurately ripped (confidence 5)  [B0F58616]
Track  3  accurately ripped (confidence 5)  [ECEBCC40]
Track  4  accurately ripped (confidence 5)  [67C53EE3]
Track  5  accurately ripped (confidence 5)  [98FE2EB0]
Track  6  accurately ripped (confidence 5)  [06FD24DF]
Track  7  accurately ripped (confidence 5)  [24E891E5]
Track  8  accurately ripped (confidence 6)  [671D867B]
Track  9  accurately ripped (confidence 5)  [02C65A8A]
Track 10  accurately ripped (confidence 5)  [34965EBB]
Track 11  accurately ripped (confidence 5)  [8ED4EB92]
Track 12  accurately ripped (confidence 5)  [15ACADAA]
Track 13  accurately ripped (confidence 5)  [58A65068]
All tracks accurately ripped
End of status report

Nugeiro

Пост 08-Янв-2012 13:31

[Цитировать]

Эпидемия - Всадник из льда
Страна: Россия
Жанр: Power Metall
Год выпуска: 2011
Формат: FLAC (image + .cue)
Битрейт аудио: lossless
Продолжительность: 1 час 05 мин 11 сек
Трэклист:
01. Тень Любви
02. Н.А.С.Т.Я.
03. Страна Забвения
04. Вернись
05 .Всадник Из Льда
06. Романс О Слезе
07. Океан Пустоты
08. Я Молился На Тебя
09. Charmed By Eyelashes
10. Реквием
11. Прощай, Мой Дом
12. Фея Моих Снов
13. Песня Снегов

Отчёт EAC

Код:
Exact Audio Copy V1.0 beta 2 from 29. April 2011
Отчёт EAC об извлечении, выполненном 4. января 2012, 23:25
Эпидемия / Всадник из льда
Дисковод: ASUS DRW-22B2S Adapter: 0 ID: 1
Режим чтения : Достоверность
Использование точного потока : Да
Отключение кэша аудио : Да
Использование указателей C2 : Нет
Коррекция смещения при чтении : 6
Способность читать области Lead-in и Lead-out : Нет
Заполнение пропущенных сэмплов тишиной : Да
Удаление блоков с тишиной в начале и конце : Нет
При вычислениях CRC использовались нулевые сэмплы : Да
Интерфейс : Встроенный Win32-интерфейс для Win NT/2000
Выходной формат : Пользовательский кодировщик
Выбранный битрейт : 768 kBit/s
Качество : Высокий
Добавление ID3-тега : Нет
Утилита сжатия : C:\Program Files (x86)\Exact Audio Copy\FLAC\FLAC.EXE
Дополнительные параметры : -8 -V -T "ARTIST=%artist%" -T "TITLE=%title%" -T "ALBUM=%albumtitle%" -T "DATE=%year%" -T "TRACKNUMBER=%tracknr%" -T "GENRE=%genre%" -T "COMMENT=%comment%" -T "BAND=%albuminterpret%" -T "COMPOSER=%composer%" %haslyrics%--tag-from-
TOC извлечённого CD
Трек | Старт | Длительность | Начальный сектор | Конечный сектор
---------------------------------------------------------------------
1 | 0:00.00 | 4:09.62 | 0 | 18736
2 | 4:09.62 | 7:00.47 | 18737 | 50283
3 | 11:10.34 | 3:55.42 | 50284 | 67950
4 | 15:06.01 | 5:14.23 | 67951 | 91523
5 | 20:20.24 | 5:10.61 | 91524 | 114834
6 | 25:31.10 | 6:19.44 | 114835 | 143303
7 | 31:50.54 | 5:12.06 | 143304 | 166709
8 | 37:02.60 | 4:37.16 | 166710 | 187500
9 | 41:40.01 | 4:10.40 | 187501 | 206290
10 | 45:50.41 | 5:06.44 | 206291 | 229284
11 | 50:57.10 | 4:20.41 | 229285 | 248825
12 | 55:17.51 | 5:55.07 | 248826 | 275457
13 | 61:12.58 | 3:58.21 | 275458 | 293328
Характеристики диапазона извлечения и сообщения об ошибках
Выбранный диапазон
Имя файла D:\music\Rock\Наше\Эпидемия\lossless\2011 - Всадник из льда\Эпидемия - Всадник из льда.wav
Пиковый уровень 98.8 %
Скорость извлечения 3.5 X
Качество диапазона 100.0 %
CRC теста BD7B59D6
CRC копии BD7B59D6
Копирование... OK
Ошибок не произошло
AccurateRip: сводка
Трек 1 отсутствует в базе данных
Трек 2 отсутствует в базе данных
Трек 3 отсутствует в базе данных
Трек 4 отсутствует в базе данных
Трек 5 отсутствует в базе данных
Трек 6 отсутствует в базе данных
Трек 7 отсутствует в базе данных
Трек 8 отсутствует в базе данных
Трек 9 отсутствует в базе данных
Трек 10 отсутствует в базе данных
Трек 11 отсутствует в базе данных
Трек 12 отсутствует в базе данных
Трек 13 отсутствует в базе данных
Ни одного трека нет в базе AccurateRip
Конец отчёта
==== Контрольная сумма отчёта 0D5CEFBCB1D858370F32FA3E70BDE83D04BD0BBBEBD5347C5D9CB86BC7B0321B ====

Nugeiro

Пост 08-Янв-2012 11:29

[Цитировать]

Red Line In Your Eyes / Ненависть
Жанр: MDM/Metalcore
Страна-производитель диска: Russia
Год издания диска: 2011
Издатель (лейбл): RM-Records
Страна: Russia
Аудиокодек: FLAC (*.flac)
Тип рипа: tracks
Битрейт аудио: lossless
Продолжительность: 26:11
Источник (релизер): Участник группы
Наличие сканов в содержимом раздачи: нет
Треклист:
1. начало
2. ненависть
3. идолы лжи
4. мой мир
5. беги от судьбы
6. слезы
7. душа
8. сердце

Об исполнителе (группе)

RLIYE сегодня – это стремительно развивающийся коллектив единомышленников, старающийся привнести что-то новое в современную металл-сцену, сохранив при этом все самое лучшее от нестареющих традиционных стилей тяжелой музыки.
В творчестве RLIYE вы услышите мелодию, сочетающуюся с зубодробительными брэкдаунами и искрометными соло, разнообразные вокальные партии, насыщенные как экстремальными видами вокала, так и чистым голосом.
Лирика группы разнонаправлена. От протеста до обычных человеческих чувств. Ничто нам не чуждо!
Мы не стремимся действовать в строго определенных рамках, поэтому, хоть, и характеризируем свой стиль как Melodic Death Metal\Metalcore, каждый услышавший нас, может найти в нашем творчестве что-то, отличающее наш стиль от заявленного.
Страница группы http://vk.com/rliye

Об альбоме (сборнике)

Распустившийся бутон мира увядает...
Дети его страдают от пучины прогнивших устоев, пахнущих фекалиями двойных стандартов!
Сами себе придумывая новых идолов – шагают на встречу ими же искаженного пространства, не желая открывать глаза! Полагая обрести там счастье.
Но находя лишь фантом совершенства, с лживыми гранями навязанных кем-то идей.
Пытаясь прорвать пелену обмана, крик утихает.
Обгрызая остатки воли рвётся наружу, круша все-то, что когда-то казалось самым главным, но потом потеряло смысл – НЕНАВИСТЬ!
И только где-то на грани безумия еще теплится в тлеющих закромах души – надежда, не желающая признавать поражение. Ища в углях руки своих спутниц – любви и веры...

Состав

Пиманов Илья (Extreme VOX)
Бирюков Игорь (Guitar)
Раков Иван (Bass Guitar)
Шибанов Александр (Guitar, Clean VOX)
Рычков Дмитрий (Drums)

Audiochecker log

Код:
AUDIOCHECKER v2.0 beta (build 457) - by Dester - opdester@freemail.hu
~~~~~~~~~~~~~~~~~~~~~~~~~~~~~~~~~~
Started at: пятница, 23. 12. 2011. - 18:52.08
8 files found
1 -===- D:\Музыка\Red line in your eyes\RLIYE\1.начало.flac
Extracted successfully
Conclusion: this track is CDDA with probability 100%
Tempfile successfully deleted.
2 -===- D:\Музыка\Red line in your eyes\RLIYE\2.ненависть.flac
Extracted successfully
Conclusion: this track is CDDA with probability 99%
Tempfile successfully deleted.
3 -===- D:\Музыка\Red line in your eyes\RLIYE\3.идолы лжи.flac
Extracted successfully
Conclusion: this track is CDDA with probability 100%
Tempfile successfully deleted.
4 -===- D:\Музыка\Red line in your eyes\RLIYE\4.мой мир.flac
Extracted successfully
Conclusion: this track is CDDA with probability 100%
Tempfile successfully deleted.
5 -===- D:\Музыка\Red line in your eyes\RLIYE\5.беги от судьбы.flac
Extracted successfully
Conclusion: this track is CDDA with probability 100%
Tempfile successfully deleted.
6 -===- D:\Музыка\Red line in your eyes\RLIYE\6.слезы.flac
Extracted successfully
Conclusion: this track is CDDA with probability 100%
Tempfile successfully deleted.
7 -===- D:\Музыка\Red line in your eyes\RLIYE\7.душа.flac
Extracted successfully
Conclusion: this track is CDDA with probability 100%
Tempfile successfully deleted.
8 -===- D:\Музыка\Red line in your eyes\RLIYE\8.сердце.flac
Extracted successfully
Conclusion: this track is CDDA with probability 100%
Tempfile successfully deleted.
Finished at: пятница, 23. 12. 2011. - 18:54.15 (operation time: 0:02.06)

Nugeiro

Пост 12-Окт-2011 08:27

[Цитировать]

Cosmonauts Day - Live Demos (EP) - 2011--Жанр: Post-metal, Progressive Sludge || Страна: Россия (Москва) || Год издания: 2011 || Формат: ALAC (tracks) || Битрейт аудио: lossless || Продолжительность: 31:09-- Заслуженная post-metal банда из Москвы, за короткий срок успевшая отыграть большое количество концертов в Москве и за ее пределами, а также выступить на одной сцене с KEELHAUL, BRUCE LAMONT, TALBOT. Дебютный EP "Live Demos", записанный живьем, собрал огромное количество положительных отзывов по всему миру. ABSOLUTE EPIC (c) thesirenssound.com (UK)
--Треклист:
01. Cosmonauts Day - Cave of trees (7:42)
02. Cosmonauts Day - Eashmeah (7:55)
03. Cosmonauts Day - Scott Von Scogin (10:52)
04. Cosmonauts Day - The Last Watchman (4:40)
--

Биография

From the depths of Russian underground scene comes absolutely epic spaced out sludge outfit Cosmonauts Day! Intense guitar riffing, crushing to the ground and below drum stabbing, wicked bass, dreamy solos and an atmoshere of a cold space - their music is a mind journey to the places you've never known.
Gathered in 2008 band changed it's musicians several times untill strong live line up was formed. After a year of a constant live shows Cosmonauts Day entered the studio to record their first "Live Demos" EP. Material was performed live in two days and then mixed and mastered at Destroy The Humanity Studios in Moscow. Line up at that time was Dima (EndName) - guitars, Chekan - guitars, Nikita - drums, Andres (Kamni, ex- Lord Of Doubts) - bass.
Now Cosmonauts Day are working on their first full length that will be released in autumn 2011.
--

Состав

Никита - drums
Красен - bass
Чекан - guitars
Дима (EndName) - guitars
--

Скриншот тегов

 
--

Nugeiro

Пост 12-Окт-2011 08:26

[Цитировать]

Cosmonauts Day - Live Demos (EP) - 2011--Жанр: Post-metal, Progressive Sludge || Страна: Россия (Москва) || Год издания: 2011 || Формат: FLAC (tracks) || Битрейт аудио: lossless || Продолжительность: 31:09-- Заслуженная post-metal банда из Москвы, за короткий срок успевшая отыграть большое количество концертов в Москве и за ее пределами, а также выступить на одной сцене с KEELHAUL, BRUCE LAMONT, TALBOT. Дебютный EP "Live Demos", записанный живьем, собрал огромное количество положительных отзывов по всему миру. ABSOLUTE EPIC (c) thesirenssound.com (UK)
--Треклист:
01. Cosmonauts Day - Cave of trees (7:42)
02. Cosmonauts Day - Eashmeah (7:55)
03. Cosmonauts Day - Scott Von Scogin (10:52)
04. Cosmonauts Day - The Last Watchman (4:40)
--

Биография

From the depths of Russian underground scene comes absolutely epic spaced out sludge outfit Cosmonauts Day! Intense guitar riffing, crushing to the ground and below drum stabbing, wicked bass, dreamy solos and an atmoshere of a cold space - their music is a mind journey to the places you've never known.
Gathered in 2008 band changed it's musicians several times untill strong live line up was formed. After a year of a constant live shows Cosmonauts Day entered the studio to record their first "Live Demos" EP. Material was performed live in two days and then mixed and mastered at Destroy The Humanity Studios in Moscow. Line up at that time was Dima (EndName) - guitars, Chekan - guitars, Nikita - drums, Andres (Kamni, ex- Lord Of Doubts) - bass.
Now Cosmonauts Day are working on their first full length that will be released in autumn 2011.
--

Состав

Никита - drums
Красен - bass
Чекан - guitars
Дима (EndName) - guitars
--

Лог проверки качества

Код:
AUDIOCHECKER v2.0 beta (build 457) - by Dester - opdester@freemail.hu~~~~~~~~~~~~~~~~~~~~~~~~~~~~~~~~~~-=== НЕ РЕДАКТИРУЙТЕ ЭТОТ ФАЙЛ! ===-
Путь: ...\(post-metal, progressive sludge) Cosmonauts Day - Live Demos (EP) - (2011) Flac1
1 -=- 01. Cave of trees.flac -=- CDDA (100%)2 -=- 02. Eashmeah.flac -=- CDDA (99%)3 -=- 03. Scott Von Scogin.flac -=- CDDA (100%)4 -=- 04. The Last Watchman.flac -=- CDDA (100%)
Сводка 99,75% CDDA
172412484
--

Nugeiro

Пост 03-Окт-2011 08:41

[Цитировать]

Спасибо!
 

Текущее время: Сегодня 15:52

Часовой пояс: GMT + 3