Сегодня идет свободное скачивание без начисления Download

Результатов поиска: 1

Автор Сообщение

KottoSOFT

Пост 09-Апр-2016 09:55

[Цитировать]

Футбол. Чемпионат Испании 2015-2016. 32 тур. Гранада - Малага (08.04.2016) HDTVRip [H.264/720p-LQ] - Телекомпания: Футбол 2 HD
Жанр: Спорт
Комментатор: Сергей Дерябкин
Описание:
08 апреля 2016, пятница. 21:30 МСК
32-й тур
Стадион: Лос-Карменес (Гранада, Испания) , 18 979 зрителей (82 % при вместимости 23 014)
Главный судья: Хавьер Эстрада Фернандес (Лерида, Испания)
Ассистент: Мигель Мартинес Мунуэра (Испания)
Ассистент: Франсиско Хавьер Мартин Гарсия (Испания)
Резервный: Пере Барсело Рока (Испания)
Продолжительность: 01:42:52
Качество видео: HDTVRip
Формат видео: MKV
Автор рипа: dfkthbq1968
Видео: AVC/H.264, 1280x720, ~3500 Kbps, 25 fps
Аудио: AC3, 2 ch, 128 Kbps

Mediainfo:

Код:
Общее
Уникальный идентификатор                 : 227860312799217101081636304237601864579 (0xAB6C4CC9E654E4CE87A9C3099019BB83)
Полное имя                               : G:\СПОРТ\ФУТБОЛ\ИСПАНИЯ\Футбол. Чемпионат Испании 2015-2016. 32 тур. Гранада-Малага HDTVRip 720p.mkv
Формат                                   : Matroska
Версия формата                           : Version 4 / Version 2
Размер файла                             : 2,62 Гбайт
Продолжительность                        : 1 ч. 42 м.
Общий поток                              : 3652 Кбит/сек
Дата кодирования                         : UTC 2016-04-09 06:25:59
Программа кодирования                    : mkvmerge v9.0.1 ('Obstacles') 64bit
Библиотека кодирования                   : libebml v1.3.3 + libmatroska v1.4.4
Видео
Идентификатор                            : 1
Формат                                   : AVC
Формат/Информация                        : Advanced Video Codec
Профиль формата                          : [url=mailto:High@L4.1]High@L4.1[/url]
Параметр CABAC формата                   : Да
Параметр ReFrames формата                : 4 кадра
Идентификатор кодека                     : V_MPEG4/ISO/AVC
Продолжительность                        : 1 ч. 42 м.
Битрейт                                  : 3523 Кбит/сек
Ширина                                   : 1280 пикселей
Высота                                   : 720 пикселей
Соотношение сторон                       : 16:9
Соотношение сторон в оригинале           : 16:9
Режим частоты кадров                     : Постоянный
Частота кадров                           : 25,000 кадров/сек
Цветовое пространство                    : YUV
Субдискретизация насыщенности            : 4:2:0
Битовая глубина                          : 8 бит
Тип развёртки                            : Прогрессивная
Бит/(Пиксели*Кадры)                      : 0.153
Размер потока                            : 2,53 Гбайт (96%)
Default                                  : Да
Forced                                   : Нет
Аудио
Идентификатор                            : 2
Формат                                   : AC-3
Формат/Информация                        : Audio Coding 3
Расширение режима                        : CM (complete main)
Параметр Endianness формата              : Big
Идентификатор кодека                     : A_AC3
Продолжительность                        : 1 ч. 42 м.
Вид битрейта                             : Постоянный
Битрейт                                  : 128 Кбит/сек
Каналы                                   : 2 канала
Расположение каналов                     : Front: L R
Частота                                  : 48,0 КГц
Частота кадров                           : 31,250 кадров/сек (1536 spf)
Метод сжатия                             : С потерями
Размер потока                            : 94,2 Мбайт (4%)
Язык                                     : Russian
Default                                  : Да
Forced                                   : Нет
Скриншоты:
       
 

Текущее время: Сегодня 15:50

Часовой пояс: GMT + 3