Сегодня идет свободное скачивание без начисления Download

Результатов поиска: 1

Автор Сообщение

Clavik

Пост 18-Май-2015 20:20

[Цитировать]

Страшная воля богов / Kamisama no iu tori (2014) WEB-DLRip«Daruma doll did it»- Производство: Japan / OLM, Toho Company, Toho Pictures
Жанр: ужасы, триллер
Режиссер: Такаси Миике
Продюсер: Юсукэ Исигуро, Сигедзи Маэда, Мисако Сака
Актеры: Рюноскэ Камики, Сёта Сомэтани, Рири Фуранки, Фукуси Сота, Ацуко Маеда, Хирона Ямадзаки, Дзинги Ириэ, Мио Юки, Нао Омори, Рена Шимура
Описание:
Сун Такахата тяготится своей заурядной жизнью, пока однажды в его классе не начинают происходить странные вещи. Школьникам являются загадочные игрушки во главе с куклой Дарума — божеством, приносящим счастье. Загадочные посетители призывают ребят принять участие в играх, цена которым — жизнь. Они подбадривают сомневающихся, рисуя радужные перспективы. Однако в случае отказа от участия им грозит немедленная смерть…

sample
Возраст: 18+
Продолжительность: 01:52:27
Качество: WEB-DLRip
Перевод: профессиональный (полное дублирование) (iTunes Russia)
Субтитры: отсутствуют
Видеокодек: XviD
Битрейт видео: ~ 1 397 kbps
Размер кадра: 720 х 304 (2,35:1)
Аудиокодек: АС3, 6 ch
Битрейт аудио: 384 kbps

MediaInfo

Код:
Общее
Полное имя                               : F:\Strashnaya.volya.bogov.2014.D.WEB-DLRip.1.46GB.avi
Формат                                   : AVI
Формат/Информация                        : Audio Video Interleave
Размер файла                             : 1,46 Гбайт
Продолжительность                        : 1 ч. 56 м.
Общий поток                              : 1790 Кбит/сек
Программа кодирования                    : VirtualDubMod 1.5.10.3 | [url=http://www.virtualdub-fr.org]www.virtualdub-fr.org[/url] || (build 2550/release)
Библиотека кодирования                   : VirtualDubMod build 2550/release
Видео
Идентификатор                            : 0
Формат                                   : MPEG-4 Visual
Профиль формата                          : Advanced Simple@L5
Параметр BVOP формата                    : 2
Параметр QPel формата                    : Нет
Параметр GMC формата                     : Без точки перехода
Параметр матрицы формата                 : Default (MPEG)
Идентификатор кодека                     : XVID
Идентификатор кодека/Подсказка           : XviD
Продолжительность                        : 1 ч. 56 м.
Битрейт                                  : 1397 Кбит/сек
Ширина                                   : 720 пикселей
Высота                                   : 304 пикселя
Соотношение сторон                       : 2,35:1
Частота кадров                           : 24,000 кадра/сек
Цветовое пространство                    : YUV
Субдискретизация насыщенности            : 4:2:0
Битовая глубина                          : 8 бит
Тип развёртки                            : Прогрессивная
Метод сжатия                             : С потерями
Бит/(Пиксели*Кадры)                      : 0.266
Размер потока                            : 1,14 Гбайт (78%)
Библиотека кодирования                   : XviD 1.2.1 (UTC 2008-12-04)
Аудио
Идентификатор                            : 1
Формат                                   : AC-3
Формат/Информация                        : Audio Coding 3
Расширение режима                        : CM (complete main)
Параметр Endianness формата              : Big
Идентификатор кодека                     : 2000
Продолжительность                        : 1 ч. 56 м.
Вид битрейта                             : Постоянный
Битрейт                                  : 384 Кбит/сек
Каналы                                   : 6 каналов
Расположение каналов                     : Front: L C R, Side: L R, LFE
Частота                                  : 48,0 КГц
Битовая глубина                          : 16 бит
Метод сжатия                             : С потерями
Размер потока                            : 321 Мбайт (21%)
Выравнивание                             : Разделение по промежуткам
Продолжительность промежутка             : 42  мс. (1,00 видеокадр)
Время предзагрузки промежутка            : 500  мс.
-Скриншоты:
       
-
 

Текущее время: Сегодня 03:23

Часовой пояс: GMT + 3