Сегодня идет свободное скачивание без начисления Download

Результатов поиска: 147

Автор Сообщение

BiteFly

Пост 15-Дек-2011 18:07

[Цитировать]

Kraftwerk - The Man Machine- Год: 1978
Страна: United Kingdom
Жанр: Electronica
Тип издания: оригинал
Продолжительность: 00:36:17
Тексты: вшиты
Кодек: ALAC
Программа-риповщик : iTunes (диск)
Треклист:
01 The Robots (6:12)
02 Spacelab (5:55)
03 Metropolis (6:01)
04 The Model (3:44)
05 Neon Lights (8:54)
06 The Man Machine (5:32)-

Скриншоты

Лог извлечения/проверки

   

BiteFly

Пост 22-Ноя-2011 12:38

[Цитировать]

Depeche Mode - Remixes 81-04
Жанр: New Wave, Synthpop, Synthrock
Дата выпуска диска: October 25, 2004
Страна: UK
Лейбл: Mute, Reprise
Аудио кодек: ALAC
Тип рипа: tracks
Битрейт аудио: lossless
Продолжительность: 01:19:17 + 01:19:02 + 01:19:35-Remixes 81-04 — сборник ремиксов на песни группы «Depeche Mode», который был выпущен 25 октября 2004 года. Это первый релиз группы с тех пор как независимая звукозаписывающая компания Дэниела Миллера «Mute Records» была куплена компанией «EMI». На диске собраны хорошо известные ремиксы, которые записала сама группа, а так же те работы, которые не были доступны широкой публике.-Трэклист:
CD1:
1. Never Let Me Down Again [Split Mix] – 9:31 (Depeche Mode & Dave Bascombe, 1987) (from Bong14)
2. Policy of Truth [Capitol Mix] – 8:00 (François Kevorkian, 1990) (from Bong19)
3. Shout! [Rio Remix] – 7:29 (Depeche Mode & Daniel Miller, 1981) (from Mute14)
4. Home [Air 'Around the Golf' Remix] – 3:55 (Air, 1997) (from Bong27)
5. Strangelove [Blind Mix] – 6:32 (Daniel Miller & Rico Conning, 1987) (from LBong13)
6. Rush [Spiritual Guidance Mix] – 5:27 (Jack Dangers, 1993) (from Bong23)
7. I Feel You [Renegade Soundwave Afghan Surgery Mix] – 4:57 (Renegade Soundwave, 1993) (from LBong21)
8. Barrel of a Gun [Underworld Hard Mix] – 9:36 (Underworld, 1997) (from LBong25)
9. Route 66 [Beatmasters Mix] – 6:18 (Beatmasters, 1987) (from Bong15)
10. Freelove [DJ Muggs Remix] – 4:24 (DJ Muggs, 2001) (from Bong32)
11. I Feel Loved [Chamber's Remix] – 6:17 (Chamber, 2001) (from LBong31)
12. Just Can't Get Enough [Schizo Mix] – 6:45 (Depeche Mode & Daniel Miller, 1981) (from Mute16)
CD2:
1. Personal Jesus [Pump Mix] – 7:47 (François Kevorkian, 1989) (from LBong17)
2. World in My Eyes [Mode to Joy] – 6:28 (Jon Marsh, 1990) (from LBong20)
3. Get the Balance Right! [Combination Mix] – 7:56 (Depeche Mode, 1983) (from Bong2)
4. Everything Counts [Absolut Mix] – 6:02 (Alan Moulder, 1989) (from Bong16)
5. Breathing in Fumes – 6:05 (Depeche Mode, Daniel Miller & Gareth Jones, 1986) (from Bong10)
6. Painkiller [Kill the Pain - DJ Shadow vs. Depeche Mode] – 6:29 (DJ Shadow, 1998) (from promo cassette)
7. Useless [The Kruder + Dorfmeister Session™] – 9:06 (Kruder & Dorfmeister, 1997) (from Bong28)
8. In Your Room [The Jeep Rock Mix] – 6:19 (Johnny Dollar with Portishead, 1994) (from Bong24)
9. Dream On [Dave Clarke Acoustic Version] – 4:23 (Dave Clarke, 2001) (from LBong30)
10. It's No Good [Speedy J Mix] – 5:02 (Speedy J, 1997) (from Bong26)
11. Master and Servant [An ON-USound Science Fiction Dance Hall Classic] – 4:35 (Adrian Sherwood, 1984) (from LBong6)
12. Enjoy the Silence [Timo Maas Extended Remix] – 8:41 (Timo Maas, 2004) (previously unavailable)
CD3:
1. A Question of Lust [Flood Remix] – 5:08 (Flood, 1986) (INT126.844 German vinyl, CBong11 UK cassette)
2. Walking in My Shoes [Random Carpet Mix (Full Length)] – 8:37 (William Orbit, 1993) (full length previously unavailable, edited version on LBong22)
3. Are People People? – 4:28 (Adrian Sherwood, 1984) (from L12Bong6)
4. World in My Eyes [Daniel Miller Mix] – 4:37 (Daniel Miller, 1990) (from promo cassette)
5. I Feel Loved [Danny Tenaglia's Labor Of Love Dub (Edit)] – 11:21 (Danny Tenaglia, 2001) (from Bong31)
6. It's No Good [Club 69 Future Mix] – 8:50 (Club 69, 1997) (from promo cassette and CD, an edit appears on US vinyl)
7. Photographic [Rex the Dog Dubb Mix] – 6:20 (Rex the Dog, 2004) (previously unavailable)
8. Little 15 [Ulrich Schnauss Remix] – 4:52 (Ulrich Schnauss, 2004) (previously unavailable)
9. Nothing [Headcleanr Rock Mix] – 3:30 (Headcleanr, 2004) (previously unavailable)
10. Lie To Me ['The Pleasure of Her Private Shame' Remix] – 6:33 (LFO, 2004) (previously unavailable)
11. Clean [Colder Version] – 7:09 (Colder, 2004) (previously unavailable)
12. Halo [Goldfrapp Remix] – 4:22 (Goldfrapp, 2004) (previously unavailable)
13. Enjoy the Silence [Reinterpreted] – 3:32 (Mike Shinoda of Linkin Park, 2004) (previously unavailable)--Доп. информация:
Обложка и тексты вшиты.
Официальный сайт Depeche Mode - depechemode.com-

Скриншот с тегами

--

Paullo

Пост 15-Май-2011 01:18

[Цитировать]

---Ёлка - Дискография--- Жанр: R&B, Reggae, Pop
Период: 2005-2008
Страна: Россия
Аудио кодек:ALAC
Тип рипа: tracks
Программа-риповщик: foobar2000 + iTunes (lossless)
Битрейт аудио: lossless
Обложки: вшиты
Продолжительность: 09:06:16
Тексты: не все

(2005) Ёлка - Город Обмана

Жанр: R&B, Reggae, Pop
Год выпуска: 2005
Формат: M4A
Битрейт аудио: lossless
Трэклист:
01. Пыль
02. Город Обмана
03. Три Пути
04. Ненастоящая Любовь
05. Электропровода
06. I Want To Be A Movie Star
07. 31 Июня
08. Девочка В Пежо
09. Сука Любовь
10. Две Розы
11. Суета
12. Shake It
13. Хорошее Настроение
14. Две Розы (Acoustic Version)
15. Город Обмана (Remix)

(2006) Ёлка - Тени

Жанр: R&B, Reggae, Pop
Год выпуска: 2006
Формат: M4A
Битрейт аудио: lossless
Трэклист:
01. Тонкий Мир Теней
02. Тени
03. Потёртые Джинсы
04. Северное Море
05. Наводнение
06. Ангел-Хранитель
07. Светит Звезда
08. Девочка-Студентка
09. Автобус
10. Хамство
11. Рингтончик
12. Принц Уходящего Дня
13. Я Иду Одна
14. Дождь
15. Зачем ?!
16. Рассвет
17. Сердце Ветра
18. Я Знаю !
19. Bonus Track - Девочка-Студентка (Remix By Al Solo)
20. Bonus Track - Три Пути (Remix By DJ Lenar)

Ёлка - Город Обмана (Переиздание, 2007 год)

Жанр: R&B, Reggae, Pop
Год выпуска: 2007
Формат: M4A
Битрейт аудио: lossless
Трэклист:
01. Пыль
02. Город Обмана
03. Три Пути
04. Ненастоящая Любовь
05. Электропровода
06. I Want To Be A Movie Star
07. 31 Июня
08. Девочка В Пежо
09. Сука Любовь
10. Две Розы
11. Суета
12. Shake It
13. Хорошее Настроение
14. Bonus Track - Две Розы (Acoustic Version)
15. Bonus Track - Город Обмана (Remix)
16. Bonus Track - Последнее Послание
17. Bonus Track - Девочка В Пежо (Romantic Destortion Remix)

Ёлка - Тени (Переиздание, 2007 год)

Жанр: R&B, Reggae, Pop
Год выпуска: 2007
Формат: M4A
Битрейт аудио: lossless
Трэклист:
01. Тонкий Мир Теней
02. Тени
03. Потёртые Джинсы
04. Северное Море
05. Наводнение
06. Ангел-Хранитель
07. Светит Звезда
08. Девочка-Студентка
09. Автобус
10. Хамство
11. Рингтончик
12. Принц Уходящего Дня
13. Я Иду Одна
14. Дождь
15. Зачем ?! (Ft. Мастер ШЕFF)
16. Рассвет (Ft. Мастер ШЕFF)
17. Сердце Ветра
18. Я Знаю !
19. Девочка-Студентка (Remix)
20. Три Пути (Remix)
21. Горы

(2008) Ёлка - Remixes

Жанр: R&B, Reggae, Pop
Год выпуска: 2008
Формат: M4A
Битрейт аудио: lossless
Трэклист:
01. Город Обмана (Remix By Mr. Simon)
02. Девочка В Пежо (Romantic Distortion Remix By Яааman & Мастер ШЕFF)
03. Три Пути (Remix By Mr. Simon)
04. Две Розы (Acoustic Version By Mikitozzz (Shliak))
05. Shake It (Remix By Dan)
06. Три Пути (Remix By DJ Lenar)
07. Хорошее Настроение (Dubinin`s Twilight Mix)
08. Девочка-Студентка (Rock Version Remix By Al Solo)
09. Не Падай Духом (R&B Remix By DJ Lenar)
10. Лети Любовь (Rock Version Remix By Мастер ШЕFF & Громчик)
11. Мальчик-Красавчик (R&B Remix By Al Solo)
12. Доброе Утро (Remix By Мастер ШЕFF & Громчик)
13. Не Падай Духом (Mist Version By Al Solo)
14. Мальчик-Красавчик (Rock Version Remix By Al Solo)
15. Человек Живёт (Drama Version By Al Solo)
16. Кто По Ночам Мечтает !? (Remix By DJ Lenar)
17. Не Падай Духом (R&B Remix By Mark Vasiliev)
18. Мальчик-Красавчик (Remix By DJ Lenar)

(2008) Ёлка - The Best

Жанр: R&B, Reggae, Pop
Год выпуска: 2008
Формат: M4A
Битрейт аудио: lossless
Трэклист:
01. Офисный Работник
02. Город Обмана
03. Тени
04. Этот Великолепный Мир
05. Девочка-Студентка
06. Мальчик-Красавчик
07. Три Пути
08. Точки-Города
09. Лети Любовь
10. Наводнение
11. Город Мой !
12. Девочка В Пежо
13. Доброе УТро
14. Хорошее Настроение
15. Горы
16. Две Розы
17. Не Падай Духом
18. Свобода

(2008) Ёлка - Дуэты (Специальный Выпуск)

Жанр: R&B, Reggae, Pop
Год выпуска: 2008
Формат: M4A
Битрейт аудио: lossless
Трэклист:
01. Al Solo & Ёлка - Счастье
02. Мастер ШЕFF & Ёлка - Рассвет
03. Ёлка & Mr. Simon - I Want To Be A Movie Star
04. Купер & Ёлка - На Горе Фудзияма
05. B & B - Телефон
06. Al Solo & Ёлка - Последнее Послание
07. Мастер ШЕFF & Ёлка - Зачем ?!
08. Ёлка & Mr. Simon - Андеграунд Города
09. Купер & Ёлка - Девочка Гонк-Конга
10. Капа & Ёлка - Поднять Гранит
11. Голос Донбасса & Ёлка - В Бокс Не Играют
12. B & B - Слова , Сказанные Тобой
13. X-Team & Ёлка - Курортный Роман
14. Ёлка & Mr. Simon - Shake It
15. Bad Balance & Ёлка - Автопробки

(2008) Ёлка - Этот Великолепный Мир

Жанр: R&B, Reggae, Pop
Год выпуска: 2008
Формат: M4A
Битрейт аудио: lossless
Трэклист:
01. Этот Великолепный Мир
02. Лети Любовь
03. Точки-Города
04. Ветер
05. Город Мой !
06. Андеграунд Города
07. Мобильный Телефон
08. Мальчик-Красавчик
09. Человек Живёт
10. Не Падай Духом
11. Кто По Ночам Мечтает
12. Свобода
13. Горы
14. Доброе Утро

(2008) Ёлка - Этот Великолепный Мир (Extended Version)

Жанр: R&B, Reggae, Pop
Год выпуска: 2008
Формат: M4A
Битрейт аудио: lossless
Трэклист:
01. Этот Великолепный Мир
02. Лети Любовь
03. Точки-Города
04. Ветер
05. Город Мой
06. Андеграунд Города
07. Мобильный Телефон
08. Мальчик-Красавчик
09. Человек Живёт
10. Не Падай Духом
11. Кто По Ночам Мечтает
12. Свобода
13. Горы
14. Доброе Утро
15. Мальчик-Красавчик (Hard Version by Альберт Краснов)
16. Человек Живёт (Slow Version by Альберт Краснов & Влад Валов)
   

Paullo

Пост 15-Май-2011 01:10

[Цитировать]

Lady GaGa - Born THis Way - Single & Remix EP (iTunes LP)
Год выпуска: 2011
Страна: USA
Жанр: POP
Аудио кодек: AAC
Тип рипа: tracks
Битрейт аудио: 256 kbps
Продолжительность: 28.4 мин
Single
1. Born This Way 4:20
Remix EP
1. Born This Way (The Remixes Part 1) - iTunes LP
2. Born This Way (LA Riots Remix) 6:33
3. Born This Way (Chew Fu Born to Fix Remix) 5:53
4. Born This Way (DJ White Shadow Remix) 4:25
Video
1. Born This Way 7:21
Формат:MP4
Видео кодек: H.264
Аудио кодек: AAC

Скриншоты

Paullo

Пост 15-Май-2011 01:08

[Цитировать]

Zoe - MTV Unplugged: Musica de Fondo / Zoe / Musica de Fondo Unpluggeo on MTV (iTunes LP)
Год выпуска: 2011
Страна: Mexico
Жанр: Rock
Продолжительность: 0:59:14
Аудио кодек: AAC
Описание:
01. Sombras
02. Sone
03. Ultimos Dias
04. No Me Destruyas
05. Labios Rotos
06. Dead
07. Veneno
08. Paula
09. Infinito
10. Via Lactea
11. Poli Love
12. Luna
13. Nada
14. Nunca

Скриншоты

Paullo

Пост 15-Май-2011 01:05

[Цитировать]

Britney Spears - Femme Fatale (Deluxe Version) (iTunes LP) Год выпуска: 2011
Страна: USA
Жанр: Pop, Dance
Продолжительность: 58:34
В ролях: Седьмой студийный альбом Бритни Спирс.
Вышел 25 марта в Австралии на iTunes.
Треклист:
iTunes LP
01. Till The World Ends (3:58)
02. Hold It Against Me (3:50)
03. Inside Out (3:38)
04. I Wanna Go (3:30)
05. How I Roll (3:37)
06. (Drop Dead) Beautiful (feat. Sabi) (3:36)
07. Seal It With A Kiss (3:26)
08. Big Fat Bass (feat. will.i.am) (4:45)
09. Trouble For Me (3:20)
10. Trip To Your Heart (3:34)
11. Gasoline (3:08)
12. Criminal (3:45)
13. Up N' Down (3:42)
14. He About To Lose Me (3:49)
15. Selfish (3:44)
16. Don't Keep Me Waiting (3:21)
Формат: MP4
Аудио кодек: M4A
Аудио: Advanced Audio Codec 256 kbps

Скриншоты

Paullo

Пост 15-Май-2011 00:49

[Цитировать]

Коrsика (Корсика) - Дискография [4] Производство: Россия
Жанр: Heavy Metal
Год выпуска: 2007 - 2010
Полный скан буклета: Да
Формат: M4A
Кодек: ALAC
Программа-риповщик: foobar2000 + iTunes (lossless)
Битрейт: lossless
Продолжительность: 02:42:55

(2007) Коrsика (Корсика) - Играй

Коrsика (Корсика) - Играй Продолжительность: 00:06:16
Тексты: вшиты
Треклист:
01. Храброе сердце (4:53)
02. Морские волки (2:26)
03. Охотник (3:29)
04. Сотни миль на закат (4:33)
05. Громобой (3:24)
06. Играй (3:04)
07. На рубеже (3:25)
08. За тобой (3:43)
09. Долина царей (2:46)
10. Это - рок! (4:49)
11. Bonus- track: Neverland (3:27)

Скриншоты

 

LOG

Exact Audio Copy V0.99 prebeta 4 from 23. January 2008
EAC extraction logfile from 4. April 2009, 17:43
Коrsика / Играй!
Used drive : Optiarc DVD RW AD-7173S Adapter: 6 ID: 0
Read mode : Secure
Utilize accurate stream : Yes
Defeat audio cache : Yes
Make use of C2 pointers : No
Read offset correction : 48
Overread into Lead-In and Lead-Out : No
Fill up missing offset samples with silence : Yes
Delete leading and trailing silent blocks : No
Null samples used in CRC calculations : Yes
Used interface : Native Win32 interface for Win NT & 2000
Gap handling : Appended to previous track
Used output format : Internal WAV Routines
Sample format : 44.100 Hz; 16 Bit; Stereo
TOC of the extracted CD
Track | Start | Length | Start sector | End sector
---------------------------------------------------------
1 | 0:00.00 | 4:52.60 | 0 | 21959
2 | 4:52.60 | 2:26.19 | 21960 | 32928
3 | 7:19.04 | 3:28.38 | 32929 | 48566
4 | 10:47.42 | 4:32.70 | 48567 | 69036
5 | 15:20.37 | 3:24.35 | 69037 | 84371
6 | 18:44.72 | 3:03.52 | 84372 | 98148
7 | 21:48.49 | 3:25.36 | 98149 | 113559
8 | 25:14.10 | 3:43.15 | 113560 | 130299
9 | 28:57.25 | 2:46.25 | 130300 | 142774
10 | 31:43.50 | 4:49.36 | 142775 | 164485
11 | 36:33.11 | 3:26.65 | 164486 | 180000
Track 1
Filename C:\Documents and Settings\Кирилл\Мои документы\Моя музыка\2007 - Играй\Храброе сердце.wav
Pre-gap length 0:00:02.00
Peak level 91.8 %
Track quality 100.0 %
Test CRC FFFA07C4
Copy CRC FFFA07C4
Copy OK
Track 2
Filename C:\Documents and Settings\Кирилл\Мои документы\Моя музыка\2007 - Играй\Морские волки.wav
Peak level 98.3 %
Track quality 100.0 %
Test CRC 9ADAABB0
Copy CRC 9ADAABB0
Copy OK
Track 3
Filename C:\Documents and Settings\Кирилл\Мои документы\Моя музыка\2007 - Играй\Охотник.wav
Peak level 92.2 %
Track quality 100.0 %
Test CRC AA19FF8E
Copy CRC AA19FF8E
Copy OK
Track 4
Filename C:\Documents and Settings\Кирилл\Мои документы\Моя музыка\2007 - Играй\Сотни миль на закат.wav
Peak level 97.6 %
Track quality 99.9 %
Test CRC 58DC5B07
Copy CRC 58DC5B07
Copy OK
Track 5
Filename C:\Documents and Settings\Кирилл\Мои документы\Моя музыка\2007 - Играй\Громобой.wav
Peak level 98.2 %
Track quality 100.0 %
Test CRC 598AA868
Copy CRC 598AA868
Copy OK
Track 6
Filename C:\Documents and Settings\Кирилл\Мои документы\Моя музыка\2007 - Играй\Играй!.wav
Peak level 95.6 %
Track quality 100.0 %
Test CRC 9C72C694
Copy CRC 9C72C694
Copy OK
Track 7
Filename C:\Documents and Settings\Кирилл\Мои документы\Моя музыка\2007 - Играй\На рубеже.wav
Peak level 94.9 %
Track quality 100.0 %
Test CRC 796C2343
Copy CRC 796C2343
Copy OK
Track 8
Filename C:\Documents and Settings\Кирилл\Мои документы\Моя музыка\2007 - Играй\За тобой.wav
Peak level 97.6 %
Track quality 100.0 %
Test CRC 8FEC5B3F
Copy CRC 8FEC5B3F
Copy OK
Track 9
Filename C:\Documents and Settings\Кирилл\Мои документы\Моя музыка\2007 - Играй\Долина царей.wav
Peak level 97.5 %
Track quality 100.0 %
Test CRC B127A173
Copy CRC B127A173
Copy OK
Track 10
Filename C:\Documents and Settings\Кирилл\Мои документы\Моя музыка\2007 - Играй\Это - рок!.wav
Peak level 97.3 %
Track quality 100.0 %
Test CRC 4C009D06
Copy CRC 4C009D06
Copy OK
Track 11
Filename C:\Documents and Settings\Кирилл\Мои документы\Моя музыка\2007 - Играй\Neverland (bonus).wav
Peak level 97.6 %
Track quality 99.9 %
Test CRC B9775D09
Copy CRC B9775D09
Copy OK
No errors occurred
End of status report

(2007) Коrsика (Корсика) - Романтика

Коrsика (Корсика) - Романтика
Продолжительность: 00:35:54
Тексты: вшиты частично
Треклист:
01. Твой берег (3:17)
02. Ha пороге Рая (4:22)
03. Пустой перрон (4:07)
04. Порт Ночь (4:17)
05. Brave Heart (4:55)
06. Hunter (3:31)
07. On the Edge (3:28)
08. Thousand miles to sunset (4:35)
09. Red Rock Button (3:25)

Скриншоты

 

LOG

Exact Audio Copy V0.99 prebeta 5 from 4. May 2009
EAC extraction logfile from 30. July 2009, 14:39
Коrsика / Романтика
Used drive : Optiarc DVD RW AD-7173S Adapter: 2 ID: 0
Read mode : Secure
Utilize accurate stream : Yes
Defeat audio cache : Yes
Make use of C2 pointers : No
Read offset correction : 48
Overread into Lead-In and Lead-Out : No
Fill up missing offset samples with silence : Yes
Delete leading and trailing silent blocks : No
Null samples used in CRC calculations : Yes
Used interface : Native Win32 interface for Win NT & 2000
Gap handling : Appended to previous track
Used output format : Internal WAV Routines
Sample format : 44.100 Hz; 16 Bit; Stereo
TOC of the extracted CD
Track | Start | Length | Start sector | End sector
---------------------------------------------------------
1 | 0:00.00 | 3:17.19 | 0 | 14793
2 | 3:17.19 | 4:21.62 | 14794 | 34430
3 | 7:39.06 | 4:06.68 | 34431 | 52948
4 | 11:45.74 | 4:16.57 | 52949 | 72205
5 | 16:02.56 | 4:54.60 | 72206 | 94315
6 | 20:57.41 | 3:30.38 | 94316 | 110103
7 | 24:28.04 | 3:27.36 | 110104 | 125664
8 | 27:55.40 | 4:34.70 | 125665 | 146284
9 | 32:30.35 | 3:24.35 | 146285 | 161619
Track 1
Filename D:\Lossless\Романтика\01 Коrsика - Твой берег.wav
Pre-gap length 0:00:02.00
Peak level 98.2 %
Track quality 99.9 %
Test CRC 9C7481F5
Copy CRC 9C7481F5
Track not present in AccurateRip database
Copy OK
Track 2
Filename D:\Lossless\Романтика\02 Коrsика - На пороге Рая.wav
Pre-gap length 0:00:01.96
Peak level 98.2 %
Track quality 100.0 %
Test CRC B0E60DFF
Copy CRC B0E60DFF
Track not present in AccurateRip database
Copy OK
Track 3
Filename D:\Lossless\Романтика\03 Коrsика - Пустой перрон.wav
Pre-gap length 0:00:02.13
Peak level 98.2 %
Track quality 100.0 %
Test CRC 2A69C8ED
Copy CRC 2A69C8ED
Track not present in AccurateRip database
Copy OK
Track 4
Filename D:\Lossless\Романтика\04 Коrsика - Порт Ночь.wav
Pre-gap length 0:00:02.02
Peak level 98.2 %
Track quality 100.0 %
Test CRC 913BB301
Copy CRC 913BB301
Track not present in AccurateRip database
Copy OK
Track 5
Filename D:\Lossless\Романтика\05 Коrsика - Brave Heart.wav
Pre-gap length 0:00:01.93
Peak level 91.7 %
Track quality 100.0 %
Test CRC 445E4C66
Copy CRC 445E4C66
Track not present in AccurateRip database
Copy OK
Track 6
Filename D:\Lossless\Романтика\06 Коrsика - Hunter.wav
Pre-gap length 0:00:02.00
Peak level 91.9 %
Track quality 99.9 %
Test CRC 73C4F08C
Copy CRC 73C4F08C
Track not present in AccurateRip database
Copy OK
Track 7
Filename D:\Lossless\Романтика\07 Коrsика - On the Edge.wav
Pre-gap length 0:00:02.13
Peak level 94.6 %
Track quality 100.0 %
Test CRC 1D156543
Copy CRC 1D156543
Track not present in AccurateRip database
Copy OK
Track 8
Filename D:\Lossless\Романтика\08 Коrsика - Thousand miles to sunset.wav
Pre-gap length 0:00:02.04
Peak level 97.5 %
Track quality 99.9 %
Test CRC E4100357
Copy CRC E4100357
Track not present in AccurateRip database
Copy OK
Track 9
Filename D:\Lossless\Романтика\09 Коrsика - Red Rock Button.wav
Pre-gap length 0:00:01.85
Peak level 98.1 %
Track quality 100.0 %
Test CRC 85A90AF5
Copy CRC 85A90AF5
Track not present in AccurateRip database
Copy OK
None of the tracks are present in the AccurateRip database
No errors occurred
End of status report

(2009) Коrsика (Корсика) - Апокалипсис afterparty

Коrsика (Корсика) - Апокалипсис afterparty
Продолжительность: 00:47:38
Тексты: вшиты
Треклист:
01. Остаться в живых (4:23)
02. Давай ещё (3:11)
03. Алиса, падай (3:30)
04. Просто как все (3:37)
05. Ангел Тьмы (5:43)
06. Новая тема (4:00)
07. Это - всё (3:46)
08. Стены неба (4:12)
09. Двойная сплошная (4:52)
10. Ураган (4:27)
11. Время повернуть (5:58)

Скриншоты

 

LOG

Exact Audio Copy V0.99 prebeta 4 from 23. January 2008
EAC extraction logfile from 4. April 2009, 19:53
Коrsика / Апокалипсис afterparty
Used drive : Optiarc DVD RW AD-7173S Adapter: 6 ID: 0
Read mode : Secure
Utilize accurate stream : Yes
Defeat audio cache : Yes
Make use of C2 pointers : No
Read offset correction : 48
Overread into Lead-In and Lead-Out : No
Fill up missing offset samples with silence : Yes
Delete leading and trailing silent blocks : No
Null samples used in CRC calculations : Yes
Used interface : Native Win32 interface for Win NT & 2000
Gap handling : Appended to previous track
Used output format : Internal WAV Routines
Sample format : 44.100 Hz; 16 Bit; Stereo
TOC of the extracted CD
Track | Start | Length | Start sector | End sector
---------------------------------------------------------
1 | 0:00.00 | 4:22.56 | 0 | 19705
2 | 4:22.56 | 3:11.10 | 19706 | 34040
3 | 7:33.66 | 3:30.04 | 34041 | 49794
4 | 11:03.70 | 3:37.02 | 49795 | 66071
5 | 14:40.72 | 5:42.62 | 66072 | 91783
6 | 20:23.59 | 3:59.49 | 91784 | 109757
7 | 24:23.33 | 3:45.62 | 109758 | 126694
8 | 28:09.20 | 4:12.21 | 126695 | 145615
9 | 32:21.41 | 4:51.49 | 145616 | 167489
10 | 37:13.15 | 4:26.42 | 167490 | 187481
11 | 41:39.57 | 5:58.36 | 187482 | 214367
Track 1
Filename C:\Documents and Settings\Кирилл\Мои документы\Моя музыка\2009 - Апокалипсис afterparty\Остаться в живых.wav
Pre-gap length 0:00:02.00
Peak level 99.9 %
Track quality 100.0 %
Test CRC FF73084D
Copy CRC FF73084D
Copy OK
Track 2
Filename C:\Documents and Settings\Кирилл\Мои документы\Моя музыка\2009 - Апокалипсис afterparty\Давай ещё.wav
Peak level 99.9 %
Track quality 100.0 %
Test CRC E52B72FA
Copy CRC E52B72FA
Copy OK
Track 3
Filename C:\Documents and Settings\Кирилл\Мои документы\Моя музыка\2009 - Апокалипсис afterparty\Алиса, падай.wav
Peak level 99.9 %
Track quality 100.0 %
Test CRC B0D13A94
Copy CRC B0D13A94
Copy OK
Track 4
Filename C:\Documents and Settings\Кирилл\Мои документы\Моя музыка\2009 - Апокалипсис afterparty\Просто как все.wav
Peak level 99.9 %
Track quality 100.0 %
Test CRC CCDD90FA
Copy CRC CCDD90FA
Copy OK
Track 5
Filename C:\Documents and Settings\Кирилл\Мои документы\Моя музыка\2009 - Апокалипсис afterparty\Ангел Тьмы.wav
Peak level 99.9 %
Track quality 100.0 %
Test CRC 945C9ADD
Copy CRC 945C9ADD
Copy OK
Track 6
Filename C:\Documents and Settings\Кирилл\Мои документы\Моя музыка\2009 - Апокалипсис afterparty\Новая тема.wav
Peak level 99.9 %
Track quality 100.0 %
Test CRC 0D1DA9D5
Copy CRC 0D1DA9D5
Copy OK
Track 7
Filename C:\Documents and Settings\Кирилл\Мои документы\Моя музыка\2009 - Апокалипсис afterparty\Это - всё.wav
Peak level 99.9 %
Track quality 100.0 %
Test CRC 9C0EC725
Copy CRC 9C0EC725
Copy OK
Track 8
Filename C:\Documents and Settings\Кирилл\Мои документы\Моя музыка\2009 - Апокалипсис afterparty\Стены неба.wav
Peak level 99.9 %
Track quality 100.0 %
Test CRC 37362EDE
Copy CRC 37362EDE
Copy OK
Track 9
Filename C:\Documents and Settings\Кирилл\Мои документы\Моя музыка\2009 - Апокалипсис afterparty\Двойная сплошная.wav
Peak level 99.9 %
Track quality 100.0 %
Test CRC EA8535A2
Copy CRC EA8535A2
Copy OK
Track 10
Filename C:\Documents and Settings\Кирилл\Мои документы\Моя музыка\2009 - Апокалипсис afterparty\Ураган.wav
Peak level 99.9 %
Track quality 100.0 %
Test CRC 95842142
Copy CRC 95842142
Copy OK
Track 11
Filename C:\Documents and Settings\Кирилл\Мои документы\Моя музыка\2009 - Апокалипсис afterparty\Время повернуть.wav
Peak level 99.9 %
Track quality 100.0 %
Test CRC F9A2B849
Copy CRC F9A2B849
Copy OK
No errors occurred
End of status report

(2010) Коrsика (Корсика) - Альтернативы.net

Коrsика (Корсика) - Альтернативы.net
Продолжительность: 00:39:22
Тексты: вшиты
Треклист:
01. Интро (1:40)
02. Завтра (4:27)
03. Скорость света (3:07)
04. Кто твой Бог (3:52)
05. Down Town (3:35)
06. Другая сторона (3:21)
07. Коннект (3:56)
08. Жажда (3:09)
09. Граница (2:48)
10. Жестокие игры (3:24)
11. Во сне (2:51)
12. 200 ударов в минуту (3:12)

Скриншоты

 

LOG

Exact Audio Copy V0.99 prebeta 5 from 4. May 2009
EAC extraction logfile from 5. April 2010, 0:30
Коrsика / Альтернативы.net
Used drive : Optiarc DVD RW AD-7173S Adapter: 2 ID: 0
Read mode : Secure
Utilize accurate stream : Yes
Defeat audio cache : Yes
Make use of C2 pointers : No
Read offset correction : 48
Overread into Lead-In and Lead-Out : No
Fill up missing offset samples with silence : Yes
Delete leading and trailing silent blocks : No
Null samples used in CRC calculations : Yes
Used interface : Native Win32 interface for Win NT & 2000
Gap handling : Appended to previous track
Used output format : Internal WAV Routines
Sample format : 44.100 Hz; 16 Bit; Stereo
TOC of the extracted CD
Track | Start | Length | Start sector | End sector
---------------------------------------------------------
1 | 0:00.00 | 1:39.54 | 0 | 7478
2 | 1:39.54 | 4:27.02 | 7479 | 27505
3 | 6:06.56 | 3:07.24 | 27506 | 41554
4 | 9:14.05 | 3:52.21 | 41555 | 58975
5 | 13:06.26 | 3:34.46 | 58976 | 75071
6 | 16:40.72 | 3:20.72 | 75072 | 90143
7 | 20:01.69 | 3:56.01 | 90144 | 107844
8 | 23:57.70 | 3:08.65 | 107845 | 122009
9 | 27:06.60 | 2:48.10 | 122010 | 134619
10 | 29:54.70 | 3:24.30 | 134620 | 149949
11 | 33:19.25 | 2:51.05 | 149950 | 162779
12 | 36:10.30 | 3:12.09 | 162780 | 177188
Track 1
Filename D:\lossless\Альтернативы.net\01 Коrsика - Интро.wav
Pre-gap length 0:00:02.00
Peak level 99.9 %
Track quality 100.0 %
Test CRC EE2BF646
Copy CRC EE2BF646
Track not present in AccurateRip database
Copy OK
Track 2
Filename D:\lossless\Альтернативы.net\02 Коrsика - Завтра.wav
Peak level 99.9 %
Track quality 100.0 %
Test CRC 2B96E9E2
Copy CRC 2B96E9E2
Track not present in AccurateRip database
Copy OK
Track 3
Filename D:\lossless\Альтернативы.net\03 Коrsика - Скорость света.wav
Peak level 98.8 %
Track quality 100.0 %
Test CRC C7D9668E
Copy CRC C7D9668E
Track not present in AccurateRip database
Copy OK
Track 4
Filename D:\lossless\Альтернативы.net\04 Коrsика - Кто твой Бог.wav
Peak level 98.8 %
Track quality 100.0 %
Test CRC C0E042EF
Copy CRC C0E042EF
Track not present in AccurateRip database
Copy OK
Track 5
Filename D:\lossless\Альтернативы.net\05 Коrsика - Down Town.wav
Peak level 98.8 %
Track quality 100.0 %
Test CRC D978220D
Copy CRC D978220D
Track not present in AccurateRip database
Copy OK
Track 6
Filename D:\lossless\Альтернативы.net\06 Коrsика - Другая сторона.wav
Peak level 98.8 %
Track quality 100.0 %
Test CRC D48DB0A3
Copy CRC D48DB0A3
Track not present in AccurateRip database
Copy OK
Track 7
Filename D:\lossless\Альтернативы.net\07 Коrsика - Коннект.wav
Peak level 98.8 %
Track quality 100.0 %
Test CRC 687C9FD8
Copy CRC 687C9FD8
Track not present in AccurateRip database
Copy OK
Track 8
Filename D:\lossless\Альтернативы.net\08 Коrsика - Жажда.wav
Peak level 98.8 %
Track quality 100.0 %
Test CRC BED30A1E
Copy CRC BED30A1E
Track not present in AccurateRip database
Copy OK
Track 9
Filename D:\lossless\Альтернативы.net\09 Коrsика - Граница.wav
Peak level 98.8 %
Track quality 100.0 %
Test CRC C1CE8358
Copy CRC C1CE8358
Track not present in AccurateRip database
Copy OK
Track 10
Filename D:\lossless\Альтернативы.net\10 Коrsика - Жестокие игры.wav
Peak level 98.8 %
Track quality 100.0 %
Test CRC BCC42AFC
Copy CRC BCC42AFC
Track not present in AccurateRip database
Copy OK
Track 11
Filename D:\lossless\Альтернативы.net\11 Коrsика - Во сне.wav
Peak level 98.8 %
Track quality 100.0 %
Test CRC 7BAD64A0
Copy CRC 7BAD64A0
Track not present in AccurateRip database
Copy OK
Track 12
Filename D:\lossless\Альтернативы.net\12 Коrsика - 200 ударов в минуту.wav
Peak level 98.8 %
Track quality 100.0 %
Test CRC 55A6700F
Copy CRC 55A6700F
Track not present in AccurateRip database
Copy OK
None of the tracks are present in the AccurateRip database
No errors occurred
End of status report
Олег Михайлов - вокал
Павел "Triton" Панов - клавиши
Василий Ионов - бас
Виталий KV Крымский - гитара
Артем Ефимов - ударные
Юля Кей - арт-директор, тексты
Павел Ворон - директор группы

JVC

Пост 01-Май-2011 13:02

[Цитировать]

Супер исполнительница и супер альбом!!! Музычка Музычка Музычка Огромное спасибо!!! Роза Роза Роза Скачаю, поддержу Thumbs up Thumbs up Thumbs up

Paullo

Пост 01-Май-2011 12:05

[Цитировать]

Sophie Ellis-Bextor - Make a scene
Год: 2011
Страна: UK
Жанр: Pop, Dance
Тип издания: оригинал
Продолжительность: 00:49:30
Тексты: вшиты
Программа-риповщик : foobar2000 + iTunes (lossless)
Битрейт: lossless
Треклист:
01. Revolution
02. Bittersweet
03. Off & on
04. Heartbreak (Make me a dancer)
05. Not giving up on love
06. Can't fight this feeling
07. Starlight
08. Under your touch
09. Make a scene
10. Magic
11. Dial my number
12. Homewrecker
13. Synchronised
14. Cut straight to the heart

Скриншоты

Exact Audio Copy V0.99 prebeta 5 from 4. May 2009
EAC extraction logfile from 28. April 2011, 20:32
Sophie Ellis-Bextor / Make a scene
Used drive : Optiarc DVD RW AD-5200A Adapter: 0 ID: 0
Read mode : Secure
Utilize accurate stream : Yes
Defeat audio cache : Yes
Make use of C2 pointers : No
Read offset correction : 48
Overread into Lead-In and Lead-Out : No
Fill up missing offset samples with silence : Yes
Delete leading and trailing silent blocks : No
Null samples used in CRC calculations : Yes
Used interface : Installed external ASPI interface
Gap handling : Appended to previous track
Used output format : User Defined Encoder
Selected bitrate : 320 kBit/s
Quality : High
Add ID3 tag : No
Command line compressor : C:\Program Files\Exact Audio Copy\Flac\flac.exe
Additional command line options : -8 -V -T "ARTIST=%a" -T "TITLE=%t" -T "ALBUM=%g" -T "DATE=%y" -T "TRACKNUMBER=%n" -T "GENRE=%m" -T "COMMENT=EAC FLAC -8" %s
TOC of the extracted CD
Track | Start | Length | Start sector | End sector
---------------------------------------------------------
1 | 0:00.00 | 2:44.01 | 0 | 12300
2 | 2:44.01 | 3:26.55 | 12301 | 27805
3 | 6:10.56 | 3:31.60 | 27806 | 43690
4 | 9:42.41 | 3:24.29 | 43691 | 59019
5 | 13:06.70 | 2:55.38 | 59020 | 72182
6 | 16:02.33 | 3:39.33 | 72183 | 88640
7 | 19:41.66 | 4:19.43 | 88641 | 108108
8 | 24:01.34 | 3:52.39 | 108109 | 125547
9 | 27:53.73 | 3:49.67 | 125548 | 142789
10 | 31:43.65 | 4:33.68 | 142790 | 163332
11 | 36:17.58 | 3:37.09 | 163333 | 179616
12 | 39:54.67 | 3:24.54 | 179617 | 194970
13 | 43:19.46 | 3:12.01 | 194971 | 209371
14 | 46:31.47 | 3:37.03 | 209372 | 225649
Track 1
Filename C:\Documents and Settings\Admin\Мои документы\Моя музыка\Sophie Ellis-Bextor - Make a scene (FLAC) [2010]\01. Revolution.wav
Pre-gap length 0:00:02.00
Peak level 100.0 %
Track quality 99.9 %
Test CRC 60C0A574
Copy CRC 60C0A574
Track not present in AccurateRip database
Copy OK
Track 2
Filename C:\Documents and Settings\Admin\Мои документы\Моя музыка\Sophie Ellis-Bextor - Make a scene (FLAC) [2010]\02. Bittersweet.wav
Peak level 100.0 %
Track quality 100.0 %
Test CRC FA00568D
Copy CRC FA00568D
Track not present in AccurateRip database
Copy OK
Track 3
Filename C:\Documents and Settings\Admin\Мои документы\Моя музыка\Sophie Ellis-Bextor - Make a scene (FLAC) [2010]\03. Off & On.wav
Peak level 100.0 %
Track quality 100.0 %
Test CRC 63E2AAD2
Copy CRC 63E2AAD2
Track not present in AccurateRip database
Copy OK
Track 4
Filename C:\Documents and Settings\Admin\Мои документы\Моя музыка\Sophie Ellis-Bextor - Make a scene (FLAC) [2010]\04. Heartbreak (Make me a dancer).wav
Peak level 100.0 %
Track quality 100.0 %
Test CRC 1EF98149
Copy CRC 1EF98149
Track not present in AccurateRip database
Copy OK
Track 5
Filename C:\Documents and Settings\Admin\Мои документы\Моя музыка\Sophie Ellis-Bextor - Make a scene (FLAC) [2010]\05. Not giving up on love.wav
Peak level 100.0 %
Track quality 100.0 %
Test CRC 0FADBBA3
Copy CRC 0FADBBA3
Track not present in AccurateRip database
Copy OK
Track 6
Filename C:\Documents and Settings\Admin\Мои документы\Моя музыка\Sophie Ellis-Bextor - Make a scene (FLAC) [2010]\06. Can't fight this feeling.wav
Peak level 100.0 %
Track quality 100.0 %
Test CRC 84393EE1
Copy CRC 84393EE1
Track not present in AccurateRip database
Copy OK
Track 7
Filename C:\Documents and Settings\Admin\Мои документы\Моя музыка\Sophie Ellis-Bextor - Make a scene (FLAC) [2010]\07. Starlight.wav
Peak level 100.0 %
Track quality 100.0 %
Test CRC 14215223
Copy CRC 14215223
Track not present in AccurateRip database
Copy OK
Track 8
Filename C:\Documents and Settings\Admin\Мои документы\Моя музыка\Sophie Ellis-Bextor - Make a scene (FLAC) [2010]\08. Under your touch.wav
Peak level 100.0 %
Track quality 100.0 %
Test CRC DBB08A6B
Copy CRC DBB08A6B
Track not present in AccurateRip database
Copy OK
Track 9
Filename C:\Documents and Settings\Admin\Мои документы\Моя музыка\Sophie Ellis-Bextor - Make a scene (FLAC) [2010]\09. Make a scene.wav
Peak level 100.0 %
Track quality 100.0 %
Test CRC 8EE66438
Copy CRC 8EE66438
Track not present in AccurateRip database
Copy OK
Track 10
Filename C:\Documents and Settings\Admin\Мои документы\Моя музыка\Sophie Ellis-Bextor - Make a scene (FLAC) [2010]\10. Magic.wav
Peak level 100.0 %
Track quality 100.0 %
Test CRC 37C32EB7
Copy CRC 37C32EB7
Track not present in AccurateRip database
Copy OK
Track 11
Filename C:\Documents and Settings\Admin\Мои документы\Моя музыка\Sophie Ellis-Bextor - Make a scene (FLAC) [2010]\11. Dial my number.wav
Peak level 100.0 %
Track quality 100.0 %
Test CRC 322847CF
Copy CRC 322847CF
Track not present in AccurateRip database
Copy OK
Track 12
Filename C:\Documents and Settings\Admin\Мои документы\Моя музыка\Sophie Ellis-Bextor - Make a scene (FLAC) [2010]\12. Homewrecker.wav
Peak level 100.0 %
Track quality 100.0 %
Test CRC 89BC762F
Copy CRC 89BC762F
Track not present in AccurateRip database
Copy OK
Track 13
Filename C:\Documents and Settings\Admin\Мои документы\Моя музыка\Sophie Ellis-Bextor - Make a scene (FLAC) [2010]\13. Synchronised.wav
Peak level 100.0 %
Track quality 100.0 %
Test CRC B4E86D7A
Copy CRC B4E86D7A
Track not present in AccurateRip database
Copy OK
Track 14
Filename C:\Documents and Settings\Admin\Мои документы\Моя музыка\Sophie Ellis-Bextor - Make a scene (FLAC) [2010]\14. Cut straight to the heart.wav
Peak level 100.0 %
Track quality 100.0 %
Test CRC E4A69961
Copy CRC E4A69961
Track not present in AccurateRip database
Copy OK
None of the tracks are present in the AccurateRip database
No errors occurred
End of status report

Paullo

Пост 01-Май-2011 12:23

[Цитировать]

Запрещенный прием / Sucker Punch Год: 2011
Страна: USA
Жанр: Soundtrack/Score/OST
Продолжительность: 49:10
Тексты: отсутствуют
Кодек: ALAC
Программа-риповщик : foobar2000 + iTunes (lossless)
Битрейт: lossless
Треклист:
01. Emily Browning - Sweet Dreams (are made of this) (05:19)
02. Bjцrk feat. Skunk Anansie - Army Of Me (Sucker Punch Remix) (06:51)
03. Emiliana Torrini - White Rabbit (05:09)
04. Queen with Armageddon a.k.a Geddy - I Want It All/We Will Rock You (05:09)
05. Skunk Anansie - Search And Destroy (04:25)
06. Alison Mosshart and Carla Azar - Tomorrow Never Knows (07:35)
07. Yoav feat. Emily Browning - Where Is My Mind (06:12)
08. Emily Browning - Asleep (04:23)
09. Carla Gugino and Oscar Isaac - Love Is The Drug (04:13)

ITunes

EAC

Exact Audio Copy V1.0 beta 1 from 15. November 2010
EAC extraction logfile from 27. March 2011, 16:44
Various / Sucker Punch
Used drive : PIONEER DVR-113NP Adapter: 1 ID: 0
Read mode : Secure
Utilize accurate stream : Yes
Defeat audio cache : Yes
Make use of C2 pointers : No
Read offset correction : 6
Overread into Lead-In and Lead-Out : No
Fill up missing offset samples with silence : Yes
Delete leading and trailing silent blocks : No
Null samples used in CRC calculations : Yes
Used interface : Native Win32 interface for Win NT & 2000
Gap handling : Appended to previous track
Used output format : User Defined Encoder
Selected bitrate : 896 kBit/s
Quality : High
Add ID3 tag : No
Command line compressor : C:\Program Files (x86)\Exact Audio Copy\FLAC\FLAC.EXE
Additional command line options : -8 -V -T "Artist=%a" -T "Title=%t" -T "Album=%g" -T "DATE=%y" -T "TRACKNUMBER=%n" -T "Genre=%m" -T "ALBUMARTIST=%v" -T "ALBUM ARTIST=%v" -T "COMMENT=EAC Secure Mode, Test & Copy, AccurateRip, FLAC -8" %s
TOC of the extracted CD
Track | Start | Length | Start sector | End sector
---------------------------------------------------------
1 | 0:00.00 | 5:18.48 | 0 | 23897
2 | 5:18.48 | 6:50.48 | 23898 | 54695
3 | 12:09.21 | 5:08.42 | 54696 | 77837
4 | 17:17.63 | 5:08.39 | 77838 | 100976
5 | 22:26.27 | 4:25.16 | 100977 | 120867
6 | 26:51.43 | 7:35.06 | 120868 | 154998
7 | 34:26.49 | 6:11.43 | 154999 | 182866
8 | 40:38.17 | 4:23.20 | 182867 | 202611
9 | 45:01.37 | 4:12.55 | 202612 | 221566
Track 1
Filename D:\My Rips What.CD\Sucker Punch OST\01 - Emily Browning - Sweet Dreams (are made of this).wav
Pre-gap length 0:00:02.00
Peak level 98.9 %
Extraction speed 5.1 X
Track quality 100.0 %
Test CRC F4BE31EF
Copy CRC F4BE31EF
Track not present in AccurateRip database
Copy OK
Track 2
Filename D:\My Rips What.CD\Sucker Punch OST\02 - Bj�rk featuring Skunk Anansie - Army Of Me (Sucker Punch Remix).wav
Peak level 100.0 %
Extraction speed 5.9 X
Track quality 100.0 %
Test CRC 7F89B0B8
Copy CRC 7F89B0B8
Track not present in AccurateRip database
Copy OK
Track 3
Filename D:\My Rips What.CD\Sucker Punch OST\03 - Emiliana Torrini - White Rabbit.wav
Peak level 98.6 %
Extraction speed 6.3 X
Track quality 100.0 %
Test CRC E86054AA
Copy CRC E86054AA
Track not present in AccurateRip database
Copy OK
Track 4
Filename D:\My Rips What.CD\Sucker Punch OST\04 - Queen with Armageddon a.k.a Geddy - I Want It All,We Will Rock You.wav
Pre-gap length 0:00:01.49
Peak level 98.6 %
Extraction speed 6.7 X
Track quality 100.0 %
Test CRC C00E612F
Copy CRC C00E612F
Track not present in AccurateRip database
Copy OK
Track 5
Filename D:\My Rips What.CD\Sucker Punch OST\05 - Skunk Anansie - Search And Destroy.wav
Pre-gap length 0:00:00.97
Peak level 98.7 %
Extraction speed 7.0 X
Track quality 100.0 %
Test CRC 9F68A8F4
Copy CRC 9F68A8F4
Track not present in AccurateRip database
Copy OK
Track 6
Filename D:\My Rips What.CD\Sucker Punch OST\06 - Alison Mosshart and Carla Azar - Tomorrow Never Knows.wav
Pre-gap length 0:00:00.92
Peak level 98.6 %
Extraction speed 7.7 X
Track quality 100.0 %
Test CRC 6650F77A
Copy CRC 6650F77A
Track not present in AccurateRip database
Copy OK
Track 7
Filename D:\My Rips What.CD\Sucker Punch OST\07 - Yoav featuring Emily Browning - Where Is My Mind.wav
Peak level 98.7 %
Extraction speed 6.1 X
Track quality 99.9 %
Test CRC 0F4A1DDC
Copy CRC 0F4A1DDC
Track not present in AccurateRip database
Copy OK
Track 8
Filename D:\My Rips What.CD\Sucker Punch OST\08 - Emily Browning - Asleep.wav
Pre-gap length 0:00:00.13
Peak level 98.8 %
Extraction speed 8.2 X
Track quality 100.0 %
Test CRC CAEE1ABC
Copy CRC CAEE1ABC
Track not present in AccurateRip database
Copy OK
Track 9
Filename D:\My Rips What.CD\Sucker Punch OST\09 - Carla Gugino and Oscar Isaac - Love Is The Drug.wav
Pre-gap length 0:00:02.88
Peak level 98.7 %
Extraction speed 8.4 X
Track quality 100.0 %
Test CRC 084993F1
Copy CRC 084993F1
Track not present in AccurateRip database
Copy OK
None of the tracks are present in the AccurateRip database
No errors occurred
End of status report
==== Log checksum 2DAB11016D12C9E1E131202054B924A5DA5EF22539B38D32C6967A110B8B5276 ====

Paullo

Пост 01-Май-2011 12:07

[Цитировать]

Ferry Corsten - Feel It Год: 2011
Жанр: Trance
Издатель (лейбл): Flashover Recordings
Номер по каталогу: FLASH067
Продолжительность: 00:06:16
Тексты: не требуются
Кодек: ALAC
Программа-риповщик : foobar2000 + iTunes (lossless)
Битрейт: lossless
Треклист:
1. Ferry Corsten - Feel It (Original Extended Mix) (6:16)

Скриншоты

AUDIOCHECKER v2.0

AUDIOCHECKER v2.0 beta (build 457) - by Dester - opdester@freemail.hu
~~~~~~~~~~~~~~~~~~~~~~~~~~~~~~~~~~
Начато: четверг, 28. 04. 2011. - 18:51.35
Найдено файлов: 1
1 -===- J:\torrent\Ferry Corsten - Feel It (LOSSLESS)\01. Ferry Corsten - Feel It (Original Extended Mix).flac
Извлечение успешно выполнено
Заключение: этот трек - CDDA с вероятностью 100%
Временный файл удалён.
Завершено: четверг, 28. 04. 2011. - 18:52.10 (Время операции: 0:00.34)

Paullo

Пост 01-Май-2011 12:03

[Цитировать]

Муха - Стечение обстоятельств
Год: 2011
Страна: Россия
Жанр: Rock
Тип издания: оригинал
Продолжительность: 57:50
Тексты: частично
Кодек: ALAC
Программа-риповщик : foobar2000 + iTunes (lossless)
Битрейт: lossless
Треклист:
01 - Не жалей о них - 4:16
02 - Нафталин - 3:42
03 - Нажимай и входи - 4:27
04 - 100 песен - 4:07
05 - За Любовь! - 3:29
06 - Не тормози - 3:48
07 - Микрофон - 2:34
08 - Под мухой - 2:51
09 - Поколение - 4:30
10 - Завтра начинается сейчас - 3:52
11 - Грим - 4:14
12 - Она мне нравится - 3:35
13 - Ты будешь первым - 2:50
14 - Не жалей о них (RU.FM Live) - 4:58
15 - Плагиат (RU.FM Live) - 4:37

Скриншоты

Exact Audio Copy V1.0 beta 1 from 15. November 2010
EAC extraction logfile from 20. April 2011, 14:18
Муха / Стечение обстоятельств
Used drive : TSSTcorpCDDVDW SH-S202J Adapter: 0 ID: 0
Read mode : Secure
Utilize accurate stream : Yes
Defeat audio cache : Yes
Make use of C2 pointers : No
Read offset correction : 6
Overread into Lead-In and Lead-Out : No
Fill up missing offset samples with silence : Yes
Delete leading and trailing silent blocks : No
Null samples used in CRC calculations : Yes
Used interface : Native Win32 interface for Win NT & 2000
Used output format : User Defined Encoder
Selected bitrate : 896 kBit/s
Quality : High
Add ID3 tag : No
Command line compressor : C:\Program Files\Exact Audio Copy\Flac\flac.exe
Additional command line options : -8 -V %s
TOC of the extracted CD
Track | Start | Length | Start sector | End sector
---------------------------------------------------------
1 | 0:00.00 | 4:15.49 | 0 | 19173
2 | 4:15.49 | 3:41.41 | 19174 | 35789
3 | 7:57.15 | 4:27.17 | 35790 | 55831
4 | 12:24.32 | 4:06.50 | 55832 | 74331
5 | 16:31.07 | 3:29.20 | 74332 | 90026
6 | 20:00.27 | 3:48.34 | 90027 | 107160
7 | 23:48.61 | 2:34.34 | 107161 | 118744
8 | 26:23.20 | 2:51.05 | 118745 | 131574
9 | 29:14.25 | 4:29.41 | 131575 | 151790
10 | 33:43.66 | 3:52.28 | 151791 | 169218
11 | 37:36.19 | 4:13.59 | 169219 | 188252
12 | 41:50.03 | 3:34.43 | 188253 | 204345
13 | 45:24.46 | 2:50.18 | 204346 | 217113
14 | 48:14.64 | 4:58.29 | 217114 | 239492
15 | 53:13.18 | 4:36.70 | 239493 | 260262
Range status and errors
Selected range
Filename C:\Муха - Стечение обстоятельств.wav
Peak level 99.9 %
Extraction speed 0.2 X
Range quality 100.0 %
Test CRC A1346FC3
Copy CRC A1346FC3
Copy OK
No errors occurred
AccurateRip summary
Track 1 not present in database
Track 2 not present in database
Track 3 not present in database
Track 4 not present in database
Track 5 not present in database
Track 6 not present in database
Track 7 not present in database
Track 8 not present in database
Track 9 not present in database
Track 10 not present in database
Track 11 not present in database
Track 12 not present in database
Track 13 not present in database
Track 14 not present in database
Track 15 not present in database
None of the tracks are present in the AccurateRip database
End of status report

Paullo

Пост 01-Май-2011 12:00

[Цитировать]

Земфира - Спасибо
Год: 2007
Страна: Россия
Жанр: Rock
Тип издания: оригинал
Продолжительность: 00:42:58
Тексты: вшиты
Кодек: ALAC
Программа-риповщик : foobar2000 + iTunes (lossless)
Битрейт: lossless
Треклист:
1. В Метро 2:51
2. Воскресенье 2:29
3. Дом 3:50
4. Мы Разбиваемся 3:22
5. Мальчик 3:46
6. Господа 3:24
7. Я Полюбила Вас 2:44
8. Возьми Меня 4:26
9. Снег Начнётся 4:24
10. 1000 Лет 4:10
11. Во Мне 4:05
12. Спасибо 3:21

Скриншоты

Exact Audio Copy V0.99 prebeta 4 from 23. January 2008
Отчёт EAC об извлечении, выполненном 3. ноября 2008, 15:50
Земфира / Спасибо
Дисковод: _NEC DVD_RW ND-2500A Adapter: 0 ID: 0
Режим чтения : Достоверность
Использование точного потока : Да
Отключение кэша аудио : Да
Использование указателей C2 : Нет
Коррекция смещения при чтении : 48
Способность читать области Lead-in и Lead-out : Нет
Заполнение пропущенных сэмплов тишиной : Да
Удаление блоков с тишиной в начале и конце : Нет
При вычислениях CRC использовались нулевые сэмплы : Да
Интерфейс : Встроенный Win32-интерфейс для Win NT/2000
Выходной формат : Внутренние WAV-операции
Формат сэмплов : 44.100 Гц; 16 бит; стерео
TOC извлечённого CD
Трек | Старт | Длительность | Начальный сектор | Конечный сектор
---------------------------------------------------------------------
1 | 0:00.00 | 2:51.74 | 0 | 12898
2 | 2:51.74 | 2:29.44 | 12899 | 24117
3 | 5:21.43 | 3:50.59 | 24118 | 41426
4 | 9:12.27 | 3:22.04 | 41427 | 56580
5 | 12:34.31 | 3:46.70 | 56581 | 73600
6 | 16:21.26 | 3:24.25 | 73601 | 88925
7 | 19:45.51 | 2:44.64 | 88926 | 101289
8 | 22:30.40 | 4:26.23 | 101290 | 121262
9 | 26:56.63 | 4:24.73 | 121263 | 141135
10 | 31:21.61 | 4:10.08 | 141136 | 159893
11 | 35:31.69 | 4:05.45 | 159894 | 178313
12 | 39:37.39 | 3:21.11 | 178314 | 193399
Характеристики диапазона извлечения и сообщения об ошибках
Выбранный диапазон
Имя файла Z:\edit\саунд\Земфира\Конечный вариант\2007 - Спасибо\Земфира - Спасибо.wav
Пиковый уровень 99.9 %
Качество диапазона 100.0 %
CRC копии 5ACF8276
Копирование... OK
Ошибок не произошло
Конец отчёта

Paullo

Пост 01-Май-2011 11:58

[Цитировать]

Atrium - Atrium
Год: 2011
Страна: Europe
Жанр: Italo-Disco, Hi NRG
Тип издания: оригинал
Продолжительность: 79:37
Тексты: отсутствуют
Кодек: ALAC
Программа-риповщик : foobar2000 + iTunes (lossless)
Битрейт: lossless
Треклист:
1 Hey Tonight (12" Version) 4:56
2 Funny Dancer (Re-Mixed) 6:40
3 Doctor Jekyll (Jekyll Version) 6:25
4 Week-End (Extended Version) 5:36
5 Over And Over (Extended Version) 5:12
6 Midnight Dancer (Extended Version) 7:45
7 Jolly Joker (Extended Version) 6:12
8 Going Crazy (Mix Version) 7:08
9 Ain't Nobody (Extended Mix) 6:35
10 Doctor Jekyll (Hyde Version) 5:57
11 Week-End (Dub Version) 3:34
12 Over And Over (Percussion Version) 5:13
13 Going Crazy (Dub Version) 3:00
14 Ain't Nobody (Dub Version) 3:47
15 Going Crazy (Acapella Version) 0:41
16 Ain't Nobody (Acapella Version) 0:49

Скриншоты

EAC

Exact Audio Copy V0.99 prebeta 5 from 4. May 2009
Отчёт EAC об извлечении, выполненном 18. апреля 2011, 16:27
Atrium / Atrium
Дисковод: PIONEER DVD-RW DVR-112D Adapter: 1 ID: 0
Режим чтения : Достоверность
Использование точного потока : Да
Отключение кэша аудио : Да
Использование указателей C2 : Нет
Коррекция смещения при чтении : 48
Способность читать области Lead-in и Lead-out : Нет
Заполнение пропущенных сэмплов тишиной : Да
Удаление блоков с тишиной в начале и конце : Нет
При вычислениях CRC использовались нулевые сэмплы : Да
Интерфейс : Установленный внешний ASPI-интерфейс
Обработка зазоров : Добавлено к предыдущему треку
Выходной формат : Пользовательский кодировщик
Выбранный битрейт : 1024 kBit/s
Качество : Высокий
Добавление ID3-тэга : Да
Утилита сжатия : C:\Program Files\FLAC\flac.exe
Дополнительные параметры : -6 -V -T "ARTIST=%a" -T "TITLE=%t" -T "ALBUM=%g" -T "DATE=%y" -T "TRACKNUMBER=%n" -T "GENRE=%m" -T "COMMENT=EAC FLAC -6" %s
TOC извлечённого CD
Трек | Старт | Длительность | Начальный сектор | Конечный сектор
---------------------------------------------------------------------
1 | 0:00.00 | 4:56.16 | 0 | 22215
2 | 4:56.16 | 6:40.40 | 22216 | 52255
3 | 11:36.56 | 6:25.15 | 52256 | 81145
4 | 18:01.71 | 5:36.49 | 81146 | 106394
5 | 23:38.45 | 5:12.30 | 106395 | 129824
6 | 28:51.00 | 7:45.70 | 129825 | 164769
7 | 36:36.70 | 6:12.05 | 164770 | 192674
8 | 42:49.00 | 7:08.61 | 192675 | 224835
9 | 49:57.61 | 6:35.16 | 224836 | 254476
10 | 56:33.02 | 5:57.00 | 254477 | 281251
11 | 62:30.02 | 3:34.71 | 281252 | 297372
12 | 66:04.73 | 5:13.62 | 297373 | 320909
13 | 71:18.60 | 3:00.40 | 320910 | 334449
14 | 74:19.25 | 3:47.34 | 334450 | 351508
15 | 78:06.59 | 0:41.19 | 351509 | 354602
16 | 78:48.03 | 0:49.15 | 354603 | 358292
Трек 1
Имя файла F:\Atrium-Atrium (DWS Records, 2011)\01_Atrium-Hey_Tonight_(12''_Version).wav
Длина предзазора 0:00:02.00
Пиковый уровень 96.4 %
Качество трека 99.9 %
CRC теста 3DA0F214
CRC копии 3DA0F214
Трек не обнаружен в базе AccurateRip
Копирование... OK
Трек 2
Имя файла F:\Atrium-Atrium (DWS Records, 2011)\02_Atrium-Funny_Dancer_(Re-Mixed).wav
Пиковый уровень 95.8 %
Качество трека 100.0 %
CRC теста 1D83517D
CRC копии 1D83517D
Трек не обнаружен в базе AccurateRip
Копирование... OK
Трек 3
Имя файла F:\Atrium-Atrium (DWS Records, 2011)\03_Atrium-Doctor_Jekyll_(Jekyll_Version).wav
Пиковый уровень 95.7 %
Качество трека 99.9 %
CRC теста 418A5063
CRC копии 418A5063
Трек не обнаружен в базе AccurateRip
Копирование... OK
Трек 4
Имя файла F:\Atrium-Atrium (DWS Records, 2011)\04_Atrium-Week-End_(Extended_Version).wav
Пиковый уровень 96.7 %
Качество трека 100.0 %
CRC теста D7C80DC6
CRC копии D7C80DC6
Трек не обнаружен в базе AccurateRip
Копирование... OK
Трек 5
Имя файла F:\Atrium-Atrium (DWS Records, 2011)\05_Atrium-Over_And_Over_(Extended_Version).wav
Пиковый уровень 95.2 %
Качество трека 100.0 %
CRC теста C11A88E9
CRC копии C11A88E9
Трек не обнаружен в базе AccurateRip
Копирование... OK
Трек 6
Имя файла F:\Atrium-Atrium (DWS Records, 2011)\06_Atrium-Midnight_Dancer_(Extended_Version).wav
Пиковый уровень 100.0 %
Качество трека 100.0 %
CRC теста 84A7F31D
CRC копии 84A7F31D
Трек не обнаружен в базе AccurateRip
Копирование... OK
Трек 7
Имя файла F:\Atrium-Atrium (DWS Records, 2011)\07_Atrium-Jolly_Joker_(Extended_Version).wav
Пиковый уровень 97.2 %
Качество трека 100.0 %
CRC теста 357E0800
CRC копии 357E0800
Трек не обнаружен в базе AccurateRip
Копирование... OK
Трек 8
Имя файла F:\Atrium-Atrium (DWS Records, 2011)\08_Atrium-Going_Crazy_(Mix_Version).wav
Пиковый уровень 94.9 %
Качество трека 100.0 %
CRC теста 34087EEC
CRC копии 34087EEC
Трек не обнаружен в базе AccurateRip
Копирование... OK
Трек 9
Имя файла F:\Atrium-Atrium (DWS Records, 2011)\09_Atrium-Ain't_Nobody_(Extended_Mix).wav
Пиковый уровень 95.6 %
Качество трека 100.0 %
CRC теста EFBEF35F
CRC копии EFBEF35F
Трек не обнаружен в базе AccurateRip
Копирование... OK
Трек 10
Имя файла F:\Atrium-Atrium (DWS Records, 2011)\10_Atrium-Doctor_Jekyll_(Hyde_Version).wav
Пиковый уровень 96.5 %
Качество трека 100.0 %
CRC теста 9CCC07C7
CRC копии 9CCC07C7
Трек не обнаружен в базе AccurateRip
Копирование... OK
Трек 11
Имя файла F:\Atrium-Atrium (DWS Records, 2011)\11_Atrium-Week-End_(Dub_Version).wav
Пиковый уровень 96.4 %
Качество трека 100.0 %
CRC теста DF5572C0
CRC копии DF5572C0
Трек не обнаружен в базе AccurateRip
Копирование... OK
Трек 12
Имя файла F:\Atrium-Atrium (DWS Records, 2011)\12_Atrium-Over_And_Over_(Percussion_Version).wav
Пиковый уровень 96.0 %
Качество трека 100.0 %
CRC теста 12F84AE4
CRC копии 12F84AE4
Трек не обнаружен в базе AccurateRip
Копирование... OK
Трек 13
Имя файла F:\Atrium-Atrium (DWS Records, 2011)\13_Atrium-Going_Crazy_(Dub_Version).wav
Пиковый уровень 92.9 %
Качество трека 100.0 %
CRC теста 91E94C78
CRC копии 91E94C78
Трек не обнаружен в базе AccurateRip
Копирование... OK
Трек 14
Имя файла F:\Atrium-Atrium (DWS Records, 2011)\14_Atrium-Ain't_No_Body_(Dub_Version).wav
Пиковый уровень 93.5 %
Качество трека 99.9 %
CRC теста 8ACF91B1
CRC копии 8ACF91B1
Трек не обнаружен в базе AccurateRip
Копирование... OK
Трек 15
Имя файла F:\Atrium-Atrium (DWS Records, 2011)\15_Atrium-Going_Crazy_(Acapella_Version).wav
Пиковый уровень 67.0 %
Качество трека 100.0 %
CRC теста A0E96BEF
CRC копии A0E96BEF
Трек не обнаружен в базе AccurateRip
Копирование... OK
Трек 16
Имя файла F:\Atrium-Atrium (DWS Records, 2011)\16_Atrium-Ain't_No_Body_(Acapella_Version).wav
Пиковый уровень 86.5 %
Качество трека 100.0 %
CRC теста A3B63B3C
CRC копии A3B63B3C
Трек не обнаружен в базе AccurateRip
Копирование... OK
Ни одного трека нет в базе AccurateRip
Ошибок не произошло
Конец отчёта

Paullo

Пост 01-Май-2011 11:55

[Цитировать]

New Baccara - Call Me Up (Special Version)
Год: 2011
Жанр: Italo-Disco, Synthpop
Тип издания: оригинал
Продолжительность: 77:46
Тексты: отсутствуют
Кодек: ALAC
Программа-риповщик : foobar2000 + iTunes (lossless)
Битрейт: lossless
Треклист:
1 Call Me Up (Special DJ-Mix) 5:10
2 Touch Me (Erotic Dance Mix) 7:03
3 Fantasy Boy (Special Maxi Mix) 7:07
4 Talisman 5:56
5 Touch Me (Disconet Remix) 6:08
6 Fantasy Boy (Duncapella Mix) 3:43
7 A & A Special Megamix 7:54
8 Call Me Up (Version Instrumental) 5:08
9 Fantasy Boy (Instrumental Version) 4:05
10 Touch Me (Instrumental Version) 4:03
11 Call Me Up (7" Version) 4:02
12 Fantasy Boy (7" Version) 3:41
13 Touch Me (Single Version) 3:51
14 Talisman (7" Version) 4:05
15 Fantasy Boy (Hot Cut Mix) 5:41

Скриншоты

Exact Audio Copy V0.99 prebeta 5 from 4. May 2009
Отчёт EAC об извлечении, выполненном 18. апреля 2011, 16:59
New Baccara / Call Me Up - Special Version
Дисковод: PIONEER DVD-RW DVR-112D Adapter: 1 ID: 0
Режим чтения : Достоверность
Использование точного потока : Да
Отключение кэша аудио : Да
Использование указателей C2 : Нет
Коррекция смещения при чтении : 48
Способность читать области Lead-in и Lead-out : Нет
Заполнение пропущенных сэмплов тишиной : Да
Удаление блоков с тишиной в начале и конце : Нет
При вычислениях CRC использовались нулевые сэмплы : Да
Интерфейс : Установленный внешний ASPI-интерфейс
Обработка зазоров : Добавлено к предыдущему треку
Выходной формат : Пользовательский кодировщик
Выбранный битрейт : 1024 kBit/s
Качество : Высокий
Добавление ID3-тэга : Да
Утилита сжатия : C:\Program Files\FLAC\flac.exe
Дополнительные параметры : -6 -V -T "ARTIST=%a" -T "TITLE=%t" -T "ALBUM=%g" -T "DATE=%y" -T "TRACKNUMBER=%n" -T "GENRE=%m" -T "COMMENT=EAC FLAC -6" %s
TOC извлечённого CD
Трек | Старт | Длительность | Начальный сектор | Конечный сектор
---------------------------------------------------------------------
1 | 0:00.00 | 5:12.16 | 0 | 23415
2 | 5:12.16 | 7:05.44 | 23416 | 55334
3 | 12:17.60 | 7:09.40 | 55335 | 87549
4 | 19:27.25 | 5:58.72 | 87550 | 114471
5 | 25:26.22 | 6:10.30 | 114472 | 142251
6 | 31:36.52 | 3:45.03 | 142252 | 159129
7 | 35:21.55 | 7:56.31 | 159130 | 194860
8 | 43:18.11 | 5:10.44 | 194861 | 218154
9 | 48:28.55 | 4:07.57 | 218155 | 236736
10 | 52:36.37 | 4:05.69 | 236737 | 255180
11 | 56:42.31 | 4:04.27 | 255181 | 273507
12 | 60:46.58 | 3:43.63 | 273508 | 290295
13 | 64:30.46 | 3:53.14 | 290296 | 307784
14 | 68:23.60 | 4:07.40 | 307785 | 326349
15 | 72:31.25 | 5:41.43 | 326350 | 351967
Трек 1
Имя файла F:\New Baccara-Call Me Up (Special Version) (DWS Records, 2011)\01_New_Baccara-Call_Me_Up_(Special_DJ-Mix).wav
Длина предзазора 0:00:02.00
Пиковый уровень 95.4 %
Качество трека 100.0 %
CRC теста C736FB04
CRC копии C736FB04
Трек не обнаружен в базе AccurateRip
Копирование... OK
Трек 2
Имя файла F:\New Baccara-Call Me Up (Special Version) (DWS Records, 2011)\02_New_Baccara-Touch_Me_(Erotic_Dance_Mix).wav
Длина предзазора 0:00:01.68
Пиковый уровень 95.2 %
Качество трека 100.0 %
CRC теста D7115378
CRC копии D7115378
Трек не обнаружен в базе AccurateRip
Копирование... OK
Трек 3
Имя файла F:\New Baccara-Call Me Up (Special Version) (DWS Records, 2011)\03_New_Baccara-Fantasy_Boy_(Special_Maxi_Mix).wav
Длина предзазора 0:00:01.73
Пиковый уровень 91.8 %
Качество трека 100.0 %
CRC теста A27E27F8
CRC копии A27E27F8
Трек не обнаружен в базе AccurateRip
Копирование... OK
Трек 4
Имя файла F:\New Baccara-Call Me Up (Special Version) (DWS Records, 2011)\04_New_Baccara-Talisman.wav
Длина предзазора 0:00:01.69
Пиковый уровень 95.8 %
Качество трека 99.9 %
CRC теста 7FB5E54D
CRC копии 7FB5E54D
Трек не обнаружен в базе AccurateRip
Копирование... OK
Трек 5
Имя файла F:\New Baccara-Call Me Up (Special Version) (DWS Records, 2011)\05_New_Baccara-Touch_Me_(Disconet_Remix).wav
Длина предзазора 0:00:01.67
Пиковый уровень 95.6 %
Качество трека 100.0 %
CRC теста B1DE5C06
CRC копии B1DE5C06
Трек не обнаружен в базе AccurateRip
Копирование... OK
Трек 6
Имя файла F:\New Baccara-Call Me Up (Special Version) (DWS Records, 2011)\06_New_Baccara-Fantasy_Boy_(Duncapella_Mix).wav
Длина предзазора 0:00:01.62
Пиковый уровень 89.1 %
Качество трека 100.0 %
CRC теста A511A149
CRC копии A511A149
Трек не обнаружен в базе AccurateRip
Копирование... OK
Трек 7
Имя файла F:\New Baccara-Call Me Up (Special Version) (DWS Records, 2011)\07_New_Baccara-A_&_A_Special_Megamix.wav
Длина предзазора 0:00:01.71
Пиковый уровень 92.1 %
Качество трека 100.0 %
CRC теста 6B5EDE88
CRC копии 6B5EDE88
Трек не обнаружен в базе AccurateRip
Копирование... OK
Трек 8
Имя файла F:\New Baccara-Call Me Up (Special Version) (DWS Records, 2011)\08_New_Baccara-Call_Me_Up_(Version_Instrumental).wav
Длина предзазора 0:00:01.66
Пиковый уровень 94.5 %
Качество трека 100.0 %
CRC теста 9E5F6F5F
CRC копии 9E5F6F5F
Трек не обнаружен в базе AccurateRip
Копирование... OK
Трек 9
Имя файла F:\New Baccara-Call Me Up (Special Version) (DWS Records, 2011)\09_New_Baccara-Fantasy_Boy_(Instrumental_Version).wav
Длина предзазора 0:00:01.65
Пиковый уровень 90.6 %
Качество трека 100.0 %
CRC теста E603EA0C
CRC копии E603EA0C
Трек не обнаружен в базе AccurateRip
Копирование... OK
Трек 10
Имя файла F:\New Baccara-Call Me Up (Special Version) (DWS Records, 2011)\10_New_Baccara-Touch_Me_(Instrumental_Version).wav
Длина предзазора 0:00:01.63
Пиковый уровень 94.3 %
Качество трека 100.0 %
CRC теста 0B24EADD
CRC копии 0B24EADD
Трек не обнаружен в базе AccurateRip
Копирование... OK
Трек 11
Имя файла F:\New Baccara-Call Me Up (Special Version) (DWS Records, 2011)\11_New_Baccara-Call_Me_Up_(7''_Version).wav
Длина предзазора 0:00:01.60
Пиковый уровень 95.0 %
Качество трека 100.0 %
CRC теста DD2B7ED5
CRC копии DD2B7ED5
Трек не обнаружен в базе AccurateRip
Копирование... OK
Трек 12
Имя файла F:\New Baccara-Call Me Up (Special Version) (DWS Records, 2011)\12_New_Baccara-Fantasy_Boy_(7''_Version).wav
Длина предзазора 0:00:01.67
Пиковый уровень 92.6 %
Качество трека 100.0 %
CRC теста 84F64AB2
CRC копии 84F64AB2
Трек не обнаружен в базе AccurateRip
Копирование... OK
Трек 13
Имя файла F:\New Baccara-Call Me Up (Special Version) (DWS Records, 2011)\13_New_Baccara-Touch_Me_(Single_Version).wav
Длина предзазора 0:00:01.68
Пиковый уровень 95.5 %
Качество трека 100.0 %
CRC теста E2AD3458
CRC копии E2AD3458
Трек не обнаружен в базе AccurateRip
Копирование... OK
Трек 14
Имя файла F:\New Baccara-Call Me Up (Special Version) (DWS Records, 2011)\14_New_Baccara-Talisman_(7''_Version).wav
Длина предзазора 0:00:01.60
Пиковый уровень 96.4 %
Качество трека 100.0 %
CRC теста 8CBC0241
CRC копии 8CBC0241
Трек не обнаружен в базе AccurateRip
Копирование... OK
Трек 15
Имя файла F:\New Baccara-Call Me Up (Special Version) (DWS Records, 2011)\15_New_Baccara-Fantasy_Boy_(Hot_Cut_Mix).wav
Длина предзазора 0:00:01.54
Пиковый уровень 92.8 %
Качество трека 100.0 %
CRC теста 77D529D4
CRC копии 77D529D4
Трек не обнаружен в базе AccurateRip
Копирование... OK
Ни одного трека нет в базе AccurateRip
Ошибок не произошло
Конец отчёта
 

Текущее время: Сегодня 09:54

Часовой пояс: GMT + 3