Сегодня идет свободное скачивание без начисления Download

Результатов поиска: 500

Автор Сообщение

}{@R0N

Пост 05-Июл-2017 21:17

[Цитировать]

Город - Производство: Россия / Epic media
Жанр: драма
Режиссер: Юрий Трофимов, Дмитрий Константинов
Актеры: Пётр Фёдоров, Евгений Антропов, Владимир Юматов, Игорь Черневич, Владислав Абашин, Яна Гладких, Сергей Журавель, Надежда Михалкова, Федор Лавров, Светлана Колпакова и др.
Описание:
Июнь 1961 года. Небольшой городок Струнёво, сразу за 101-м километром. В отличие от соседних городов и посёлков, преступления здесь случаются не часто, а раскрываемость — одна из лучших в СССР. Но, расследуя смерть школьного учителя оперативник Родион Стоцкий обнаруживает, что Струнёво — это «дом, в котором не гадят», и хозяева в этом доме — блатные и воры в законе, которые после амнистии облюбовали этот небольшой городок. А большинство грабежей и разбойных нападений в соседних городах и посёлках — скорее всего, как раз дело рук жителей мирного Струнёво.

Возраст: 12+ (зрителям, достигшим 12 лет)
Дата российской премьеры: 3 июля 2017
Продолжительность: ~00:50:00 серия
Качество видео: SATRip
Видео: Xvid, 720x400 (16:9), ~1650 Kbps
Аудио: MP3, 2 ch, 192 Kbps

Mediainfo:

Общее
Полное имя : F:\Город (2017)\Серия 1.avi
Формат : AVI
Формат/Информация : Audio Video Interleave
Размер файла : 650 Мбайт
Продолжительность : 49 м. 4 с.
Общий поток : 1851 Кбит/сек
Программа кодирования : VirtualDubMod 1.5.10.3 | www.virtualdub-fr.org || (build 2550/release)
Библиотека кодирования : VirtualDubMod build 2550/release
Видео
Идентификатор : 0
Формат : MPEG-4 Visual
Профиль формата : Advanced Simple@L5
Параметр BVOP формата : 1
Параметр QPel формата : Нет
Параметр GMC формата : Без точки перехода
Параметр матрицы формата : Default (MPEG)
Идентификатор кодека : XVID
Идентификатор кодека/Подсказка : XviD
Продолжительность : 49 м. 4 с.
Битрейт : 1650 Кбит/сек
Ширина : 720 пикселей
Высота : 400 пикселей
Соотношение сторон : 16:9
Частота кадров : 25,000 кадров/сек
Цветовое пространство : YUV
Субдискретизация насыщенности : 4:2:0
Битовая глубина : 8 бит
Тип развёртки : Прогрессивная
Метод сжатия : С потерями
Бит/(Пиксели*Кадры) : 0.229
Размер потока : 579 Мбайт (89%)
Библиотека кодирования : XviD 1.2.1 (UTC 2008-12-04)
Аудио
Идентификатор : 1
Формат : MPEG Audio
Версия формата : Version 1
Профиль формата : Layer 3
Режим : Joint stereo
Идентификатор кодека : 55
Идентификатор кодека/Подсказка : MP3
Продолжительность : 49 м. 4 с.
Вид битрейта : Постоянный
Битрейт : 192 Кбит/сек
Каналы : 2 канала
Частота : 48,0 КГц
Метод сжатия : С потерями
Размер потока : 67,4 Мбайт (10%)
Выравнивание : Соединение по промежуткам
Продолжительность промежутка : 40 мс. (1,00 видеокадр)
Время предзагрузки промежутка : 504 мс.
Библиотека кодирования : LAME3.99r
Настройки программы : -m j -V 4 -q 0 -lowpass 18.6 -b 192

Внимание! Раздача ведётся путём добавления новых серий

Внимание! Раздача ведётся путём добавления новых серий; при каждом добавлении создаётся новый торрент.
Чтобы начать докачку новой серии, пользователям необходимо сделать следующее:
1. Остановить скачивание;
2. Удалить старый торрент у себя из клиента (старые серии удалять не надо);
3. Скачать новый торрент и запустить его у себя в клиенте вместо старого, при этом указать клиенту путь в старую папку куда и должно происходить скачивание новых серий. Ваш клиент при этом должен произвести хеширование (проверку) старой папки и будет докачивать только те серии, которых у вас ещё нет. Старые серии при этом не удаляются, а продолжают раздаваться! Eсли вы уже удалили старые серии, то предотвратить повторную закачку старых серий можно, отжав галочку в соответствующих местах при запуске нового торрента.
Скриншоты:
       

}{@R0N

Пост 19-Май-2017 22:25

[Цитировать]

Власик. Тень Сталина - Производство: Россия / "Пиманов-фильм"
Жанр: биография, драма
Режиссер: Алексей Мурадов
Актеры: Константин Милованов, Леван Мсхиладзе, Ольга Погодина, Александр Нехороших, Диана Максимова, Александр Новик, Оксана Земляникова, Сергей Потапов, Дмитрий Янышевский, Егор Клинаев и др.
Описание:
Биографический сериал охватывает период с конца двадцатых по пятидесятые годы прошлого века. В центре внимания судьба начальника охраны Сталина — Николая Сидоровича Власика. Фильм рассказывает, прежде всего, о том, как беззаветно и преданно Власик служит Сталину, в течение фильма он словно становится его тенью, и даже и членом его семьи. Как и глава государства, Власик — личность спорная, но вызывающая уважение: не один раз он прикрывал собой вождя от покушений, решал все бытовые проблемы главы государства и его семьи.

Возраст: 16+ (зрителям, достигшим 16 лет)
Дата российской премьеры: 10 мая 2017
Продолжительность: ~00:51:00 серия
Качество видео: WEB-DL
Видео: AVC/H.264, 1280x720 (16:9), ~3200 Kbps
Аудио: AC3, 2 ch, 192 Kbps

Mediainfo:

Общее
Уникальный идентификатор : 190140668449274652935922078621762760498 (0x8F0BC2BD50C9266FBF30A77A98E2AF32)
Полное имя : D:\Власик. Тень Сталина (2017)\Серия 01.mkv
Формат : Matroska
Версия формата : Version 4 / Version 2
Размер файла : 1,25 Гбайт
Продолжительность : 53 м. 25 с.
Режим общего битрейта : Переменный
Общий поток : 3360 Кбит/сек
Дата кодирования : UTC 2017-05-10 17:01:39
Программа кодирования : mkvmerge v9.4.0 ('Knurl') 32bit
Библиотека кодирования : libebml v1.3.4 + libmatroska v1.4.5
Видео
Идентификатор : 1
Формат : AVC
Формат/Информация : Advanced Video Codec
Профиль формата : [url=mailto:High@L4.1]High@L4.1[/url]
Параметр CABAC формата : Да
Параметр ReFrames формата : 4 кадра
Идентификатор кодека : V_MPEG4/ISO/AVC
Продолжительность : 53 м. 25 с.
Вид битрейта : Переменный
Битрейт : 3200 Кбит/сек
Максимальный битрейт : 40,0 Мбит/сек
Ширина : 1280 пикселей
Высота : 720 пикселей
Соотношение сторон : 16:9
Режим частоты кадров : Постоянный
Частота кадров : 25,000 кадров/сек
Цветовое пространство : YUV
Субдискретизация насыщенности : 4:2:0
Битовая глубина : 8 бит
Тип развёртки : Прогрессивная
Бит/(Пиксели*Кадры) : 0.139
Размер потока : 1,18 Гбайт (94%)
Библиотека кодирования : x264 core 148
Настройки программы : cabac=1 / ref=2 / deblock=1:0:0 / analyse=0x3:0x113 / me=hex / subme=6 / psy=1 / psy_rd=1.00:0.00 / mixed_ref=1 / me_range=16 / chroma_me=1 / trellis=1 / 8x8dct=1 / cqm=0 / deadzone=21,11 / fast_pskip=1 / chroma_qp_offset=-2 / threads=1 / lookahead_threads=1 / sliced_threads=0 / nr=0 / decimate=1 / interlaced=0 / bluray_compat=0 / constrained_intra=0 / bframes=3 / b_pyramid=2 / b_adapt=1 / b_bias=0 / direct=1 / weightb=1 / open_gop=0 / weightp=1 / keyint=250 / keyint_min=25 / scenecut=0 / intra_refresh=0 / rc_lookahead=30 / rc=abr / mbtree=1 / bitrate=3200 / ratetol=1.0 / qcomp=0.60 / qpmin=0 / qpmax=69 / qpstep=4 / ip_ratio=1.40 / aq=1:1.0
Default : Да
Forced : Нет
Аудио
Идентификатор : 2
Формат : AC-3
Формат/Информация : Audio Coding 3
Параметр Endianness формата : Big
Идентификатор кодека : A_AC3
Продолжительность : 53 м. 25 с.
Вид битрейта : Постоянный
Битрейт : 192 Кбит/сек
Каналы : 2 канала
Расположение каналов : Front: L R
Частота : 48,0 КГц
Частота кадров : 31,250 кадров/сек (1536 spf)
Битовая глубина : 16 бит
Метод сжатия : С потерями
Размер потока : 73,4 Мбайт (6%)
Язык : Russian
ServiceKind/String : Complete Main
Default : Да
Forced : Нет
Скриншоты:
       

}{@R0N

Пост 26-Янв-2017 21:38

[Цитировать]

Склифосовский / Склиф - Производство: Россия / Кинокомпания Русское
Жанр: драма, мелодрама
Режиссер: Андрей Селиванов
Актеры: Максим Аверин, Ольга Красько, Мария Кожевникова, Дмитрий Миллер, Лаура Кеосаян, Эммануил Виторган, Ольга Павловец, Марина Могилевская, Константин Юшкевич, Алена Яковлева, Владимир Жеребцов и др.
Описание:
После взрыва в финале предыдущего сезона жизнь Олега Брагина, талантливого хирурга, оказывается под угрозой. Однако коллегам удается спасти Брагина, правда, Олег перенес сложную операцию, после которой на некоторое время впал в кому. Он потихоньку восстанавливает свои сил. Вокруг все говорят, что Брагин — настоящий герой. Все, кроме одного человека: жены Олега Нарочинской, которая не может простить возлюбленному его поступок. Она бросает Брагина и намерена развестись с ним. Чтобы вернуть свою любовь, Олег должен кардинально поменять свой образ жизни, и тогда, возможно, у него появится возможность вернуть Марину.

Возраст: 16+ (зрителям, достигшим 16 лет)
Продолжительность: ~00:52:00 серия
Качество видео: SATRip
Видео: XviD, 720x400 (16:9), ~1797 Kbps
Аудио: MP3, 48.0 KHz, 2 ch, 128 Kbps, CBR

Mediainfo:

Общее
Полное имя : D:\[1]\Склифосовский\Склифосовский-5 (Склиф) (2017)\Склифосовский-5 (Склиф). Серия 01 (2017).avi
Формат : AVI
Формат/Информация : Audio Video Interleave
Размер файла : 734 Мбайт
Продолжительность : 53 м.
Общий поток : 1935 Кбит/сек
Программа кодирования : VirtualDubMod 1.5.10.3 | www.virtualdub-fr.org || (build 2550/release)
Библиотека кодирования : VirtualDub build 29808/release
Видео
Идентификатор : 0
Формат : MPEG-4 Visual
Профиль формата : Advanced Simple@L5
Параметр BVOP формата : 2
Параметр QPel формата : Нет
Параметр GMC формата : Без точки перехода
Параметр матрицы формата : Default (H.263)
Идентификатор кодека : XVID
Идентификатор кодека/Подсказка : XviD
Продолжительность : 53 м.
Битрейт : 1797 Кбит/сек
Ширина : 720 пикселей
Высота : 400 пикселей
Соотношение сторон : 16:9
Частота кадров : 25,000 кадров/сек
Цветовое пространство : YUV
Субдискретизация насыщенности : 4:2:0
Битовая глубина : 8 бит
Тип развёртки : Прогрессивная
Метод сжатия : С потерями
Бит/(Пиксели*Кадры) : 0.250
Размер потока : 682 Мбайт (93%)
Библиотека кодирования : XviD 1.2.1 (UTC 2008-12-04)
Аудио
Идентификатор : 1
Формат : MPEG Audio
Версия формата : Version 1
Профиль формата : Layer 3
Режим : Joint stereo
Расширение режима : MS Stereo
Идентификатор кодека : 55
Идентификатор кодека/Подсказка : MP3
Продолжительность : 53 м.
Вид битрейта : Постоянный
Битрейт : 128 Кбит/сек
Каналы : 2 канала
Частота : 48,0 КГц
Метод сжатия : С потерями
Размер потока : 48,6 Мбайт (7%)
Выравнивание : Соединение по промежуткам
Продолжительность промежутка : 40 мс. (1,00 видеокадр)
Время предзагрузки промежутка : 504 мс.
Библиотека кодирования : LAME3.99r
Настройки программы : -m j -V 4 -q 2 -lowpass 17 -b 128
Скриншоты:
       

Omen

Пост 16-Янв-2017 01:00

[Цитировать]

Принцесса с севера
- Год выпуска: 2015
Производство: «Киностудия Крылья»
Жанр: Мелодрама
Продолжительность: 00:44:00
Субтитры: нет-Режиссёр: Владимир Зайкин, Марина Сулейманова-В ролях: Полина Максимова, Алексей Нестеренко, Роман Курцын, Василий Шемякинский, Дмитрий Марьянов, Шухрат Иргашев, Павел Майков, Ольга Балашова, Юлия Юсупова, Ирина Лосева, Рустам Сагдуллаев, Амет Согиа, Мария Кудрявцева, Амаяк Чинарян, Константин Адаев, Владимир Носик, Аркадий Данилов (II), Александр Печенин, Марина Зубанова, Юрий Гумиров, Софья Цепкова-Описание: Вика обучается в самом престижном ВУЗе Москвы, она занимается изучением истории и культуры страны Аджахар. Для того чтобы узнать об этой стране больше, девушка отправляется туда в командировочный отпуск.-Релиз-группа: -Сэмпл-Качество: HDTVRip
Формат: AVI
Видео кодек: XviD
Аудио кодек: AC3
Видео: 720х400 (16:9), 25.000 fps, XviD, 1577 Kbps, 0.22 Bits/Pixel
Аудио: 48 kHz, AC3 Dolby Digital, 2 ch, 192 Kbps-Реклама: Нет-

MI

General
Complete name : Downloads\Princessa.s.severa.2016.HDTVRip.Files-x\01.Princessa.s.severa.2016.HDTVRip.Files-x.avi
Format : AVI
Format/Info : Audio Video Interleave
File size : 550 MiB
Duration : 43mn 16s
Overall bit rate : 1 778 Kbps
Writing application : VirtualDubMod 1.5.10.3 | www.virtualdub-fr.org || (build 2550/release)
Writing library : VirtualDubMod build 2550/release
Video #0
ID : 0
Format : MPEG-4 Visual
Format profile : Advanced Simple@L5
Format settings, BVOP : 1
Format settings, QPel : No
Format settings, GMC : No warppoints
Format settings, Matrix : Custom
Codec ID : XVID
Codec ID/Hint : XviD
Duration : 43mn 16s
Bit rate : 1 577 Kbps
Width : 720 pixels
Height : 400 pixels
Display aspect ratio : 16:9
Frame rate : 25.000 fps
Color space : YUV
Chroma subsampling : 4:2:0
Bit depth : 8 bits
Scan type : Progressive
Compression mode : Lossy
Bits/(Pixel*Frame) : 0.219
Stream size : 488 MiB (89%)
Writing library : XviD 73
Audio #1
ID : 1
Format : AC-3
Format/Info : Audio Coding 3
Mode extension : CM (complete main)
Format settings, Endianness : Big
Codec ID : 2000
Duration : 43mn 16s
Bit rate mode : Constant
Bit rate : 192 Kbps
Channel(s) : 2 channels
Channel positions : Front: L R
Sampling rate : 48.0 KHz
Bit depth : 16 bits
Compression mode : Lossy
Stream size : 59.4 MiB (11%)
Alignment : Split accross interleaves
Interleave, duration : 40 ms (1.00 video frame)
Interleave, preload duration : 500 ms

Скриншоты

Omen

Пост 16-Янв-2017 01:00

[Цитировать]

Бедные люди
- Год выпуска: 2016
Производство: Good Story Media
Жанр: Комедия
Продолжительность: 00:24:00
Субтитры: нет-Режиссёр: Жанна Кадникова-В ролях: Дмитрий Лысенков, Александр Адабашьян, Алиса Гребенщикова, Павел Сборщиков, Ангелина Миримская, Максим Филипьев, Марина Богатова, Александр Мехряков, Екатерина Караченцева, Ольга Бузова, Ульяна Куликова, Максим Деричев, Марина Вайнбранд, Артур Купалян, Алёна Водонаева, Александр Незлобин, Мария Скорницкая, Лаура Пицхелаури, Алексей Ильин-Описание: История интеллигентного неудачника, который живет в коммунальной квартире в Петербурге, работает «литературным негром» у Ольги Бузовой и пишет от ее лица автобиографию.- / -Качество: WEBRip 720p
Формат: MKV
Видео кодек: H.264
Аудио кодек: AC3
Видео: MPEG-4 AVC, 1280x720 (16:9), 25.000 fps, 1462, 0.63 bits/pixel
Аудио: 48 kHz, AC3 Dolby Digital, 2 ch, 192 Kbps-Реклама: Нет--

MI

General
Complete name : Downloads\Бедные люди 2016 WEB-DL (720p)\Серия 01.mkv
Format : Matroska
Format version : Version 4 / Version 2
File size : 290 MiB
Duration : 24mn 2s
Overall bit rate : 1 688 Kbps
Encoded date : UTC 2016-05-24 13:05:59
Writing application : mkvmerge v9.0.0 ('Power to progress') 64bit
Writing library : libebml v1.3.3 + libmatroska v1.4.4
DURATION : 00:24:02.464000000
NUMBER_OF_FRAMES : 45077
NUMBER_OF_BYTES : 34619136
_STATISTICS_WRITING_APP : mkvmerge v9.0.0 ('Power to progress') 64bit
_STATISTICS_WRITING_DATE_UTC : 2016-05-24 13:05:59
_STATISTICS_TAGS : BPS DURATION NUMBER_OF_FRAMES NUMBER_OF_BYTES
Video #1
ID : 1
Format : AVC
Format/Info : Advanced Video Codec
Format profile : High@L3.1
Format settings, CABAC : Yes
Format settings, ReFrames : 1 frame
Format settings, GOP : M=1, N=12
Codec ID : V_MPEG4/ISO/AVC
Duration : 24mn 2s
Bit rate : 1 462 Kbps
Width : 1 280 pixels
Height : 720 pixels
Display aspect ratio : 16:9
Frame rate mode : Constant
Frame rate : 25.000 fps
Standard : Component
Color space : YUV
Chroma subsampling : 4:2:0
Bit depth : 8 bits
Scan type : Progressive
Bits/(Pixel*Frame) : 0.063
Stream size : 251 MiB (87%)
Default : Yes
Forced : No
Color range : Limited
Audio #2
ID : 2
Format : AC-3
Format/Info : Audio Coding 3
Mode extension : CM (complete main)
Format settings, Endianness : Big
Codec ID : A_AC3
Duration : 24mn 2s
Bit rate mode : Constant
Bit rate : 192 Kbps
Channel(s) : 2 channels
Channel positions : Front: L R
Sampling rate : 48.0 KHz
Bit depth : 16 bits
Compression mode : Lossy
Stream size : 33.0 MiB (11%)
Default : Yes
Forced : No

Скриншоты

Omen

Пост 16-Янв-2017 01:00

[Цитировать]

Подмена
- Год выпуска: 2016
Производство: Кинокомпания "Русское"
Жанр: Мелодрама
Продолжительность: 00:45:00
Субтитры: нет-Режиссёр: Андрей Селиванов-В ролях: Екатерина Олькина, Артём Осипов, Анна Котова, Максим Житник, Александр Бухаров, Василиса Немцова, Андрей Рогожин, Полина Северная, Александр Андриенко, Елена Блинникова (II), Андрей Ищенко, Екатерина Семёнова, Надежда Азоркина-Описание: Оля Козырева (Екатерина Олькина) много лет прожила счастливо. У нее прекрасный любящий муж - бизнесмен Дмитрий (Александр Бухаров) и большой дом. Она никогда не задумывалась ни о сбережениях, ни о карьере, и даже не представляла, что с ней может произойти что-то плохое.
Но вот неожиданно муж предъявляет Ольге доказательства ее измены. Дмитрий сразу же подает на развод, его не останавливает даже то, что жена ждет от него ребенка. Оля оказывается выброшенной на улицу без средств к существованию.
Благодаря помощи давнего друга Толи (Максим Житник), Ольга проводит собственное расследование и находит агентство, которое по заказу богатых клиентов «решает» их семейные проблемы. Она понимает, что стала жертвой хитроумной аферы, которую оплатил ее муж, чтобы расторгнуть брак. Оказалось, что у него давно роман на стороне...-Доп. информация: Серии склеины две, в одну. 1 файл - 2 серии, 2- файла 4 серии-Релиз-группа: -Сэмпл-Качество: HDTVRip
Формат: AVI
Видео кодек: XviD
Аудио кодек: AC3
Видео: 720х400 (16:9), 25.000 fps, XviD, 1965 Kbps, 0.27 Bits/Pixel
Аудио: 48 kHz, AC3 Dolby Digital, 2 ch, 192 Kbps-Реклама: Нет-

MI

General
Complete name : Downloads\Поодмена.2016.HDTVRip.files-x\01.Поодмена.2016.HDTVRip.files-x.avi
Format : AVI
Format/Info : Audio Video Interleave
File size : 1.37 GiB
Duration : 1h 30mn
Overall bit rate : 2 166 Kbps
Writing application : VirtualDubMod 1.5.10.3 | www.virtualdub-fr.org || (build 2550/release)
Writing library : VirtualDubMod build 2550/release
Video #0
ID : 0
Format : MPEG-4 Visual
Format profile : Advanced Simple@L5
Format settings, BVOP : 1
Format settings, QPel : No
Format settings, GMC : No warppoints
Format settings, Matrix : Custom
Codec ID : XVID
Codec ID/Hint : XviD
Duration : 1h 30mn
Bit rate : 1 965 Kbps
Width : 720 pixels
Height : 400 pixels
Display aspect ratio : 16:9
Frame rate : 25.000 fps
Color space : YUV
Chroma subsampling : 4:2:0
Bit depth : 8 bits
Scan type : Progressive
Compression mode : Lossy
Bits/(Pixel*Frame) : 0.273
Stream size : 1.25 GiB (91%)
Writing library : XviD 73
Audio #1
ID : 1
Format : AC-3
Format/Info : Audio Coding 3
Mode extension : CM (complete main)
Format settings, Endianness : Big
Codec ID : 2000
Duration : 1h 30mn
Bit rate mode : Constant
Bit rate : 192 Kbps
Channel(s) : 2 channels
Channel positions : Front: L R
Sampling rate : 48.0 KHz
Bit depth : 16 bits
Compression mode : Lossy
Stream size : 125 MiB (9%)
Alignment : Split accross interleaves
Interleave, duration : 40 ms (1.00 video frame)
Interleave, preload duration : 500 ms

Скриншоты

Omen

Пост 15-Янв-2017 01:00

[Цитировать]

Райское место
- Год выпуска: 2016
Производство: Front Cinema
Жанр: Мелодрама
Продолжительность: 00:45:00
Субтитры: нет
-Режиссёр: Дмитрий Гольдман-В ролях: Клавдия Дрозд, Светлана Зельбет, Андрей Фединчик, Фёдор Гуринец, Владлена Марчак, Виктория Билан, Александр Давыдов, Инга Нагорная, Олеся Власова, Анна Саливанчук, Тарас Цимбалюк, Павел Москаль, Ирина Дорошенко, Марта Логачева, Евгений Плиско-Куприн, Дмитрий Гаврилов, Янина Соколова, Мальвина Салийчук, Константин Косинский, Сергей Фролов, Сергей Петько, Вадим Головко-Описание: Отель «Райское место» — самый роскошный горнолыжный курорт в Карпатах. И именно там хочет работать Нина Костюк — круглая сирота, живущая в закарпатском селе в доме своего дяди. Однако станет ли «Райское место» для девушки местом, где живет счастье?-Релиз от: -/ Сэмпл-Качество: WEBRip
Формат: AVI
Видео кодек: XviD
Аудио кодек: AC3
Видео: 720х400 (16:9), 25.000 fps, XviD, 1532 Kbps, 0.21 Bits/Pixel
Аудио: 48 kHz, AC3 Dolby Digital, 2 ch, 192 Kbps
-Реклама: Нет-

MI

General
Complete name : Downloads\Райское место.2016.WEB-DLRip.Files-x\001.Райское место.2016.WEB-DLRip.Files-x.avi
Format : AVI
Format/Info : Audio Video Interleave
File size : 650 MiB
Duration : 52mn 26s
Overall bit rate : 1 734 Kbps
Writing application : VirtualDubMod 1.5.10.3 | www.virtualdub-fr.org || (build 2550/release)
Writing library : VirtualDubMod build 2550/release
Video #0
ID : 0
Format : MPEG-4 Visual
Format profile : Advanced Simple@L5
Format settings, BVOP : 1
Format settings, QPel : No
Format settings, GMC : No warppoints
Format settings, Matrix : Custom
Codec ID : XVID
Codec ID/Hint : XviD
Duration : 52mn 26s
Bit rate : 1 532 Kbps
Width : 720 pixels
Height : 400 pixels
Display aspect ratio : 16:9
Frame rate : 25.000 fps
Color space : YUV
Chroma subsampling : 4:2:0
Bit depth : 8 bits
Scan type : Progressive
Compression mode : Lossy
Bits/(Pixel*Frame) : 0.213
Stream size : 575 MiB (88%)
Writing library : XviD 73
Audio #1
ID : 1
Format : AC-3
Format/Info : Audio Coding 3
Mode extension : CM (complete main)
Format settings, Endianness : Big
Codec ID : 2000
Duration : 52mn 26s
Bit rate mode : Constant
Bit rate : 192 Kbps
Channel(s) : 2 channels
Channel positions : Front: L R
Sampling rate : 48.0 KHz
Bit depth : 16 bits
Compression mode : Lossy
Stream size : 72.0 MiB (11%)
Alignment : Split accross interleaves
Interleave, duration : 40 ms (1.00 video frame)
Interleave, preload duration : 500 ms

Скриншоты

Omen

Пост 14-Янв-2017 01:00

[Цитировать]

Запретная любовь- Год выпуска: 2016
Производство: Украина, ProTV
Жанр: Mелодрама
Продолжительность: 00:47:43
Субтитры: Украинские-Режиссёр: Игорь Забара-В ролях: Ольга Гришина, Алика Смехова, Дмитрий Мухин, Эдуард Трухменёв, Кирилл Дыцевич, Анатолий Кот, Юлия Такшина, Алексей Череватенко, Евгений Ефремов (II), Елена Турбал, Константин Данилюк, Леся Самаева, Дмитрий Суржиков, Кирилл Запорожский-Описание: События сериала начинаются с происшествия: героиня Ольги Гришиной, беременная Катя, чуть не попадает под колеса дорогого джипа. Ее доставляют в роддом в бессознательном состоянии, а когда молодая женщина приходит в себя, врачи сообщают, что младенец умер. Катерина отказывается верить страшному известию. Чтобы хоть немного помочь горю Кати, ей предлагают стать няней в богатой семье, и девушка соглашается. Из нее получается прекрасная няня: она души не чает в ребенке. Единственная проблема: Катя утверждает, что на самом деле – она мать малыша! И уверяет, что ее ребенок не погиб, а его подменили в роддоме.-[url=tracker.php?nm=%D0%97%D0%B0%D0%BF%D1%80%D0%B5%D1%82%D0%BD%D0%B0%D1%8F%20%D0%BB%D1%8E%D0%B1%D0%BE%D0%B2%D1%8C%20%D0%98%D0%B3%D0%BE%D1%80%D1%8C%20%D0%97%D0%B0%D0%B1%D0%B0%D1%80%D0%B0]Все раздачи сериала[/url] / Сэмпл-Качество: SATRip
Формат: AVI
Видео кодек: XviD
Аудио кодек: AC3
Видео: 720х400 (16:9), 25.000 fps, XviD build 73, 1578 Kbps, 0.21 Bits/Pixel
Аудио: 48 kHz, AC3 Dolby Digital, 2 ch, 192 Kbps-Реклама: Нет-

MI

General
Complete name : C:\Users\Andreas\Downloads\Zapretnaja.liubov.2016.SATRip.Files-x\01.Zapretnaja.liubov.2016.SATRip.Files-x.avi
Format : AVI
Format/Info : Audio Video Interleave
File size : 600 MiB
Duration : 47mn 9s
Overall bit rate : 1 780 Kbps
Writing application : VirtualDubModRus 1.5.10.2 (build 2542/release)
Writing library : VirtualDubMod build 2542/release
Video #0
ID : 0
Format : MPEG-4 Visual
Format profile : Advanced Simple@L5
Format settings, BVOP : 1
Format settings, QPel : No
Format settings, GMC : No warppoints
Format settings, Matrix : Custom
Codec ID : XVID
Codec ID/Hint : XviD
Duration : 47mn 9s
Bit rate : 1 578 Kbps
Width : 720 pixels
Height : 400 pixels
Display aspect ratio : 16:9
Frame rate : 25.000 fps
Color space : YUV
Chroma subsampling : 4:2:0
Bit depth : 8 bits
Scan type : Progressive
Compression mode : Lossy
Bits/(Pixel*Frame) : 0.219
Stream size : 532 MiB (89%)
Writing library : XviD 73
Audio #1
ID : 1
Format : AC-3
Format/Info : Audio Coding 3
Mode extension : CM (complete main)
Format settings, Endianness : Big
Codec ID : 2000
Duration : 47mn 9s
Bit rate mode : Constant
Bit rate : 192 Kbps
Channel(s) : 2 channels
Channel positions : Front: L R
Sampling rate : 48.0 KHz
Bit depth : 16 bits
Compression mode : Lossy
Stream size : 64.8 MiB (11%)
Alignment : Split accross interleaves
Interleave, duration : 40 ms (1.00 video frame)
Interleave, preload duration : 500 ms

Скриншоты

Omen

Пост 14-Янв-2017 01:00

[Цитировать]

Три королевы
- Год выпуска: 2016
Производство: "Пирамида"
Жанр: Детектив, мелодрама
Продолжительность: 00:50:00
Субтитры: нет-Режиссёр: Каринэ Фолиянц-В ролях: Денис Васильев, Александра Власова, Станислав Бондаренко, Софья Лебедева (II), Елена Ксенофонтова, Николай Добрынин, Сергей Соцердотский, Вадим Андреев, Максим Битюков, Вячеслав Гришечкин, Евгений Коряковский, Анатолий Бобер, Игорь Трошин, Виталий Таганов, Людмила Кара-Гяур-Описание: «Три королевы» - именно так Михаил Погодин, директор и владелец винного завода города Черноморска, хотел назвать марку своего нового вина, но не успел... Его нашли мёртвым в своей квартире. Виктор, его сын, возвращается в родной город и решает разобраться в причинах смерти отца и сохранить семейный бизнес.-Релиз от: -Качество: HDTVRip 720p
Формат: MKV
Видео кодек: H.264
Аудио кодек: AC3
Видео: MPEG-4 AVC, 1280x720 (16:9), 25.000 fps, 3500 Kbps, 0.15 bits/pixel
Аудио: 48 kHz, AC3 Dolby Digital, 2 ch, 192 Kbps-Реклама: Нет-[url=tracker.php?f=9&nm=%D0%A2%D1%80%D0%B8%20%D0%BA%D0%BE%D1%80%D0%BE%D0%BB%D0%B5%D0%B2%D1%8B]Все раздачи сериала[/url] / Сэмпл-

MI

General
Complete name : Downloads\Tri korolevy.HDTVRip.(720p).GeneralFilm\Tri korolevy.01.HDTVRip.(720p).GeneralFilm.mkv
Format : Matroska
Format version : Version 2
File size : 1.33 GiB
Duration : 51mn 27s
Overall bit rate : 3 694 Kbps
Encoded date : UTC 2016-12-27 06:00:43
Writing application : mkvmerge v6.1.0 ('Old Devil') built on Mar 4 2013 09:10:42
Writing library : libebml v1.3.0 + libmatroska v1.4.0
Video #1
ID : 1
Format : AVC
Format/Info : Advanced Video Codec
Format profile : High@L4.1
Format settings, CABAC : Yes
Format settings, ReFrames : 9 frames
Codec ID : V_MPEG4/ISO/AVC
Duration : 51mn 27s
Bit rate : 3 500 Kbps
Width : 1 280 pixels
Height : 720 pixels
Display aspect ratio : 16:9
Frame rate mode : Constant
Frame rate : 25.000 fps
Color space : YUV
Chroma subsampling : 4:2:0
Bit depth : 8 bits
Scan type : Progressive
Bits/(Pixel*Frame) : 0.152
Stream size : 1.23 GiB (93%)
Writing library : x264 core 130 r2273 b3065e6
Encoding settings : cabac=1 / ref=9 / deblock=1:-2:-1 / analyse=0x3:0x113 / me=umh / subme=9 / psy=1 / psy_rd=1.00:0.15 / mixed_ref=1 / me_range=32 / chroma_me=1 / trellis=2 / 8x8dct=1 / cqm=0 / deadzone=21,11 / fast_pskip=0 / chroma_qp_offset=-3 / threads=6 / lookahead_threads=1 / sliced_threads=0 / nr=0 / decimate=0 / interlaced=0 / bluray_compat=0 / constrained_intra=0 / bframes=9 / b_pyramid=2 / b_adapt=2 / b_bias=0 / direct=3 / weightb=1 / open_gop=0 / weightp=2 / keyint=250 / keyint_min=25 / scenecut=40 / intra_refresh=0 / rc_lookahead=50 / rc=2pass / mbtree=1 / bitrate=3500 / ratetol=1.0 / qcomp=0.60 / qpmin=0 / qpmax=69 / qpstep=4 / cplxblur=20.0 / qblur=0.5 / vbv_maxrate=50000 / vbv_bufsize=50000 / nal_hrd=none / ip_ratio=1.40 / aq=2:1.00
Default : Yes
Forced : No
Color primaries : BT.709
Transfer characteristics : BT.709
Matrix coefficients : BT.709
Color range : Limited
Audio #2
ID : 2
Format : AC-3
Format/Info : Audio Coding 3
Mode extension : CM (complete main)
Format settings, Endianness : Big
Codec ID : A_AC3
Duration : 51mn 27s
Bit rate mode : Constant
Bit rate : 192 Kbps
Channel(s) : 2 channels
Channel positions : Front: L R
Sampling rate : 48.0 KHz
Bit depth : 16 bits
Compression mode : Lossy
Stream size : 70.7 MiB (5%)
Default : Yes
Forced : No

Скриншоты

Omen

Пост 13-Янв-2017 01:00

[Цитировать]

Волевой приём- Год выпуска: 2016
Производство:АртПикчерс, Кинокомпания «Бабблгам продакшн»
Жанр: драма, спортивный фильм
Продолжительность: 00:46:00
Субтитры: нет-Режиссёр: Дмитрий Булин-В ролях: Евгений Романцов, Илья Алексеев, Светлана Павлова, Александр Тютин, Сергей Иванюк, Алексей Медведев, Денис Бобышев-Описание: Макс Кораблев завязал с хоккеем, потому что его одержимость разрушала жизнь и ему, и его близким. Он теперь работает в полиции и однажды задерживает молодого парня, Никиту, которому грозит срок... А парень этот - талантливый хоккеист местной команды. Помогая Никите избежать ошибок, которые совершил он сам, Максим разбирается в себе и избавляется от призраков прошлого.-Сэмпл-Релиз от: -Качество: HDTVRip
Формат: AVI
Видео кодек: XviD
Аудио кодек: AC3
Видео: 720x400 (16:9), 25.000 fps, XviD build 73, 1604 Kbps, 0.22 Bits/Pixel
Аудио: 48 kHz, AC3 Dolby Digital, 2 ch, 192 Kbps-Реклама: Нет-

MI

General
Complete name : Downloads\Волевой приём (2016).HDTVRip.RG.Russkie.serialy.&.Files-x\
Format : AVI
Format/Info : Audio Video Interleave
File size : 600 MiB
Duration : 46mn 26s
Overall bit rate : 1 806 Kbps
Writing application : VirtualDubMod 1.5.10.3 | www.virtualdub-fr.org || (build 2550/release)
Writing library : VirtualDubMod build 2550/release
Video #0
ID : 0
Format : MPEG-4 Visual
Format profile : Advanced Simple@L5
Format settings, BVOP : 1
Format settings, QPel : No
Format settings, GMC : No warppoints
Format settings, Matrix : Custom
Codec ID : XVID
Codec ID/Hint : XviD
Duration : 46mn 26s
Bit rate : 1 604 Kbps
Width : 720 pixels
Height : 400 pixels
Display aspect ratio : 16:9
Frame rate : 25.000 fps
Color space : YUV
Chroma subsampling : 4:2:0
Bit depth : 8 bits
Scan type : Progressive
Compression mode : Lossy
Bits/(Pixel*Frame) : 0.223
Stream size : 533 MiB (89%)
Writing library : XviD 73
Audio #1
ID : 1
Format : AC-3
Format/Info : Audio Coding 3
Mode extension : CM (complete main)
Format settings, Endianness : Big
Codec ID : 2000
Duration : 46mn 26s
Bit rate mode : Constant
Bit rate : 192 Kbps
Channel(s) : 2 channels
Channel positions : Front: L R
Sampling rate : 48.0 KHz
Bit depth : 16 bits
Compression mode : Lossy
Stream size : 63.8 MiB (11%)
Alignment : Split accross interleaves
Interleave, duration : 40 ms (1.00 video frame)
Interleave, preload duration : 500 ms

Скриншоты

Omen

Пост 12-Янв-2017 01:00

[Цитировать]

Бариста
- Год выпуска: 2015
Производство: Паламеда Продакшн
Жанр: Детектив, мелодрама
Продолжительность: 00:45:00
Субтитры: нет-Режиссёр: Александр Касаткин-В ролях: Полина Стрельникова (Сыркина), Анатолий Лобоцкий, Владимир Мишуков, Вероника Пляшкевич, Андрей Сенькин-Описание: Всё, что Лера умела — это варить непревзойденный кофе. И даже в недорогое сетевое кафе люди приходили попробовать удивительный напиток. Жизнь её текла спокойно и размеренно, пока в кафе не появился респектабельный господин, показавшийся смутно знакомым… Он предложил Лере совсем иную жизнь. Вскоре мужчина погиб в двух шагах от кафе, где работала Лера. И с этого момента её жизнь поменялась — кто-то явно пытается её убить…-Семпл-Релиз от: -Качество: HDTVRip
Формат: AVI
Видео кодек: XviD
Аудио кодек: AC3
Видео: 720x400 (16:9), 25.000 fps, XviD build 73, 1984 Kbps, 0.27 Bits/Pixel
Аудио: 48 kHz, AC3 Dolby Digital, 2 ch, 192 Kbps-Реклама: Нет-

MI

General
Complete name : Downloads\Barista.2015..HDTVRip.Files-x\01.Barista.2015..HDTVRip.Files-x.avi
Format : AVI
Format/Info : Audio Video Interleave
File size : 1.37 GiB
Duration : 1h 29mn
Overall bit rate : 2 186 Kbps
Writing application : VirtualDubMod 1.5.10.2 (build 2542/release)
Writing library : VirtualDubMod build 2542/release
Video #0
ID : 0
Format : MPEG-4 Visual
Format profile : Advanced Simple@L5
Format settings, BVOP : 1
Format settings, QPel : No
Format settings, GMC : No warppoints
Format settings, Matrix : Custom
Codec ID : XVID
Codec ID/Hint : XviD
Duration : 1h 29mn
Bit rate : 1 984 Kbps
Width : 720 pixels
Height : 400 pixels
Display aspect ratio : 16:9
Frame rate : 25.000 fps
Color space : YUV
Chroma subsampling : 4:2:0
Bit depth : 8 bits
Scan type : Progressive
Compression mode : Lossy
Bits/(Pixel*Frame) : 0.276
Stream size : 1.24 GiB (91%)
Writing library : XviD 73
Audio #1
ID : 1
Format : AC-3
Format/Info : Audio Coding 3
Mode extension : CM (complete main)
Format settings, Endianness : Big
Codec ID : 2000
Duration : 1h 29mn
Bit rate mode : Constant
Bit rate : 192 Kbps
Channel(s) : 2 channels
Channel positions : Front: L R
Sampling rate : 48.0 KHz
Bit depth : 16 bits
Compression mode : Lossy
Stream size : 123 MiB (9%)
Alignment : Split accross interleaves
Interleave, duration : 40 ms (1.00 video frame)
Interleave, preload duration : 500 ms

Скриншоты

Omen

Пост 12-Янв-2017 01:00

[Цитировать]

Пластмассовая королева
- Год выпуска: 2016
Производство: Россия, "Мега Продакшн"
Жанр: Мелодрама
Продолжительность: 00:45:00
Субтитры: нет-Режиссёр: Сергей Гиргель-В ролях: Ольга Дятловская, Дарья Пармененкова, Елизавета Фалей, Алиса Признякова, Ефим Петрунин, Иван Николаев, Марина Москвина, Сергей Власов, Наталья Капитонова, Руслан Чернецкий, Андрей Карако, Анатолий Терпицкий-Описание: Маше Громовой 17 лет. Она – «пластмассовая принцесса» в небольшом провинциальном городке. Так все ее здесь зовут. Ведь отец Маши – владелец крупного завода по производству пластика. При этом девушке лютой завистью завидуют две подружки – Света и Анжела. Маша, несмотря на свой «статус», влюблена в простого парня Лешу, что совсем не по душе Громову. Родители героини обманом разлучают ее с любимым и отправляют учиться в столицу.Проходит время. Повзрослевшая Маша возвращается в родной городок и обнаруживает там большие перемены. Отец стал очень прохладно общаться с матерью, грубит ей. Да к тому же выгнал с завода пожилого и мудрого управляющего, а вместо него взял молодого, хлыщеватого Глеба. Этот Глеб, узнав, кто такая Маша, начинает за ней ухаживать и явно набивается в кавалеры. Анжела работает на том же заводе – секретаршей, строит всем глазки. А Леша живет с мамой и… со Светой. Со стороны они выглядят, как счастливая семья.-Сэмпл-Релиз от: -Качество: HDTVRip
Формат: AVI
Видео кодек: XviD
Аудио кодек: AC3
Видео: 720x400 (16:9), 25.000 fps, XviD build 73, 1908 Kbps, 0.26 Bits/Pixel
Аудио: 48 kHz, AC3 Dolby Digital, 2 ch, 192 Kbps-Реклама: Нет-

MI

General
Complete name : Downloads\Пластмассовая королева (2016).HDTVRip.RG.Russkie.serialy.&.Files-x\
Format : AVI
Format/Info : Audio Video Interleave
File size : 1.37 GiB
Duration : 1h 32mn
Overall bit rate : 2 110 Kbps
Writing application : VirtualDubMod 1.5.10.3 | www.virtualdub-fr.org || (build 2550/release)
Writing library : VirtualDubMod build 2550/release
Video #0
ID : 0
Format : MPEG-4 Visual
Format profile : Advanced Simple@L5
Format settings, BVOP : 1
Format settings, QPel : No
Format settings, GMC : No warppoints
Format settings, Matrix : Custom
Codec ID : XVID
Codec ID/Hint : XviD
Duration : 1h 32mn
Bit rate : 1 908 Kbps
Width : 720 pixels
Height : 400 pixels
Display aspect ratio : 16:9
Frame rate : 25.000 fps
Color space : YUV
Chroma subsampling : 4:2:0
Bit depth : 8 bits
Scan type : Progressive
Compression mode : Lossy
Bits/(Pixel*Frame) : 0.265
Stream size : 1.24 GiB (90%)
Writing library : XviD 73
Audio #1
ID : 1
Format : AC-3
Format/Info : Audio Coding 3
Mode extension : CM (complete main)
Format settings, Endianness : Big
Codec ID : 2000
Duration : 1h 32mn
Bit rate mode : Constant
Bit rate : 192 Kbps
Channel(s) : 2 channels
Channel positions : Front: L R
Sampling rate : 48.0 KHz
Bit depth : 16 bits
Compression mode : Lossy
Stream size : 127 MiB (9%)
Alignment : Split accross interleaves
Interleave, duration : 40 ms (1.00 video frame)
Interleave, preload duration : 500 ms

Скриншоты

Omen

Пост 11-Янв-2017 01:01

[Цитировать]

Грешник

«Цена ошибки - жизнь»
- Год выпуска: 2014
Производство: Марс Медиа
Жанр: Драма
Продолжительность: 00:50:00
Субтитры: нет
-Режиссёр: Дмитрий Константинов-В ролях: Евгений Антропов, Андрей Смоляков, Любовь Аксёнова, Дмитрий Куличков, Дарья Урсуляк, Дмитрий Мухамадеев, Мария Болонкина, Владимир Капустин, Владимир Виноградов, Иван Дремач, Александр Городиский, Евгения Дмитриева, Максим Битюков, Денис Беспалый-Описание: Когда Владу было 5 лет, его мать убили, и в ее смерти все последующие годы он винит отца. На 20-ю годовщину трагедии юноша решает расставить точки над "i" и собирает всех родственников. В процессе поиска и встреч с ними Влад выясняет факты, которые меняют всё...- / -Релиз от: -Качество: WEBRip
Формат: AVI
Видео кодек: XviD
Аудио кодек: AC3
Видео: 720x400 (16:9), 25.000 fps, XviD, 1807 Kbps, 0.25 Bits/Pixel
Аудио: 48 kHz, AC3 Dolby Digital, 2 ch, 192 Kbps
-Реклама: Нет--

MI

General
Complete name : Downloads\Greshnik.2015.WEB-DLRip.ExKinoRay\Greshnik.(01.seriya).2015.WEB-DLRip.ExKinoRay.avi
Format : AVI
Format/Info : Audio Video Interleave
File size : 699 MiB
Duration : 48mn 40s
Overall bit rate : 2 009 Kbps
Writing application : VirtualDubMod 1.5.10.2 (build 2540/release)
Writing library : VirtualDubMod build 2540/release
Video #0
ID : 0
Format : MPEG-4 Visual
Format profile : Advanced Simple@L5
Format settings, BVOP : 1
Format settings, QPel : No
Format settings, GMC : No warppoints
Format settings, Matrix : Custom
Codec ID : XVID
Codec ID/Hint : XviD
Duration : 48mn 40s
Bit rate : 1 807 Kbps
Width : 720 pixels
Height : 400 pixels
Display aspect ratio : 16:9
Frame rate : 25.000 fps
Color space : YUV
Chroma subsampling : 4:2:0
Bit depth : 8 bits
Scan type : Progressive
Compression mode : Lossy
Bits/(Pixel*Frame) : 0.251
Stream size : 629 MiB (90%)
Writing library : XviD 1.2.1 (UTC 2008-12-04)
Audio #1
ID : 1
Format : AC-3
Format/Info : Audio Coding 3
Mode extension : CM (complete main)
Format settings, Endianness : Big
Codec ID : 2000
Duration : 48mn 40s
Bit rate mode : Constant
Bit rate : 192 Kbps
Channel(s) : 2 channels
Channel positions : Front: L R
Sampling rate : 48.0 KHz
Bit depth : 16 bits
Compression mode : Lossy
Stream size : 66.9 MiB (10%)
Alignment : Split accross interleaves
Interleave, duration : 40 ms (1.00 video frame)
Interleave, preload duration : 500 ms

Скриншоты

Omen

Пост 11-Янв-2017 01:01

[Цитировать]

Убийство на троих- Год выпуска: 2015
Производство: «Студия Грин-Фильм» по заказу студии «Телемастер»
Жанр: Детектив
Продолжительность: 00:50:00
Субтитры: нет-Режиссёр: Александр Кириенко-В ролях: Алла Юганова, Екатерина Копанова, Юлия Такшина, Анна Пескова, Александр Макогон, Алексей Нилов, Георгий Пицхелаур, Аркадий Шароградский, Артур Мкртчян, Кирилл Жандаров-Описание: Катя, Жанна и Ирина - неунывающие подруги бальзаковского возраста. Секретов между ними давно нет, они привыкли все поверять друг другу и помогать в любой беде. Им не надо искать неприятности - неприятности их сами находят. Приехав на выходные в санаторий, подруги знакомятся с девушкой Ольгой и случайно забирают ее книгу. В тот же день они находят у себя в номере труп неизвестного мужчины, а Ольга исчезает...-Сэмпл-Реклама: Нет-Качество: WEBRip
Формат: AVI
Видео кодек: XviD
Аудио кодек: AC3
Видео: 720х400 (16:9), 25.000 fps, XviD, 1495 Kbps, 0.21 Bits/Pixel
Аудио: 44.1 KHz, AC3 Dolby Digital, 2 ch, 128 Kbps

MI

General
Complete name : Downloads\Ubijstvo.na.troih.2015.WEB-DLRip\01.serija.avi
Format : AVI
Format/Info : Audio Video Interleave
File size : 582 MiB
Duration : 49mn 50s
Overall bit rate : 1 633 Kbps
Writing application : VirtualDubMod 1.5.10.3 | www.virtualdub-fr.org || (build 2550/release)
Writing library : VirtualDubMod build 2550/release
Video #0
ID : 0
Format : MPEG-4 Visual
Format profile : Advanced Simple@L5
Format settings, BVOP : 2
Format settings, QPel : No
Format settings, GMC : No warppoints
Format settings, Matrix : Default (MPEG)
Codec ID : XVID
Codec ID/Hint : XviD
Duration : 49mn 50s
Bit rate : 1 495 Kbps
Width : 720 pixels
Height : 400 pixels
Display aspect ratio : 16:9
Frame rate : 25.000 fps
Color space : YUV
Chroma subsampling : 4:2:0
Bit depth : 8 bits
Scan type : Progressive
Compression mode : Lossy
Bits/(Pixel*Frame) : 0.208
Stream size : 533 MiB (92%)
Writing library : XviD 1.2.1 (UTC 2008-12-04)
Audio #1
ID : 1
Format : AC-3
Format/Info : Audio Coding 3
Mode extension : CM (complete main)
Format settings, Endianness : Big
Codec ID : 2000
Duration : 49mn 50s
Bit rate mode : Constant
Bit rate : 128 Kbps
Channel(s) : 2 channels
Channel positions : Front: L R
Sampling rate : 44.1 KHz
Bit depth : 16 bits
Compression mode : Lossy
Stream size : 45.6 MiB (8%)
Alignment : Split accross interleaves
Interleave, duration : 40 ms (1.00 video frame)
Interleave, preload duration : 500 ms

Скриншоты

Omen

Пост 11-Янв-2017 01:00

[Цитировать]

Саша добрый, Саша злой --Год выпуска: 2016
Производство: Россия, "Top line Film"
Жанр: детектив
Продолжительность: 00:43:00
Субтитры: нет--Режиссёр: Мичислав Юзовский--В ролях: Роман Мадянов, Владимир Яглыч, Светлана Устинова, Наталия Антонова, Леонид Кулагин, Владимир Качан, Ирина Ефремова , Игорь Филиппов, Александр Песков, Юлия Галкина, Вячеслав Гришечкин, Мария Фелянина, Александр Миронов , Дмитрий Мазуров, Виктория Герасимова, Ярослав Леонов, Виталий Адасюк, Александр Мельник , Сергей Букреев, Сергей Гурьев, Елена Коровчук, Сергей Калашников, Михаил Жигалов, Константин Гацалов, Андрей Стоянов--Описание: В одно из районных отделений полиции города Севастополя командируют из Москвы молодого следователя - майора Александра Демина .Одновременно с Деминым в город прилетают и московские бандиты, которые собираются устроить передел власти в городе. Их главная цель – контроль над портом. С момента появления столичных гостей Севастополь захлестывает волна убийств, на первый взгляд никак не связанных между собой. Также по городу начинает распространяться новый сильнодействующий наркотик, который не оставляет в организме следов.Расследованием участившихся в городе преступлений поручают заниматься Александру Демину и опытному оперативнику с большим стажем - следователю Александру Шестопалову . В отделе их сразу же называют «Саша добрый» и «Саша злой».-- --Релиз от: --Качество: SATRip-AVC
Формат: MKV
Видео кодек: H.264
Аудио кодек: AC3
Видео: MPEG4 Video (H264), 720x462, 25fps,1500 Kbps,bit/pixel 0.181
Аудио: AC3 48000Hz, stereo, 192kbps,2 ch
--

MI

Общее
Уникальный идентификатор : 211586302487362140478913549600628727233 (0x9F2E0A21CCFE6B24887EA57C5464DDC1)
Полное имя : E:\Саша добрый, Саша злой\01 серия_Саша добрый, Саша злой_rip by_Aleksan55.mkv
Формат : Matroska
Версия формата : Version 2
Размер файла : 522 Мбайт
Продолжительность : 43 м.
Общий поток : 1694 Кбит/сек
Дата кодирования : UTC 2017-01-09 20:46:37
Программа кодирования : mkvmerge v7.8.0 ('River Man') 32bit built on Apr 3 2015 12:11:22
Библиотека кодирования : libebml v1.3.1 + libmatroska v1.4.2
Видео
Идентификатор : 1
Формат : AVC
Формат/Информация : Advanced Video Codec
Профиль формата : High@L3.1
Параметр CABAC формата : Да
Параметр ReFrames формата : 14 кадров
Идентификатор кодека : V_MPEG4/ISO/AVC
Продолжительность : 43 м.
Битрейт : 1500 Кбит/сек
Ширина : 720 пикселей
Высота : 462 пикселя
Соотношение сторон : 16:10
Режим частоты кадров : Постоянный
Частота кадров : 25,000 кадров/сек
Цветовое пространство : YUV
Субдискретизация насыщенности : 4:2:0
Битовая глубина : 8 бит
Тип развёртки : Прогрессивная
Бит/(Пиксели*Кадры) : 0.180
Размер потока : 453 Мбайт (87%)
Библиотека кодирования : x264 core 148 r2638 7599210
Настройки программы : cabac=1 / ref=14 / deblock=1:-1:-1 / analyse=0x3:0x133 / me=umh / subme=9 / psy=1 / psy_rd=1.00:0.15 / mixed_ref=0 / me_range=32 / chroma_me=1 / trellis=2 / 8x8dct=1 / cqm=0 / deadzone=21,11 / fast_pskip=0 / chroma_qp_offset=-3 / threads=3 / lookahead_threads=3 / sliced_threads=0 / nr=0 / decimate=0 / interlaced=0 / bluray_compat=0 / constrained_intra=0 / bframes=14 / b_pyramid=2 / b_adapt=1 / b_bias=0 / direct=3 / weightb=1 / open_gop=0 / weightp=2 / keyint=250 / keyint_min=25 / scenecut=40 / intra_refresh=0 / rc_lookahead=70 / rc=2pass / mbtree=1 / bitrate=1500 / ratetol=1.0 / qcomp=0.80 / qpmin=0 / qpmax=40 / qpstep=4 / cplxblur=20.0 / qblur=0.5 / ip_ratio=1.40 / aq=1:1.20
Default : Да
Forced : Нет
Цветовой диапазон : Limited
Основные цвета : BT.601 PAL
Характеристики трансфера : BT.470 System B, BT.470 System G
Коэффициенты матрицы : BT.601
Аудио
Идентификатор : 2
Формат : AC-3
Формат/Информация : Audio Coding 3
Расширение режима : CM (complete main)
Параметр Endianness формата : Big
Идентификатор кодека : A_AC3
Продолжительность : 43 м.
Вид битрейта : Постоянный
Битрейт : 192 Кбит/сек
Каналы : 2 канала
Расположение каналов : Front: L R
Частота : 48,0 КГц
Метод сжатия : С потерями
Размер потока : 59,2 Мбайт (11%)
Default : Да
Forced : Нет

Скриншоты

Внимание! Раздача ведётся путём добавления новых серий

Внимание! Раздача ведётся путём добавления новых серий; при каждом добавлении создаётся новый торрент.
Чтобы начать докачку новой серии, пользователям необходимо сделать следующее:
1. Остановить скачивание;
2. Удалить старый торрент у себя из клиента (старые серии удалять не надо);
3. Скачать новый торрент и запустить его у себя в клиенте вместо старого, при этом указать клиенту путь в старую папку куда и должно происходить скачивание новых серий. Ваш клиент при этом должен произвести хеширование (проверку) старой папки и будет докачивать только те серии, которых у вас ещё нет. Старые серии при этом не удаляются, а продолжают раздаваться! Eсли вы уже удалили старые серии, то предотвратить повторную закачку старых серий можно, отжав галочку в соответствующих местах при запуске нового торрента.
 

Текущее время: Сегодня 21:48

Часовой пояс: GMT + 3