Сегодня идет свободное скачивание без начисления Download

Результатов поиска: 474

Автор Сообщение

Omen

Пост 09-Янв-2017 01:00

[Цитировать]

Шоу Тома и Джерри / The Tom and Jerry Show
Страна: США
Жанр: Мультипликация
Продолжительность серии: ~00:22:00
Год выпуска: 2016
Перевод: Профессиональный (дублированный)
Русские субтитры: нет-Режиссёр: Даррел Ван Киттерс / Darrell Van Citters
Роли озвучивали: Рик Зефф, Джейсон Александр, Джои Д’Аурия, Грэй ДеЛисл, Рене Мухика, Эрик Бауза, Рэйчел МакФарлейн, Alicyn Packard, Крис Парнелл, Кри Саммер-Описание: Новые истории соперничества кота Тома и мышонка Джерри. Том упорно гоняется за Джерри и каждая новая уловка хитрого кота изобретательней предыдущей, но мышонок дает достойный отпор своему сопернику, не теряя возможности сделать ему между прочим какую-нибудь пакость.--Качество: SATRip
Формат: AVI
Видео: MPEG4, XviD, 720x448 (16:10), 25.000 fps, 1 100 Kbps (0.136 bit/pixel)
Аудио: MP3, 48.0 KHz, 2 ch, 192 Kbps, CBR
Субтитры: отсутствуют
Семпл: Забираем тут

Список серий:

s02e01 - Dental Case / Picture Imperfect / One-Way Cricket
s02e02 - Slinging in the Rain / Squeaky Clean / Tough Luck Duck
s02e03 - The Paper Airplane Chase / Round Tripped / Smitten with the Kitten
s02e04 - Cheesy Ball Run / Say Uncle / Here Come's the Bribe
s02e05 - Slaphappy Birthday / Reward If Lost / Charity Case
s02e06 - X Marks the Thumpin / Dragon Down the Holidays / Baby Blues
s02e07 - Build-a-Beast / No Fly Zone / Big Top Tom
s02e08 - Duck, Duck, Loose / Tuffy's Big Adventure / Flea Bitten
s02e09 - Shadow Boxin / Dandy Do-gooders / The Art Of War
s02e10 - From Nuts To Soup / Toodle Boom! / Meanie Genie
s02e11 - To Kill A Mockingbird / Growing Pains / Bringing Down The House
s02e12 - Life's A Beach / Hiccup And Away / I Quit
s02e13 - You Can't Handle The Tooth / Pain For Sale / Jerry Rigged

Подробные технические данные

ОбщееПолное имя : 09 - Shadow Boxin_Dandy Do-gooders_The Art Of War.aviФормат : AVIФормат/Информация : Audio Video InterleaveРазмер файла : 193 МбайтПродолжительность : 20 м.Общий поток : 1301 Кбит/секПрограмма кодирования : VirtualDubMod 1.5.10.3 | www.virtualdub-fr.org || (build 2550/release)Библиотека кодирования : VirtualDubMod build 2550/release
ВидеоИдентификатор : 0Формат : MPEG-4 VisualПрофиль формата : Advanced Simple@L5Параметр BVOP формата : 1Параметр QPel формата : НетПараметр GMC формата : Без точки переходаПараметр матрицы формата : Default (H.263)Идентификатор кодека : XVIDИдентификатор кодека/Подсказка : XviDПродолжительность : 20 м.Битрейт : 1100 Кбит/секШирина : 720 пикселейВысота : 448 пикселейСоотношение сторон : 16:10Частота кадров : 25,000 кадров/секЦветовое пространство : YUVСубдискретизация насыщенности : 4:2:0Битовая глубина : 8 битТип развёртки : ПрогрессивнаяМетод сжатия : С потерямиБит/(Пиксели*Кадры) : 0.136Размер потока : 163 Мбайт (84%)Библиотека кодирования : XviD 1.2.1 (UTC 2008-12-04)
АудиоИдентификатор : 1Формат : MPEG AudioВерсия формата : Version 1Профиль формата : Layer 3Идентификатор кодека : 55Идентификатор кодека/Подсказка : MP3Продолжительность : 20 м.Вид битрейта : ПостоянныйБитрейт : 192 Кбит/секКаналы : 2 каналаЧастота : 48,0 КГцМетод сжатия : С потерямиРазмер потока : 28,5 Мбайт (15%)Выравнивание : Соединение по промежуткамПродолжительность промежутка : 40 мс. (1,00 видеокадр)Время предзагрузки промежутка : 504 мс.Библиотека кодирования : LAME3.99rНастройки программы : -m s -V 4 -q 0 -lowpass 18.6 -b 192

Внимание! Раздача ведется путем добавления новых серий

Внимание! Раздача ведётся путём добавления новых серий; при каждом добавлении создётся новый торрент. Чтобы начать докачку новой серии, пользователям необходимо сделать следующее:
(1) остановить скачивание.
(2) удалить старый торрент у себя из клиента (старые серии удалять не надо),
(3) скачать новый торрент и запустить его у себя в клиенте вместо старого, при этом указать клиенту путь в старую папку куда и должно происходить скачивание новых серий.
Ваш клиент при этом должен произвести хеширование (проверку) старой папки (если не производит сам - помогите ему сделать это), и будет докачивать только те серии которых у вас ещё нет. Старые серии при этом не удаляются, а продолжают раздаваться!
Eсли вы уже удалили старые серии, то предотвратить повторную закачку старых серий можно, отжав галочку в соответсвующих местах при запуске нового торрента. По возможности, желательно не удалять старые серии как можно дольше чтобы релизёр не столько продолжал раздавать старые серии, а смог сконцентрироваться на новых.

Скриншоты


Omen

Пост 18-Дек-2016 01:00

[Цитировать]

Чип и Дейл спешат на помощь / Chip and Dale Rescue Rangers
Страна: США
Жанр: Приключения, комедия
Продолжительность серии: ~00:22:00
Год выпуска: 1989
Перевод: Профессиональный (дублированный) ТСК (Телевизионная Студия Кинопрограмм)
Русские субтитры: нет
Режиссёр: Джон Кимболл, Роб Замбони
Роли озвучивали: Кори Бертон, Питер Каллен, Джим Каммингс, Тресс МакНилл, Роб Полсен, Дэнни Гэнс и другие
Описание: Приключенческий мультсериал, созданный студией Уолта Диснея. Авторы идеи — Алан Заслов и Тэд Стоун. Главными героями мультсериала являются переработанные классические диснеевские персонажи — антропоморфные бурундуки Чип и Дейл, а также трое их друзей — мышка-изобретательница Гайка, крыса Рокфор и его друг, муха по имени Вжик — вместе образующие «Команду Спасателей» (англ. Rescue Rangers).
Впервые данная концепция была показана в США 27 августа 1988 года в превью-эпизоде «Catteries Not Included». Собственно сам мультсериал в США начал выходить в эфир с 4 марта 1989 года на канале «The Disney Channel» обычно в паре с «Утиными историями». Последняя серия была показана 19 ноября 1990 года. Начиная с 18 сентября 1990 года в США транслировался повтор шоу. Кроме того, повторы выходили до 3 сентября 1993 года в рамках программы «The Disney Afternoon».
В общей сложности было показано 65 серий, пять из которых представляют собой разделенный на несколько частей полнометражный мультфильм «Rescue Rangers: To The Rescue», которые выходили с порядковым номером серий с 14 по 18.
Список серий:
01. To The Rescue. Part 1
02. To The Rescue. Part 2
03. To The Rescue. Part 3
04. To The Rescue. Part 4
05. To The Rescue. Part 5
06. Catteries Not Included
07. Three Men and a Booby
08. The Carpetsnaggers
Доп. информация: Раздача ведётся путём добавления серий! (от БАТИ)
Семпл: http://multi-up.com/1131257
Качество: WEB-DLRip
Формат: AVI
Видео: 720x544 (1.32:1), 23.976 fps, XviD build 73, 2351 kbps avg, 0.25 bit/pixel
Аудио: 48 kHz, AC3 Dolby Digital, 2/0 (L,R) ch, 192 kbps
Субтитры: нет

Подробные технические данные

ОбщееПолное имя : D:\Чип и Дейл спешат на помощь\01. To The Rescue. Part 1.aviФормат : AVIФормат/Информация : Audio Video InterleaveРазмер файла : 417 МбайтПродолжительность : 22 м.Общий поток : 2553 Кбит/секПрограмма кодирования : VirtualDubMod 1.5.10.3 | www.virtualdub-fr.org || (build 2550/release)Библиотека кодирования : VirtualDubMod build 2550/release
ВидеоИдентификатор : 0Формат : MPEG-4 VisualПрофиль формата : Advanced Simple@L5Параметр BVOP формата : 1Параметр QPel формата : НетПараметр GMC формата : Без точки переходаПараметр матрицы формата : ВыборочнаяИдентификатор кодека : XVIDИдентификатор кодека/Подсказка : XviDПродолжительность : 22 м.Битрейт : 2351 Кбит/секШирина : 720 пикселейВысота : 544 пикселяСоотношение сторон : 4:3Частота кадров : 23,976 (23976/1000) кадра/секЦветовое пространство : YUVСубдискретизация насыщенности : 4:2:0Битовая глубина : 8 битТип развёртки : ПрогрессивнаяМетод сжатия : С потерямиБит/(Пиксели*Кадры) : 0.250Размер потока : 384 Мбайт (92%)Библиотека кодирования : XviD 73
АудиоИдентификатор : 1Формат : AC-3Формат/Информация : Audio Coding 3Расширение режима : CM (complete main)Параметр Endianness формата : BigИдентификатор кодека : 2000Продолжительность : 22 м.Вид битрейта : ПостоянныйБитрейт : 192 Кбит/секКаналы : 2 каналаРасположение каналов : Front: L RЧастота : 48,0 КГцЧастота кадров : 31,250 кадров/сек (1536 spf)Метод сжатия : С потерямиРазмер потока : 31,3 Мбайт (8%)Выравнивание : Разделение по промежуткамПродолжительность промежутка : 42 мс. (1,00 видеокадр)Время предзагрузки промежутка : 500 мс.

Omen

Пост 21-Ноя-2016 01:00

[Цитировать]

Симпсоны / The Simpsons- Страна: США
Год выпуска: 2016
Жанр: Мультсериал, комедия, сатира
Перевод: Профессиональный (многоголосый закадровый)
Продолжительность: ~22 минуты
Русские субтитры: есть (1-4 серии) [отдельно]
-Режиссёр: Мэтт Гроунинг / Matt Groening-Роли озвучивали: Дэн Кастелланета, Джули Кавнер, Нэнси Картрайт, Ярдли Смит, Гарри Ширер, Хэнк Азария, Памела Хейден, Тресс МакНилл, Карл Видерготт, Мэгги Росвэлл и другие.-Описание: Симпсоны живут в вымышленном городе Спрингфилд, со своим обществом и историей. Гомер - отец семейства, который даёт плохие советы и работает инспектором по безопасности на атомной электростанции; Мардж - любящая мать и жена, старается сохранить спокойствие в семье; Барт - 10 летний хулиган; Лиза - философский 8-летний ребёнок; и Мэгги - младенец, который общается посредством соски.-Сэмпл-**Качество: WEB-DL 1080p
**Формат: MKV
**Видео:
**#AVC, 1916x1076, 23.976 fps, ~5000 kbps (1-3, 5 серии)
**#AVC, 1920x1080, 23.976 fps, ~5000 kbps (4 серия)
**Аудио Rus: AC3, 48 KHz, 2 ch, 256 kbps (VO-production)
**Аудио Eng: AC3, 48 KHz, 6 ch, 384 kbps
**Субтитры: русские (1-4 серии) [отдельно], английские

Подробные технические данные

GeneralUnique ID : 191916312701080181840856914703831121872 (0x9061BCC29FF5E8F9A32A4D054BE9BFD0)Complete name : C:\The Simpsons (Season 28) WEB-DL 1080p\01. Monty Burns' Fleeing Circus.mkvFormat : MatroskaFormat version : Version 4 / Version 2File size : 867 MiBDuration : 21mn 10sOverall bit rate : 5 729 KbpsEncoded date : UTC 2016-10-07 21:40:22Writing application : mkvmerge v9.1.0 ('Little Earthquakes') 64bitWriting library : libebml v1.3.3 + libmatroska v1.4.4Cover : YesAttachments : cover.png
VideoID : 1Format : AVCFormat/Info : Advanced Video CodecFormat profile : High@L4Format settings, CABAC : YesFormat settings, ReFrames : 4 framesFormat settings, GOP : N=1Codec ID : V_MPEG4/ISO/AVCDuration : 21mn 10sBit rate : 5 054 KbpsWidth : 1 916 pixelsHeight : 1 076 pixelsDisplay aspect ratio : 16:9Frame rate mode : ConstantFrame rate : 23.976 (24000/1001) fpsColor space : YUVChroma subsampling : 4:2:0Bit depth : 8 bitsScan type : ProgressiveBits/(Pixel*Frame) : 0.102Stream size : 765 MiB (88%)Language : EnglishDefault : YesForced : NoColor range : LimitedColor primaries : BT.709Transfer characteristics : BT.709Matrix coefficients : BT.709
Audio #1ID : 2Format : AC-3Format/Info : Audio Coding 3Mode extension : CM (complete main)Format settings, Endianness : BigCodec ID : A_AC3Duration : 21mn 10sBit rate mode : ConstantBit rate : 256 KbpsChannel(s) : 2 channelsChannel positions : Front: L RSampling rate : 48.0 KHzFrame rate : 31.250 fps (1536 spf)Compression mode : LossyStream size : 38.8 MiB (4%)Title : VO-productionLanguage : RussianDefault : YesForced : No
Audio #2ID : 3Format : AC-3Format/Info : Audio Coding 3Mode extension : CM (complete main)Format settings, Endianness : BigCodec ID : A_AC3Duration : 21mn 10sBit rate mode : ConstantBit rate : 384 KbpsChannel(s) : 6 channelsChannel positions : Front: L C R, Side: L R, LFESampling rate : 48.0 KHzFrame rate : 31.250 fps (1536 spf)Compression mode : LossyStream size : 58.1 MiB (7%)Language : EnglishDefault : NoForced : No
TextID : 4Format : UTF-8Codec ID : S_TEXT/UTF8Codec ID/Info : UTF-8 Plain TextDuration : 21mn 1sBit rate : 86 bpsCount of elements : 498Stream size : 13.4 KiB (0%)Language : EnglishDefault : NoForced : No

Список серий

01. Пролетевший цирк Монти Бернса (Monty Burns' Fleeing Circus)
02. Друзья и семья (Friends and Family)
03. Город (The Town)
04. Домик ужасов на дереве XXVII (Treehouse of Horror XXVII)
05. Доверяй, но проверяй (Trust but Clarify)

Скриншоты

Внимание! Раздача ведётся путём добавления новых серий

Внимание! Раздача ведётся путём добавления новых серий; при каждом добавлении создаётся новый торрент. Чтобы начать докачку новой серии, пользователям необходимо сделать следующее:
(1) остановить скачивание,
(2) удалить старый торрент у себя из клиента (старые серии удалять не надо),
(3) скачать новый торрент и запустить его у себя в клиенте вместо старого, при этом указать клиенту путь в старую папку куда и должно происходить скачивание новых серий.
Ваш клиент при этом должен произвести хеширование (проверку) старой папки (если не производит сам - помогите ему сделать это), и будет докачивать только те серии, которых у вас ещё нет. Старые серии при этом не удаляются, а продолжают раздаваться!
Если вы уже удалили старые серии, то предотвратить повторную закачку старых серий можно, отжав галочку в соответствующих местах при запуске нового торрента. По возможности, желательно не удалять старые серии как можно дольше, чтобы релизёр не столько продолжал раздавать старые серии, а смог сконцентрироваться на новых.
Обновление будет после выхода какого-то количества серий!
(Обновление субтитров не гарантировано!)

Omen

Пост 21-Ноя-2016 01:00

[Цитировать]

Гриффины / Family Guy- Страна: США
Год выпуска: 2016
Жанр: Мультсериал, комедия, сатира, пародия, чёрный юмор, буффонада, ситком
Перевод: Профессиональный (многоголосый закадровый)
Продолжительность: ~22 минуты
Русские субтитры: нет
-Режиссёр: Сет МакФарлейн / Seth MacFarlane-Роли озвучивали: Сет МакФарлейн, Алекс Борштейн, Сет Грин, Мила Кунис, Майк Генри и другие.-Описание: "Гриффины" (Family Guy) - анимационное ТВ-Шоу, созданное Сетом МакФарлейном (Seth MacFarlane) для телеканала FOX. Как нетрудно догадаться, главными героями шоу является семейка Гриффинов: тупой, но полный сумашедших идей, составляющих львиную долю шуток сериала, отец семейства Питер; его любящя и терпеливая жена Лойс, всеми силами пытающаяся превратить Гриффинов в нормальную семью; их интеллектуально развитый не по годам, вынашивающий идею мирового господства младший сын Стьюи; дочь-ботаник, обречённая из-за этого на одиночество и непонимание как в школе так и дома, Мэг; и 13-ти летний отсталый в развитии лет на 10, сын Крис. Также полноценным членом семьи является пёс Брайн - склонный к меланхолии эстет, спокойно наблюдающий с бокалом вина в лапе над приключениями Питера и остальных членов семьи (и это при всём притом, что остальные собаки в сериале не являются очеловеченными).-Сэмпл-**Качество: WEB-DL 1080p
**Формат: MKV
**Видео: AVC, 1920x1080, 23.976 fps, ~5000 kbps
**Аудио Rus: AC3, 48 KHz, 6 ch, 384 kbps (Filiza)
**Аудио Eng: AC3, 48 KHz, 6 ch, 384 kbps
**Субтитры: русские (forced) [2c.], английские

Подробные технические данные

GeneralUnique ID : 231109832668428643184653161464330746792 (0xADDE227CDE6288138D86083B2E287BA8)Complete name : C:\Family Guy (Season 15) WEB-DL 1080p\01. The Boys in the Band.mkvFormat : MatroskaFormat version : Version 4 / Version 2File size : 871 MiBDuration : 21mn 35sOverall bit rate : 5 638 KbpsEncoded date : UTC 2016-11-19 15:17:03Writing application : mkvmerge v9.1.0 ('Little Earthquakes') 64bitWriting library : libebml v1.3.3 + libmatroska v1.4.4
VideoID : 1Format : AVCFormat/Info : Advanced Video CodecFormat profile : High@L4Format settings, CABAC : YesFormat settings, ReFrames : 4 framesCodec ID : V_MPEG4/ISO/AVCDuration : 21mn 35sBit rate : 4 868 KbpsWidth : 1 920 pixelsHeight : 1 080 pixelsDisplay aspect ratio : 16:9Frame rate mode : ConstantFrame rate : 23.976 (24000/1001) fpsColor space : YUVChroma subsampling : 4:2:0Bit depth : 8 bitsScan type : ProgressiveBits/(Pixel*Frame) : 0.098Stream size : 752 MiB (86%)Language : EnglishDefault : YesForced : NoColor range : LimitedColor primaries : BT.709Transfer characteristics : BT.709Matrix coefficients : BT.709
Audio #1ID : 2Format : AC-3Format/Info : Audio Coding 3Mode extension : CM (complete main)Format settings, Endianness : BigCodec ID : A_AC3Duration : 21mn 35sBit rate mode : ConstantBit rate : 384 KbpsChannel(s) : 6 channelsChannel positions : Front: L C R, Side: L R, LFESampling rate : 48.0 KHzFrame rate : 31.250 fps (1536 spf)Compression mode : LossyStream size : 59.3 MiB (7%)Title : FilizaLanguage : RussianDefault : YesForced : No
Audio #2ID : 3Format : AC-3Format/Info : Audio Coding 3Mode extension : CM (complete main)Format settings, Endianness : BigCodec ID : A_AC3Duration : 21mn 35sBit rate mode : ConstantBit rate : 384 KbpsChannel(s) : 6 channelsChannel positions : Front: L C R, Side: L R, LFESampling rate : 48.0 KHzFrame rate : 31.250 fps (1536 spf)Compression mode : LossyStream size : 59.3 MiB (7%)Language : EnglishDefault : NoForced : No
TextID : 4Format : UTF-8Codec ID : S_TEXT/UTF8Codec ID/Info : UTF-8 Plain TextDuration : 20mn 53sBit rate : 122 bpsCount of elements : 570Stream size : 18.7 KiB (0%)Language : EnglishDefault : NoForced : No

Список серий

01. Оркестранты (The Boys in the Band)
02. Букмекер года (Bookie of the Year)
03. Американский ГИГ-оло (American Gigg-olo)
04. Внутри Гриффинов (Inside Family Guy)

Скриншоты

Внимание! Раздача ведётся путём добавления новых серий

Внимание! Раздача ведётся путём добавления новых серий; при каждом добавлении создаётся новый торрент. Чтобы начать докачку новой серии, пользователям необходимо сделать следующее:
(1) остановить скачивание,
(2) удалить старый торрент у себя из клиента (старые серии удалять не надо),
(3) скачать новый торрент и запустить его у себя в клиенте вместо старого, при этом указать клиенту путь в старую папку куда и должно происходить скачивание новых серий.
Ваш клиент при этом должен произвести хеширование (проверку) старой папки (если не производит сам - помогите ему сделать это), и будет докачивать только те серии, которых у вас ещё нет. Старые серии при этом не удаляются, а продолжают раздаваться!
Если вы уже удалили старые серии, то предотвратить повторную закачку старых серий можно, отжав галочку в соответствующих местах при запуске нового торрента. По возможности, желательно не удалять старые серии как можно дольше, чтобы релизёр не столько продолжал раздавать старые серии, а смог сконцентрироваться на новых.
Обновление будет неизвестно когда!

Omen

Пост 12-Ноя-2016 01:00

[Цитировать]

Симпсоны / The Simpsons Страна: США
Жанр: Комедия, мультсериал, семейный
Продолжительность: 00:22:00
Год выпуска: 2016
Перевод: Профессиональный (многоголосый закадровый) Jaskier
Русские субтитры: нет
Режиссёр: Марк Керклэнд, Джефф Линч, Сьюзи Диттер, Мэтт Гроенинг, Дэвид Сильверман, Стивен Дин Мур,
Роли озвучивали: Дэн Кастелланета, Джули Кавнер, Нэнси Картрайт, Ярдли Смит, Гарри Ширер, Хэнк Азария, Памела Хейден, Тресс МакНилл, Карл Видерготт, Мэгги Росвэл
Описание: «Симпсоны» - это пародия на всех и вся, и на типичный американский уклад жизни в целом. Главные герои этого мультсериала - показательная в своей типичности семья Симпсонов - обжора и лежебока, недалекий Гомер, его жена-умница домохозяйка Мардж, их дети сорванец Барт, одаренная умная девочка Лиза и совсем еще младенец Мэгги. Каждая серия не только богата юмором, но и высмеивает одну из волнующих современного человека тем, так что сериал с успехом пережил более 27 сезонов и продолжает успешное шествие по экранам. Отрезки, шутки, сами герои Симпсонов стали неотъемлемой частью современной поп-культуры, а их имена стали именами нарицательными.
Семпл: http://sendfile.su/1272488
Качество: WEB-DL 1080p
Формат: MKV
Видео: H264, 1916x1076 (16:9), 23.976 fps, ~5100 kbps
Аудио 1: AC3, 48 kHz, 6 ch, 384 kbps
Аудио 2: AC3, 48 kHz, 6 ch, 384 kbps
Субтитры: Английские

Релиз

Khoren2013
Перевод: Профессиональный (многоголосый закадровый) студия Jaskier
Релиз без рекламы

Подробные технические данные

GeneralUnique ID : 224063226687604791865919154817125241260 (0xA89101FD4DECD46FACA104381D9AD1AC)Complete name : D:\Torrent\The.Simpsons.S28.1080p.WEB-DL.DD5.1.H.264-Jaskier\The.Simpsons.S28E01.Monty.Burns.Fleeing.Circus.1080p.WEB-DL.DD5.1.H.264-Jaskier.mkvFormat : MatroskaFormat version : Version 4 / Version 2File size : 966 MiBDuration : 22 min 49 sOverall bit rate : 5 918 kb/sEncoded date : UTC 2016-10-08 10:45:48Writing application : mkvmerge v9.4.2 ('So High') 64bitWriting library : libebml v1.3.4 + libmatroska v1.4.5Cover : YesAttachments : cover.simpsons.jpg
VideoID : 1Format : AVCFormat/Info : Advanced Video CodecFormat profile : High@L4Format settings, CABAC : YesFormat settings, ReFrames : 4 framesCodec ID : V_MPEG4/ISO/AVCDuration : 22 min 49 sBit rate : 5 147 kb/sWidth : 1 916 pixelsHeight : 1 076 pixelsDisplay aspect ratio : 16:9Frame rate mode : ConstantFrame rate : 23.976 (24000/1001) FPSColor space : YUVChroma subsampling : 4:2:0Bit depth : 8 bitsScan type : ProgressiveBits/(Pixel*Frame) : 0.104Stream size : 841 MiB (87%)Language : EnglishDefault : YesForced : NoColor range : LimitedColor primaries : BT.709Transfer characteristics : BT.709Matrix coefficients : BT.709
Audio #1ID : 2Format : AC-3Format/Info : Audio Coding 3Mode extension : CM (complete main)Format settings, Endianness : BigCodec ID : A_AC3Duration : 22 min 49 sBit rate mode : ConstantBit rate : 384 kb/sChannel(s) : 6 channelsChannel positions : Front: L C R, Side: L R, LFESampling rate : 48.0 kHzFrame rate : 31.250 FPS (1536 spf)Compression mode : LossyStream size : 62.7 MiB (6%)Language : RussianDefault : YesForced : No
Audio #2ID : 3Format : AC-3Format/Info : Audio Coding 3Mode extension : CM (complete main)Format settings, Endianness : BigCodec ID : A_AC3Duration : 22 min 49 sBit rate mode : ConstantBit rate : 384 kb/sChannel(s) : 6 channelsChannel positions : Front: L C R, Side: L R, LFESampling rate : 48.0 kHzFrame rate : 31.250 FPS (1536 spf)Compression mode : LossyStream size : 62.7 MiB (6%)Language : EnglishDefault : NoForced : No
TextID : 4Format : UTF-8Codec ID : S_TEXT/UTF8Codec ID/Info : UTF-8 Plain TextDuration : 22 min 44 sBit rate : 90 b/sCount of elements : 536Stream size : 15.0 KiB (0%)Language : EnglishDefault : NoForced : No

Скриншоты



Внимание! Раздача ведётся путём добавления новых серий

Внимание! Раздача ведётся путём добавления новых серий; при каждом добавлении создаётся новый торрент. Чтобы начать докачку новой серии, пользователям необходимо сделать следующее:
(1) остановить скачивание,
(2) удалить старый торрент у себя из клиента (старые серии удалять не надо),
(3) скачать новый торрент и запустить его у себя в клиенте вместо старого, при этом указать клиенту путь в старую папку куда и должно происходить скачивание новых серий.
Ваш клиент при этом должен произвести хеширование (проверку) старой папки (если не производит сам - помогите ему сделать это), и будет докачивать только те серии которых у вас ещё нет. Старые серии при этом не удаляются, а продолжают раздаваться!
Eсли вы уже удалили старые серии, то предотвратить повторную закачку старых серий можно, отжав галочку в соответствующих местах при запуске нового торрента. По возможности, желательно не удалять старые серии как можно дольше чтобы релизёр не столько продолжал раздавать старые серии, а смог сконцентрироваться на новых.

Omen

Пост 12-Ноя-2016 01:00

[Цитировать]

Симпсоны | The Simpsons- Год выпуска: 2016
Страна: США
Жанр: Комедия, сатира
Продолжительность: ~ 00:23:00-Перевод: Профессиональный (многоголосый закадровый) | VO-production-Режиссёр: Мэтт Гроунинг / Matt Groening-В ролях: Дэн Кастелланета, Джули Кавнер, Нэнси Картрайт, Ярдли Смит, Гарри Ширер, Хэнк Азария, Памела Хейден, Тресс МакНилл, Карл Видерготт, Мэгги Росвэлл и др.-Описание: Симпсоны живут в вымышленном городе Спрингфилд, со своим обществом и историей. Гомер - отец семейства, который дает плохие советы и работает инспектором безопасности на атомной электростанции; Мардж - любящая мать и жена, старается сохранить спокойствие в семье; Барт - 10 летний хулиган; Лиза - философский 8-летний ребенок; и Мэгги - младенец, который общается посредством соски.- --Качество: WEB-DLRip
Формат: AVI
Видео: XviD, 720x400 (16:9), 23,976 fps, ~ 1400 kbps
Аудио: MP3, 48 kHz, 2 ch, 128 kbps - Rus
Аудио: MP3, 48 kHz, 2 ch, 128 kbps - Eng
Субтитры: отсутствуют
Реклама: отсутствует-

MediaInfo

Код:
Общее
Формат                                   : AVI
Формат/Информация                        : Audio Video Interleave
Размер файла                             : 250 Мбайт
Продолжительность                        : 21 м.
Общий поток                              : 1654 Кбит/сек
Программа кодирования                    : VirtualDubMod 1.5.10.3 | www.virtualdub-fr.org || (build 2550/release)
Библиотека кодирования                   : VirtualDubMod build 2550/release
Видео
Идентификатор                            : 0
Формат                                   : MPEG-4 Visual
Профиль формата                          : Advanced Simple@L5
Параметр BVOP формата                    : 1
Параметр QPel формата                    : Нет
Параметр GMC формата                     : Без точки перехода
Параметр матрицы формата                 : Default (MPEG)
Идентификатор кодека                     : XVID
Идентификатор кодека/Подсказка           : XviD
Продолжительность                        : 21 м.
Битрейт                                  : 1384 Кбит/сек
Ширина                                   : 720 пикселей
Высота                                   : 400 пикселей
Соотношение сторон                       : 16:9
Частота кадров                           : 23,976 кадра/сек
Цветовое пространство                    : YUV
Субдискретизация насыщенности            : 4:2:0
Битовая глубина                          : 8 бит
Тип развёртки                            : Прогрессивная
Метод сжатия                             : С потерями
Бит/(Пиксели*Кадры)                      : 0.200
Размер потока                            : 210 Мбайт (84%)
Библиотека кодирования                   : XviD 73
Аудио #1
Идентификатор                            : 1
Формат                                   : MPEG Audio
Версия формата                           : Version 1
Профиль формата                          : Layer 3
Режим                                    : Joint stereo
Расширение режима                        : MS Stereo
Идентификатор кодека                     : 55
Идентификатор кодека/Подсказка           : MP3
Продолжительность                        : 21 м.
Вид битрейта                             : Постоянный
Битрейт                                  : 128 Кбит/сек
Каналы                                   : 2 канала
Частота                                  : 48,0 КГц
Метод сжатия                             : С потерями
Размер потока                            : 19,4 Мбайт (8%)
Выравнивание                             : Соединение по промежуткам
Продолжительность промежутка             : 42  мс. (1,00 видеокадр)
Время предзагрузки промежутка            : 504  мс.
Аудио #2
Идентификатор                            : 2
Формат                                   : MPEG Audio
Версия формата                           : Version 1
Профиль формата                          : Layer 3
Режим                                    : Joint stereo
Расширение режима                        : MS Stereo
Идентификатор кодека                     : 55
Идентификатор кодека/Подсказка           : MP3
Продолжительность                        : 21 м.
Вид битрейта                             : Постоянный
Битрейт                                  : 128 Кбит/сек
Каналы                                   : 2 канала
Частота                                  : 48,0 КГц
Метод сжатия                             : С потерями
Размер потока                            : 19,4 Мбайт (8%)
Выравнивание                             : Соединение по промежуткам
Продолжительность промежутка             : 42  мс. (1,00 видеокадр)
Время предзагрузки промежутка            : 504  мс.

Скриншоты

Список серий

01. Monty Burns' Fleeing Circus - Сбежавший цирк Монти Бернса
02. Friends and Family - Друзья и семья
03. The Town - Город
04. Treehouse of Horror XXVII - Домик ужасов на дереве № 27
05. Trust but Clarify - Доверяй, но проверяй
06. There Will Be Buds - Да будут приятели

Раздача ведется путем добавления новых серий

Когда раздача ведётся путём добавления новых серий, при каждом добавлении создётся новый торрент. Чтобы начать докачку новой серии, пользователям необходимо сделать следующее:
(1) остановить скачивание,
(2) удалить старый торрент у себя из клиента (старые серии удалять не надо),
(3) скачать новый торрент и запустить его у себя в клиенте вместо старого, при этом указать клиенту путь в старую папку, куда и должно происходить скачивание новых серий.
Ваш клиент при этом должен произвести хеширование (проверку) старой папки (если не производит сам - помогите ему сделать это), и будет докачивать только те серии, которых у вас ещё нет. Старые серии при этом не удаляются, а продолжают раздаваться!
Eсли вы уже удалили старые серии, то предотвратить повторную закачку старых серий можно, отжав галочку в соответсвующих местах при запуске нового торрента. По возможности, желательно не удалять старые серии как можно дольше, чтобы релизёр не столько продолжал раздавать старые серии, а смог сконцентрироваться на новых.
-

Omen

Пост 12-Ноя-2016 01:00

[Цитировать]

Симпсоны / Simpsons
Страна: США
Жанр: ситком
Продолжительность серии: ~22мин
Год выпуска: 1989-1990
Перевод: Профессиональный (двухголосный закадровый) RenTV
Русские субтитры: нет
Режиссёр: Дэвид Сильверман
Описание: Мультфильм — пародия на американский уклад жизни. Симпсоны живут в вымышленном городе Спрингфилд, со своим обществом и историей. Cемейство Симпсонов состоит из пяти членов: Гомер - отец семейства, который дает плохие советы и работает инспектором безопасности на атомной электростанции; Мардж - любящая мать и жена, старается сохранить спокойствие в семье; Барт - 10 летний хулиган; Лиза - философский 8-летний ребенок; и Мэгги - младенец, который общается посредством соски.
Семпл: http://multi-up.com/1126507 http://multi-up.com/1126508
Качество: DVDRip
Формат: MKV
Видео: H.264 / 704 X 528 / 25 fps / 1200 Kbps
Аудио 1: AC3 / 48 KHz / 5.1 / 384 Kbps - русская
Аудио 2: AC3 / 48 KHz / 5.1 / 448 Kbps - английская
Аудио 3: AC3 / 48 KHz / 2.0 / 96 Kbps - комментарии
Субтитры: отсутствуют

Список серий:

01. Симпсоны жарятся на открытом огне (Simpsons Roasting on an Open Fire)
02. Барт - гений (Bart the Genius)
03. Одиссея Гомера (Homer's Odyssey)
04. Нет места хуже дома (There's no Disgrace Like Home)
05. Барт - генерал (Bart the General)
06. Стонущая Лиза (Moaning Lisa)
07. Зов Симпсонов (The Call of the Simpsons)
08. Говорящая голова (The Telltale Head)
09. Жизнь на быстрой дорожке (Life on the Fast Lane)
10. Вечеринка Гомера (Homer's Night Out)
11. Гроздья гнева (The Crepes of Wrath)
12. Красти арестован (Krusty Gets Busted)
13. В один из прекрасных вечеров (Some Enchanted Evening)

Подробные технические данные

GeneralUnique ID : 231738144707449741643190766758348356259 (0xAE5724A9BB027212B9C7035A109A7AA3)Complete name : M:\Torrent\Simpsons_DVDRip-AVC_FOX_RU\01\01 - Simpsons Roasting on an Open Fire.mkvFormat : MatroskaFormat version : Version 2File size : 339 MiBDuration : 22mn 15sOverall bit rate : 2 130 KbpsMovie name : 01 - Simpsons Roasting on an Open Fire / Симпсоны готовят на открытом огне / Симпсоны 1 сезон / Релиз - D2T/"Криволапый ювелир"Encoded date : UTC 2016-11-10 15:19:59Writing application : mkvmerge v4.0.0 ('The Stars were mine') сборка от Jun 6 2010 16:18:42Writing library : libebml v1.0.0 + libmatroska v1.0.0DURATION : 00:22:15.240000000NUMBER_OF_FRAMES : 33381NUMBER_OF_BYTES : 200291034_STATISTICS_WRITING_APP : mkvmerge v8.5.2 ('Crosses') 32bit_STATISTICS_WRITING_DATE_UT : 2016-11-10 00:59:02_STATISTICS_TAGS : BPS DURATION NUMBER_OF_FRAMES NUMBER_OF_BYTES
VideoID : 1Format : AVCFormat/Info : Advanced Video CodecFormat profile : Main@L3.1Format settings, CABAC : YesFormat settings, ReFrames : 4 framesCodec ID : V_MPEG4/ISO/AVCDuration : 22mn 15sBit rate : 1 200 KbpsWidth : 704 pixelsHeight : 528 pixelsDisplay aspect ratio : 4:3Frame rate mode : ConstantFrame rate : 25.000 fpsColor space : YUVChroma subsampling : 4:2:0Bit depth : 8 bitsScan type : ProgressiveBits/(Pixel*Frame) : 0.129Stream size : 185 MiB (54%)Writing library : x264 core 148 r2638 7599210Encoding settings : cabac=1 / ref=3 / deblock=1:0:0 / analyse=0x1:0x131 / me=esa / subme=9 / psy=1 / psy_rd=1.00:0.00 / mixed_ref=1 / me_range=16 / chroma_me=1 / trellis=2 / 8x8dct=0 / cqm=0 / deadzone=21,11 / fast_pskip=1 / chroma_qp_offset=-2 / threads=6 / lookahead_threads=1 / sliced_threads=0 / nr=0 / decimate=1 / interlaced=0 / bluray_compat=0 / constrained_intra=0 / bframes=3 / b_pyramid=2 / b_adapt=2 / b_bias=0 / direct=3 / weightb=1 / open_gop=0 / weightp=2 / keyint=150 / keyint_min=1 / scenecut=33 / intra_refresh=0 / rc_lookahead=40 / rc=2pass / mbtree=1 / bitrate=1200 / ratetol=1.0 / qcomp=0.60 / qpmin=10 / qpmax=28 / qpstep=4 / cplxblur=20.0 / qblur=0.5 / vbv_maxrate=14000 / vbv_bufsize=14000 / nal_hrd=none / filler=0 / ip_ratio=1.40 / aq=1:1.00Default : NoForced : No
Audio #1ID : 2Format : AC-3Format/Info : Audio Coding 3Mode extension : CM (complete main)Format settings, Endianness : BigCodec ID : A_AC3Duration : 22mn 15sBit rate mode : ConstantBit rate : 384 KbpsChannel(s) : 6 channelsChannel positions : Front: L C R, Side: L R, LFESampling rate : 48.0 KHzBit depth : 16 bitsCompression mode : LossyDelay relative to video : 24msStream size : 61.1 MiB (18%)Title : RenTVLanguage : RussianDefault : YesForced : No
Audio #2ID : 3Format : AC-3Format/Info : Audio Coding 3Mode extension : CM (complete main)Format settings, Endianness : BigCodec ID : A_AC3Duration : 22mn 15sBit rate mode : ConstantBit rate : 448 KbpsChannel(s) : 6 channelsChannel positions : Front: L C R, Side: L R, LFESampling rate : 48.0 KHzBit depth : 16 bitsCompression mode : LossyDelay relative to video : 24msStream size : 71.3 MiB (21%)Language : EnglishDefault : NoForced : No
Audio #3ID : 4Format : AC-3Format/Info : Audio Coding 3Mode extension : CM (complete main)Format settings, Endianness : BigCodec ID : A_AC3Duration : 22mn 15sBit rate mode : ConstantBit rate : 96.0 KbpsChannel(s) : 2 channelsChannel positions : Front: L RSampling rate : 48.0 KHzBit depth : 16 bitsCompression mode : LossyDelay relative to video : 8msStream size : 15.3 MiB (5%)Title : DCLanguage : EnglishDefault : NoForced : No

Скриншоты

Релиз

"D2T/Криволапый ювелир"

Omen

Пост 12-Окт-2016 01:00

[Цитировать]

Шоу Тома и Джерри / The Tom and Jerry Show
Страна: США
Жанр: Мультипликация
Продолжительность: ~00:22:00
Год выпуска: 2015
Перевод: Профессиональный (дублированный)
Русские субтитры: нет-Режиссёр: Даррел Ван Киттерс / Darrell Van Citters
Роли озвучивали: Рик Зефф, Джейсон Александр, Джои Д’Аурия, Грэй ДеЛисл, Рене Мухика, Эрик Бауза, Рэйчел МакФарлейн, Alicyn Packard, Крис Парнелл, Кри Саммер-Описание: Новые истории соперничества кота Тома и мышонка Джерри. Том упорно гоняется за Джерри и каждая новая уловка хитрого кота изобретательней предыдущей, но мышонок дает достойный отпор своему сопернику, не теряя возможности сделать ему между прочим какую-нибудь пакость.--Качество: HDTVRip 720p
Формат: MKV
Видео: AVC, 1280x720 (16:9), 23.976 fps, 1 453 Kbps (0.066 bit/pixel)
Аудио 1: AC-3, 48.0 KHz, 2 ch, 192 Kbps, CBR (Russian)
Аудио 2: AC-3, 48.0 KHz, 6 ch, 448 Kbps, CBR (English)
Субтитры: English
Семпл: Забираем тут

Список серий:

s01e01 - Dental Case / Picture Imperfect / One-Way Cricket
s01e02 - Slinging in the Rain / Squeaky Clean / Tough Luck Duck
s01e03 - The Paper Airplane Chase / Round Tripped / Smitten with the Kitten
s01e04 - Cheesy Ball Run / Say Uncle / Here Come's the Bribe
s01e05 - Slaphappy Birthday / Reward If Lost / Big Top Tom
s01e06 - X Marks the Thumpin / Dragon Down the Holidays / Baby Blues

Подробные технические данные

ОбщееУникальный идентификатор : 187428789333836451797578410765387102312 (0x8D0178C6B1A33750B25B8E08EF5CF868)Полное имя : the tom and jerry show s02e02 720p.mkvФормат : MatroskaВерсия формата : Version 4 / Version 2Размер файла : 323 МбайтПродолжительность : 21 м.Общий поток : 2136 Кбит/секДата кодирования : UTC 2016-10-07 09:49:49Программа кодирования : mkvmerge v8.8.0 ('Wind at my back') 64bitБиблиотека кодирования : libebml v1.3.3 + libmatroska v1.4.4
ВидеоИдентификатор : 1Формат : AVCФормат/Информация : Advanced Video CodecПрофиль формата : High@L4.1Параметр CABAC формата : ДаПараметр ReFrames формата : 9 кадровИдентификатор кодека : V_MPEG4/ISO/AVCПродолжительность : 21 м.Битрейт : 1494 Кбит/секШирина : 1280 пикселейВысота : 720 пикселейСоотношение сторон : 16:9Режим частоты кадров : ПостоянныйЧастота кадров : 23,976 (24000/1001) кадра/секЦветовое пространство : YUVСубдискретизация насыщенности : 4:2:0Битовая глубина : 8 битТип развёртки : ПрогрессивнаяБит/(Пиксели*Кадры) : 0.068Размер потока : 226 Мбайт (70%)Библиотека кодирования : x264 core 148 r2665 a01e339Настройки программы : cabac=1 / ref=9 / deblock=1:1:1 / analyse=0x3:0x113 / me=umh / subme=8 / psy=1 / psy_rd=0.40:0.00 / mixed_ref=1 / me_range=16 / chroma_me=1 / trellis=1 / 8x8dct=1 / cqm=0 / deadzone=21,11 / fast_pskip=1 / chroma_qp_offset=-2 / threads=12 / lookahead_threads=3 / sliced_threads=0 / nr=0 / decimate=1 / interlaced=0 / bluray_compat=0 / constrained_intra=0 / bframes=5 / b_pyramid=2 / b_adapt=2 / b_bias=0 / direct=3 / weightb=1 / open_gop=0 / weightp=2 / keyint=250 / keyint_min=25 / scenecut=40 / intra_refresh=0 / rc_lookahead=50 / rc=crf / mbtree=1 / crf=18.0 / qcomp=0.60 / qpmin=0 / qpmax=69 / qpstep=4 / ip_ratio=1.40 / aq=1:0.60Язык : EnglishDefault : ДаForced : Нет
Аудио #1Идентификатор : 2Формат : AC-3Формат/Информация : Audio Coding 3Расширение режима : CM (complete main)Параметр Endianness формата : BigИдентификатор кодека : A_AC3Продолжительность : 21 м.Вид битрейта : ПостоянныйБитрейт : 192 Кбит/секКаналы : 2 каналаРасположение каналов : Front: L RЧастота : 48,0 КГцЧастота кадров : 31,250 кадров/сек (1536 spf)Метод сжатия : С потерямиРазмер потока : 29,0 Мбайт (9%)Язык : RussianDefault : ДаForced : Нет
Аудио #2Идентификатор : 3Формат : AC-3Формат/Информация : Audio Coding 3Расширение режима : CM (complete main)Параметр Endianness формата : BigИдентификатор кодека : A_AC3Продолжительность : 21 м.Вид битрейта : ПостоянныйБитрейт : 448 Кбит/секКаналы : 6 каналовРасположение каналов : Front: L C R, Side: L R, LFEЧастота : 48,0 КГцЧастота кадров : 31,250 кадров/сек (1536 spf)Метод сжатия : С потерямиРазмер потока : 67,8 Мбайт (21%)Язык : EnglishDefault : НетForced : Нет
ТекстИдентификатор : 4Формат : UTF-8Идентификатор кодека : S_TEXT/UTF8Идентификатор кодека/Информация : UTF-8 Plain TextПродолжительность : 21 м.Битрейт : 46 бит/секCount of elements : 206Размер потока : 7,20 Кбайт (0%)Язык : EnglishDefault : НетForced : Нет

Внимание! Раздача ведется путем добавления новых серий

Внимание! Раздача ведётся путём добавления новых серий; при каждом добавлении создётся новый торрент. Чтобы начать докачку новой серии, пользователям необходимо сделать следующее:
(1) остановить скачивание,
(2) удалить старый торрент у себя из клиента (старые серии удалять не надо),
(3) скачать новый торрент и запустить его у себя в клиенте вместо старого, при этом указать клиенту путь в старую папку куда и должно происходить скачивание новых серий.
Ваш клиент при этом должен произвести хеширование (проверку) старой папки (если не производит сам - помогите ему сделать это), и будет докачивать только те серии которых у вас ещё нет. Старые серии при этом не удаляются, а продолжают раздаваться!
Eсли вы уже удалили старые серии, то предотвратить повторную закачку старых серий можно, отжав галочку в соответсвующих местах при запуске нового торрента. По возможности, желательно не удалять старые серии как можно дольше чтобы релизёр не столько продолжал раздавать старые серии, а смог сконцентрироваться на новых.

Скриншоты


Omen

Пост 05-Окт-2016 01:01

[Цитировать]

Симпсоны | The Simpsons- Год выпуска: 2016
Страна: США
Жанр: Комедия, сатира
Продолжительность: ~ 00:23:00-Перевод: Любительский (многоголосый закадровый) | OMSKBIRD records-Режиссёр: Мэтт Гроунинг / Matt Groening-В ролях: Дэн Кастелланета, Джули Кавнер, Нэнси Картрайт, Ярдли Смит, Гарри Ширер, Хэнк Азария, Памела Хейден, Тресс МакНилл, Карл Видерготт, Мэгги Росвэлл и др.-Описание: Симпсоны живут в вымышленном городе Спрингфилд, со своим обществом и историей. Гомер - отец семейства, который дает плохие советы и работает инспектором безопасности на атомной электростанции; Мардж - любящая мать и жена, старается сохранить спокойствие в семье; Барт - 10 летний хулиган; Лиза - философский 8-летний ребенок; и Мэгги - младенец, который общается посредством соски.- --Качество: WEB-DLRip
Формат: AVI
Видео: XviD, 720x400 (16:9), 23,976 fps, ~ 1999 kbps
Аудио: AC3, 48 kHz, 6 ch, 384 kbps - Rus
Аудио: AC3, 48 kHz, 6 ch, 384 kbps - Eng
Субтитры: отсутствуют
Реклама: отсутствует-

Релиз

Переведено и озвучено студией OMSKBIRD
Роли озвучивали • Ольга Федорова, Павел Ярощик, Станислав Черсков, Артем Мустаев, Алена Соколова
Перевод • Дарья Жмура
Звукорежиссер • Павел Квентов

MediaInfo

Код:
Формат                                   : AVI
Формат/Информация                        : Audio Video Interleave
Размер файла                             : 454 Мбайт
Продолжительность                        : 22 м.
Общий поток                              : 2783 Кбит/сек
Программа кодирования                    : VirtualDubMod 1.5.10.3 | www.virtualdub-fr.org || (build 2550/release)
Библиотека кодирования                   : VirtualDubMod build 2550/release
Видео
Идентификатор                            : 0
Формат                                   : MPEG-4 Visual
Профиль формата                          : Advanced Simple@L5
Параметр BVOP формата                    : 1
Параметр QPel формата                    : Нет
Параметр GMC формата                     : Без точки перехода
Параметр матрицы формата                 : Default (MPEG)
Идентификатор кодека                     : XVID
Идентификатор кодека/Подсказка           : XviD
Продолжительность                        : 22 м.
Битрейт                                  : 2001 Кбит/сек
Ширина                                   : 720 пикселей
Высота                                   : 400 пикселей
Соотношение сторон                       : 16:9
Частота кадров                           : 23,976 кадра/сек
Цветовое пространство                    : YUV
Субдискретизация насыщенности            : 4:2:0
Битовая глубина                          : 8 бит
Тип развёртки                            : Прогрессивная
Метод сжатия                             : С потерями
Бит/(Пиксели*Кадры)                      : 0.290
Размер потока                            : 327 Мбайт (72%)
Библиотека кодирования                   : XviD 73
Аудио #1
Идентификатор                            : 1
Формат                                   : AC-3
Формат/Информация                        : Audio Coding 3
Расширение режима                        : CM (complete main)
Параметр Endianness формата              : Big
Идентификатор кодека                     : 2000
Продолжительность                        : 22 м.
Вид битрейта                             : Постоянный
Битрейт                                  : 384 Кбит/сек
Каналы                                   : 6 каналов
Расположение каналов                     : Front: L C R, Side: L R, LFE
Частота                                  : 48,0 КГц
Битовая глубина                          : 16 бит
Метод сжатия                             : С потерями
Размер потока                            : 62,7 Мбайт (14%)
Выравнивание                             : Разделение по промежуткам
Продолжительность промежутка             : 42  мс. (1,00 видеокадр)
Время предзагрузки промежутка            : 500  мс.
Аудио #2
Идентификатор                            : 2
Формат                                   : AC-3
Формат/Информация                        : Audio Coding 3
Расширение режима                        : CM (complete main)
Параметр Endianness формата              : Big
Идентификатор кодека                     : 2000
Продолжительность                        : 22 м.
Вид битрейта                             : Постоянный
Битрейт                                  : 384 Кбит/сек
Каналы                                   : 6 каналов
Расположение каналов                     : Front: L C R, Side: L R, LFE
Частота                                  : 48,0 КГц
Битовая глубина                          : 16 бит
Метод сжатия                             : С потерями
Размер потока                            : 62,7 Мбайт (14%)
Выравнивание                             : Разделение по промежуткам
Продолжительность промежутка             : 42  мс. (1,00 видеокадр)
Время предзагрузки промежутка            : 500  мс.

Скриншоты

Список серий

01. Monty Burns' Fleeing Circus
02. Friends and Family

Раздача ведется путем добавления новых серий

Когда раздача ведётся путём добавления новых серий, при каждом добавлении создётся новый торрент. Чтобы начать докачку новой серии, пользователям необходимо сделать следующее:
(1) остановить скачивание,
(2) удалить старый торрент у себя из клиента (старые серии удалять не надо),
(3) скачать новый торрент и запустить его у себя в клиенте вместо старого, при этом указать клиенту путь в старую папку, куда и должно происходить скачивание новых серий.
Ваш клиент при этом должен произвести хеширование (проверку) старой папки (если не производит сам - помогите ему сделать это), и будет докачивать только те серии, которых у вас ещё нет. Старые серии при этом не удаляются, а продолжают раздаваться!
Eсли вы уже удалили старые серии, то предотвратить повторную закачку старых серий можно, отжав галочку в соответсвующих местах при запуске нового торрента. По возможности, желательно не удалять старые серии как можно дольше, чтобы релизёр не столько продолжал раздавать старые серии, а смог сконцентрироваться на новых.
-

Omen

Пост 05-Окт-2016 01:01

[Цитировать]

-Гриффины / Family Guy- Год выпуска • 2016
Страна • США
Жанр • Ситком, чёрный юмор, буффонада, комедия, пародия
Продолжительность • ~22 мин.
Перевод
• Профессиональный (многоголосый, закадровый) "OMSKBIRD records"-Режиссёр • Сет МакФарлейн / Seth MacFarlane
Роли озвучивали: • Сет МакФарлейн, Алекс Борштейн, Сет Грин, Мила Кунис, Майк Генри и другие.-Описание • "Гриффины" (Family Guy) - анимационное ТВ-Шоу, созданное Сетом МакФарлейном (Seth MacFarlane) для телеканала FOX. Как нетрудно догадаться, главными героями шоу является семейка Гриффинов: тупой, но полный сумашедших идей, составляющих львиную долю шуток сериала, отец семейства Питер; его любящя и терпеливая жена Лойс, всеми силами пытающаяся превратить Гриффинов в нормальную семью; их интеллектуально развитый не по годам, вынашивающий идею мирового господства младший сын Стьюи; дочь-ботаник, обречённая из-за этого на одиночество и непонимание как в школе так и дома, Мэг; и 13-ти летний отсталый в развитии лет на 10, сын Крис. Также полноценным членом семьи является пёс Брайн - склонный к меланхолии эстет, спокойно наблюдающий с бокалом вина в лапе над приключениями Питера и остальных членов семьи (и это при всём притом, что остальные собаки в сериале не являются очеловеченными).-ПереводДарья Жмура
Роли озвучивалиКонстантин Погодаев, Анна Тух, Станислав Черсков
ЗвукорежиссерПавел Квентов
ПостерКсения Просветова
Релиз подготовилGater-Внимание! Присутствуют голосовые вставки рекламы!-
Качество: WEB-DL 720p
Формат: MKV
Видео: MPEG-4 AVC / ~ 3200 kbps / 1280:720p / 23.976 fps / 16:9 / ~ 0.145 bit/pixel / High Level 3.1
Аудио:
Русский / Dolby Digital 2.0 / 48 kHz / 192 kbps
English / Dolby Digital 5.1 / 48 kHz / 384 kbps
Субтитры:Eng-

- -

Список серий

01.The Boys in the Band

MediaInfo


General
Unique ID : 195483023136668480356743108851233483525 (0x9310A92964131D6FA3411BEB72486B05)
Complete name : F:\Мои Документы\Видео\РАЗДАЧИ\Гриффины\Family Guy S15 WEB-DL 720p (OMSKBIRD)\Family Guy S15E01 WEB-DL 720p (OMSKBIRD).mkv
Format : Matroska
Format version : Version 2
File size : 595 MiB
Duration : 21mn 35s
Overall bit rate : 3 855 Kbps
Encoded date : UTC 2016-09-27 20:35:23
Writing application : mkvmerge v4.0.0 ('The Stars were mine') сборка от Jun 6 2010 16:18:42
Writing library : libebml v1.0.0 + libmatroska v1.0.0
Video
ID : 1
Format : AVC
Format/Info : Advanced Video Codec
Format profile : High@L3.1
Format settings, CABAC : No
Format settings, ReFrames : 2 frames
Codec ID : V_MPEG4/ISO/AVC
Duration : 21mn 35s
Bit rate : 3 202 Kbps
Width : 1 280 pixels
Height : 720 pixels
Display aspect ratio : 16:9
Frame rate : 23.976 fps
Color space : YUV
Chroma subsampling : 4:2:0
Bit depth : 8 bits
Scan type : Progressive
Bits/(Pixel*Frame) : 0.145
Stream size : 495 MiB (83%)
Language : English
Default : No
Forced : No
Color primaries : BT.709-5, BT.1361, IEC 61966-2-4, SMPTE RP177
Transfer characteristics : BT.709-5, BT.1361
Matrix coefficients : BT.709-5, BT.1361, IEC 61966-2-4 709, SMPTE RP177
Audio #1
ID : 2
Format : AC-3
Format/Info : Audio Coding 3
Mode extension : CM (complete main)
Format settings, Endianness : Big
Codec ID : A_AC3
Duration : 21mn 35s
Bit rate mode : Constant
Bit rate : 192 Kbps
Channel(s) : 2 channels
Channel positions : Front: L R
Sampling rate : 48.0 KHz
Bit depth : 16 bits
Compression mode : Lossy
Stream size : 29.7 MiB (5%)
Language : Russian
Default : Yes
Forced : No
Audio #2
ID : 3
Format : AC-3
Format/Info : Audio Coding 3
Mode extension : CM (complete main)
Format settings, Endianness : Big
Codec ID : A_AC3
Duration : 21mn 35s
Bit rate mode : Constant
Bit rate : 384 Kbps
Channel(s) : 6 channels
Channel positions : Front: L C R, Side: L R, LFE
Sampling rate : 48.0 KHz
Bit depth : 16 bits
Compression mode : Lossy
Delay relative to video : 16ms
Stream size : 59.3 MiB (10%)
Language : English
Default : No
Forced : No
Text
ID : 4
Format : UTF-8
Codec ID : S_TEXT/UTF8
Codec ID/Info : UTF-8 Plain Text
Language : English
Default : No
Forced : No

Внимание! Раздача ведётся путём добавления новых серий.

Внимание! Раздача ведётся путём добавления новых серий; при каждом добавлении создётся новый торрент. Чтобы начать докачку новой серии, пользователям необходимо сделать следующее:
Остановить скачивание.
Удалить старый торрент у себя из клиента (старые серии удалять не надо).
Скачать новый торрент и запустить его у себя в клиенте вместо старого, при этом указать клиенту путь в старую папку куда и должно происходить скачивание новых серий.
Ваш клиент при этом должен произвести хеширование (проверку) старой папки (если не производит сам - помогите ему сделать это), и будет докачивать только те серии которых у вас ещё нет. Старые серии при этом не удаляются, а продолжают раздаваться!
Eсли вы уже удалили старые серии, то предотвратить повторную закачку старых серий можно, отжав галочку в соответсвующих местах при запуске нового торрента. По возможности, желательно не удалять старые серии как можно дольше чтобы релизёр не столько продолжал раздавать старые серии, а смог сконцентрироваться на новых.

Omen

Пост 28-Сен-2016 01:00

[Цитировать]

--Симпсоны | The Simpsons-- Страна: США
Жанр: Комедия, сатира
Продолжительность: ~ 00:22:00
Год выпуска: 2016
Перевод: Профессиональный (многоголосый закадровый) OMSKBIRD records-Режиссёр: Марк Керклэнд / Mark Kirkland
Роли озвучивали: Дэн Кастелланета, Джули Кавнер, Нэнси Картрайт, Ярдли Смит, Гарри Ширер, Хэнк Азария, Памела Хейден, Тресс МакНилл, Карл Видерготт, Мэгги Росвэлл и др.-Описание: «Симпсоны» - это пародия на всех и вся, и на типичный американский уклад жизни в целом. Главные герои этого мультсериала - показательная в своей типичности семья Симпсонов - обжора и лежебока, недалекий Гомер, его жена-умница домохозяйка Мардж, их дети сорванец Барт, одаренная умная девочка Лиза и совсем еще младенец Мэгги. Каждая серия не только богата юмором, но и высмеивает одну из волнующих современного человека тем, так что сериал с успехом пережил более 25 сезонов и продолжает успешное шествие по экранам. Отрезки, шутки, сами герои Симпсонов стали неотъемлемой частью современной поп-культуры, а их имена стали именами нарицательными.-Доп. информация:
Релиз-группа:
Роли озвучивалиОльга Федорова, Павел Ярощик, Станислав Черсков, Артем Мустаев, Алена Соколова
ПереводДарья Жмура
ЗвукорежиссерПавел Квентов- --Качество: HDTVRip 720p
Формат: MKV
Видео: H264, 1280x720 (16:9), 23.976 fps, ~3000 kbps
Аудио # 1: AC3, 48 kHz, 6 ch, 384 kbps | OMSKBIRD records
Аудио # 2: AC3, 48 kHz, 6 ch, 448kbps
Субтитры: отсутствуют

Список серий

01. Monty Burns' Fleeing Circus

Подробные технические данные

GeneralUnique ID : 173311878044831871963594771465044581381 (0x8262A74FFFFFA7FEBBE7E1B927115C05)Complete name : G:\Films\The.Simpsons.S28.720p.OmskBird\The.Simpsons.S28E01.720p.HDTVRip.OmskBird.mkvFormat : MatroskaFormat version : Version 4 / Version 2File size : 581 MiBDuration : 21mn 0sOverall bit rate : 3 870 KbpsEncoded date : UTC 2016-09-27 05:28:30Writing application : mkvmerge v9.4.2 ('So High') 64bitWriting library : libebml v1.3.4 + libmatroska v1.4.5
VideoID : 1Format : AVCFormat/Info : Advanced Video CodecFormat profile : High@L4.1Format settings, CABAC : YesFormat settings, ReFrames : 5 framesCodec ID : V_MPEG4/ISO/AVCDuration : 21mn 0sBit rate : 3 036 KbpsWidth : 1 280 pixelsHeight : 720 pixelsDisplay aspect ratio : 16:9Frame rate mode : ConstantFrame rate : 23.976 (24000/1001) fpsColor space : YUVChroma subsampling : 4:2:0Bit depth : 8 bitsScan type : ProgressiveBits/(Pixel*Frame) : 0.137Stream size : 456 MiB (78%)Writing library : x264 core 148 r2705 3f5ed56Encoding settings : cabac=1 / ref=5 / deblock=1:-3:-3 / analyse=0x3:0x113 / me=umh / subme=8 / psy=1 / psy_rd=1.05:0.00 / mixed_ref=1 / me_range=16 / chroma_me=1 / trellis=1 / 8x8dct=1 / cqm=0 / deadzone=21,11 / fast_pskip=1 / chroma_qp_offset=-2 / threads=18 / lookahead_threads=3 / sliced_threads=0 / nr=0 / decimate=1 / interlaced=0 / bluray_compat=0 / constrained_intra=0 / bframes=3 / b_pyramid=2 / b_adapt=2 / b_bias=0 / direct=3 / weightb=1 / open_gop=0 / weightp=2 / keyint=250 / keyint_min=23 / scenecut=40 / intra_refresh=0 / rc_lookahead=50 / rc=crf / mbtree=1 / crf=18.0 / qcomp=0.60 / qpmin=0 / qpmax=69 / qpstep=4 / ip_ratio=1.40 / aq=3:0.80Language : EnglishDefault : YesForced : No
Audio #1ID : 2Format : AC-3Format/Info : Audio Coding 3Mode extension : CM (complete main)Format settings, Endianness : BigCodec ID : A_AC3Duration : 21mn 0sBit rate mode : ConstantBit rate : 384 KbpsChannel(s) : 6 channelsChannel positions : Front: L C R, Side: L R, LFESampling rate : 48.0 KHzFrame rate : 31.250 fps (1536 spf)Compression mode : LossyStream size : 57.7 MiB (10%)Title : OmskBird 5.1Language : RussianDefault : YesForced : No
Audio #2ID : 3Format : AC-3Format/Info : Audio Coding 3Mode extension : CM (complete main)Format settings, Endianness : BigCodec ID : A_AC3Duration : 21mn 0sBit rate mode : ConstantBit rate : 448 KbpsChannel(s) : 6 channelsChannel positions : Front: L C R, Side: L R, LFESampling rate : 48.0 KHzFrame rate : 31.250 fps (1536 spf)Compression mode : LossyStream size : 67.3 MiB (12%)Title : engLanguage : EnglishDefault : NoForced : No

Скриншоты

Внимание! Раздача ведётся путём добавления новых серий.


Внимание! Раздача ведётся путём добавления новых серий; при каждом добавлении создётся новый торрент. Чтобы начать докачку новой серии, пользователям необходимо сделать следующее:
Остановить скачивание.
Удалить старый торрент у себя из клиента (старые серии удалять не надо).
Скачать новый торрент и запустить его у себя в клиенте вместо старого, при этом указать клиенту путь в старую папку куда и должно происходить скачивание новых серий.
Ваш клиент при этом должен произвести хеширование (проверку) старой папки (если не производит сам - помогите ему сделать это), и будет докачивать только те серии которых у вас ещё нет. Старые серии при этом не удаляются, а продолжают раздаваться!
Eсли вы уже удалили старые серии, то предотвратить повторную закачку старых серий можно, отжав галочку в соответсвующих местах при запуске нового торрента. По возможности, желательно не удалять старые серии как можно дольше чтобы релизёр не столько продолжал раздавать старые серии, а смог сконцентрироваться на новых.

Varius

Пост 13-Сен-2016 19:55

[Цитировать]

Ми-ми-мишки (2015-2016) WEB-DLRip (серии 01-54)- Год выпуска: 2015-2016
Жанр: Детский, Компьютерная анимация
Производство: Россия (Анимационная Студия "Паровоз")
Режиссер: Алексей Миронов, Артур Толстобров
Персонажи: Полина Кутепова, Наталия Медведева, Дарья Мазанова
Описание:
Анимационный сериал о приключениях двух друзей — бурого медведя Иннокентия и белого медведя по имени Белая Тучка. Иннокентий любит гаджеты и технику, а Белая Тучка — дитя природы. Основной конфликт сюжета — поиск правильного баланса между прогрессом и любовью к природе. Давным-давно Белая Тучка приехал в гости и поселился в своем доме недалеко от дома Иннокентия. Сериал может помочь людям увидеть, что можно жить в гармонии с природой и при этом быть развитым, увлеченным, любящим науку и технику. Ну и что дружба преодолевает любые препятствия.

Продолжительность: серия по 00:05:30
Качество видео: WEB-DLRip
Перевод: Не требуется
Субтитры: Отсутствуют
Видео: AVC/H.264, 1280x720, ~2000 kbps
Аудио: Русский: AС3, 2 ch, 192 kbps

MediaInfo

Код:
General
Unique ID                   : 325256486158177297052395077596564487404 (0xF4B21EE1988E76B23D1DC9F162E0FCEC)
Complete name               : C:\009_Домовой.mkv
Format                      : Matroska
Format version              : Version 4 / Version 2
File size                   : 74.6 MiB
Duration                    : 5mn 30s
Overall bit rate            : 1 894 Kbps
Writing application         : Lavf56.36.100
Writing library             : Lavf56.36.100 / Lavf56.36.100
Video
ID                          : 1
Format                      : AVC
Format/Info                 : Advanced Video Codec
Format profile              : [url=mailto:High@L3.1]High@L3.1[/url]
Format settings, CABAC      : Yes
Format settings, ReFrames   : 4 frames
Codec ID                    : V_MPEG4/ISO/AVC
Duration                    : 5mn 30s
Bit rate                    : 1 665 Kbps
Width                       : 1 280 pixels
Height                      : 720 pixels
Display aspect ratio        : 16:9
Frame rate mode             : Constant
Frame rate                  : 25.000 fps
Color space                 : YUV
Chroma subsampling          : 4:2:0
Bit depth                   : 8 bits
Scan type                   : Progressive
Bits/(Pixel*Frame)          : 0.072
Stream size                 : 65.5 MiB (88%)
Writing library             : x264 core 146 r2538 121396c
Encoding settings           : cabac=1 / ref=3 / deblock=1:0:0 / analyse=0x3:0x133 / me=hex / subme=7 / psy=1 / psy_rd=1.00:0.00 / mixed_ref=1 / me_range=16 / chroma_me=1 / trellis=1 / 8x8dct=1 / cqm=0 / deadzone=21,11 / fast_pskip=1 / chroma_qp_offset=-2 / threads=3 / lookahead_threads=1 / sliced_threads=0 / nr=0 / decimate=1 / interlaced=0 / bluray_compat=0 / constrained_intra=0 / bframes=3 / b_pyramid=2 / b_adapt=1 / b_bias=0 / direct=1 / weightb=1 / open_gop=0 / weightp=2 / keyint=250 / keyint_min=25 / scenecut=40 / intra_refresh=0 / rc_lookahead=40 / rc=crf / mbtree=1 / crf=20.0 / qcomp=0.60 / qpmin=10 / qpmax=51 / qpstep=4 / ip_ratio=1.40 / aq=1:1.00
Default                     : Yes
Forced                      : No
Audio
ID                          : 2
Format                      : AC-3
Format/Info                 : Audio Coding 3
Mode extension              : CM (complete main)
Format settings, Endianness : Big
Codec ID                    : A_AC3
Duration                    : 5mn 30s
Bit rate mode               : Constant
Bit rate                    : 192 Kbps
Channel(s)                  : 2 channels
Channel positions           : Front: L R
Sampling rate               : 44.1 KHz
Frame rate                  : 28.711 fps (1536 spf)
Compression mode            : Lossy
Stream size                 : 7.56 MiB (10%)
Language                    : unknown
Default                     : Yes
Forced                      : No

Факты:

В серии «Нежданные гости» Кеша, Тучка, Лисичка и Цыпа хотели посмотреть мультсериал [url=/forum/viewtopic.php?t=1044319]«Бумажки»[/url], который есть на самом деле. Также в некоторых сериях есть фотография Аристотеля и Тюк-Тюка из [url=/forum/viewtopic.php?t=1044319]«Бумажек»[/url]. И ещё в серии «Нежданные гости» на платье Лисички была нарисована сойка Аглая из [url=/forum/viewtopic.php?t=1044319]«Бумажек»[/url].

Список серий

001. Звездная история
002. Грибы и листья
003. Фотоохота
004. Путешествие
005. Лучшая напоминалка
006. Несовременная еда
007. Борьба за урожай
008. Как лечить деревья
009. Домовой
010. Бессонница
011. Глобальное потепление
012. Огородники
013. Медовая история
014. Прогноз погоды
015. Змей на дереве
016. Финишная прямая
017. Пиратская история
018. Путешествие к звездам
019. Победители дракона
020. Экспедиция на север
021. Больше не надо
022. Лучшее место в мире
023. Цыпа и динозавры
024. Фокусы с разоблачением
025. Настоящий ниндзя
026. Нежданные гости
027. Необитаемый остров
028. Гол
029. Мишка-невидимка
030. Следствие ведут мишки
031. По своим правилам
032. Тучкина высота
033. Пещера, полная ловушек
034. Супермишки
035. В поход
036. Песня для Лисички
037. Умный дом
038. Новогодний маскарад
039. Неуловимый Джо
040. Сказка про репку
041. Мысли вслух
042. Маленькое приключение
043. Парк развлечений
044. Жемчужина севера
045. Зубная фея
046. Лучший друг Лисички
047. Богатый улов
.
049. Мой друг велосипед
050. Мишки в цирке
051. Баллада о рыцарях
052. Поиграем завтра
053. Кеша FM
054. Идеальные друзья
.
.
057. День рождения Лисички
Скриншоты:
       

Omen

Пост 02-Сен-2016 01:00

[Цитировать]

-Futurama / Футурама- Год выпуска: 2011
Страна: США
Жанр: Комедия / Фантастика / Мультипликация
Возраст: 16+
Продолжительность серии: ~0:21:38 : ~0:29:02
Перевод: Профессиональный (многоголосый закадровый) 2x2
Перевод: Профессиональный (многоголосый закадровый) LostFilm
Перевод: Профессиональный (многоголосый закадровый) Кубик в Кубе
Перевод: Профессиональный (многоголосый закадровый) VO-Production
Субтитры: Русские (ISFF) и Английские-Режиссёр: Мэтт Гроунинг
Роли озвучивали: Билли Уэст, Кейти Сэгал, Джон ДиМаджио, Фил ЛаМарр, Лоурэн Том и др.-Качество: BDRip | CtrlHD
Формат: MKV
Видео: MPEG-4 AVC/H.264, 1920x1080(16:9), 23.976 fps, ~6500 Kbps
Аудио №1: 2x2: AC3, 192 Kbps, 48.0 kHz, 2 ch [MVO]
Аудио №2: LostFilm: AC3, 192 Kbps, 48.0 kHz, 2 ch [MVO]
Аудио №3: Кубик в Кубе: AC3, 192 Kbps, 48.0 kHz, 2 ch [MVO]
Аудио №4: VO-Production: AC3, 192 Kbps, 48.0 kHz, 2 ch [MVO]
Аудио №5: Английский: DTS, 1509 Kbps, 5.1 ch,[Original]
Аудио №6: Английский: AAC, 128 Kbps, 48.0 kHz, 2 ch [Commentary]
Вид субтитров: Вшитые отключаемые (SRT)- -Описание:
Сериал начинается с того, что разносчик пиццы из Нью-Йорка Филипп Джей Фрай случайно, как это кажется на первый взгляд, был заморожен в криогенной камере ровно в 00 часов 00 минут 00 секунд 1 января 2000 года. Он был разморожен тысячу лет спустя, 31 декабря 2999 года, и обнаружил себя в городе будущего Нью-Нью-Йорке. Знакомясь со своей будущей коллегой Турангой Лилой, Фрай пытается избежать принудительного назначения на работу курьером, кем он и был в прошлой жизни, и внедрения ему карьерного чипа — микросхемы, вшиваемой под кожу и определяющей род занятий своего носителя. Лила, в это время работающая инспектором по раздаче профессий, догоняя Фрая, чтобы вживить ему чип, в результате выслушивания речей Фрая о его прошлой никчемной жизни курьером, отказывается от работы инспектора, которая ей не по душе, и вместе они находят очень дальнего потомка Фрая (его пра-пра-пра-…-пра-внучатого племянника) Хьюберта Фарнсворта — маразматичного 160-летнего гениального ученого-склеротика, который берет их на работу в свою небольшую компанию «Межпланетный экспресс», занимающуюся межгалактическими грузоперевозками, на должность курьера. «Межпланетный экспресс» — это маленький бизнес профессора, окупающий его гениальные, но иногда весьма сомнительные исследования и изобретения
.- -

Список серий

E01. Rebirth (Перерождение)
E02. In-A-Gadda-Da-Leela (В Лилейском саду)
E03. Attack of the Killer App (Атака убойной проги)
E04. Proposition Infinity (Поправка «Бесконечность»)
E05. The Duh-Vinci Code (Код нда Винчи)
E06. Lethal Inspection (Смертельный осмотр)
E07. The Late Philip J. Fry (Опаздывающий Филип Дж. Фрай)
E08. That Darn Katz! (Чёртовы Коты!)
E09. A Clockwork Origin (Происхождение по часовому механизму)
E10. The Prisoner of Benda (Пленник Бендера)
E11. Lrrreconcilable Ndndifferences (Совместимые Различия Лррра и Нднд)
E12. The Mutants Are Revolting (Мутанты протестуют)
E13. The Futurama Holiday Spectacular (Захватывающие праздники Футурамы)
E14. The Silence of the Clamps (Молчание Клешней)
E15. Mobius Dick (Мебиус Дик)
E16. Law and Oracle (Закон и Оракул)
E17. Benderama (Бендерама)
E18. The Tip of the Zoidberg (Совет Зойдберга)
E19. Ghost in the Machines (Призрак в машинах)
E20. Neutopia (Неутопия)
E21. Yo Leela Leela (Привет, Лила, Лила)
E22. Fry am the Egg Man (Фрай, хранитель яйца)
E23. All the Presidents' Heads (Все президентские головы)
E24. Cold Warriors (Простуженные воины)
E25. Overclockwise (По часовой стрелке)
E26. Reincarnation (Реинкарнация)

Скриншоты


MediaInfo

Общее
Уникальный идентификатор : 239859498081282960772988153741204132183 (0xB473424C842167DFB24C59967B821157)
Полное имя : C:\Users\Stila\Desktop\tch\Торрент\Futurama.S06.1080p.BDRip\Futurama.BDRip.1080p.S06E14.mkv
Формат : Matroska
Версия формата : Version 4 / Version 2
Размер файла : 1,22 Гбайт
Продолжительность : 21 м.
Общий поток : 8056 Кбит/сек
Название фильма : E14. The Silence of the Clamps (Молчание Клешней)
Дата кодирования : UTC 2016-08-30 11:24:37
Программа кодирования : mkvmerge v8.3.0 ('Over the Horizon') 64bit
Библиотека кодирования : libebml v1.3.1 + libmatroska v1.4.2
DURATION : 00:21:39.360000000
NUMBER_OF_FRAMES : 40605
NUMBER_OF_BYTES : 31184640
_STATISTICS_WRITING_APP : mkvmerge v8.3.0 ('Over the Horizon') 64bit
_STATISTICS_WRITING_DATE_UTC : 2016-08-30 11:24:37
_STATISTICS_TAGS : BPS DURATION NUMBER_OF_FRAMES NUMBER_OF_BYTES
Видео
Идентификатор : 1
Формат : AVC
Формат/Информация : Advanced Video Codec
Профиль формата : High@L4.1
Параметр CABAC формата : Да
Параметр ReFrames формата : 4 кадра
Идентификатор кодека : V_MPEG4/ISO/AVC
Продолжительность : 21 м.
Номинальный битрейт : 5711 Кбит/сек
Ширина : 1920 пикселей
Высота : 1080 пикселей
Соотношение сторон : 16:9
Режим частоты кадров : Постоянный
Частота кадров : 23,976 кадра/сек
Цветовое пространство : YUV
Субдискретизация насыщенности : 4:2:0
Битовая глубина : 8 бит
Тип развёртки : Прогрессивная
Бит/(Пиксели*Кадры) : 0.115
Заголовок : Futurama S06 1080p
Библиотека кодирования : x264 core 120 r2120 0c7dab9
Настройки программы : cabac=1 / ref=4 / deblock=1:-1:-1 / analyse=0x3:0x133 / me=umh / subme=7 / psy=1 / psy_rd=1.00:0.00 / mixed_ref=1 / me_range=16 / chroma_me=1 / trellis=1 / 8x8dct=1 / cqm=0 / deadzone=21,11 / fast_pskip=1 / chroma_qp_offset=-2 / threads=12 / sliced_threads=0 / nr=0 / decimate=1 / interlaced=0 / bluray_compat=0 / constrained_intra=0 / bframes=3 / b_pyramid=2 / b_adapt=2 / b_bias=0 / direct=1 / weightb=1 / open_gop=0 / weightp=2 / keyint=250 / keyint_min=23 / scenecut=40 / intra_refresh=0 / rc_lookahead=40 / rc=2pass / mbtree=1 / bitrate=5711 / ratetol=1.0 / qcomp=0.60 / qpmin=0 / qpmax=69 / qpstep=4 / cplxblur=20.0 / qblur=0.5 / ip_ratio=1.40 / aq=1:1.00
Язык : English
Default : Да
Forced : Нет
DURATION : 00:21:39.298000000
NUMBER_OF_FRAMES : 31152
NUMBER_OF_BYTES : 927684155
_STATISTICS_WRITING_APP : mkvmerge v8.3.0 ('Over the Horizon') 64bit
_STATISTICS_WRITING_DATE_UTC : 2016-08-30 11:24:37
_STATISTICS_TAGS : BPS DURATION NUMBER_OF_FRAMES NUMBER_OF_BYTES
Аудио #1
Идентификатор : 2
Формат : AC-3
Формат/Информация : Audio Coding 3
Расширение режима : CM (complete main)
Параметр Endianness формата : Big
Идентификатор кодека : A_AC3
Продолжительность : 21 м.
Вид битрейта : Постоянный
Битрейт : 192 Кбит/сек
Каналы : 2 канала
Расположение каналов : Front: L R
Частота : 48,0 КГц
Битовая глубина : 16 бит
Метод сжатия : С потерями
Размер потока : 29,7 Мбайт (2%)
Заголовок : 2x2
Язык : Russian
Default : Да
Forced : Нет
Аудио #2
Идентификатор : 3
Формат : AC-3
Формат/Информация : Audio Coding 3
Расширение режима : CM (complete main)
Параметр Endianness формата : Big
Идентификатор кодека : A_AC3
Продолжительность : 21 м.
Вид битрейта : Постоянный
Битрейт : 192 Кбит/сек
Каналы : 2 канала
Расположение каналов : Front: L R
Частота : 48,0 КГц
Битовая глубина : 16 бит
Метод сжатия : С потерями
Размер потока : 29,7 Мбайт (2%)
Заголовок : LostFilm
Язык : Russian
Default : Нет
Forced : Нет
Аудио #3
Идентификатор : 4
Формат : AC-3
Формат/Информация : Audio Coding 3
Расширение режима : CM (complete main)
Параметр Endianness формата : Big
Идентификатор кодека : A_AC3
Продолжительность : 21 м.
Вид битрейта : Постоянный
Битрейт : 192 Кбит/сек
Каналы : 2 канала
Расположение каналов : Front: L R
Частота : 48,0 КГц
Битовая глубина : 16 бит
Метод сжатия : С потерями
Размер потока : 29,7 Мбайт (2%)
Заголовок : Kubik v kube
Язык : Russian
Default : Нет
Forced : Нет
Аудио #4
Идентификатор : 5
Формат : AC-3
Формат/Информация : Audio Coding 3
Расширение режима : CM (complete main)
Параметр Endianness формата : Big
Идентификатор кодека : A_AC3
Продолжительность : 21 м.
Вид битрейта : Постоянный
Битрейт : 192 Кбит/сек
Каналы : 2 канала
Расположение каналов : Front: L R
Частота : 48,0 КГц
Битовая глубина : 16 бит
Метод сжатия : С потерями
Размер потока : 29,7 Мбайт (2%)
Заголовок : Vo-production
Язык : Russian
Default : Нет
Forced : Нет
Аудио #5
Идентификатор : 6
Формат : DTS
Формат/Информация : Digital Theater Systems
Режим : 16
Параметр Endianness формата : Big
Идентификатор кодека : A_DTS
Продолжительность : 21 м.
Вид битрейта : Постоянный
Битрейт : 1509 Кбит/сек
Каналы : 6 каналов
Расположение каналов : Front: L C R, Side: L R, LFE
Частота : 48,0 КГц
Битовая глубина : 24 бит
Метод сжатия : С потерями
Размер потока : 234 Мбайт (19%)
Заголовок : ENG
Язык : English
Default : Нет
Forced : Нет
Аудио #6
Идентификатор : 7
Формат : AAC
Формат/Информация : Advanced Audio Codec
Профиль формата : HE-AAC / LC
Идентификатор кодека : A_AAC
Продолжительность : 21 м.
Каналы : 2 канала
Расположение каналов : Front: L R
Частота : 48,0 КГц / 24,0 КГц
Метод сжатия : С потерями
Заголовок : ENG, Commentary
Язык : English
Default : Нет
Forced : Нет
Текст #1
Идентификатор : 8
Формат : UTF-8
Идентификатор кодека : S_TEXT/UTF8
Идентификатор кодека/Информация : UTF-8 Plain Text
Заголовок : RUS
Язык : Russian
Default : Нет
Forced : Нет
Текст #2
Идентификатор : 9
Формат : UTF-8
Идентификатор кодека : S_TEXT/UTF8
Идентификатор кодека/Информация : UTF-8 Plain Text
Заголовок : ENG
Язык : English
Default : Нет
Forced : Нет
Меню
00:00:00.000 : en:Chapter 00
00:07:01.754 : en:Chapter 01
00:15:01.609 : en:Chapter 02
00:21:07.474 : en:Chapter 03

XP1971

Пост 13-Июл-2016 00:42

[Цитировать]

Бумажки (2015) WEBRip (1-34 серии из ??)- Производство: Россия | студия Паровоз
Жанр: Детский, Развивающий
Режиссер: Вадим Воля, Евгений Головин
Участники: Лось Аристотель и дятел Тюк-Тюк
Описание:
Новый обучающий анимационный сериал для детей, рассказывающий о приключениях бумажных героев в мире, который тоже целиком состоит из бумаги. Мультфильм учит детей доброте и в нём есть практичные вставки, где показано как сделать из бумаги и клея персонажей сериала. Задумка авторов состоит в том, чтобы помочь творческому и умственному развитию малышей
Релиз от: merci
Продолжительность: 34 x ~ 00:05:30
Качество видео: WEBRip
Видео: XviD, 720x400 (16:9), 25.000 fps, 1600 Kbps (0.222 bit/pixel)
Аудио: AC-3, 48.0 KHz, 2 ch, 192 Kbps, CBR

Список серий

01. Заяц или кот
02. С днем рождения, птенчики
03. Игрушка для Зюйд-Веста
04. Лучший изобретатель
05. На высоте
06. Букет для королевы
07. Под крышей дома
08. Королева хочет домой
09. Пикник в обеденное время
10. Пришелец с Фольгундии
11. Полезное Насекомое
12. Снова праздник!
13. Подвиг капитана Тюка
14. Новый сосед
15. Живые цветы
16. Знакомый незнакомец
17. За бумажным морем
18. Приходите на концерт
19. Розовая клумба
20. Звёздная ночь
21. А был ли птенчик
22. Крокодиловы слезы
23. Удачный кадр
24. Сокровища бумажной пещеры
25. Серенький волчок
26. Перевернутая история
27. Дом с привидениями
28. Бумажное солнце
29. Бумажный концерт
30. Загадочное письмо
31. Птица удачи
32. Таинственный остров
33. Радужное озеро
34. Зимой и летом

Mediainfo 1-ой серии:

Код:
Complete name                            : \Бумажки. WEBRip\01. Заяц или кот.avi
Format                                   : AVI
Format/Info                              : Audio Video Interleave
File size                                : 70.9 MiB
Duration                                 : 5mn 30s
Overall bit rate                         : 1 802 Kbps
Writing application                      : VirtualDubMod 1.5.10.3 | (build 2550/release)
Writing library                          : VirtualDubMod build 2550/release
Video
ID                                       : 0
Format                                   : MPEG-4 Visual
Format profile                           : Advanced Simple@L5
Format settings, BVOP                    : 1
Format settings, QPel                    : No
Format settings, GMC                     : No warppoints
Format settings, Matrix                  : Default (MPEG)
Codec ID                                 : XVID
Codec ID/Hint                            : XviD
Duration                                 : 5mn 30s
Bit rate                                 : 1 600 Kbps
Width                                    : 720 pixels
Height                                   : 400 pixels
Display aspect ratio                     : 16:9
Frame rate                               : 25.000 fps
Color space                              : YUV
Chroma subsampling                       : 4:2:0
Bit depth                                : 8 bits
Scan type                                : Progressive
Compression mode                         : Lossy
Bits/(Pixel*Frame)                       : 0.222
Stream size                              : 63.0 MiB (89%)
Writing library                          : XviD 65
Audio
ID                                       : 1
Format                                   : AC-3
Format/Info                              : Audio Coding 3
Mode extension                           : CM (complete main)
Format settings, Endianness              : Big
Codec ID                                 : 2000
Duration                                 : 5mn 30s
Bit rate mode                            : Constant
Bit rate                                 : 192 Kbps
Channel(s)                               : 2 channels
Channel positions                        : Front: L R
Sampling rate                            : 48.0 KHz
Bit depth                                : 16 bits
Compression mode                         : Lossy
Stream size                              : 7.56 MiB (11%)
Alignment                                : Split accross interleaves
Interleave, duration                     : 40 ms (1.00 video frame)
Interleave, preload duration             : 500 ms
Скриншоты:
       

Дополнительные скриншоты:

       
       

-

-

Omen

Пост 30-Июн-2016 00:03

[Цитировать]

Чип и Дейл спешат на помощь / Chip and Dale Rescue Rangers- Оригинальное название: Chip and Dale Rescue Rangers
Русское название: Чип и Дейл спешат на помощь
Год выпуска: 1989
Страна: США
Жанр: Приключения, комедия
Продолжительность серии: 20 минут (серия)
Перевод:
  • Профессиональный (полное дублирование) ТСК (Телевизионная Студия Кинопрограмм) ,
  • Профессиональный (полное дублирование) LeDoyen по заказу 1+1
    Субтитры: нет
    Сэмпл: скачать-Производтсво: Walt Disney Studios
    Режиссёр: Джон Кимболл, Роб Замбони-Роли озвучивали: Кори Бертон, Питер Каллен, Джим Каммингс, Тресс МакНилл, Роб Полсен, Дэнни Гэнс и другие-Описание: Приключенческий мультсериал, созданный студией Уолта Диснея. Авторы идеи — Алан Заслов и Тэд Стоун. Главными героями мультсериала являются переработанные классические диснеевские персонажи — антропоморфные бурундуки Чип и Дейл, а также трое их друзей — мышка-изобретательница Гайка, крыса Рокфор и его друг, муха по имени Вжик — вместе образующие «Команду Спасателей» (англ. Rescue Rangers).
    Впервые данная концепция была показана в США 27 августа 1988 года в превью-эпизоде «Catteries Not Included». Собственно сам мультсериал в США начал выходить в эфир с 4 марта 1989 года на канале «The Disney Channel» обычно в паре с «Утиными историями». Последняя серия была показана 19 ноября 1990 года. Начиная с 18 сентября 1990 года в США транслировался повтор шоу. Кроме того, повторы выходили до 3 сентября 1993 года в рамках программы «The Disney Afternoon».
    В общей сложности было показано 65 серий, пять из которых представляют собой разделенный на несколько частей полнометражный мультфильм «Rescue Rangers: To The Rescue», которые выходили с порядковым номером серий с 14 по 18.- -Доп. информация: Никто не ожидал, а это случилось! Ремастированная версия в 1080р с iTunes. Русский звук взят с последнего показа на СТС. Украинский звук взят с исходников 1+1. Спасибо ALEKS KV и SerGoLeOne за синхронизацию дорожек. Порядок песен будет придерживаться первого показа на ТВ. Украинские звуки предоставил andic.-Качество: WEB-DL 1080p
    Формат: MKV
    Видео кодек: h264
    Аудио кодек: AC3, AAC
    Видео: MPEG4 Video (H264) 1440x1080 23.976fps ~4500Kbps
    Аудио 1 (RUS): Dolby AC3 48000Hz stereo 192Kbps,
    Аудио 2 (UKR): Dolby AC3 48000Hz stereo 192Kbps,
    Аудио 3 (ENG): AAC 48000Hz stereo 120Kbps

Скриншоты:



-

Список серий:

01. To The Rescue. Part 1
02. To The Rescue. Part 2
03. To The Rescue. Part 3
04. Rescue Rangers To The Rescue. Part 4
05. Rescue Rangers To The Rescue. Part 5

MI

Код:
General
Unique ID                   : 197523871192171432311764248297932959035 (0x9499B6BD4D79B3C3BE7D471571F9AD3B)
Complete name               : Z:\HD\Chip 'n Dale - Rescue Rangers. Complete Series (WEB-DL l 1080p l SerGoLeOne)\01. To The Rescue. Part 1.mkv
Format                      : Matroska
Format version              : Version 1
File size                   : 834 MiB
Duration                    : 22mn 52s
Overall bit rate            : 5 100 Kbps
Encoded date                : UTC 2016-06-23 01:03:00
Writing application         : mkvmerge v2.3.0 ('Freak U') built on Sep  8 2008 18:32:16
Writing library             : libebml v0.7.7 + libmatroska v0.8.1
Video
ID                          : 1
Format                      : AVC
Format/Info                 : Advanced Video Codec
Format profile              : High@L4
Format settings, CABAC      : Yes
Format settings, ReFrames   : 5 frames
Codec ID                    : V_MPEG4/ISO/AVC
Duration                    : 22mn 52s
Width                       : 1 440 pixels
Height                      : 1 080 pixels
Display aspect ratio        : 4:3
Frame rate mode             : Constant
Frame rate                  : 23.976 fps
Color space                 : YUV
Chroma subsampling          : 4:2:0
Bit depth                   : 8 bits
Scan type                   : Progressive
Default                     : Yes
Forced                      : No
Color range                 : Limited
Color primaries             : BT.709
Transfer characteristics    : BT.709
Matrix coefficients         : BT.709
Audio #1
ID                          : 2
Format                      : AC-3
Format/Info                 : Audio Coding 3
Mode extension              : CM (complete main)
Format settings, Endianness : Big
Codec ID                    : A_AC3
Duration                    : 22mn 52s
Bit rate mode               : Constant
Bit rate                    : 192 Kbps
Channel(s)                  : 2 channels
Channel positions           : Front: L R
Sampling rate               : 48.0 KHz
Compression mode            : Lossy
Stream size                 : 31.4 MiB (4%)
Language                    : Russian
Default                     : Yes
Forced                      : No
Audio #2
ID                          : 3
Format                      : AC-3
Format/Info                 : Audio Coding 3
Mode extension              : CM (complete main)
Format settings, Endianness : Big
Codec ID                    : A_AC3
Duration                    : 22mn 52s
Bit rate mode               : Constant
Bit rate                    : 192 Kbps
Channel(s)                  : 2 channels
Channel positions           : Front: L R
Sampling rate               : 48.0 KHz
Compression mode            : Lossy
Stream size                 : 31.4 MiB (4%)
Language                    : Ukrainian
Default                     : No
Forced                      : No
Audio #3
ID                          : 4
Format                      : AAC
Format/Info                 : Advanced Audio Codec
Format profile              : LC
Codec ID                    : A_AAC
Duration                    : 22mn 52s
Channel(s)                  : 2 channels
Channel positions           : Front: L R
Sampling rate               : 48.0 KHz
Compression mode            : Lossy
Language                    : English
Default                     : No
Forced                      : No
 

Текущее время: Сегодня 03:39

Часовой пояс: GMT + 3