Сегодня идет свободное скачивание без начисления Download

Результатов поиска: 500

Автор Сообщение

}{@R0N

Пост 31-Мар-2017 20:13

[Цитировать]

Легион / Legion - Производство: США
Жанр: фантастика, боевик, драма
Режиссер: Ной Хоули, Майкл Аппендаль, Лариса Кондрацки, Тим Милантс
Актеры: Дэн Стивенс, Рэйчел Келлер, Обри Плаза, Билл Ирвин, Джереми Харрис, Эмбер Мидфандер, Кэтрин Аселтон, Джин Смарт, МакКензи Грэй, Скотт Лоуренс и др.
Описание:
Дэвиду Хэллеру поставлен диагноз — множественное расстройство личности. Постепенно выясняется, что картины и голоса, которые он видит и слышит, вполне реальны, а не бред его воспаленного разума.

Возраст: 16+ (зрителям, достигшим 16 лет)
Дата мировой премьеры: 8 февраля 2017
Дата премьеры в России: 9 февраля 2017
Релиз от: qqss44
Продолжительность: ~ 00:45:00 серия (01:05:06 - первая серия)
Качество видео: WEB-DLRip Сэмпл
Перевод: Многоголосый закадровый, профессиональный - FOX
Видео: Xvid, 720x400 (16:9), ~1350 kbps
Аудио # 1 Rus: MP3, 48 kHz, 2 ch, 128 Kbps - многоголосый закадровый
Аудио # 2 Eng: MP3, 48 kHz, 2 ch, 128 Kbps - оригинал

Mediainfo:

Общее
Полное имя : E:\_Сериалы\_Сериалы\Легион\Legion (Season 01) FOX\Legion.S01E01.XviD.FOX.(qqss44).avi
Формат : AVI
Формат/Информация : Audio Video Interleave
Размер файла : 751 Мбайт
Продолжительность : 1 ч. 5 м.
Общий поток : 1613 Кбит/сек
Программа кодирования : VirtualDubMod 1.5.10.3 | www.virtualdub-fr.org || (build 2550/release)
Библиотека кодирования : VirtualDubMod build 2550/release
Видео
Идентификатор : 0
Формат : MPEG-4 Visual
Профиль формата : Advanced Simple@L5
Параметр BVOP формата : 2
Параметр QPel формата : Нет
Параметр GMC формата : Без точки перехода
Параметр матрицы формата : Выборочная
Идентификатор кодека : XVID
Идентификатор кодека/Подсказка : XviD
Продолжительность : 1 ч. 5 м.
Битрейт : 1343 Кбит/сек
Ширина : 720 пикселей
Высота : 400 пикселей
Соотношение сторон : 16:9
Частота кадров : 25,000 кадров/сек
Цветовое пространство : YUV
Субдискретизация насыщенности : 4:2:0
Битовая глубина : 8 бит
Тип развёртки : Прогрессивная
Метод сжатия : С потерями
Бит/(Пиксели*Кадры) : 0.186
Размер потока : 625 Мбайт (83%)
Библиотека кодирования : XviD 73
Аудио #1
Идентификатор : 1
Формат : MPEG Audio
Версия формата : Version 1
Профиль формата : Layer 3
Режим : Joint stereo
Расширение режима : MS Stereo
Идентификатор кодека : 55
Идентификатор кодека/Подсказка : MP3
Продолжительность : 1 ч. 5 м.
Вид битрейта : Постоянный
Битрейт : 128 Кбит/сек
Каналы : 2 канала
Частота : 48,0 КГц
Метод сжатия : С потерями
Размер потока : 59,6 Мбайт (8%)
Выравнивание : Соединение по промежуткам
Продолжительность промежутка : 40 мс. (1,00 видеокадр)
Время предзагрузки промежутка : 504 мс.
Аудио #2
Идентификатор : 2
Формат : MPEG Audio
Версия формата : Version 1
Профиль формата : Layer 3
Режим : Joint stereo
Расширение режима : MS Stereo
Идентификатор кодека : 55
Идентификатор кодека/Подсказка : MP3
Продолжительность : 1 ч. 5 м.
Вид битрейта : Постоянный
Битрейт : 128 Кбит/сек
Каналы : 2 канала
Частота : 48,0 КГц
Метод сжатия : С потерями
Размер потока : 59,6 Мбайт (8%)
Выравнивание : Соединение по промежуткам
Продолжительность промежутка : 40 мс. (1,00 видеокадр)
Время предзагрузки промежутка : 504 мс.
Скриншоты:
       

Theseus

Пост 16-Мар-2017 00:32

[Цитировать]

15.03.17 Добавлены 13-18 серии

Theseus

Пост 16-Мар-2017 00:29

[Цитировать]

15.03.17 Добавлены 13-18 серии

Omen

Пост 15-Янв-2017 01:00

[Цитировать]

Человек в высоком замке / The Man in the High Castle
Год выпуска: 2016
Страна: США
Жанр: Фантастика, триллер, драма
Продолжительность: ~ 00:55:00
Перевод: Профессиональный (многоголосый закадровый) (AMS)
Режиссёр: Дэниэл Персивал, Карин Кусама, Брэд Андерсон и другие
В ролях: Алекса Давалос, Руперт Эванс, Люк Клеинтенк, DJ Куоллс, Джоэль де ла Фуэнте, Кэри-Хироюки Тагава, Руфус Сьюэлл, Ли Шортен, Чела Хорсдэл, Арнольд Чун и другие
Описание:
Германия и Япония выиграли Вторую мировую. Америка разделена пополам между победителями, но, разумеется, спустя много лет после поражения (действие разворачивается в 1962-м) сознательные американцы организуют глубоко засекреченное подполье. Занимаются повстанцы в основном распространением странной кинохроники, на которой показана победа в войне союзнических войск. Именно с этими пленками в руках в нейтральную зону между двумя Америками отправляются Джо и Джулс — юноша и девушка, пробующие свои силы в борьбе с режимом.
Сэмпл
Качество: WEBRip 1080p
Контейнер: MKV
Видео: AVC, 1920x1080 (16:9), 23.976 fps, ~ 11000 kbps, 0.219 bit/pixel
Аудио 1: Русский, AC3, 48 KHz, 6 channels, 640 kbps
Аудио 2: Английский, AC3, 48 KHz, 6 channels, 640 kbps
Субтитры: Русские, Английские [Softsub SRT]
Реклама: Присутствует звуковая (два раза: в начале и конце по 12 сек)

MediaInfo

General
Unique ID : 256296895690607324773544788295022782351 (0xC0D0FC923CBC017FEFA4BA176513A78F)
Complete name : /The.Man.in.the.High.Castle.S02.2016.WEBRip.1080p.AMS/The.Man.in.the.High.Castle.S02E01.2016.WEBRip.1080p.AMS.mkv
Format : Matroska
Format version : Version 4 / Version 2
File size : 4.85 GiB
Duration : 57mn 4s
Overall bit rate : 12.2 Mbps
Movie name : The Man in the High Castle 2x01 [MVO AMS]
Encoded date : UTC 2017-01-12 09:33:38
Writing application : mkvmerge v8.2.0 ('World of Adventure') 64bit
Writing library : libebml v1.3.1 + libmatroska v1.4.2
Video
ID : 1
Format : AVC
Format/Info : Advanced Video Codec
Format profile : High@L4.1
Format settings, CABAC : Yes
Format settings, ReFrames : 4 frames
Codec ID : V_MPEG4/ISO/AVC
Duration : 57mn 4s
Bit rate : 10.9 Mbps
Width : 1 920 pixels
Height : 1 080 pixels
Display aspect ratio : 16:9
Frame rate mode : Constant
Frame rate : 23.976 (24000/1001) fps
Color space : YUV
Chroma subsampling : 4:2:0
Bit depth : 8 bits
Scan type : Progressive
Bits/(Pixel*Frame) : 0.219
Stream size : 4.33 GiB (89%)
Title : The Man in the High Castle 2x01 [MVO AMS]
Writing library : x264 core 148 r2744+8 b97ae06 / tmod bb0ae40 X86_64
Encoding settings : cabac=1 / ref=4 / deblock=1:-3:-3 / analyse=0x3:0x133 / me=umh / subme=11 / psy=1 / fade_compensate=0.00 / psy_rd=1.15:0.05 / mixed_ref=1 / me_range=48 / chroma_me=1 / trellis=2 / 8x8dct=1 / cqm=0 / deadzone=6,6 / fast_pskip=0 / chroma_qp_offset=-3 / threads=30 / lookahead_threads=7 / sliced_threads=0 / nr=0 / decimate=0 / interlaced=0 / bluray_compat=0 / constrained_intra=0 / fgo=0 / bframes=10 / b_pyramid=2 / b_adapt=2 / b_bias=0 / direct=3 / weightb=1 / open_gop=0 / weightp=2 / keyint=250 / keyint_min=23 / scenecut=40 / intra_refresh=0 / rc=crf / mbtree=0 / crf=17.0000 / qcomp=0.70 / qpmin=0:0:0 / qpmax=69:69:69 / qpstep=4 / ip_ratio=1.10 / pb_ratio=1.10 / aq=3:0.70 / aq-sensitivity=10.00 / aq-factor=1.00:1.00:1.00 / aq2=0 / aq3=0
Language : English
Default : Yes
Forced : No
Audio #1
ID : 2
Format : AC-3
Format/Info : Audio Coding 3
Mode extension : CM (complete main)
Format settings, Endianness : Big
Codec ID : A_AC3
Duration : 57mn 4s
Bit rate mode : Constant
Bit rate : 640 Kbps
Channel(s) : 6 channels
Channel positions : Front: L C R, Side: L R, LFE
Sampling rate : 48.0 KHz
Frame rate : 31.250 fps (1536 spf)
Compression mode : Lossy
Stream size : 261 MiB (5%)
Title : AMS
Language : Russian
Default : Yes
Forced : No
Audio #2
ID : 3
Format : E-AC-3
Format/Info : Audio Coding 3
Format settings, Endianness : Big
Codec ID : A_EAC3
Duration : 57mn 4s
Bit rate mode : Constant
Bit rate : 640 Kbps
Channel(s) : 6 channels
Channel positions : Front: L C R, Side: L R, LFE
Sampling rate : 48.0 KHz
Frame rate : 187.500 fps (256 spf)
Compression mode : Lossy
Stream size : 261 MiB (5%)
Title : English
Language : English
Default : No
Forced : No
Text #1
ID : 4
Format : UTF-8
Codec ID : S_TEXT/UTF8
Codec ID/Info : UTF-8 Plain Text
Duration : 54mn 29s
Bit rate : 67 bps
Count of elements : 608
Stream size : 27.0 KiB (0%)
Title : Russian Subs
Language : Russian
Default : No
Forced : No
Text #2
ID : 5
Format : UTF-8
Codec ID : S_TEXT/UTF8
Codec ID/Info : UTF-8 Plain Text
Duration : 53mn 27s
Bit rate : 42 bps
Count of elements : 637
Stream size : 16.8 KiB (0%)
Title : English
Language : English
Default : No
Forced : No
Text #3
ID : 6
Format : UTF-8
Codec ID : S_TEXT/UTF8
Codec ID/Info : UTF-8 Plain Text
Duration : 54mn 2s
Bit rate : 47 bps
Count of elements : 720
Stream size : 18.8 KiB (0%)
Title : English (SDH)
Language : English
Default : No
Forced : No

Скриншоты


Omen

Пост 15-Янв-2017 01:00

[Цитировать]

Корпорация / Incorporated
Год выпуска: 2016
Страна: США
Жанр: Фантастика, триллер
Продолжительность: ~ 00:45:00
Перевод: Профессиональный (многоголосый закадровый) (AMS)
Режиссёр: Давид Пастор, Алекс Пастор, Дэвид Гроссман
В ролях: Шон Тил, Эллисон Миллер, Эдди Рамос, Джулия Ормонд, Дэймон Херриман, Дениза Тонтц, Саад Сиддикуи, Мо Жюди-Ламур и другие
Описание:
События антиутопии происходят в будущем, где крупные корпорации прибрали к рукам практически неограниченную власть и активно используют оную в угоду собственным интересам. Главный герой Бен Ларсон вынужден изменить свою личность, чтобы внедриться в одну из таких корпораций и спасти женщину, которую любит. Он готов бросить вызов существующей системе, у его действий будут смертельно опасные последствия, но игра стоит свеч, потому что герой уверен в победе.
Сэмпл
Качество: WEBRip 720p (1-6); HDTVRip 720p (7)
Контейнер: MKV
Видео: AVC, 1280x720 (16:9), 23.976 fps, ~ 4335 kbps, 0.196 bit/pixel
Аудио 1: Русский, AC3, 48 KHz, 6 channels, 384 kbps
Аудио 2: Английский, AC3, 48 KHz, 6 channels, 640 kbps [1-6 серии]
Аудио 2: Английский, AC3, 48 KHz, 6 channels, 384 kbps [7 серия]
Субтитры: Английские (Softsub SRT)
Реклама: Присутствует звуковая (два раза: в начале и конце по 12 сек)

MediaInfo

General
Unique ID : 281120518964433401447502273643066722881 (0xD37DD7B110510DE05269D65F0C448A41)
Complete name : .../Incorporated.S01E01.2016.WEBRip.720p.AMS.mkv
Format : Matroska
Format version : Version 4 / Version 2
File size : 1.74 GiB
Duration : 46mn 27s
Overall bit rate : 5 361 Kbps
Movie name : Incorporated 1x01 [MVO AMS]
Encoded date : UTC 2016-12-13 11:43:53
Writing application : mkvmerge v8.2.0 ('World of Adventure') 64bit
Writing library : libebml v1.3.1 + libmatroska v1.4.2
Video
ID : 1
Format : AVC
Format/Info : Advanced Video Codec
Format profile : High@L4.1
Format settings, CABAC : Yes
Format settings, ReFrames : 9 frames
Codec ID : V_MPEG4/ISO/AVC
Duration : 46mn 27s
Bit rate : 4 335 Kbps
Width : 1 280 pixels
Height : 720 pixels
Display aspect ratio : 16:9
Frame rate mode : Constant
Frame rate : 23.976 (24000/1001) fps
Color space : YUV
Chroma subsampling : 4:2:0
Bit depth : 8 bits
Scan type : Progressive
Bits/(Pixel*Frame) : 0.196
Stream size : 1.41 GiB (81%)
Title : Incorporated 1x01 [MVO AMS]
Writing library : x264 core 148 r2638 7599210
Encoding settings : cabac=1 / ref=9 / deblock=1:-3:-3 / analyse=0x3:0x133 / me=umh / subme=10 / psy=1 / psy_rd=1.00:0.00 / mixed_ref=1 / me_range=24 / chroma_me=1 / trellis=2 / 8x8dct=1 / cqm=0 / deadzone=21,11 / fast_pskip=0 / chroma_qp_offset=-2 / threads=12 / lookahead_threads=2 / sliced_threads=0 / nr=0 / decimate=0 / interlaced=0 / bluray_compat=0 / constrained_intra=0 / bframes=9 / b_pyramid=0 / b_adapt=2 / b_bias=0 / direct=3 / weightb=1 / open_gop=0 / weightp=2 / keyint=240 / keyint_min=23 / scenecut=40 / intra_refresh=0 / rc_lookahead=60 / rc=crf / mbtree=0 / crf=17.0 / qcomp=0.60 / qpmin=10 / qpmax=51 / qpstep=4 / vbv_maxrate=62500 / vbv_bufsize=78125 / crf_max=0.0 / nal_hrd=none / filler=0 / ip_ratio=1.40 / pb_ratio=1.30 / aq=3:0.80
Language : English
Default : Yes
Forced : No
Audio #1
ID : 2
Format : AC-3
Format/Info : Audio Coding 3
Mode extension : CM (complete main)
Format settings, Endianness : Big
Codec ID : A_AC3
Duration : 46mn 27s
Bit rate mode : Constant
Bit rate : 384 Kbps
Channel(s) : 6 channels
Channel positions : Front: L C R, Side: L R, LFE
Sampling rate : 48.0 KHz
Frame rate : 31.250 fps (1536 spf)
Compression mode : Lossy
Stream size : 128 MiB (7%)
Title : AMS
Language : Russian
Default : Yes
Forced : No
Audio #2
ID : 3
Format : E-AC-3
Format/Info : Audio Coding 3
Format settings, Endianness : Big
Codec ID : A_EAC3
Duration : 46mn 27s
Bit rate mode : Constant
Bit rate : 640 Kbps
Channel(s) : 6 channels
Channel positions : Front: L C R, Side: L R, LFE
Sampling rate : 48.0 KHz
Frame rate : 187.500 fps (256 spf)
Compression mode : Lossy
Stream size : 213 MiB (12%)
Title : English
Language : English
Default : No
Forced : No
Text
ID : 4
Format : UTF-8
Codec ID : S_TEXT/UTF8
Codec ID/Info : UTF-8 Plain Text
Duration : 45mn 59s
Bit rate : 62 bps
Count of elements : 762
Stream size : 20.9 KiB (0%)
Title : eng-sub
Language : English
Default : No
Forced : No
Menu
00:00:00.260 : en:Introduction
00:00:26.112 : en:Two people see someone going to the quiet room
00:01:52.118 : en:Title Sequence
00:01:58.281 : en:Ben Larson gets ready for his day
00:04:41.395 : en:Ben meets his coworkers in line to go to work
00:06:35.502 : en:Ben's coworker promises a delivery
00:08:22.693 : en:Men bring Theo before a crime boss
00:11:33.792 : en:Ben looks for someone using company software
00:13:12.795 : en:Break
00:13:15.907 : en:Laura shares good news with Ben at dinner
00:15:07.107 : en:Ben speaks to Laura's mother, his boss
00:17:52.131 : en:Laura meets with a client
00:21:46.141 : en:Ben meets with an old friend
00:23:28.179 : en:Ben and his coworkers go out
00:29:53.180 : en:Break
00:29:55.205 : en:Ben meets Theo
00:34:07.205 : en:Break
00:34:10.231 : en:Ben gathers information from Chad
00:38:30.250 : en:Laura meets her mother for lunch
00:41:40.257 : en:Chad gets caught with stolen files
00:42:49.257 : en:Break
00:42:52.277 : en:Elizabeth addresses her workers
00:46:06.279 : en:End Credits

Скриншоты


Внимание! Раздача ведётся путём добавления новых серий

Внимание! Раздача ведётся путём добавления новых серий; при каждом добавлении создаётся новый торрент. Чтобы начать докачку новой серии, пользователям необходимо сделать следующее:
1) остановить скачивание,
2) удалить старый торрент у себя из клиента (старые серии удалять не надо),
3) скачать новый торрент и запустить его у себя в клиенте вместо старого, при этом указать клиенту путь в старую папку куда и должно происходить скачивание новых серий.
Ваш клиент при этом должен произвести хеширование (проверку) старой папки (если не производит сам - помогите ему сделать это), и будет докачивать только те серии которых у вас ещё нет. Старые серии при этом не удаляются, а продолжают раздаваться!
Eсли вы уже удалили старые серии, то предотвратить повторную закачку старых серий можно, отжав галочку в соответствующих местах при запуске нового торрента. По возможности, желательно не удалять старые серии как можно дольше чтобы релизёр не столько продолжал раздавать старые серии, а смог сконцентрироваться на новых.

Omen

Пост 14-Янв-2017 01:00

[Цитировать]

Сумеречные охотники / Shadowhunters - Год выпуска: 2017
Страна: США
Жанр: Фэнтези, боевик, драма
Продолжительность: 00:40:00- Перевод: Любительский (многоголосый закадровый) Alternative Production- Режиссёр: Майрзи Алмас, Тауния Маккирнан, Энди Волк, Оз Скотт
В ролях: Кэтрин МакНамара, Доминик Шервуд, Альберто Розенде, Алан Ван Спрэнг, Джон Кор, Кейтлин Вонг, Мими Кузык и др.- Описание:
Невзрачная и ничем не примечательная девушка Клэри Фрэй в свой 18-й день рождения узнает, что она является наследницей древнего семейства Сумеречных Охотников — таинственного клана полулюдей-полуангелов, которые обороняют мир от демонических тварей. После похищения матери девушка вместе со своим другом Саймоном и сумеречным охотником Джейсом пытается ее спасти и… попадает в другую реальность.- [url=tracker.php?f=189,2366,842&nm=Shadowhunters]Все раздачи сериала[/url]- Качество: HDTV 1080p
Формат: MKV
Видео кодек: H.264
Аудио кодек: AC3
Видео: H.264, 1920x1080 (16:9), 5 174 Kbps, 23.976 fps, 0.104 bit/pixel
Аудио 1: AC3 Dolby Digital, 48 kHz, 2 channel, 384 kbps
Аудио 2: AC3 Dolby Digital, 48 kHz, 3/2 (L,C,R,l,r) + LFE ch, 384 kbps
Субтитры: отсутствуют
Релиз

MediaInfo

General
Unique ID : 202235594248780135048720636862753135260 (0x9825289F26EB83489C0BD9CE2D93DA9C)
Format : Matroska
Format version : Version 4 / Version 2
File size : 1.76 GiB
Duration : 42mn 28s
Overall bit rate : 5 943 Kbps
Encoded date : UTC 2017-01-12 23:46:38
Writing application : mkvmerge v8.3.0 ('Over the Horizon') 64bit
Writing library : libebml v1.3.1 + libmatroska v1.4.2
Attachments : poster (3).jpg
Video
ID : 1
Format : AVC
Format/Info : Advanced Video Codec
Format profile : High@L4
Format settings, CABAC : Yes
Format settings, ReFrames : 4 frames
Codec ID : V_MPEG4/ISO/AVC
Duration : 42mn 28s
Bit rate : 5 174 Kbps
Width : 1 920 pixels
Height : 1 080 pixels
Display aspect ratio : 16:9
Frame rate mode : Constant
Frame rate : 23.976 (23976/1000) fps
Color space : YUV
Chroma subsampling : 4:2:0
Bit depth : 8 bits
Scan type : Progressive
Bits/(Pixel*Frame) : 0.104
Stream size : 1.54 GiB (87%)
Language : English
Default : Yes
Forced : No
Color range : Limited
Color primaries : BT.709
Transfer characteristics : BT.709
Matrix coefficients : BT.709
Audio #1
ID : 2
Format : AC-3
Format/Info : Audio Coding 3
Mode extension : CM (complete main)
Format settings, Endianness : Big
Codec ID : A_AC3
Duration : 42mn 28s
Bit rate mode : Constant
Bit rate : 384 Kbps
Channel(s) : 6 channels
Channel positions : Front: L C R, Side: L R, LFE
Sampling rate : 48.0 KHz
Frame rate : 31.250 fps (1536 spf)
Compression mode : Lossy
Stream size : 117 MiB (6%)
Title : Alt Pro
Language : Russian
Default : Yes
Forced : No
Audio #2
ID : 3
Format : AC-3
Format/Info : Audio Coding 3
Mode extension : CM (complete main)
Format settings, Endianness : Big
Codec ID : A_AC3
Duration : 42mn 28s
Bit rate mode : Constant
Bit rate : 384 Kbps
Channel(s) : 6 channels
Channel positions : Front: L C R, Side: L R, LFE
Sampling rate : 48.0 KHz
Frame rate : 31.250 fps (1536 spf)
Compression mode : Lossy
Stream size : 117 MiB (6%)
Language : English
Default : No
Forced : No

Скриншоты

Внимание! Раздача ведётся путём добавления новых серий.

Внимание! Раздача ведётся путём добавления новых серий; при каждом добавлении создётся новый торрент. Чтобы начать докачку новой серии, пользователям необходимо сделать следующее:
  • Остановить скачивание.
  • Удалить старый торрент у себя из клиента (старые серии удалять не надо).
  • Скачать новый торрент и запустить его у себя в клиенте вместо старого, при этом указать клиенту путь в старую папку куда и должно происходить скачивание новых серий.
    Ваш клиент при этом должен произвести хеширование (проверку) старой папки (если не производит сам - помогите ему сделать это), и будет докачивать только те серии которых у вас ещё нет. Старые серии при этом не удаляются, а продолжают раздаваться!
    Eсли вы уже удалили старые серии, то предотвратить повторную закачку старых серий можно, отжав галочку в соответсвующих местах при запуске нового торрента. По возможности, желательно не удалять старые серии как можно дольше чтобы релизёр не столько продолжал раздавать старые серии, а смог сконцентрироваться на новых.
    [url=viewtopic.php?t=609808]Как закачать отдельный файл из торрента или докачать ранее пропущенные файлы торрента![/url]

Omen

Пост 14-Янв-2017 01:00

[Цитировать]

--Восьмое чувство / Sense8-- Год выпуска: 2016
Страна: США
Жанр: фантастика, драма
Продолжительность: ~02:03:00-Перевод: Профессиональный (двухголосый закадровый) OmskBird-Режиссёр: Дэн Гласс, Энди Вачовски, Лана Вачовски
В ролях: Джеми Клейтон, Макс Римельт, Анупам Кхер, Джеронимо Бест, Ари Брикман, Сара Сон, Фрима Аджьеман, Амл Амин, Навин Эндрюс, Пэ Ду На-Описание: Группа людей из разных точек мира неожиданно оказываются ментально связанными, теперь им придется найти способ, чтобы выжить, потому что за ними начинают охотиться те, кто видит в них угрозу для этого мира…-Доп. информация:
Релиз-группа:
Роли озвучивали: Павел Ярощик, Ольга Федорова
Перевод: Никита Коваль
Звукорежиссер: Павел Квентов
Постер: Ксения Просветова
Монтаж и сведение звука: Юрий Гамов- -[url=tracker.php?f=189,2366,842,235&nm=Sense8]Ссылка на предыдущие и альтернативные раздачи[/url]-Качество: WEBrip 720p
Контейнер: MKV
Видео: H.264, 1280x720 (16:9), 23.976 fps, ~7 000 kbps, 0.320 bit/pixel
Аудио # rus: AC3, 48 kHz, 6 ch, 384 kbps
Аудио # eng: AC3, 48 kHz, 6 ch, 384 kbps
Субтитры: английские
Реклама: отсутствует

Список серий

00. Christmas Special
01.

MediaInfo

General
Unique ID : 188858406516713302794123279599753545405 (0x8E14CE585FBB9F9BB4D82024E544C6BD)
Complete name : G:\Films\Sense8.S02.720p.WEBRip.OmskBird\Sense8.S02E00.A.Christmas.Special.720p.WEBRip.OmskBird.DD5.1.mkv
Format : Matroska
Format version : Version 4 / Version 2
File size : 6.76 GiB
Duration : 2h 3mn
Overall bit rate : 7 843 Kbps
Encoded date : UTC 2017-01-13 02:58:42
Writing application : mkvmerge v9.7.1 ('Pandemonium') 64bit
Writing library : libebml v1.3.4 + libmatroska v1.4.5
Video
ID : 1
Format : AVC
Format/Info : Advanced Video Codec
Format profile : High@L4.1
Format settings, CABAC : Yes
Format settings, ReFrames : 9 frames
Codec ID : V_MPEG4/ISO/AVC
Duration : 2h 3mn
Bit rate : 7 073 Kbps
Width : 1 280 pixels
Height : 720 pixels
Display aspect ratio : 16:9
Frame rate mode : Constant
Frame rate : 23.976 (24000/1001) fps
Color space : YUV
Chroma subsampling : 4:2:0
Bit depth : 8 bits
Scan type : Progressive
Bits/(Pixel*Frame) : 0.320
Stream size : 6.10 GiB (90%)
Writing library : x264 core 148 r2744+8 b97ae06 / tmod bb0ae40 X86_64
Encoding settings : cabac=1 / ref=9 / deblock=1:-3:-3 / analyse=0x3:0x113 / me=umh / subme=10 / psy=1 / fade_compensate=0.00 / psy_rd=1.05:0.15 / mixed_ref=1 / me_range=48 / chroma_me=1 / trellis=2 / 8x8dct=1 / cqm=0 / deadzone=6,6 / fast_pskip=0 / chroma_qp_offset=-3 / threads=22 / lookahead_threads=3 / sliced_threads=0 / nr=0 / decimate=0 / interlaced=0 / bluray_compat=0 / constrained_intra=0 / fgo=0 / bframes=9 / b_pyramid=2 / b_adapt=2 / b_bias=0 / direct=3 / weightb=1 / open_gop=0 / weightp=2 / keyint=250 / keyint_min=23 / scenecut=40 / intra_refresh=0 / rc=crf / mbtree=0 / crf=18.0000 / qcomp=0.70 / qpmin=0:0:0 / qpmax=69:69:69 / qpstep=4 / ip_ratio=1.10 / pb_ratio=1.10 / aq=3:0.75 / aq-sensitivity=10.00 / aq-factor=1.00:1.00:1.00 / aq2=0 / aq3=0
Language : English
Default : Yes
Forced : No
Audio #1
ID : 2
Format : AC-3
Format/Info : Audio Coding 3
Mode extension : CM (complete main)
Format settings, Endianness : Big
Codec ID : A_AC3
Duration : 2h 3mn
Bit rate mode : Constant
Bit rate : 384 Kbps
Channel(s) : 6 channels
Channel positions : Front: L C R, Side: L R, LFE
Sampling rate : 48.0 KHz
Frame rate : 31.250 fps (1536 spf)
Compression mode : Lossy
Stream size : 339 MiB (5%)
Title : OmskBird 5.1
Language : Russian
Default : Yes
Forced : No
Audio #2
ID : 3
Format : AC-3
Format/Info : Audio Coding 3
Mode extension : CM (complete main)
Format settings, Endianness : Big
Codec ID : A_AC3
Duration : 2h 3mn
Bit rate mode : Constant
Bit rate : 384 Kbps
Channel(s) : 6 channels
Channel positions : Front: L C R, Side: L R, LFE
Sampling rate : 48.0 KHz
Frame rate : 31.250 fps (1536 spf)
Compression mode : Lossy
Stream size : 339 MiB (5%)
Title : eng
Language : English
Default : No
Forced : No
Text #1
ID : 4
Format : UTF-8
Codec ID : S_TEXT/UTF8
Codec ID/Info : UTF-8 Plain Text
Duration : 15s 849ms
Bit rate : 32 bps
Count of elements : 5
Stream size : 65.0 Bytes (0%)
Title : English (Forced)
Language : English
Default : No
Forced : No
Text #2
ID : 5
Format : UTF-8
Codec ID : S_TEXT/UTF8
Codec ID/Info : UTF-8 Plain Text
Duration : 1h 53mn
Bit rate : 49 bps
Count of elements : 1310
Stream size : 41.4 KiB (0%)
Title : CC
Language : English
Default : No
Forced : No

Скриншоты

Внимание! Раздача ведётся путём добавления новых серий.

Внимание! Раздача ведётся путём добавления новых серий; при каждом добавлении создётся новый торрент. Чтобы начать докачку новой серии, пользователям необходимо сделать следующее:
Остановить скачивание.
Удалить старый торрент у себя из клиента (старые серии удалять не надо).
Скачать новый торрент и запустить его у себя в клиенте вместо старого, при этом указать клиенту путь в старую папку куда и должно происходить скачивание новых серий.
Ваш клиент при этом должен произвести хеширование (проверку) старой папки (если не производит сам - помогите ему сделать это), и будет докачивать только те серии которых у вас ещё нет. Старые серии при этом не удаляются, а продолжают раздаваться!
Eсли вы уже удалили старые серии, то предотвратить повторную закачку старых серий можно, отжав галочку в соответсвующих местах при запуске нового торрента. По возможности, желательно не удалять старые серии как можно дольше чтобы релизёр не столько продолжал раздавать старые серии, а смог сконцентрироваться на новых.

Omen

Пост 14-Янв-2017 01:00

[Цитировать]

Страшные сказки / Penny Dreadful
Год выпуска: 2015
Страна: США, Ирландия, Великобритания
Жанр: ужасы, фэнтези, драма
Продолжительность: 55 минут
Перевод: Субтитры (Amedia)
Режиссёр: Хуан Антонио Байона, Коки Гидройч, Джеймс Хоуз
В ролях: Тимоти Далтон, Ева Грин, Джош Хартнетт, Рори Киннер, Хелен МакКрори, Билли Пайпер, Гарри Тредэвэй, Рив Карни, Алан Армстронг, Рик Берн
Описание: И вновь викторианский Лондон. И вновь нечисть разбушевалась. В продолжении сериала мы увидим, как между главным героем и очень странной женщиной-медиумом формируется весьма крепкая связь. И все это в тот момент, когда вся команда главного персонажа объединилась на борьбу с различной нечистью.
Между нечистью и командой main hero разворачиваются жесточайшие бои. Загадочную любовь главного героя навестит женщина из прошлого. Однако, если в прошлом сезоне мы наблюдали некое безразличие людей к происходящему, то здесь за дело возьмется Scotland Yard. У нашей загадки-медиума, оказывается, есть дочь. И это далеко не весь список грядущих сюрпризов. В этом сезоне вас ждет именно расплата нечисти за свои злоключения. Неудивительно, что всей «нечистой» ситуацией в туманном Альбионе заинтересовалась полиция. Сюжет этого сезона еще больше захватывает. Однако, в отличие от предыдущего сезона, он более динамичный. Но напряжение от этого только нарастает. Именно динамика, вот что притягивает к сериалу. Ведь острота сюжета и динамичность развития событий – это идеальное сочетание для вампирского сериала.
Ссылка на предыдущие и альтернативные раздачи: [url=tracker.php?f=2366&nm=penny+dreadful]http://rutracker.org/forum/tracker.php?f=2366&n...y+dreadful[/url]
Сэмпл: http://sendfile.su/1298759
Качество: BDRip 1080p
Контейнер: MKV
Видео: AVC, 1920x1080 (16:9), 23,976 кадра/сек, 10,7 Мбит/сек
Аудио: AC3, 48 kHz, 6 ch, 640 Kbps - Eng
Субтитры: внешние
Реклама:
отсутствует

MediaInfo

Общее
Уникальный идентификатор : 254275295278500752953504036006149129491 (0xBF4BA3F9BD643D149AC392EBF9CA8513)
Полное имя : E:\Downloads\Penny Dreadful Season 2 S02 1080p BluRay x264-FLHD [RiCK]\Penny.Dreadful.S02E01.1080p.BluRay.x264-FLHD.mkv
Формат : Matroska
Версия формата : Version 2
Размер файла : 4,36 Гбайт
Продолжительность : 55 м. 2 с.
Общий поток : 11,3 Мбит/сек
Дата кодирования : UTC 2015-10-05 09:33:02
Программа кодирования : mkvmerge v3.3.0 ('Language') built on Mar 24 2010 14:59:24
Библиотека кодирования : libebml v0.8.0 + libmatroska v0.9.0
Видео
Идентификатор : 1
Формат : AVC
Формат/Информация : Advanced Video Codec
Профиль формата : High@L4.1
Параметр CABAC формата : Да
Параметр ReFrames формата : 4 кадра
Идентификатор кодека : V_MPEG4/ISO/AVC
Продолжительность : 55 м. 2 с.
Битрейт : 10,7 Мбит/сек
Ширина : 1920 пикселей
Высота : 1080 пикселей
Соотношение сторон : 16:9
Режим частоты кадров : Постоянный
Частота кадров : 23,976 (24000/1001) кадра/сек
Цветовое пространство : YUV
Субдискретизация насыщенности : 4:2:0
Битовая глубина : 8 бит
Тип развёртки : Прогрессивная
Бит/(Пиксели*Кадры) : 0.215
Размер потока : 4,03 Гбайт (92%)
Библиотека кодирования : x264 core 148 r2597 e86f3a1
Настройки программы : cabac=1 / ref=4 / deblock=1:-1:-1 / analyse=0x3:0x113 / me=umh / subme=7 / psy=1 / psy_rd=1.00:0.00 / mixed_ref=1 / me_range=16 / chroma_me=1 / trellis=1 / 8x8dct=1 / cqm=0 / deadzone=21,11 / fast_pskip=1 / chroma_qp_offset=-2 / threads=12 / lookahead_threads=2 / sliced_threads=0 / nr=0 / decimate=1 / interlaced=0 / bluray_compat=0 / constrained_intra=0 / bframes=3 / b_pyramid=2 / b_adapt=2 / b_bias=0 / direct=3 / weightb=1 / open_gop=0 / weightp=2 / keyint=250 / keyint_min=23 / scenecut=40 / intra_refresh=0 / rc_lookahead=40 / rc=2pass / mbtree=1 / bitrate=10711 / ratetol=1.0 / qcomp=0.60 / qpmin=0 / qpmax=69 / qpstep=4 / cplxblur=20.0 / qblur=0.5 / vbv_maxrate=50000 / vbv_bufsize=50000 / nal_hrd=none / filler=0 / ip_ratio=1.40 / aq=1:1.00
Язык : English
Default : Да
Forced : Нет
Аудио
Идентификатор : 2
Формат : AC-3
Формат/Информация : Audio Coding 3
Расширение режима : CM (complete main)
Параметр Endianness формата : Big
Идентификатор кодека : A_AC3
Продолжительность : 55 м. 2 с.
Вид битрейта : Постоянный
Битрейт : 640 Кбит/сек
Каналы : 6 каналов
Расположение каналов : Front: L C R, Side: L R, LFE
Частота : 48,0 КГц
Частота кадров : 31,250 кадров/сек (1536 spf)
Битовая глубина : 16 бит
Метод сжатия : С потерями
Размер потока : 252 Мбайт (6%)
Язык : English
Default : Да
Forced : Нет

Скриншоты

Omen

Пост 14-Янв-2017 01:00

[Цитировать]

Теория большого взрыва / The Big Bang Theory- Год выпуска: 2016
Страна: США
Жанр: Комедия
Продолжительность: ~00:23:00-Перевод: Профессиональный (одноголосый закадровый) | Кураж-Бамбей
Перевод: Профессиональный (одноголосый закадровый) | Кураж-Бамбей по заказу Paramount Comedy-Режиссёр: Марк Сендроуски, Питер Чакос, Энтони Джозеф Рич-В ролях: Джим Парсонс, Джонни Галэки, Кейли Куоко-Суитинг, Саймон Хелберг, Кунал Нэйэр, Мелисса Рауш, Майем Биалик, Кевин Сасмэн, Кэрол Энн Сьюзи, Джон Росс Боуи-Описание: The Big Bang Theory — это, уже ставший классическим, ситком от телеканала CBS, который вышел на экраны 24 сентября 2007 года. Его популярность можно сравнить, разве что, с нестареющей классикой Друзей, который тоже шел 10 лет и, наверное, сложно найти человека, который про него не слышал. The Big Bang Theory также снимается в студии, где присутствуют зрители компаниями Chuck Lorre Productions и Warner Bros. Television.
Можно сказать, что именно это шоу положило начало моде на «гиков» — умных парней со сложным детством и проблемами в общении со сверстниками, которые закрывались в своих комнатах и гаражах, мастерили домашние ядерные реакторы и зачитывались комиксами от Marvel или DC. У них очень сложные отношения с девушками, но это и есть причина того, что такие истории называются ситком (комедия положений).
Главные персонажи — это два очень умных физика, Леонард и Шелдон, которые живут вместе, все знают про атомы и физику частиц, но очень мало смыслят в обычной жизни. У них есть такие же «ущербные» друзья-товарищи — озабоченый инженер Говард Воловитц и астрофизик из Индии Раджеш Кутрапали, который напрочь теряет дар речи при виде девушки. На всё это сверху добавляем разбитную красотку Пенни, которая живёт напротив Шелдона с Леонардом. Она учит их жизни, они пытаются её воспитывать. Что в итоге получается — смотрите в сериале!-[url=tracker.php?f=507,2396,189,2366&nm=The+Big+Bang+Theory]Ссылка на все раздачи сериала "The Big Bang Theory"[/url]- by s_white-Цитата:
Цитата:
Дорожки №1 и №2 получены наложением выделенного голоса на центр оригинального AC3. Работа со звуком kmarats.
Дорожка №2 только в сериях 01-04, 06-09, будет добавляться по мере трансляции сериала на канале Paramount Comedy.
Благодарим xironfs за запись звука с канала Paramount Comedy.
-Качество: WEB-DL 720p
Контейнер: MKV
Видео: 1278x720, 23.976 fps, MPEG-4 AVC, ~3900 kbps avg, 0.183 bit/pixel
Аудио: 48 kHz, AC3, 3/2 (L,C,R,l,r) + LFE ch, 384.00 kbps avg | Кураж-Бамбей
Аудио: 48 kHz, AC3, 3/2 (L,C,R,l,r) + LFE ch, 384.00 kbps avg | Кураж-Бамбей по заказу Paramount Comedy (только в 1-4,6-9 ой серии)
Аудио: 48 kHz, AC3, 3/2 (L,C,R,l,r) + LFE ch, 384.00 kbps avg
Субтитры: English
Реклама: Отсутствует-

MediaInfo

ОбщееУникальный идентификатор : 170322493472345929871264820481294625805 (0x8022EB4614DE29F4B0D2F8F97DAC6C0D)Полное имя : E:\Movies\The Big Bang Theory (Season 10) WEB-DL 720p\The.Big.Bang.Theory.S10E01.WEB-DL.720p.Rus.Eng.HDCLUB.mkvФормат : MatroskaВерсия формата : Version 4 / Version 2Размер файла : 808 МбайтПродолжительность : 21 м. 45 с.Режим общего битрейта : ПеременныйОбщий поток : 5194 Кбит/секНазвание фильма : The Big Bang Theory 10x01 (2016) - Release kmarats for HDCLUBДата кодирования : UTC 2016-10-27 09:52:38Программа кодирования : mkvmerge v9.4.2 ('So High') 64bitБиблиотека кодирования : libebml v1.3.4 + libmatroska v1.4.5
ВидеоИдентификатор : 1Формат : AVCФормат/Информация : Advanced Video CodecПрофиль формата : High@L3.1Параметр CABAC формата : ДаПараметр ReFrames формата : 2 кадраИдентификатор кодека : V_MPEG4/ISO/AVCПродолжительность : 21 м. 45 с.Вид битрейта : ПеременныйБитрейт : 4039 Кбит/секМаксимальный битрейт : 768 Кбит/секШирина : 1278 пикселейВысота : 720 пикселейСоотношение сторон : 16:9Режим частоты кадров : ПостоянныйЧастота кадров : 23,976 (23976/1000) кадра/секЧастота кадров в оригинале : 25,000 кадров/секЦветовое пространство : YUVСубдискретизация насыщенности : 4:2:0Битовая глубина : 8 битТип развёртки : ПрогрессивнаяБит/(Пиксели*Кадры) : 0.183Размер потока : 629 Мбайт (78%)Заголовок : The Big Bang Theory 10x01 (2016) - Release kmarats for HDCLUBЯзык : EnglishDefault : ДаForced : Нет
Аудио #1Идентификатор : 2Формат : AC-3Формат/Информация : Audio Coding 3Расширение режима : CM (complete main)Параметр Endianness формата : BigИдентификатор кодека : A_AC3Продолжительность : 21 м. 45 с.Вид битрейта : ПостоянныйБитрейт : 384 Кбит/секКаналы : 6 каналовРасположение каналов : Front: L C R, Side: L R, LFEЧастота : 48,0 КГцЧастота кадров : 31,250 кадров/сек (1536 spf)Битовая глубина : 16 битМетод сжатия : С потерямиРазмер потока : 59,8 Мбайт (7%)Заголовок : KurajЯзык : RussianDefault : ДаForced : Нет
Аудио #2Идентификатор : 3Формат : AC-3Формат/Информация : Audio Coding 3Расширение режима : CM (complete main)Параметр Endianness формата : BigИдентификатор кодека : A_AC3Продолжительность : 21 м. 45 с.Вид битрейта : ПостоянныйБитрейт : 384 Кбит/секКаналы : 6 каналовРасположение каналов : Front: L C R, Side: L R, LFEЧастота : 48,0 КГцЧастота кадров : 31,250 кадров/сек (1536 spf)Битовая глубина : 16 битМетод сжатия : С потерямиРазмер потока : 59,8 Мбайт (7%)Заголовок : Paramount ComedyЯзык : RussianDefault : НетForced : Нет
Аудио #3Идентификатор : 4Формат : AC-3Формат/Информация : Audio Coding 3Расширение режима : CM (complete main)Параметр Endianness формата : BigИдентификатор кодека : A_AC3Продолжительность : 21 м. 45 с.Вид битрейта : ПостоянныйБитрейт : 384 Кбит/секКаналы : 6 каналовРасположение каналов : Front: L C R, Side: L R, LFEЧастота : 48,0 КГцЧастота кадров : 31,250 кадров/сек (1536 spf)Битовая глубина : 16 битМетод сжатия : С потерямиРазмер потока : 59,8 Мбайт (7%)Заголовок : EnglishЯзык : EnglishDefault : НетForced : Нет
ТекстИдентификатор : 5Формат : UTF-8Идентификатор кодека : S_TEXT/UTF8Идентификатор кодека/Информация : UTF-8 Plain TextПродолжительность : 21 м. 13 с.Битрейт : 100 бит/секCount of elements : 478Размер потока : 15,7 Кбайт (0%)Заголовок : eng-subЯзык : EnglishDefault : НетForced : Нет
-

Скриншоты

-

Внимание! Раздача ведётся путём добавления новых серий

Внимание! Раздача ведётся путём добавления новых серий; при каждом добавлении создаётся новый торрент. Чтобы начать докачку новой серии, пользователям необходимо сделать следующее:
(1) остановить скачивание,
(2) удалить старый торрент у себя из клиента (старые серии удалять не надо),
(3) скачать новый торрент и запустить его у себя в клиенте вместо старого, при этом указать клиенту путь в старую папку куда и должно происходить скачивание новых серий.
Ваш клиент при этом должен произвести хеширование (проверку) старой папки (если не производит сам - помогите ему сделать это), и будет докачивать только те серии которых у вас ещё нет. Старые серии при этом не удаляются, а продолжают раздаваться!
Eсли вы уже удалили старые серии, то предотвратить повторную закачку старых серий можно, отжав галочку в соответствующих местах при запуске нового торрента. По возможности, желательно не удалять старые серии как можно дольше чтобы релизёр не столько продолжал раздавать старые серии, а смог сконцентрироваться на новых.

Omen

Пост 14-Янв-2017 01:00

[Цитировать]

По ту сторону / Beyond- Оригинальное название: Beyond
Русское название: По ту сторону
Год выпуска: 2017
Страна: США
Жанр: фантастика, детектив
Продолжительность: ~00:45:00 мин-Перевод: Профессиональный (многоголосый закадровый) Jaskier
Субтитры: Есть (Английские)-Режиссёр: Стив Эделсон, Ник Копус, Сэм Хилл-В ролях: Джордан Кэллоуэй, Дилан Гвин, Роми Роузмонт, Джонатан Уайтселл, Баркели Даффилд, Майкл МакГрэйди, Джефф Пьер, Чад Виллетт, Эмилия Баранак, Джеки Лаи-Описание: Убегая на своем мотоцикле от хулиганов, двенадцатилетний Холден (Дилан Шмид) попадает в автокатастрофу, отправившую мальчишку в длительную кому. В себя парень (Баркели Даффилд) приходит только через двенадцать лет и моментально становится местной достопримечательностью. Однако не все желают познакомиться с проспавшим полжизни молодым человеком из праздного любопытства, очень скоро Холден замечает, что за ним пристально следят какие-то мрачные люди. С помощью внезапно появившейся подруги молодой человек начинает вспоминать, что во время своего бессознательного состояния он не просто был в «отключке», его разум «путешествовал» в пограничный мир между жизнью и смертью в рамках чьего-то зловещего эксперимента. Теперь, вернувшийся с «той стороны», молодой человек нужен для продолжения опытов двум противоборствующим группировкам исследователей.-Сэмпл-Качество: WEBRip 720p
Формат: MKV
Видео кодек: AVC
Аудио кодек: AC3, E-AC3
Видео: 1280x720 (16:9), 23.976 fps, ~4935kbps ~0.223 bit/pixel-Аудио 1: Dolby AC3 48000Hz 6ch 384Kbps Русский
Аудио 2: Dolby E-AC3 48000Hz 6ch 640Kbps Оригинал (Английский)-Реклама: Присутствует звуковая (два раза в начале и конце по 12 сек.)-

MediaInfo

Код:
General
Unique ID                   : 199119476794246885468514463586097729105 (0x95CD042B606F84A080A27B45CB2A8E51)
Complete name               : X:\HD\Beyond. Season 1 (WEBRip l 720p l Jaskier)\Beyond.S01E01.Pilot.720p.AMZN.WEBRip.DD5.1.x264-Jaskier.mkv
Format                      : Matroska
Format version              : Version 2
File size                   : 1.83 GiB
Duration                    : 43mn 9s
Overall bit rate            : 6 066 Kbps
Encoded date                : UTC 2017-01-13 01:47:00
Writing application         : mkvmerge v5.4.0 ('Piper') built on Mar 10 2012 13:34:39
Writing library             : libebml v1.2.3 + libmatroska v1.3.0
DURATION                    : 00:42:32.670000000
NUMBER_OF_FRAMES            : 696
NUMBER_OF_BYTES             : 18563
_STATISTICS_WRITING_APP     : mkvmerge v8.1.0 ('Psychedelic Postcard') 32bit
_STATISTICS_WRITING_DATE_UT : 2017-01-03 18:21:26
_STATISTICS_TAGS            : BPS DURATION NUMBER_OF_FRAMES NUMBER_OF_BYTES
Video
ID                          : 1
Format                      : AVC
Format/Info                 : Advanced Video Codec
Format profile              : High@L4.1
Format settings, CABAC      : Yes
Format settings, ReFrames   : 9 frames
Codec ID                    : V_MPEG4/ISO/AVC
Duration                    : 43mn 9s
Bit rate                    : 4 921 Kbps
Width                       : 1 280 pixels
Height                      : 720 pixels
Display aspect ratio        : 16:9
Frame rate mode             : Constant
Frame rate                  : 23.976 fps
Color space                 : YUV
Chroma subsampling          : 4:2:0
Bit depth                   : 8 bits
Scan type                   : Progressive
Bits/(Pixel*Frame)          : 0.223
Stream size                 : 1.48 GiB (81%)
Title                       : 1. Pilot
Writing library             : x264 core 148 r2721+55 e19946b t_mod_Custom [8-bit@all X86_64]
Encoding settings           : cabac=1 / ref=9 / deblock=1:-3:-3 / analyse=0x3:0x133 / me=umh / subme=10 / psy=1 / fade_compensate=0.00 / psy_rd=1.00:0.00 / mixed_ref=1 / me_range=24 / chroma_me=1 / trellis=2 / 8x8dct=1 / cqm=0 / deadzone=21,11 / fast_pskip=0 / chroma_qp_offset=-2 / threads=8 / lookahead_threads=1 / sliced_threads=0 / nr=0 / decimate=0 / interlaced=0 / bluray_compat=0 / constrained_intra=0 / fgo=0 / bframes=9 / b_pyramid=2 / b_adapt=2 / b_bias=0 / direct=3 / weightb=1 / open_gop=0 / weightp=2 / keyint=250 / keyint_min=23 / scenecut=40 / intra_refresh=0 / rc_lookahead=60 / rc=crf / mbtree=0 / crf=16.0000 / qcomp=0.60 / qpmin=0:0:0 / qpmax=69:69:69 / qpstep=4 / vbv_maxrate=62500 / vbv_bufsize=78125 / crf_max=0.0 / nal_hrd=none / filler=0 / ip_ratio=1.40 / pb_ratio=1.30 / aq=3:0.70 / aq-sensitivity=10.00 / aq-factor=1.00:1.00:1.00 / aq2=0 / aq3=0
Language                    : English
Default                     : Yes
Forced                      : No
DURATION                    : 00:43:09.504000000
NUMBER_OF_FRAMES            : 62086
NUMBER_OF_BYTES             : 1631492588
_STATISTICS_WRITING_APP     : mkvmerge v8.1.0 ('Psychedelic Postcard') 32bit
_STATISTICS_WRITING_DATE_UT : 2017-01-03 18:21:26
_STATISTICS_TAGS            : BPS DURATION NUMBER_OF_FRAMES NUMBER_OF_BYTES
Audio #1
ID                          : 2
Format                      : AC-3
Format/Info                 : Audio Coding 3
Mode extension              : CM (complete main)
Format settings, Endianness : Big
Codec ID                    : A_AC3
Duration                    : 43mn 9s
Bit rate mode               : Constant
Bit rate                    : 384 Kbps
Channel(s)                  : 6 channels
Channel positions           : Front: L C R, Side: L R, LFE
Sampling rate               : 48.0 KHz
Compression mode            : Lossy
Stream size                 : 119 MiB (6%)
Language                    : Russian
Default                     : Yes
Forced                      : No
Audio #2
ID                          : 3
Format                      : E-AC-3
Format/Info                 : Audio Coding 3
Format settings, Endianness : Big
Codec ID                    : A_EAC3
Duration                    : 43mn 9s
Bit rate mode               : Constant
Bit rate                    : 640 Kbps
Channel(s)                  : 6 channels
Channel positions           : Front: L C R, Side: L R, LFE
Sampling rate               : 48.0 KHz
Compression mode            : Lossy
Stream size                 : 198 MiB (11%)
Language                    : English
Default                     : No
Forced                      : No
Text
ID                          : 4
Format                      : UTF-8
Codec ID                    : S_TEXT/UTF8
Codec ID/Info               : UTF-8 Plain Text
Language                    : English
Default                     : No
Forced                      : No

Скриншоты

Omen

Пост 13-Янв-2017 01:00

[Цитировать]

Теория большого взрыва / The Big Bang Theory- Год выпуска: 2016
Страна: США
Жанр: Комедия
Продолжительность: ~00:23:00-Перевод: Профессиональный (одноголосый закадровый) | Кураж-Бамбей
Перевод: Профессиональный (одноголосый закадровый) | Кураж-Бамбей по заказу Paramount Comedy-Режиссёр: Марк Сендроуски, Питер Чакос, Энтони Джозеф Рич-В ролях: Джим Парсонс, Джонни Галэки, Кейли Куоко-Суитинг, Саймон Хелберг, Кунал Нэйэр, Мелисса Рауш, Майем Биалик, Кевин Сасмэн, Кэрол Энн Сьюзи, Джон Росс Боуи-Описание: The Big Bang Theory — это, уже ставший классическим, ситком от телеканала CBS, который вышел на экраны 24 сентября 2007 года. Его популярность можно сравнить, разве что, с нестареющей классикой Друзей, который тоже шел 10 лет и, наверное, сложно найти человека, который про него не слышал. The Big Bang Theory также снимается в студии, где присутствуют зрители компаниями Chuck Lorre Productions и Warner Bros. Television.
Можно сказать, что именно это шоу положило начало моде на «гиков» — умных парней со сложным детством и проблемами в общении со сверстниками, которые закрывались в своих комнатах и гаражах, мастерили домашние ядерные реакторы и зачитывались комиксами от Marvel или DC. У них очень сложные отношения с девушками, но это и есть причина того, что такие истории называются ситком (комедия положений).
Главные персонажи — это два очень умных физика, Леонард и Шелдон, которые живут вместе, все знают про атомы и физику частиц, но очень мало смыслят в обычной жизни. У них есть такие же «ущербные» друзья-товарищи — озабоченый инженер Говард Воловитц и астрофизик из Индии Раджеш Кутрапали, который напрочь теряет дар речи при виде девушки. На всё это сверху добавляем разбитную красотку Пенни, которая живёт напротив Шелдона с Леонардом. Она учит их жизни, они пытаются её воспитывать. Что в итоге получается — смотрите в сериале!-- by s_white-Цитата:
Цитата:
Дорожки №1 и №2 получены наложением выделенного голоса на центр оригинального AC3. Работа со звуком kmarats.
Дорожка №2 только в сериях 01-04, 06-09, будет добавляться по мере трансляции сериала на канале Paramount Comedy.
Благодарим xironfs за запись звука с канала Paramount Comedy.
-Качество: WEB-DL 1080p
Контейнер: MKV
Видео: 1912×1076, 23.976 fps, MPEG-4 AVC, ~5050 kbps avg, 0.102 bit/pixel
Аудио: 48 kHz, AC3, 3/2 (L,C,R,l,r) + LFE ch, 384.00 kbps avg | Кураж-Бамбей
Аудио: 48 kHz, AC3, 3/2 (L,C,R,l,r) + LFE ch, 384.00 kbps avg | Кураж-Бамбей по заказу Paramount Comedy (только в 1-4,6-9 ой серии)
Аудио: 48 kHz, AC3, 3/2 (L,C,R,l,r) + LFE ch, 384.00 kbps avg
Субтитры: English
Реклама: Отсутствует-

MediaInfo

ОбщееУникальный идентификатор : 203346972256897698097399516100659990909 (0x98FB33C9BC88299295F431826C07517D)Полное имя : E:\Movies\The Big Bang Theory (Season 10) WEB-DL 1080p\The.Big.Bang.Theory.S10E01.1080p.WEB-DL.Rus.Eng.HDCLUB.mkvФормат : MatroskaВерсия формата : Version 2Размер файла : 982 МбайтПродолжительность : 21 м. 45 с.Режим общего битрейта : ПеременныйОбщий поток : 6312 Кбит/секНазвание фильма : The Big Bang Theory | Season 10 (2016-2017) | 01: The Conjugal Conjecture (Release for HDCLUB)Дата кодирования : UTC 2016-10-27 15:51:24Программа кодирования : mkvmerge v8.3.0 ('Over the Horizon') 64bitБиблиотека кодирования : libebml v1.3.1 + libmatroska v1.4.2
ВидеоИдентификатор : 1Формат : AVCФормат/Информация : Advanced Video CodecПрофиль формата : High@L4Параметр CABAC формата : ДаПараметр ReFrames формата : 2 кадраИдентификатор кодека : V_MPEG4/ISO/AVCПродолжительность : 21 м. 45 с.Вид битрейта : ПеременныйБитрейт : 5035 Кбит/секМаксимальный битрейт : 768 Кбит/секШирина : 1912 пикселейВысота : 1076 пикселейСоотношение сторон : 16:9Режим частоты кадров : ПостоянныйЧастота кадров : 23,976 кадра/секЧастота кадров в оригинале : 25,000 кадров/секЦветовое пространство : YUVСубдискретизация насыщенности : 4:2:0Битовая глубина : 8 битТип развёртки : ПрогрессивнаяБит/(Пиксели*Кадры) : 0.102Размер потока : 784 Мбайт (80%)Заголовок : The Big Bang Theory | Season 10 (2016-2017) | 01: The Conjugal Conjecture (Release for HDCLUB)Язык : EnglishDefault : ДаForced : Нет
Аудио #1Идентификатор : 2Формат : AC-3Формат/Информация : Audio Coding 3Расширение режима : CM (complete main)Параметр Endianness формата : BigИдентификатор кодека : A_AC3Продолжительность : 21 м. 45 с.Вид битрейта : ПостоянныйБитрейт : 384 Кбит/секКаналы : 6 каналовРасположение каналов : Front: L C R, Side: L R, LFEЧастота : 48,0 КГцЧастота кадров : 31,250 кадров/сек (1536 spf)Битовая глубина : 16 битМетод сжатия : С потерямиРазмер потока : 59,8 Мбайт (6%)Заголовок : DD 5.1 @ 384 kbps (Кураж Бамбей)Язык : RussianDefault : ДаForced : Нет
Аудио #2Идентификатор : 3Формат : AC-3Формат/Информация : Audio Coding 3Расширение режима : CM (complete main)Параметр Endianness формата : BigИдентификатор кодека : A_AC3Продолжительность : 21 м. 45 с.Вид битрейта : ПостоянныйБитрейт : 384 Кбит/секКаналы : 6 каналовРасположение каналов : Front: L C R, Side: L R, LFEЧастота : 48,0 КГцЧастота кадров : 31,250 кадров/сек (1536 spf)Битовая глубина : 16 битМетод сжатия : С потерямиРазмер потока : 59,8 Мбайт (6%)Заголовок : DD 5.1 @ 384 kbps (Кураж Бамбей по заказу Paramount Comedy)Язык : RussianDefault : НетForced : Нет
Аудио #3Идентификатор : 4Формат : AC-3Формат/Информация : Audio Coding 3Расширение режима : CM (complete main)Параметр Endianness формата : BigИдентификатор кодека : A_AC3Продолжительность : 21 м. 45 с.Вид битрейта : ПостоянныйБитрейт : 384 Кбит/секКаналы : 6 каналовРасположение каналов : Front: L C R, Side: L R, LFEЧастота : 48,0 КГцЧастота кадров : 31,250 кадров/сек (1536 spf)Битовая глубина : 16 битМетод сжатия : С потерямиРазмер потока : 59,8 Мбайт (6%)Заголовок : DD 5.1 @ 384 kbpsЯзык : EnglishDefault : НетForced : Нет
ТекстИдентификатор : 5Формат : UTF-8Идентификатор кодека : S_TEXT/UTF8Идентификатор кодека/Информация : UTF-8 Plain TextЯзык : EnglishDefault : НетForced : Нет
-

Скриншоты

-

Внимание! Раздача ведётся путём добавления новых серий

Внимание! Раздача ведётся путём добавления новых серий; при каждом добавлении создаётся новый торрент. Чтобы начать докачку новой серии, пользователям необходимо сделать следующее:
(1) остановить скачивание,
(2) удалить старый торрент у себя из клиента (старые серии удалять не надо),
(3) скачать новый торрент и запустить его у себя в клиенте вместо старого, при этом указать клиенту путь в старую папку куда и должно происходить скачивание новых серий.
Ваш клиент при этом должен произвести хеширование (проверку) старой папки (если не производит сам - помогите ему сделать это), и будет докачивать только те серии которых у вас ещё нет. Старые серии при этом не удаляются, а продолжают раздаваться!
Eсли вы уже удалили старые серии, то предотвратить повторную закачку старых серий можно, отжав галочку в соответствующих местах при запуске нового торрента. По возможности, желательно не удалять старые серии как можно дольше чтобы релизёр не столько продолжал раздавать старые серии, а смог сконцентрироваться на новых.

Omen

Пост 12-Янв-2017 01:00

[Цитировать]

Изумрудный Город | Emerald City
Год выпуска: 2017
Страна: США
Жанр: Фэнтези, приключения
Продолжительность: ~00:43:00
Перевод: Профессиональный (многоголосый закадровый) ViruseProject
Режиссёр: Тарсем Сингх
В ролях: Герран Хауэлл, Адриа Архона, Винсент Д’Онофрио, Оливер Джексон-Коэн, Изабель Лукас, Стефани Мартини, Ана Улару, Рокси Штернберг, Ребека Ри, Оулавюр Дарри Оулафссон и др.
Описание: Двадцатилетняя Дороти из маленького городка Лукас в штате Канзас работает медсестрой и не мечтает о большем. Пока однажды, поехав встретиться с родной матерью, бросившей её двадцать лет назад, не попадает в ужасную бурю, которая уносит Дороти в диковинную страну, полную странных людей, необъяснимых тайн и запретной магии.
Думаете, вы уже знаете эту сказку? Как бы не так. В истории от Дэвида Шульнера («Отчаянные домохозяйки», «Короли», «Айронсайд») и Тарсема Сингха («Клетка», «Запределье»), где густо и без всякой хронологии смешаны все четырнадцать книг Баума, над страной Оз нависла смертельная угроза, последние выжившие Волшебницы сражаются за власть с Великим и Ужасным, а знаменитую дорогу из кирпича густо покрывает маковая пыльца. Новый Изумрудный город суров и мрачен, а исполнение желаний обходится дорого. Мы не знаем, куда приведёт маково-кирпичная дорога, но путь точно будет трудным, извилистым и интересным.
Качество: HDTVRip 720p
Формат: MKV
Видео кодек: AVC
Аудио кодек: AC-3
Видео: 1280x720 (16:9), 23.976 fps, ~2900 kbps avg, 0.124 bit/pixel
Аудио 1: [Rus] AC-3, 2 ch, ~192.00 kbps avg
Аудио 2: [Eng] AC-3, 6 ch, ~384.00 kbps avg
Субтитры: русские (ViruseProject)
Реклама: отсутствует в любом виде

Внимание! Раздача ведётся путём добавления новых серий

Внимание! Раздача ведётся путём добавления новых серий; при каждом добавлении создаётся новый торрент. Чтобы начать докачку новой серии, пользователям необходимо сделать следующее:
(1) остановить скачивание,
(2) удалить старый торрент у себя из клиента (старые серии удалять не надо),
(3) скачать новый торрент и запустить его у себя в клиенте вместо старого, при этом указать клиенту путь в старую папку куда и должно происходить скачивание новых серий.
Ваш клиент при этом должен произвести хеширование (проверку) старой папки (если не производит сам - помогите ему сделать это), и будет докачивать только те серии которых у вас ещё нет. Старые серии при этом не удаляются, а продолжают раздаваться!
Eсли вы уже удалили старые серии, то предотвратить повторную закачку старых серий можно, отжав галочку в соответствующих местах при запуске нового торрента. По возможности, желательно не удалять старые серии как можно дольше чтобы релизёр не столько продолжал раздавать старые серии, а смог сконцентрироваться на новых.

MediaInfo

General
Unique ID : 173621257887025048174243861700339145150 (0x829E3CEA991091178D14A59AFC0199BE)
Complete name : E:\Emerald.City.S01.720p.ViruseProject\Emerald.City.S01E01-02.720p.ViruseProject.mkv
Format : Matroska
Format version : Version 2
File size : 1.94 GiB
Duration : 1 h 19 min
Overall bit rate : 3 505 kb/s
Encoded date : UTC 2017-01-10 17:50:33
Writing application : mkvmerge v5.3.0 ('I could have danced') built on Mar 7 2012 20:09:32
Writing library : libebml v1.2.3 + libmatroska v1.3.0
Video
ID : 1
Format : AVC
Format/Info : Advanced Video Codec
Format profile : High@L4.1
Format settings, CABAC : Yes
Format settings, ReFrames : 5 frames
Muxing mode : Header stripping
Codec ID : V_MPEG4/ISO/AVC
Duration : 1 h 19 min
Bit rate : 2 859 kb/s
Width : 1 280 pixels
Height : 720 pixels
Display aspect ratio : 16:9
Frame rate mode : Constant
Frame rate : 23.976 (24000/1001) FPS
Color space : YUV
Chroma subsampling : 4:2:0
Bit depth : 8 bits
Scan type : Progressive
Bits/(Pixel*Frame) : 0.129
Stream size : 1.58 GiB (82%)
Writing library : x264 core 148 r2721 72d53ab
Encoding settings : cabac=1 / ref=5 / deblock=1:0:0 / analyse=0x3:0x113 / me=hex / subme=8 / psy=1 / psy_rd=1.00:0.00 / mixed_ref=1 / me_range=16 / chroma_me=1 / trellis=2 / 8x8dct=1 / cqm=0 / deadzone=21,11 / fast_pskip=1 / chroma_qp_offset=-2 / threads=22 / lookahead_threads=3 / sliced_threads=0 / nr=0 / decimate=1 / interlaced=0 / bluray_compat=0 / constrained_intra=0 / bframes=3 / b_pyramid=2 / b_adapt=1 / b_bias=0 / direct=3 / weightb=1 / open_gop=0 / weightp=2 / keyint=250 / keyint_min=23 / scenecut=40 / intra_refresh=0 / rc_lookahead=50 / rc=crf / mbtree=1 / crf=18.0 / qcomp=0.60 / qpmin=0 / qpmax=69 / qpstep=4 / ip_ratio=1.40 / aq=1:1.00
Default : Yes
Forced : No
Color range : Limited
Matrix coefficients : BT.709
Audio #1
ID : 2
Format : AC-3
Format/Info : Audio Coding 3
Mode extension : CM (complete main)
Format settings, Endianness : Big
Muxing mode : Header stripping
Codec ID : A_AC3
Duration : 1 h 19 min
Bit rate mode : Constant
Bit rate : 192 kb/s
Channel(s) : 2 channels
Channel positions : Front: L R
Sampling rate : 48.0 kHz
Frame rate : 31.250 FPS (1536 spf)
Bit depth : 16 bits
Compression mode : Lossy
Stream size : 109 MiB (5%)
Title : ViruseProject
Language : Russian
Default : Yes
Forced : No
Audio #2
ID : 3
Format : AC-3
Format/Info : Audio Coding 3
Mode extension : CM (complete main)
Format settings, Endianness : Big
Muxing mode : Header stripping
Codec ID : A_AC3
Duration : 1 h 19 min
Bit rate mode : Constant
Bit rate : 384 kb/s
Channel(s) : 6 channels
Channel positions : Front: L C R, Side: L R, LFE
Sampling rate : 48.0 kHz
Frame rate : 31.250 FPS (1536 spf)
Bit depth : 16 bits
Compression mode : Lossy
Stream size : 218 MiB (11%)
Title : org
Language : English
Default : No
Forced : No

Скриншоты

Omen

Пост 12-Янв-2017 01:00

[Цитировать]

-Табу | Taboo-- • Год выпуска: 2017
• Страна: Великобритания, США
• Жанр: Драма
• Продолжительность: ~ 00:55:00-• Перевод: Профессиональный (многоголосый закадровый) | LostFilm-• Режиссёр: Андерс Энгстрем, Кристоффер Нюхольм-• В ролях: Том Харди, Лео Билл, Уна Чаплин, Ричард Диксон, Дэвид Хейман, Майкл Келли, Дэнни Лигаири, Джонатан Прайс, Рой Торн, Скрубиус Пип-• Описание: Считающийся погибшим, авантюрист и искатель приключений Джеймс Кезиах Делейни вновь в 1814 году, после 10 лет путешествий в Африке, появляется в Лондоне, стремясь отомстить за смерть своего отца. Делейни возвращается, чтобы обнаружить, что ему было оставлено отцом таинственное наследство и строит свою собственную корабельную империю в начале 1800-х годов, играя в опасную игру между двумя воюющими странами - Англией и Америкой...- --• Качество: HDTVRip 1080p
• Видео: 1920x1080 (16:9) | X264/MPEG4-AVC | ~8700 kbps | 25 fps
• Аудио 1: AC3 | 48 KHz | 5.1 (Front: L С R Side: L R) + LFE | ~384 kbps [RUS]
• Аудио 2: AC3 | 48 KHz | 5.1 (Front: L С R Side: L R) + LFE | ~384 kbps [ENG]
• Субтитры: Русские (студия Focs), английские
• Реклама:отсутствует-

✘ MediaInfo ✘

Код:
Общее
Уникальный идентификатор                 : 214507096849444200862401302324963071496 (0xA16090698D3EE30EB6ECDC00D2AE5608)
Полное имя                               : X:\ATorrent\TABOO (Season 01) 1080\Taboo.S01E01.1080p.DD5.1.LostFilm.[qqss44].mkv
Формат                                   : Matroska
Версия формата                           : Version 2
Размер файла                             : 3,72 Гбайт
Продолжительность                        : 55 м.
Общий поток                              : 9673 Кбит/сек
Дата кодирования                         : UTC 2017-01-10 23:05:10
Программа кодирования                    : mkvmerge v7.9.0 ('Birds') 64bit
Библиотека кодирования                   : libebml v1.3.1 + libmatroska v1.4.2
Видео
Идентификатор                            : 1
Формат                                   : AVC
Формат/Информация                        : Advanced Video Codec
Профиль формата                          : High@L4.1
Параметр CABAC формата                   : Да
Параметр ReFrames формата                : 4 кадра
Идентификатор кодека                     : V_MPEG4/ISO/AVC
Продолжительность                        : 55 м.
Битрейт                                  : 8903 Кбит/сек
Ширина                                   : 1920 пикселей
Высота                                   : 1080 пикселей
Соотношение сторон                       : 16:9
Режим частоты кадров                     : Постоянный
Частота кадров                           : 25,000 кадров/сек
Цветовое пространство                    : YUV
Субдискретизация насыщенности            : 4:2:0
Битовая глубина                          : 8 бит
Тип развёртки                            : Прогрессивная
Бит/(Пиксели*Кадры)                      : 0.172
Размер потока                            : 3,42 Гбайт (92%)
Библиотека кодирования                   : x264 core 148 r2744 b97ae06
Настройки программы                      : cabac=1 / ref=4 / deblock=1:0:0 / analyse=0x3:0x113 / me=hex / subme=8 / psy=1 / psy_rd=1.00:0.00 / mixed_ref=1 / me_range=16 / chroma_me=1 / trellis=2 / 8x8dct=1 / cqm=0 / deadzone=21,11 / fast_pskip=1 / chroma_qp_offset=-2 / threads=6 / lookahead_threads=1 / sliced_threads=0 / nr=0 / decimate=1 / interlaced=0 / bluray_compat=0 / constrained_intra=0 / bframes=3 / b_pyramid=2 / b_adapt=1 / b_bias=0 / direct=3 / weightb=1 / open_gop=0 / weightp=2 / keyint=250 / keyint_min=25 / scenecut=40 / intra_refresh=0 / rc_lookahead=50 / rc=crf / mbtree=1 / crf=17.0 / qcomp=0.60 / qpmin=0 / qpmax=69 / qpstep=4 / ip_ratio=1.40 / aq=1:1.00
Язык                                     : English
Default                                  : Да
Forced                                   : Нет
Цветовой диапазон                        : Limited
Основные цвета                           : BT.709
Характеристики трансфера                 : BT.709
Коэффициенты матрицы                     : BT.709
Аудио #1
Идентификатор                            : 2
Формат                                   : AC-3
Формат/Информация                        : Audio Coding 3
Расширение режима                        : CM (complete main)
Параметр Endianness формата              : Big
Идентификатор кодека                     : A_AC3
Продолжительность                        : 55 м.
Вид битрейта                             : Постоянный
Битрейт                                  : 384 Кбит/сек
Каналы                                   : 6 каналов
Расположение каналов                     : Front: L C R, Side: L R, LFE
Частота                                  : 48,0 КГц
Частота кадров                           : 31,250 кадров/сек (1536 spf)
Метод сжатия                             : С потерями
Размер потока                            : 151 Мбайт (4%)
Язык                                     : Russian
Default                                  : Да
Forced                                   : Нет
Аудио #2
Идентификатор                            : 3
Формат                                   : AC-3
Формат/Информация                        : Audio Coding 3
Расширение режима                        : CM (complete main)
Параметр Endianness формата              : Big
Идентификатор кодека                     : A_AC3
Продолжительность                        : 55 м.
Вид битрейта                             : Постоянный
Битрейт                                  : 384 Кбит/сек
Каналы                                   : 6 каналов
Расположение каналов                     : Front: L C R, Side: L R, LFE
Частота                                  : 48,0 КГц
Частота кадров                           : 31,250 кадров/сек (1536 spf)
Метод сжатия                             : С потерями
Задержка видео                           : 3 мс.
Размер потока                            : 151 Мбайт (4%)
Язык                                     : English
Default                                  : Нет
Forced                                   : Нет
Текст #1
Идентификатор                            : 4
Формат                                   : UTF-8
Идентификатор кодека                     : S_TEXT/UTF8
Идентификатор кодека/Информация          : UTF-8 Plain Text
Продолжительность                        : 51 м.
Битрейт                                  : 95 бит/сек
Count of elements                        : 560
Размер потока                            : 36,1 Кбайт (0%)
Язык                                     : Russian
Default                                  : Нет
Forced                                   : Нет
Текст #2
Идентификатор                            : 5
Формат                                   : UTF-8
Идентификатор кодека                     : S_TEXT/UTF8
Идентификатор кодека/Информация          : UTF-8 Plain Text
Продолжительность                        : 51 м.
Битрейт                                  : 53 бит/сек
Count of elements                        : 557
Размер потока                            : 20,0 Кбайт (0%)
Язык                                     : English
Default                                  : Нет
Forced                                   : Нет

✘ Скриншоты ✘

✘ Раздача ведется путем добавления новых серий ✘

Когда раздача ведётся путём добавления новых серий, при каждом добавлении создётся новый торрент. Чтобы начать докачку новой серии, пользователям необходимо сделать следующее:
(1) остановить скачивание,
(2) удалить старый торрент у себя из клиента (старые серии удалять не надо),
(3) скачать новый торрент и запустить его у себя в клиенте вместо старого, при этом указать клиенту путь в старую папку, куда и должно происходить скачивание новых серий.
Ваш клиент при этом должен произвести хеширование (проверку) старой папки (если не производит сам - помогите ему сделать это), и будет докачивать только те серии, которых у вас ещё нет. Старые серии при этом не удаляются, а продолжают раздаваться!
Eсли вы уже удалили старые серии, то предотвратить повторную закачку старых серий можно, отжав галочку в соответсвующих местах при запуске нового торрента. По возможности, желательно не удалять старые серии как можно дольше, чтобы релизёр не столько продолжал раздавать старые серии, а смог сконцентрироваться на новых.
-Цитата:
Цитата:
Дорожка 1 получена путем наложения выделенных голосов LostFilm на центральный канал оригинала (qqss44)

Garry36

Пост 11-Янв-2017 11:08

[Цитировать]

Ну на конец-то!!! Спасибо большое!!!

Omen

Пост 11-Янв-2017 01:00

[Цитировать]

Гримм / Grimm Год выпуска: 2016
Страна: США
Жанр: ужасы, фэнтези, драма, детектив
Продолжительность: ~00:45:00
Перевод: Профессиональный (многоголосый закадровый) LostFilm
Режиссёр: Норберто Барба
В ролях: Дэвид Джунтоли (Ник Бёркхардт), Рассел Хорнсби (Хэнк Гриффин), Битси Таллоч (Джульетта Сильвертон), Сайлас Уэйр Митчелл (Эдди Монро), Регги Ли (сержант Ву), Саша Ройз (капитан Шон Ренард), Мэри Элизабет Мастрантонио (Келли Бёркхардт), Кейт Бертон (Мари Кесслер).
Описание: Ник Бёркхардт - детектив отдела по расследованию убийств из Портленда. Волею судьбы он также является одним из последних потомков семейства Гримм, члены которого из века в век занимаются истреблением сверхъестественных монстров, живущих в мире людей.
Ник, как и все его предки, способен видеть истинную сущность нечисти, под какой бы маской она не пряталась.
Узнав о своей судьбе, Ник принимает «вечный бой» против потустороннего зла, и теперь должен защищать от него людей.
В ходе своих расследований детектив Бёркхарт приобретает союзников в лице своей девушки, напарника Хэнка Гриффина, а также «перевоспитанного» потрошителя Эдди Монро.

Качество: WEB-DL 1080p
Формат: MKV
Видео: H.264/AVC, 1920x1080 (16:9), ~5195 kbps
Аудио: AC3, 384 kbps, 2 ch, 48 kHz [Rus]
Аудио 2:AC3, 384 kbps, 6 ch, 48 kHz [Eng]
Субтитры: английские

-

MediaInfo

Общее
Уникальный идентификатор : 205935497006932135050420828562843826251 (0x9AEDBBE9605E521FBB9E3F70138CF84B)
Полное имя : D:\Гримм (сезон 6) (2017) WEB-DL 1080p - LostFilm\Grimm.S06E01.WEB-DL1080p.Rus.Eng.DV.LostFilm.mkv
Формат : Matroska
Версия формата : Version 4 / Version 2
Размер файла : 1,79 Гбайт
Продолжительность : 42 м. 59 с.
Общий поток : 5966 Кбит/сек
Название фильма : Grimm.S06E01.WEB-DL1080p.Rus.Eng.DV.LostFilm
Дата кодирования : UTC 2017-01-09 21:28:29
Программа кодирования : mkvmerge v8.2.0 ('World of Adventure') 64bit
Библиотека кодирования : libebml v1.3.1 + libmatroska v1.4.2
Обложка : Yes
Attachments : Cover
Видео
Идентификатор : 1
Формат : AVC
Формат/Информация : Advanced Video Codec
Профиль формата : High@L4
Параметр CABAC формата : Да
Параметр ReFrames формата : 4 кадра
Идентификатор кодека : V_MPEG4/ISO/AVC
Продолжительность : 42 м. 59 с.
Битрейт : 5195 Кбит/сек
Ширина : 1920 пикселей
Высота : 1080 пикселей
Соотношение сторон : 16:9
Режим частоты кадров : Постоянный
Частота кадров : 23,976 (24000/1001) кадра/сек
Цветовое пространство : YUV
Субдискретизация насыщенности : 4:2:0
Битовая глубина : 8 бит
Тип развёртки : Прогрессивная
Бит/(Пиксели*Кадры) : 0.104
Размер потока : 1,56 Гбайт (87%)
Язык : English
Default : Да
Forced : Нет
Цветовой диапазон : Limited
Основные цвета : BT.709
Характеристики трансфера : BT.709
Коэффициенты матрицы : BT.709
Аудио #1
Идентификатор : 2
Формат : AC-3
Формат/Информация : Audio Coding 3
Расширение режима : CM (complete main)
Параметр Endianness формата : Big
Идентификатор кодека : A_AC3
Продолжительность : 42 м. 59 с.
Вид битрейта : Постоянный
Битрейт : 384 Кбит/сек
Каналы : 2 канала
Расположение каналов : Front: L R
Частота : 48,0 КГц
Частота кадров : 31,250 кадров/сек (1536 spf)
Битовая глубина : 16 бит
Метод сжатия : С потерями
Размер потока : 118 Мбайт (6%)
Заголовок : LostFilm
Язык : Russian
Default : Да
Forced : Нет
Аудио #2
Идентификатор : 3
Формат : AC-3
Формат/Информация : Audio Coding 3
Расширение режима : CM (complete main)
Параметр Endianness формата : Big
Идентификатор кодека : A_AC3
Продолжительность : 42 м. 59 с.
Вид битрейта : Постоянный
Битрейт : 384 Кбит/сек
Каналы : 6 каналов
Расположение каналов : Front: L C R, Side: L R, LFE
Частота : 48,0 КГц
Частота кадров : 31,250 кадров/сек (1536 spf)
Битовая глубина : 16 бит
Метод сжатия : С потерями
Размер потока : 118 Мбайт (6%)
Язык : English
Default : Нет
Forced : Нет
Текст
Идентификатор : 4
Формат : UTF-8
Идентификатор кодека : S_TEXT/UTF8
Идентификатор кодека/Информация : UTF-8 Plain Text
Продолжительность : 42 м. 15 с.
Битрейт : 80 бит/сек
Count of elements : 800
Размер потока : 25,0 Кбайт (0%)
Язык : English
Default : Нет
Forced : Нет

Скриншоты

 

Текущее время: Сегодня 03:31

Часовой пояс: GMT + 3