Сегодня идет свободное скачивание без начисления Download

Результатов поиска: 16

Автор Сообщение

Omen

Пост 26-Окт-2016 01:00

[Цитировать]

Осложнения / Complications

Omen

Пост 23-Авг-2016 01:00

[Цитировать]

Основы программирования CS50 - Автор (режиссер): David J. Malan
Производство: Harvard College
Жанр: Программирование
Описание:
CS50 — суперхит среди академических курсов Computer Science! Его уже много лет читают студентам Гарварда, а в последнее время — воспитанникам Йельского университета очно, а заочно — многомилионной аудитории интернета. Лекции курса смотрятся как увлекательный блокбастер, а задачи, предлагаемые к решению, — не надуманные стерильные учебные материалы, а взятые из реальной жизни кейсы.
Продолжительность: 09:27:34
Качество видео: WEB-DL
Видео: AVC/H.264, 1920x1080p, ~24fps 147kbps
Аудио: AAC, 2 ch, 44100Hz stereo 126kbps, CBR

Mediainfo:

Код:
Общее
Полное имя                               : E:\Видеокурсы\Основы программирования CS50\1. CS50 на русском׃ Лекция #1 [Гарвард, Основы программирования, осень 2015 год].mp4
Формат                                   : MPEG-4
Профиль формата                          : Base Media
Идентификатор кодека                     : isom (isom/iso2/avc1/mp41)
Размер файла                             : 525 Мбайт
Продолжительность                        : 45 м. 40 с.
Общий поток                              : 1606 Кбит/сек
Программа кодирования                    : Lavf57.2.100
Видео
Идентификатор                            : 1
Формат                                   : AVC
Формат/Информация                        : Advanced Video Codec
Профиль формата                          : High@L4
Параметр CABAC формата                   : Да
Параметр ReFrames формата                : 3 кадра
Идентификатор кодека                     : avc1
Идентификатор кодека/Информация          : Advanced Video Coding
Продолжительность                        : 45 м. 40 с.
Битрейт                                  : 1473 Кбит/сек
Ширина                                   : 1920 пикселей
Высота                                   : 1080 пикселей
Соотношение сторон                       : 16:9
Режим частоты кадров                     : Переменный
Частота кадров                           : 23,976 (24000/1001) кадра/сек
Минимальная частота кадров               : 23,974 кадра/сек
Максимальная частота кадров              : 23,981 кадра/сек
Цветовое пространство                    : YUV
Субдискретизация насыщенности            : 4:2:0
Битовая глубина                          : 8 бит
Тип развёртки                            : Прогрессивная
Бит/(Пиксели*Кадры)                      : 0.030
Размер потока                            : 481 Мбайт (92%)
Цветовой диапазон                        : Limited
Основные цвета                           : BT.709
Характеристики трансфера                 : BT.709
Коэффициенты матрицы                     : BT.709
Аудио
Идентификатор                            : 2
Формат                                   : AAC
Формат/Информация                        : Advanced Audio Codec
Профиль формата                          : LC
Идентификатор кодека                     : 40
Продолжительность                        : 45 м. 40 с.
Вид битрейта                             : Постоянный
Битрейт                                  : 126 Кбит/сек
Каналы                                   : 2 канала
Расположение каналов                     : Front: L R
Частота                                  : 44,1 КГц
Частота кадров                           : 43,066 кадра/сек (1024 spf)
Метод сжатия                             : С потерями
Размер потока                            : 41,0 Мбайт (8%)
Default                                  : Да
Alternate group                          : 1
Общее
Полное имя                               : E:\Видеокурсы\Основы программирования CS50\10. CS50 на русском׃ Лекция #10 [Гарвард, Основы программирования, осень 2015 год].mp4
Формат                                   : MPEG-4
Профиль формата                          : Base Media
Идентификатор кодека                     : isom (isom/iso2/avc1/mp41)
Размер файла                             : 493 Мбайт
Продолжительность                        : 54 м. 10 с.
Общий поток                              : 1273 Кбит/сек
Программа кодирования                    : Lavf57.2.100
Видео
Идентификатор                            : 1
Формат                                   : AVC
Формат/Информация                        : Advanced Video Codec
Профиль формата                          : High@L4
Параметр CABAC формата                   : Да
Параметр ReFrames формата                : 3 кадра
Идентификатор кодека                     : avc1
Идентификатор кодека/Информация          : Advanced Video Coding
Продолжительность                        : 54 м. 10 с.
Битрейт                                  : 1140 Кбит/сек
Ширина                                   : 1920 пикселей
Высота                                   : 1080 пикселей
Соотношение сторон                       : 16:9
Режим частоты кадров                     : Переменный
Частота кадров                           : 23,976 (24000/1001) кадра/сек
Минимальная частота кадров               : 23,974 кадра/сек
Максимальная частота кадров              : 23,981 кадра/сек
Цветовое пространство                    : YUV
Субдискретизация насыщенности            : 4:2:0
Битовая глубина                          : 8 бит
Тип развёртки                            : Прогрессивная
Бит/(Пиксели*Кадры)                      : 0.023
Размер потока                            : 442 Мбайт (90%)
Цветовой диапазон                        : Limited
Основные цвета                           : BT.709
Характеристики трансфера                 : BT.709
Коэффициенты матрицы                     : BT.709
Аудио
Идентификатор                            : 2
Формат                                   : AAC
Формат/Информация                        : Advanced Audio Codec
Профиль формата                          : LC
Идентификатор кодека                     : 40
Продолжительность                        : 54 м. 10 с.
Вид битрейта                             : Постоянный
Битрейт                                  : 126 Кбит/сек
Каналы                                   : 2 канала
Расположение каналов                     : Front: L R
Частота                                  : 44,1 КГц
Частота кадров                           : 43,066 кадра/сек (1024 spf)
Метод сжатия                             : С потерями
Размер потока                            : 48,7 Мбайт (10%)
Default                                  : Да
Alternate group                          : 1
Общее
Полное имя                               : E:\Видеокурсы\Основы программирования CS50\11. CS50 на русском׃ Лекция #11 [Гарвард, Основы программирования, осень 2015 год].mp4
Формат                                   : MPEG-4
Профиль формата                          : Base Media
Идентификатор кодека                     : isom (isom/iso2/avc1/mp41)
Размер файла                             : 546 Мбайт
Продолжительность                        : 53 м. 12 с.
Общий поток                              : 1436 Кбит/сек
Программа кодирования                    : Lavf57.2.100
Видео
Идентификатор                            : 1
Формат                                   : AVC
Формат/Информация                        : Advanced Video Codec
Профиль формата                          : High@L4
Параметр CABAC формата                   : Да
Параметр ReFrames формата                : 3 кадра
Идентификатор кодека                     : avc1
Идентификатор кодека/Информация          : Advanced Video Coding
Продолжительность                        : 53 м. 12 с.
Битрейт                                  : 1304 Кбит/сек
Ширина                                   : 1920 пикселей
Высота                                   : 1080 пикселей
Соотношение сторон                       : 16:9
Режим частоты кадров                     : Переменный
Частота кадров                           : 23,976 (24000/1001) кадра/сек
Минимальная частота кадров               : 23,974 кадра/сек
Максимальная частота кадров              : 23,981 кадра/сек
Цветовое пространство                    : YUV
Субдискретизация насыщенности            : 4:2:0
Битовая глубина                          : 8 бит
Тип развёртки                            : Прогрессивная
Бит/(Пиксели*Кадры)                      : 0.026
Размер потока                            : 496 Мбайт (91%)
Цветовой диапазон                        : Limited
Основные цвета                           : BT.709
Характеристики трансфера                 : BT.709
Коэффициенты матрицы                     : BT.709
Аудио
Идентификатор                            : 2
Формат                                   : AAC
Формат/Информация                        : Advanced Audio Codec
Профиль формата                          : LC
Идентификатор кодека                     : 40
Продолжительность                        : 53 м. 12 с.
Вид битрейта                             : Постоянный
Битрейт                                  : 126 Кбит/сек
Каналы                                   : 2 канала
Расположение каналов                     : Front: L R
Частота                                  : 44,1 КГц
Частота кадров                           : 43,066 кадра/сек (1024 spf)
Метод сжатия                             : С потерями
Размер потока                            : 47,8 Мбайт (9%)
Default                                  : Да
Alternate group                          : 1
Общее
Полное имя                               : E:\Видеокурсы\Основы программирования CS50\2. CS50 на русском׃ Лекция #2 [Гарвард, Основы программирования, осень 2015 год].mp4
Формат                                   : MPEG-4
Профиль формата                          : Base Media
Идентификатор кодека                     : isom (isom/iso2/avc1/mp41)
Размер файла                             : 638 Мбайт
Продолжительность                        : 1 ч. 2 м.
Общий поток                              : 1430 Кбит/сек
Программа кодирования                    : Lavf57.2.100
Видео
Идентификатор                            : 1
Формат                                   : AVC
Формат/Информация                        : Advanced Video Codec
Профиль формата                          : High@L4
Параметр CABAC формата                   : Да
Параметр ReFrames формата                : 3 кадра
Идентификатор кодека                     : avc1
Идентификатор кодека/Информация          : Advanced Video Coding
Продолжительность                        : 1 ч. 2 м.
Битрейт                                  : 1298 Кбит/сек
Ширина                                   : 1920 пикселей
Высота                                   : 1080 пикселей
Соотношение сторон                       : 16:9
Режим частоты кадров                     : Переменный
Частота кадров                           : 23,976 (24000/1001) кадра/сек
Минимальная частота кадров               : 23,974 кадра/сек
Максимальная частота кадров              : 23,981 кадра/сек
Цветовое пространство                    : YUV
Субдискретизация насыщенности            : 4:2:0
Битовая глубина                          : 8 бит
Тип развёртки                            : Прогрессивная
Бит/(Пиксели*Кадры)                      : 0.026
Размер потока                            : 579 Мбайт (91%)
Цветовой диапазон                        : Limited
Основные цвета                           : BT.709
Характеристики трансфера                 : BT.709
Коэффициенты матрицы                     : BT.709
Аудио
Идентификатор                            : 2
Формат                                   : AAC
Формат/Информация                        : Advanced Audio Codec
Профиль формата                          : LC
Идентификатор кодека                     : 40
Продолжительность                        : 1 ч. 2 м.
Вид битрейта                             : Постоянный
Битрейт                                  : 126 Кбит/сек
Каналы                                   : 2 канала
Расположение каналов                     : Front: L R
Частота                                  : 44,1 КГц
Частота кадров                           : 43,066 кадра/сек (1024 spf)
Метод сжатия                             : С потерями
Размер потока                            : 56,0 Мбайт (9%)
Default                                  : Да
Alternate group                          : 1
Общее
Полное имя                               : E:\Видеокурсы\Основы программирования CS50\3. CS50 на русском׃ Лекция #3 [Гарвард, Основы программирования, осень 2015 год].mp4
Формат                                   : MPEG-4
Профиль формата                          : Base Media
Идентификатор кодека                     : isom (isom/iso2/avc1/mp41)
Размер файла                             : 411 Мбайт
Продолжительность                        : 50 м. 16 с.
Общий поток                              : 1141 Кбит/сек
Программа кодирования                    : Lavf57.2.100
Видео
Идентификатор                            : 1
Формат                                   : AVC
Формат/Информация                        : Advanced Video Codec
Профиль формата                          : High@L4
Параметр CABAC формата                   : Да
Параметр ReFrames формата                : 3 кадра
Идентификатор кодека                     : avc1
Идентификатор кодека/Информация          : Advanced Video Coding
Продолжительность                        : 50 м. 16 с.
Битрейт                                  : 1009 Кбит/сек
Ширина                                   : 1920 пикселей
Высота                                   : 1080 пикселей
Соотношение сторон                       : 16:9
Режим частоты кадров                     : Переменный
Частота кадров                           : 23,976 (24000/1001) кадра/сек
Минимальная частота кадров               : 23,974 кадра/сек
Максимальная частота кадров              : 23,981 кадра/сек
Цветовое пространство                    : YUV
Субдискретизация насыщенности            : 4:2:0
Битовая глубина                          : 8 бит
Тип развёртки                            : Прогрессивная
Бит/(Пиксели*Кадры)                      : 0.020
Размер потока                            : 363 Мбайт (88%)
Цветовой диапазон                        : Limited
Основные цвета                           : BT.709
Характеристики трансфера                 : BT.709
Коэффициенты матрицы                     : BT.709
Аудио
Идентификатор                            : 2
Формат                                   : AAC
Формат/Информация                        : Advanced Audio Codec
Профиль формата                          : LC
Идентификатор кодека                     : 40
Продолжительность                        : 50 м. 16 с.
Вид битрейта                             : Постоянный
Битрейт                                  : 126 Кбит/сек
Каналы                                   : 2 канала
Расположение каналов                     : Front: L R
Частота                                  : 44,1 КГц
Частота кадров                           : 43,066 кадра/сек (1024 spf)
Метод сжатия                             : С потерями
Размер потока                            : 45,2 Мбайт (11%)
Default                                  : Да
Alternate group                          : 1
Общее
Полное имя                               : E:\Видеокурсы\Основы программирования CS50\4. CS50 на русском׃ Лекция #4 [Гарвард, Основы программирования, осень 2015 год].mp4
Формат                                   : MPEG-4
Профиль формата                          : Base Media
Идентификатор кодека                     : isom (isom/iso2/avc1/mp41)
Размер файла                             : 528 Мбайт
Продолжительность                        : 53 м. 8 с.
Общий поток                              : 1388 Кбит/сек
Программа кодирования                    : Lavf57.2.100
Видео
Идентификатор                            : 1
Формат                                   : AVC
Формат/Информация                        : Advanced Video Codec
Профиль формата                          : High@L4
Параметр CABAC формата                   : Да
Параметр ReFrames формата                : 3 кадра
Идентификатор кодека                     : avc1
Идентификатор кодека/Информация          : Advanced Video Coding
Продолжительность                        : 53 м. 8 с.
Битрейт                                  : 1256 Кбит/сек
Ширина                                   : 1920 пикселей
Высота                                   : 1080 пикселей
Соотношение сторон                       : 16:9
Режим частоты кадров                     : Переменный
Частота кадров                           : 23,976 (24000/1001) кадра/сек
Минимальная частота кадров               : 23,974 кадра/сек
Максимальная частота кадров              : 23,981 кадра/сек
Цветовое пространство                    : YUV
Субдискретизация насыщенности            : 4:2:0
Битовая глубина                          : 8 бит
Тип развёртки                            : Прогрессивная
Бит/(Пиксели*Кадры)                      : 0.025
Размер потока                            : 477 Мбайт (90%)
Цветовой диапазон                        : Limited
Основные цвета                           : BT.709
Характеристики трансфера                 : BT.709
Коэффициенты матрицы                     : BT.709
Аудио
Идентификатор                            : 2
Формат                                   : AAC
Формат/Информация                        : Advanced Audio Codec
Профиль формата                          : LC
Идентификатор кодека                     : 40
Продолжительность                        : 53 м. 8 с.
Вид битрейта                             : Постоянный
Битрейт                                  : 126 Кбит/сек
Каналы                                   : 2 канала
Расположение каналов                     : Front: L R
Частота                                  : 44,1 КГц
Частота кадров                           : 43,066 кадра/сек (1024 spf)
Метод сжатия                             : С потерями
Размер потока                            : 47,7 Мбайт (9%)
Default                                  : Да
Alternate group                          : 1
Общее
Полное имя                               : E:\Видеокурсы\Основы программирования CS50\5. CS50 на русском׃ Лекция #5 [Гарвард, Основы программирования, осень 2015 год].mp4
Формат                                   : MPEG-4
Профиль формата                          : Base Media
Идентификатор кодека                     : isom (isom/iso2/avc1/mp41)
Размер файла                             : 430 Мбайт
Продолжительность                        : 50 м. 22 с.
Общий поток                              : 1193 Кбит/сек
Программа кодирования                    : Lavf57.2.100
Видео
Идентификатор                            : 1
Формат                                   : AVC
Формат/Информация                        : Advanced Video Codec
Профиль формата                          : High@L4
Параметр CABAC формата                   : Да
Параметр ReFrames формата                : 3 кадра
Идентификатор кодека                     : avc1
Идентификатор кодека/Информация          : Advanced Video Coding
Продолжительность                        : 50 м. 22 с.
Битрейт                                  : 1061 Кбит/сек
Ширина                                   : 1920 пикселей
Высота                                   : 1080 пикселей
Соотношение сторон                       : 16:9
Режим частоты кадров                     : Переменный
Частота кадров                           : 23,976 (24000/1001) кадра/сек
Минимальная частота кадров               : 23,974 кадра/сек
Максимальная частота кадров              : 23,981 кадра/сек
Цветовое пространство                    : YUV
Субдискретизация насыщенности            : 4:2:0
Битовая глубина                          : 8 бит
Тип развёртки                            : Прогрессивная
Бит/(Пиксели*Кадры)                      : 0.021
Размер потока                            : 382 Мбайт (89%)
Цветовой диапазон                        : Limited
Основные цвета                           : BT.709
Характеристики трансфера                 : BT.709
Коэффициенты матрицы                     : BT.709
Аудио
Идентификатор                            : 2
Формат                                   : AAC
Формат/Информация                        : Advanced Audio Codec
Профиль формата                          : LC
Идентификатор кодека                     : 40
Продолжительность                        : 50 м. 22 с.
Вид битрейта                             : Постоянный
Битрейт                                  : 126 Кбит/сек
Каналы                                   : 2 канала
Расположение каналов                     : Front: L R
Частота                                  : 44,1 КГц
Частота кадров                           : 43,066 кадра/сек (1024 spf)
Метод сжатия                             : С потерями
Размер потока                            : 45,3 Мбайт (11%)
Default                                  : Да
Alternate group                          : 1
Общее
Полное имя                               : E:\Видеокурсы\Основы программирования CS50\6. CS50 на русском׃ Лекция #6 [Гарвард, Основы программирования, осень 2015 год].mp4
Формат                                   : MPEG-4
Профиль формата                          : Base Media
Идентификатор кодека                     : isom (isom/iso2/avc1/mp41)
Размер файла                             : 449 Мбайт
Продолжительность                        : 44 м. 34 с.
Общий поток                              : 1408 Кбит/сек
Программа кодирования                    : Lavf57.2.100
Видео
Идентификатор                            : 1
Формат                                   : AVC
Формат/Информация                        : Advanced Video Codec
Профиль формата                          : High@L4
Параметр CABAC формата                   : Да
Параметр ReFrames формата                : 3 кадра
Идентификатор кодека                     : avc1
Идентификатор кодека/Информация          : Advanced Video Coding
Продолжительность                        : 44 м. 34 с.
Битрейт                                  : 1276 Кбит/сек
Ширина                                   : 1920 пикселей
Высота                                   : 1080 пикселей
Соотношение сторон                       : 16:9
Режим частоты кадров                     : Переменный
Частота кадров                           : 23,976 (24000/1001) кадра/сек
Минимальная частота кадров               : 23,974 кадра/сек
Максимальная частота кадров              : 23,981 кадра/сек
Цветовое пространство                    : YUV
Субдискретизация насыщенности            : 4:2:0
Битовая глубина                          : 8 бит
Тип развёртки                            : Прогрессивная
Бит/(Пиксели*Кадры)                      : 0.026
Размер потока                            : 407 Мбайт (91%)
Цветовой диапазон                        : Limited
Основные цвета                           : BT.709
Характеристики трансфера                 : BT.709
Коэффициенты матрицы                     : BT.709
Аудио
Идентификатор                            : 2
Формат                                   : AAC
Формат/Информация                        : Advanced Audio Codec
Профиль формата                          : LC
Идентификатор кодека                     : 40
Продолжительность                        : 44 м. 34 с.
Вид битрейта                             : Постоянный
Битрейт                                  : 126 Кбит/сек
Каналы                                   : 2 канала
Расположение каналов                     : Front: L R
Частота                                  : 44,1 КГц
Частота кадров                           : 43,066 кадра/сек (1024 spf)
Метод сжатия                             : С потерями
Размер потока                            : 40,0 Мбайт (9%)
Default                                  : Да
Alternate group                          : 1
Общее
Полное имя                               : E:\Видеокурсы\Основы программирования CS50\7. CS50 на русском׃ Лекция #7 [Гарвард, Основы программирования, осень 2015 год].mp4
Формат                                   : MPEG-4
Профиль формата                          : Base Media
Идентификатор кодека                     : isom (isom/iso2/avc1/mp41)
Размер файла                             : 564 Мбайт
Продолжительность                        : 47 м. 59 с.
Общий поток                              : 1642 Кбит/сек
Программа кодирования                    : Lavf57.2.100
Видео
Идентификатор                            : 1
Формат                                   : AVC
Формат/Информация                        : Advanced Video Codec
Профиль формата                          : High@L4
Параметр CABAC формата                   : Да
Параметр ReFrames формата                : 3 кадра
Идентификатор кодека                     : avc1
Идентификатор кодека/Информация          : Advanced Video Coding
Продолжительность                        : 47 м. 59 с.
Битрейт                                  : 1510 Кбит/сек
Ширина                                   : 1920 пикселей
Высота                                   : 1080 пикселей
Соотношение сторон                       : 16:9
Режим частоты кадров                     : Переменный
Частота кадров                           : 23,976 (24000/1001) кадра/сек
Минимальная частота кадров               : 23,974 кадра/сек
Максимальная частота кадров              : 23,981 кадра/сек
Цветовое пространство                    : YUV
Субдискретизация насыщенности            : 4:2:0
Битовая глубина                          : 8 бит
Тип развёртки                            : Прогрессивная
Бит/(Пиксели*Кадры)                      : 0.030
Размер потока                            : 519 Мбайт (92%)
Цветовой диапазон                        : Limited
Основные цвета                           : BT.709
Характеристики трансфера                 : BT.709
Коэффициенты матрицы                     : BT.709
Аудио
Идентификатор                            : 2
Формат                                   : AAC
Формат/Информация                        : Advanced Audio Codec
Профиль формата                          : LC
Идентификатор кодека                     : 40
Продолжительность                        : 47 м. 59 с.
Вид битрейта                             : Постоянный
Битрейт                                  : 126 Кбит/сек
Каналы                                   : 2 канала
Расположение каналов                     : Front: L R
Частота                                  : 44,1 КГц
Частота кадров                           : 43,066 кадра/сек (1024 spf)
Метод сжатия                             : С потерями
Размер потока                            : 43,1 Мбайт (8%)
Default                                  : Да
Alternate group                          : 1
Общее
Полное имя                               : E:\Видеокурсы\Основы программирования CS50\8. CS50 на русском׃ Лекция #8 [Гарвард, Основы программирования, осень 2015 год].mp4
Формат                                   : MPEG-4
Профиль формата                          : Base Media
Идентификатор кодека                     : isom (isom/iso2/avc1/mp41)
Размер файла                             : 271 Мбайт
Продолжительность                        : 38 м. 22 с.
Общий поток                              : 988 Кбит/сек
Программа кодирования                    : Lavf57.2.100
Видео
Идентификатор                            : 1
Формат                                   : AVC
Формат/Информация                        : Advanced Video Codec
Профиль формата                          : High@L4
Параметр CABAC формата                   : Да
Параметр ReFrames формата                : 3 кадра
Идентификатор кодека                     : avc1
Идентификатор кодека/Информация          : Advanced Video Coding
Продолжительность                        : 38 м. 22 с.
Битрейт                                  : 856 Кбит/сек
Ширина                                   : 1920 пикселей
Высота                                   : 804 пикселя
Соотношение сторон                       : 2,40:1
Режим частоты кадров                     : Переменный
Частота кадров                           : 23,976 (24000/1001) кадра/сек
Минимальная частота кадров               : 23,974 кадра/сек
Максимальная частота кадров              : 23,981 кадра/сек
Цветовое пространство                    : YUV
Субдискретизация насыщенности            : 4:2:0
Битовая глубина                          : 8 бит
Тип развёртки                            : Прогрессивная
Бит/(Пиксели*Кадры)                      : 0.023
Размер потока                            : 235 Мбайт (87%)
Цветовой диапазон                        : Limited
Основные цвета                           : BT.709
Характеристики трансфера                 : BT.709
Коэффициенты матрицы                     : BT.709
Аудио
Идентификатор                            : 2
Формат                                   : AAC
Формат/Информация                        : Advanced Audio Codec
Профиль формата                          : LC
Идентификатор кодека                     : 40
Продолжительность                        : 38 м. 22 с.
Вид битрейта                             : Постоянный
Битрейт                                  : 126 Кбит/сек
Каналы                                   : 2 канала
Расположение каналов                     : Front: L R
Частота                                  : 44,1 КГц
Частота кадров                           : 43,066 кадра/сек (1024 spf)
Метод сжатия                             : С потерями
Размер потока                            : 34,5 Мбайт (13%)
Default                                  : Да
Alternate group                          : 1
Общее
Полное имя                               : E:\Видеокурсы\Основы программирования CS50\9. CS50 на русском׃ Лекция #9 [Гарвард, Основы программирования, осень 2015 год].mp4
Формат                                   : MPEG-4
Профиль формата                          : Base Media
Идентификатор кодека                     : isom (isom/iso2/avc1/mp41)
Размер файла                             : 475 Мбайт
Продолжительность                        : 49 м. 54 с.
Общий поток                              : 1332 Кбит/сек
Программа кодирования                    : Lavf57.2.100
Видео
Идентификатор                            : 1
Формат                                   : AVC
Формат/Информация                        : Advanced Video Codec
Профиль формата                          : High@L4
Параметр CABAC формата                   : Да
Параметр ReFrames формата                : 3 кадра
Идентификатор кодека                     : avc1
Идентификатор кодека/Информация          : Advanced Video Coding
Продолжительность                        : 49 м. 54 с.
Битрейт                                  : 1200 Кбит/сек
Ширина                                   : 1920 пикселей
Высота                                   : 1080 пикселей
Соотношение сторон                       : 16:9
Режим частоты кадров                     : Переменный
Частота кадров                           : 23,976 (24000/1001) кадра/сек
Минимальная частота кадров               : 23,974 кадра/сек
Максимальная частота кадров              : 23,981 кадра/сек
Цветовое пространство                    : YUV
Субдискретизация насыщенности            : 4:2:0
Битовая глубина                          : 8 бит
Тип развёртки                            : Прогрессивная
Бит/(Пиксели*Кадры)                      : 0.024
Размер потока                            : 428 Мбайт (90%)
Цветовой диапазон                        : Limited
Основные цвета                           : BT.709
Характеристики трансфера                 : BT.709
Коэффициенты матрицы                     : BT.709
Аудио
Идентификатор                            : 2
Формат                                   : AAC
Формат/Информация                        : Advanced Audio Codec
Профиль формата                          : LC
Идентификатор кодека                     : 40
Продолжительность                        : 49 м. 54 с.
Вид битрейта                             : Постоянный
Битрейт                                  : 126 Кбит/сек
Каналы                                   : 2 канала
Расположение каналов                     : Front: L R
Частота                                  : 44,1 КГц
Частота кадров                           : 43,066 кадра/сек (1024 spf)
Метод сжатия                             : С потерями
Размер потока                            : 44,8 Мбайт (9%)
Default                                  : Да
Alternate group                          : 1
Общее
Полное имя                               : E:\Видеокурсы\Основы программирования CS50\Доп. материалы\Как нужно намазывать бутерброд؟.mp4
Формат                                   : MPEG-4
Профиль формата                          : Base Media / Version 2
Идентификатор кодека                     : mp42 (isom/mp42)
Размер файла                             : 61,6 Мбайт
Продолжительность                        : 9 м. 7 с.
Режим общего битрейта                    : Переменный
Общий поток                              : 943 Кбит/сек
Дата кодирования                         : UTC 2016-08-02 11:11:40
Дата пометки                             : UTC 2016-08-02 11:11:40
gsst                                     : 0
gstd                                     : 547921
Видео
Идентификатор                            : 1
Формат                                   : AVC
Формат/Информация                        : Advanced Video Codec
Профиль формата                          : [url=mailto:Main@L3.1]Main@L3.1[/url]
Параметр CABAC формата                   : Да
Параметр ReFrames формата                : 3 кадра
Идентификатор кодека                     : avc1
Идентификатор кодека/Информация          : Advanced Video Coding
Продолжительность                        : 9 м. 7 с.
Битрейт                                  : 813 Кбит/сек
Ширина                                   : 1280 пикселей
Высота                                   : 720 пикселей
Соотношение сторон                       : 16:9
Режим частоты кадров                     : Переменный
Частота кадров                           : 23,976 (24000/1001) кадра/сек
Минимальная частота кадров               : 23,974 кадра/сек
Максимальная частота кадров              : 23,981 кадра/сек
Цветовое пространство                    : YUV
Субдискретизация насыщенности            : 4:2:0
Битовая глубина                          : 8 бит
Тип развёртки                            : Прогрессивная
Бит/(Пиксели*Кадры)                      : 0.037
Размер потока                            : 53,1 Мбайт (86%)
Заголовок                                : ISO Media file produced by Google Inc.
Дата кодирования                         : UTC 2016-08-02 11:11:40
Дата пометки                             : UTC 2016-08-02 11:11:40
Цветовой диапазон                        : Limited
Основные цвета                           : BT.709
Характеристики трансфера                 : BT.709
Коэффициенты матрицы                     : BT.709
Аудио
Идентификатор                            : 2
Формат                                   : AAC
Формат/Информация                        : Advanced Audio Codec
Профиль формата                          : LC
Идентификатор кодека                     : 40
Продолжительность                        : 9 м. 7 с.
Вид битрейта                             : Переменный
Битрейт                                  : 126 Кбит/сек
Каналы                                   : 2 канала
Расположение каналов                     : Front: L R
Частота                                  : 44,1 КГц
Частота кадров                           : 43,066 кадра/сек (1024 spf)
Метод сжатия                             : С потерями
Размер потока                            : 8,20 Мбайт (13%)
Заголовок                                : ISO Media file produced by Google Inc.
Дата кодирования                         : UTC 2016-08-02 11:11:40
Дата пометки                             : UTC 2016-08-02 11:11:40
Общее
Полное имя                               : E:\Видеокурсы\Основы программирования CS50\Доп. материалы\Программные баги как причина мировых катастроф.mp4
Формат                                   : MPEG-4
Профиль формата                          : Base Media / Version 2
Идентификатор кодека                     : mp42 (isom/mp42)
Размер файла                             : 50,1 Мбайт
Продолжительность                        : 8 м. 20 с.
Режим общего битрейта                    : Переменный
Общий поток                              : 840 Кбит/сек
Дата кодирования                         : UTC 2016-08-25 03:46:55
Дата пометки                             : UTC 2016-08-25 03:46:55
gsst                                     : 0
gstd                                     : 500227
Видео
Идентификатор                            : 1
Формат                                   : AVC
Формат/Информация                        : Advanced Video Codec
Профиль формата                          : [url=mailto:Main@L3.1]Main@L3.1[/url]
Параметр CABAC формата                   : Да
Параметр ReFrames формата                : 3 кадра
Идентификатор кодека                     : avc1
Идентификатор кодека/Информация          : Advanced Video Coding
Продолжительность                        : 8 м. 20 с.
Битрейт                                  : 710 Кбит/сек
Ширина                                   : 1280 пикселей
Высота                                   : 720 пикселей
Соотношение сторон                       : 16:9
Режим частоты кадров                     : Переменный
Частота кадров                           : 23,976 (24000/1001) кадра/сек
Минимальная частота кадров               : 23,974 кадра/сек
Максимальная частота кадров              : 23,981 кадра/сек
Цветовое пространство                    : YUV
Субдискретизация насыщенности            : 4:2:0
Битовая глубина                          : 8 бит
Тип развёртки                            : Прогрессивная
Бит/(Пиксели*Кадры)                      : 0.032
Размер потока                            : 42,3 Мбайт (85%)
Заголовок                                : ISO Media file produced by Google Inc.
Дата кодирования                         : UTC 2016-08-25 03:46:55
Дата пометки                             : UTC 2016-08-25 03:46:55
Цветовой диапазон                        : Limited
Основные цвета                           : BT.709
Характеристики трансфера                 : BT.709
Коэффициенты матрицы                     : BT.709
Аудио
Идентификатор                            : 2
Формат                                   : AAC
Формат/Информация                        : Advanced Audio Codec
Профиль формата                          : LC
Идентификатор кодека                     : 40
Продолжительность                        : 8 м. 20 с.
Вид битрейта                             : Переменный
Битрейт                                  : 126 Кбит/сек
Каналы                                   : 2 канала
Расположение каналов                     : Front: L R
Частота                                  : 44,1 КГц
Частота кадров                           : 43,066 кадра/сек (1024 spf)
Метод сжатия                             : С потерями
Размер потока                            : 7,49 Мбайт (15%)
Заголовок                                : ISO Media file produced by Google Inc.
Дата кодирования                         : UTC 2016-08-25 03:46:55
Дата пометки                             : UTC 2016-08-25 03:46:55
Общее
Полное имя                               : E:\Видеокурсы\Основы программирования CS50\Основы программирования CS50_info.txt
Размер файла                             : 2,11 Кбайт

Чем интересен CS50:

- Курс очень прогрессивный, не стоит на месте. Он обновляется из года в год. При этом в отличие от большинства подобных курсов (например, MIT 6.00X) от слушателя не требуются знания университетской математики, достаточно школьного уровня. Так что этот курс слушают не только студенты младших курсов технических специальностей, но и гуманитарии, желающие расширить кругозор или сменить специализацию.
- Ведет курс профессор Гарвардского университета Дэвид Малан. От словосочетания «профессор Гарварда» кто-то готов пасть ниц, а кто-то начинает бороться с зевотой. Спешим заверить обе категории потенциальных слушателей: вам не о чем беспокоиться. Дэвид Малан — блестящий лектор, он без труда удерживает внимание нескольких сотен студентов в аудитории и тысяч вольнослушателей из интернета. Его лекции — это практически театральное действо, в котором он задействует своих помощников, студентов и, конечно же, технологии и разработки.
- В курсе очень много практических заданий, причем это не «сферические кони в вакууме», а вполне реальные задачи из разных сфер науки, начиная от разработки игр до криптографии и биологии. Это очень повышает ценность курса, особенно для русскоязычных студентов, привыкших к чрезмерно теоретизированному обучению.

Что изучают на CS50:

- Основы компьютерных наук и программирования. Системы счисления, работа с командной строкой в Linux, циклы, условные переходы и прочие радости.
- Концепции алгоритмов и алгоритмичности мышления. Вы узнаете о том, какие задачи можно решать с помощью программирования и каким образом. О бинарном поиске, простом по сути, но очень эффективном и требующем тщательности в реализации, Дэвид Малан расскажет сходу, прямо на нулевой лекции. И попробуйте потом забыть сцену с разрывом телефонного справочника, а вместе с ней — и полученные знания! Вообще, курс охватывает все основные алгоритмы, которые нужно знать и понимать «айтишникам».
- Концепции абстракции, структуры данных, инкапсуляции, управления памятью. Основы компьютерной безопасности. Процесс разработки ПО и веб-разработка.
- Основы языка программирования C и визуального языка Scratch. Собственно, все основные примеры и задания студенты делают на языке C.
- Основы баз данных и SQL.
- Веб-разработка: основы CSS, HTML, JavaScript и PHP. Естественно, только самые азы.
- Основы подготовки презентации проектов по программированию.

Интересные факты о CS50:

- Курс CS50 появился в Гарварде в 80е годы прошлого столетия.
- В 2014 году Йельский университет решил отказаться от собственного курса по основам компьютерных наук в пользу CS50. В осеннем семестре 2015 года Дэвид Малан на каждой неделе проводил одну лекцию в аудитории Гарварда, вторую — в аудитории Йельского университета.
- Да, CS50 сразу же стал самым популярным курсом Йеля: в осеннем семестре 2015 года на него записалось 510 студентов, больше, чем на любой другой курс любой специальности.
- В Гарварде в 2012 году CS50 был вторым по популярности с 691 зарегистрированным студентом, однако в этом же году курс стартовал на образовательной платформе edX, что расширило его аудиторию еще на 53 000 слушателей со всего мира.
- Осенью 2014 года CS50 выбился в лидеры в родном Гарварде с 818 записавшимися студентами. Это 12% всех учащихся колледжа.
- Однажды лекцию CS50 вёл экс-CEO Microsoft Стив Балмер. В своем неповторимом и запоминающемся стиле.
- В 2005 году Марк Цукерберг вел одну из лекций CS50 в качестве приглашенного гостя. Его пришло послушать… 15 человек.
- Курс выбирают не только профильные студенты, но и те, кто хотят расширить кругозор, узнать что-то о компьютерах. Порой это кардинально меняет жизнь этих «непрофильных» студентов. Например, выпускница факультета истории и литературы Сьюзен Войчицки (Susan Wojcicki) прослушала CS50 на последнем курсе. А затем переехала в Кремниевую Долину. Сегодня она — исполнительный директор YouTube.

Дополнительные материалы:

В раздаче имеются дополнительные видеоматериалы к курсу:
1. Как нужно намазывать бутерброд؟
2. Программные баги как причина мировых катастроф

Дополнительная информация:

Переведено и озвучено студией VertDider совместно с JavaRush.

Внимание! Раздача ведётся путём добавления новых серий:

Внимание! Раздача ведётся путём добавления новых серий; при каждом добавлении создаётся новый торрент.
Чтобы начать докачку новой серии, пользователям необходимо сделать следующее:
1. Остановить скачивание;
2. Удалить старый торрент у себя из клиента (старые серии удалять не надо);
3. Скачать новый торрент и запустить его у себя в клиенте вместо старого, при этом указать клиенту путь в старую папку куда и должно происходить скачивание новых серий. Ваш клиент при этом должен произвести хеширование (проверку) старой папки и будет докачивать только те серии, которых у вас ещё нет. Старые серии при этом не удаляются, а продолжают раздаваться! Eсли вы уже удалили старые серии, то предотвратить повторную закачку старых серий можно, отжав галочку в соответствующих местах при запуске нового торрента.
Скриншоты:
       

Дополнительные скриншоты:

       

Dracula

Пост 08-Авг-2016 15:19

[Цитировать]

Топик был перенесен из форума Зарубежное кино в форум Архив

Причина переноса: повтор
XP1971

Russian Mafia

Пост 08-Авг-2016 07:16

[Цитировать]

Повтор https://darkos.club/viewtopic.php?t=300285&spmode=full#seeders

Omen

Пост 08-Авг-2016 01:01

[Цитировать]

Белоснежка и Охотник 2 / The Huntsman: Winter's War Theatrical & Extended Cut
Страна: США
Жанр: фэнтези, боевик, драма, приключения
Год выпуска: 2016
Продолжительность: 01:53:57+02:00:10-Перевод: Профессиональный (многоголосый закадровый)
Cубтитры: Английский, Русский, Эстонский, Немецкий, Итальянский, Латышский, Литовский, Польский, Турецкий, Украинский
Оригинальная аудиодорожка: английский-Режиссер: Седрик Николя-Троян / Cedric Nicolas-Troyan-В ролях: Крис Хемсворт, Шарлиз Терон, Джессика Честейн, Эмили Блант, Ник Фрост, Роб Брайдон, Шеридан Смит, Александра Роуч, Сопе Дирису, Сэм Хэзелдайн
Описание: Когда любовь уходит, сердце прекрасной девы обращается в лед. И даже сотни королевств не смогут сдержать поступь ее несметного воинства. Лишь Охотник не ведает страха. Сквозь проклятый лес он идет навстречу своей судьбе.-Тип релиза: Blu-ray disc
Контейнер: BDMV-Видео: MPEG-4 AVC Video 25492 kbps 1080p / 23,976 fps / 16:9 / High Profile 4.1-Аудио 1: DTS-HD Master Audio English 3859 kbps 7.1 / 48 kHz / 3859 kbps / 24-bit (DTS Core: 5.1 / 48 kHz / 1509 kbps / 24-bit)
Аудио 2: DTS-HD High-Res Audio German 2046 kbps 7.1 / 48 kHz / 2046 kbps / 24-bit (DTS Core: 5.1 / 48 kHz / 1509 kbps / 24-bit)
Аудио 3: DTS-HD High-Res Audio Italian 2046 kbps 7.1 / 48 kHz / 2046 kbps / 24-bit (DTS Core: 5.1 / 48 kHz / 1509 kbps / 24-bit)
Аудио 4: DTS Audio Polish 768 kbps 5.1 / 48 kHz / 768 kbps / 24-bit
Аудио 5: DTS Audio Russian 768 kbps 5.1 / 48 kHz / 768 kbps / 24-bit
Аудио 6: DTS Audio Turkish 768 kbps 5.1 / 48 kHz / 768 kbps / 24-bit
Аудио 7: DTS Audio English 384 kbps 2.0 / 48 kHz / 384 kbps / 24-bit
Аудио 8: Dolby Digital Audio English 192 kbps 2.0 / 48 kHz / 192 kbps / DN -4dB / Dolby Surround
Аудио 9: Dolby Digital Audio English 192 kbps 2.0 / 48 kHz / 192 kbps / DN -4dB / Dolby Surround

На диске

• Удалённые эпизоды с комментариями режисёра Седрика Николя-Трояна
• Смешные моменты
• Зимние виды: рассказ о сьёмках фильма "Белоснежка и Охотник 2"

BDInfo

DISC INFO:
Disc Title: Huntsman Winter's War
Disc Size: 48 440 185 186 bytes
Protection: AACS
BD-Java: Yes
BDInfo: 0.5.8
PLAYLIST REPORT:
Name: 00801.MPLS
Length: 2:00:10.286 (h:m:s.ms)
Size: 35 835 783 168 bytes
Total Bitrate: 39,76 Mbps
(*) Indicates included stream hidden by this playlist.
VIDEO:
Codec Bitrate Description
----- ------- -----------
MPEG-4 AVC Video 25492 kbps 1080p / 23,976 fps / 16:9 / High Profile 4.1
AUDIO:
Codec Language Bitrate Description
----- -------- ------- -----------
DTS-HD Master Audio English 3859 kbps 7.1 / 48 kHz / 3859 kbps / 24-bit (DTS Core: 5.1 / 48 kHz / 1509 kbps / 24-bit)
DTS-HD High-Res Audio German 2046 kbps 7.1 / 48 kHz / 2046 kbps / 24-bit (DTS Core: 5.1 / 48 kHz / 1509 kbps / 24-bit)
DTS-HD High-Res Audio Italian 2046 kbps 7.1 / 48 kHz / 2046 kbps / 24-bit (DTS Core: 5.1 / 48 kHz / 1509 kbps / 24-bit)
DTS Audio Polish 768 kbps 5.1 / 48 kHz / 768 kbps / 24-bit
DTS Audio Russian 768 kbps 5.1 / 48 kHz / 768 kbps / 24-bit
DTS Audio Turkish 768 kbps 5.1 / 48 kHz / 768 kbps / 24-bit
DTS Audio English 384 kbps 2.0 / 48 kHz / 384 kbps / 24-bit
* Dolby Digital Audio English 192 kbps 2.0 / 48 kHz / 192 kbps / DN -4dB / Dolby Surround
Dolby Digital Audio English 192 kbps 2.0 / 48 kHz / 192 kbps / DN -4dB / Dolby Surround
SUBTITLES:
Codec Language Bitrate Description
----- -------- ------- -----------
Presentation Graphics English 25,621 kbps
* Presentation Graphics English 51,834 kbps
Presentation Graphics English 51,992 kbps
Presentation Graphics Estonian 19,279 kbps
Presentation Graphics German 23,256 kbps
* Presentation Graphics German 54,578 kbps
Presentation Graphics German 54,435 kbps
Presentation Graphics German 0,071 kbps
Presentation Graphics Italian 20,592 kbps
* Presentation Graphics Italian 50,975 kbps
Presentation Graphics Italian 50,676 kbps
Presentation Graphics Italian 0,093 kbps
Presentation Graphics Latvian 19,029 kbps
Presentation Graphics Lithuanian 21,527 kbps
Presentation Graphics Polish 19,538 kbps
Presentation Graphics Russian 21,150 kbps
* Presentation Graphics Russian 51,092 kbps
Presentation Graphics Russian 50,923 kbps
Presentation Graphics Russian 0,023 kbps
Presentation Graphics Turkish 20,980 kbps
Presentation Graphics Ukrainian 19,562 kbps
FILES:
Name Time In Length Size Total Bitrate
---- ------- ------ ---- -------------
00400.M2TS 0:00:00.000 0:26:32.048 7 872 897 024 39 561
00417.M2TS 0:26:32.048 0:05:04.762 1 518 151 680 39 851
00402.M2TS 0:31:36.811 0:04:21.761 1 308 794 880 40 000
00418.M2TS 0:35:58.573 0:00:57.682 284 368 896 39 439
00403.M2TS 0:36:56.255 0:03:59.405 1 185 687 552 39 621
00419.M2TS 0:40:55.661 0:01:51.861 556 216 320 39 779
00404.M2TS 0:42:47.523 0:09:41.455 2 901 141 504 39 916
00420.M2TS 0:52:28.979 0:02:26.855 726 964 224 39 602
00405.M2TS 0:54:55.834 0:37:46.180 11 274 369 024 39 800
00421.M2TS 1:32:42.014 0:02:32.735 757 524 480 39 678
00408.M2TS 1:35:14.750 0:24:14.995 7 255 855 104 39 895
00422.M2TS 1:59:29.745 0:00:40.540 193 812 480 38 246
PLAYLIST REPORT:
Name: 00800.MPLS
Length: 1:53:57.538 (h:m:s.ms)
Size: 33 982 789 632 bytes
Total Bitrate: 39,76 Mbps
(*) Indicates included stream hidden by this playlist.
VIDEO:
Codec Bitrate Description
----- ------- -----------
MPEG-4 AVC Video 25484 kbps 1080p / 23,976 fps / 16:9 / High Profile 4.1
AUDIO:
Codec Language Bitrate Description
----- -------- ------- -----------
DTS-HD Master Audio English 3869 kbps 7.1 / 48 kHz / 3869 kbps / 24-bit (DTS Core: 5.1 / 48 kHz / 1509 kbps / 24-bit)
DTS-HD High-Res Audio German 2046 kbps 7.1 / 48 kHz / 2046 kbps / 24-bit (DTS Core: 5.1 / 48 kHz / 1509 kbps / 24-bit)
DTS-HD High-Res Audio Italian 2046 kbps 7.1 / 48 kHz / 2046 kbps / 24-bit (DTS Core: 5.1 / 48 kHz / 1509 kbps / 24-bit)
DTS Audio Polish 768 kbps 5.1 / 48 kHz / 768 kbps / 24-bit
DTS Audio Russian 768 kbps 5.1 / 48 kHz / 768 kbps / 24-bit
DTS Audio Turkish 768 kbps 5.1 / 48 kHz / 768 kbps / 24-bit
DTS Audio English 384 kbps 2.0 / 48 kHz / 384 kbps / 24-bit
Dolby Digital Audio English 192 kbps 2.0 / 48 kHz / 192 kbps / DN -4dB / Dolby Surround
* Dolby Digital Audio English 192 kbps 2.0 / 48 kHz / 192 kbps / DN -4dB / Dolby Surround
SUBTITLES:
Codec Language Bitrate Description
----- -------- ------- -----------
Presentation Graphics English 25,555 kbps
Presentation Graphics English 51,641 kbps
* Presentation Graphics English 51,852 kbps
Presentation Graphics Estonian 19,153 kbps
Presentation Graphics German 23,166 kbps
Presentation Graphics German 54,364 kbps
* Presentation Graphics German 54,402 kbps
Presentation Graphics German 0,075 kbps
Presentation Graphics Italian 20,515 kbps
Presentation Graphics Italian 50,692 kbps
* Presentation Graphics Italian 50,750 kbps
Presentation Graphics Italian 0,098 kbps
Presentation Graphics Latvian 18,947 kbps
Presentation Graphics Lithuanian 21,468 kbps
Presentation Graphics Polish 19,569 kbps
Presentation Graphics Russian 21,167 kbps
Presentation Graphics Russian 51,001 kbps
* Presentation Graphics Russian 51,030 kbps
Presentation Graphics Russian 0,064 kbps
Presentation Graphics Turkish 20,927 kbps
Presentation Graphics Ukrainian 19,370 kbps
FILES:
Name Time In Length Size Total Bitrate
---- ------- ------ ---- -------------
00400.M2TS 0:00:00.000 0:26:32.048 7 872 897 024 39 561
00411.M2TS 0:26:32.048 0:01:31.341 452 517 888 39 633
00402.M2TS 0:28:03.390 0:04:21.761 1 308 794 880 40 000
00412.M2TS 0:32:25.151 0:00:26.609 132 243 456 39 758
00403.M2TS 0:32:51.761 0:03:59.405 1 185 687 552 39 621
00413.M2TS 0:36:51.167 0:01:17.869 388 128 768 39 875
00404.M2TS 0:38:09.036 0:09:41.455 2 901 141 504 39 916
00414.M2TS 0:47:50.492 0:02:07.627 631 855 104 39 606
00405.M2TS 0:49:58.120 0:37:46.180 11 274 369 024 39 800
00415.M2TS 1:27:44.300 0:01:37.305 486 776 832 40 020
00408.M2TS 1:29:21.606 0:24:14.995 7 255 855 104 39 895
00416.M2TS 1:53:36.601 0:00:20.937 92 522 496 35 352

Скриншоты

Dracula

Пост 22-Сен-2015 19:17

[Цитировать]

Топик был перенесен из форума Предложения по улучшению раздела "Кино, Видео и ТВ" в форум Архив

Причина переноса: решено https://darkos.club/viewtopic.php?t=156796
Геннадич

Dracula

Пост 08-Сен-2015 16:22

[Цитировать]

Топик был перенесен из форума Правила и FAQ в форум Предложения по улучшению раздела "Кино, Видео и ТВ"


Геннадич

Delia

Пост 26-Мар-2012 23:11

[Цитировать]

Уважаемые пользователи! В сзвязи с "тотальным нашествием" рипов ненадлежащего качества, так называемых "псевдо HD", которые не подпадают под критерии HD, нами было принято решение о запрете таких релизов в подразделах "Наше кино (HD 720p, 1080p)", "Зарубежное кино (HD 720p, 1080p)" и "Сборники (HD Video)".
- 1. В подразделах "Наше кино (HD 720p, 1080p)", "Зарубежное кино (HD 720p, 1080p)" и "Сборники (HD Video)" - запрещены все рипы от "NoLimits-Team" и "Element Team", а также запрещены любые низкобитрейтные рипы 720p и 1080p.
2. Чтоб ваш 720p или 1080p рип не подпадал в категорию "запрещенных" и не был удален, он должен очвечать следующим техническим требованиям:
Минимальный средний битрейт для видеопотока рипов:
720p — 4000 kbps
* От 2700 kbps для HDTVRip'ов с низкобитрейтных трансляций.
1080p — 8000 kbps


* Все нестандартные разрешения рассчитываются исходя из минимального bpp ≈ 0,20
** В случае рипов, исключение может быть сделано для материала с высокой степенью сжимаемости, что должно быть подтверждено предоставлением семпла, лога кодирования.
-Для исключения недоразумений от ныне ко всем релизам в HD разделе должен прилагаться полный текстовый отчет MediaInfo
-
P.S. Просьба ко всем пользователям, которые увидят ранее проверенные рипы, подпадающие под категорию "запрещенных" отписывать об этом в ЛС кому то из модераторов соответствующего раздела для переноса ( "псевдо HD рипы 1080p) ("псевдо HD рипы 720p") в раздел "Фильмы".

Dracula

Пост 21-Сен-2015 19:44

[Цитировать]

Топик был перенесен из форума Предложения по улучшению раздела "Кино, Видео и ТВ" в форум Архив

Причина переноса: не актуально
Геннадич

Dracula

Пост 08-Сен-2015 16:13

[Цитировать]

Топик был перенесен из форума Правила, FAQ и Предложения по улучшению раздела "Кино, Видео и ТВ в форум Архив

Причина переноса: не актуально
Геннадич

BoxeR

Пост 30-Июн-2012 23:53

[Цитировать]


Требования к релизеру.
1. Базовые знания риповки - [Желательно]
2. Желание работать в команде.
3. Заливать только на наш трекер
По поводу вступлени пишите в этой теме

Dracula

Пост 08-Сен-2015 16:13

[Цитировать]

Топик был перенесен из форума Правила, FAQ и Предложения по улучшению раздела "Кино, Видео и ТВ в форум Архив

Причина переноса: потерял актуальность
Геннадич

BoxeR

Пост 30-Июн-2012 23:53

[Цитировать]

На нашем трекере открылась релиз-группа "R.G. 20th Century Fox", она занимается созданием рипов с фильмов в хорошем качестве (BDRip 720) и в малом размере (от 2.22 ГБ и до 4.37 ГБ)в связи с этим каждый пользователь может заказать себе фильмы в BDRip 720 качестве
Правила заказа:
1. Четко формулировать свой заказ - пример: Команда «А» / The A-Team (Джо Карнахан) (2010) BDRip720p
2. Пользователь может заказывать не более 1 релиза в месяц ( пока сроки риповки и количество участников рг позоляют только данный вариант).
3. Фильм, который вы заказываете, должен быть стоящим просмотра, ширпотреб RG делать не будет.
4. Вы должны убедиться, что исходники для риповки есть в сети.

Dracula

Пост 08-Сен-2015 13:55

[Цитировать]

Топик был перенесен из форума R.G. 20th Century Fox в форум Архив

Причина переноса: не актуально
Геннадич

BoxeR

Пост 16-Май-2012 21:35

[Цитировать]

 

Текущее время: Сегодня 03:29

Часовой пояс: GMT + 3