Today is a free download without charge Download

Search found 4 matches

Author Message

XP1971

Post 22-Oct-2016 20:56

[Quote]

Что можно потерять в девкином дымоходе... Hot Kinky Jo (01 апреля, 1984, Украина) – распутница с просто невероятно рабочим дуплом. Ее анальный проход принимал не только большие члены и различные игрушки для секса, но и похотливые руки, которые туда свободно входили.
Поклонники анального разврата по всему миру знают эту телочку. Есть у этой прелестницы видео на любителей, но
настоящим хардкорщикам нравится то, что она вытворяет. И в случаи с Хот Кинки Джо можно смело сказать, что именно дупло ей и принесло известность.
Начинала сниматься в Украине, но в итоге перебралась в США, где многие блудницы из стран СНГ нашли свое место в порно-бизнесе. И сразу же украинская подстилка сделала главный акцент на своем рабочем дупле, начали выходить жаркие картины с участием Джо: «Глубокая анальная пропасть», «Анальные акробатки» и так далее. В общем, названия этих фильмов сразу же обо всем и говорили. И в быстрые сроки Хот Кинки Джо начала солировать в очковом разврате, ведь где еще найдешь сучку с настолько рабочим очком. Анальных мастериц в клубничке всегда хватало, но по сравнению с Джо они все дилетанты
анального разврата. И даже роликов, где эту блудницу имеют в очко членами не так и много, так как это выглядело
бы вполне стандартно. А вот когда ты видишь, как рука входит в анальный проход или здоровенный имитатор хера, тогда все более острее воспринимается. Начинаешь задумываться, сколько эта распутница еще может выдержать. А настоящей выносливости Хот Кинки Джо и ее дуплу не занимать, оно частенько участвует в затяжном разврате самого высокого темпа.
В порнографии с участием Хот Кинки Джо похоть и жаркий разврат просто зашкаливает. Не все любят такую
клубничку, но глупо спорить, что не каждая блудница сможет такое вытворять со своими отверстиями.

Дата выпуска: 23.07.2012
Страна: Usa
Студия: BrutalFisting.com \ HotKinkyJo.xxx
Участвуют: Kinky Jo & Wymiana.
Жанр: Teen, Fisting, Lesbo, DAF, Extreme Gape, Prolapse.
Продолжительность: 00:10:09
Язык: English
Перевод: Да там молчком все дела.
Источник/Качество: FullHD
Видео кодек: VC-1
Аудио кодек: WMA
Формат видео WMV
Видео: Windows Media Video 9 1920x1080 29,970 кадр/сек 7207 Кбит/сек
Аудио: Windows Media Audio Professional V10 48,0 kHz stereo 96,0 Кбит/сек

Скринлист

XP1971

Post 26-Sep-2016 21:36

[Quote]

-Река Лондон борется

London River Struggles In Bondage While Being
Fucked, Swallowing Cock and Cumming!
-- Страна: USA
Режиссер: N/A
Год выпуска: 2016 г.
Перевод: Отсутствует
Продолжительность: 00:09:07
Оригинальный аудиопоток: английский
Студия: SexuallyBroken / RealTimeBondage
Жанр: BDSM, Bondage, Domination, Hardcore-В ролях:
London River, Matt Williams, Sergeant Miles-Оригинальное описание:
London is on to her second part of her BaRS show, her cheeks still stained with tears. She is Bound over a bench with her arms pulled above her. Matt Williams and Sergeant Miles fuck her from both sides as she struggles to keep her position, but when London is excited her whole body responds and she has a hard time not moving, especially when the thing she wants most is to have her throat completely filled with cock. London cums and sucks and cums some more, all the while struggling against the bondage to get more and more dick.-Описание на русском:
Да, псевдоним странный. Река Лондон, что сейчас поделать. Выбор пал вместе с девкой. Привязали Реку в растопырку и с двух сторон её в рот и в жопу. Пердёж, чихание, сопли пузырями... Веселье через край.-
Контейнер: MP4
Аудио кодек: AAC
Cубтитры: отсутствуют
Качество видео: SiteRip
Видео кодек: MPEG4 AVC
Аудио: Advanced Audio | 48.0 KHz | 2 ch | 128.0 Kbps
Видео: AVC | 960х540 | 1400 Кbps | 23.976 fps | 0.113 bit/pixel

Media Info

Код:
Общее
Полное имя : SexuallyBroken - August 15, 2016 - London River, Matt Williams, Sergeant Miles_[pirat.ca].mp4
Формат : MPEG-4
Профиль формата : Base Media
Идентификатор кодека : isom
Размер файла : 98,9 Мбайт
Продолжительность : 9 м. 7 с.
Режим общего битрейта : Переменный
Общий поток : 1514 Кбит/сек
Программа кодирования : Lavf54.63.104
Видео
Идентификатор : 1
Формат : AVC
Формат/Информация : Advanced Video Codec
Профиль формата : [email protected]/*  */
Параметр CABAC формата : Да
Параметр ReFrames формата : 4 кадра
Идентификатор кодека : avc1
Идентификатор кодека/Информация : Advanced Video Coding
Продолжительность : 9 м. 7 с.
Битрейт : 1400 Кбит/сек
Ширина : 960 пикселей
Высота : 540 пикселей
Соотношение сторон : 16:9
Режим частоты кадров : Постоянный
Частота кадров : 23,976 кадра/сек
Цветовое пространство : YUV
Субдискретизация насыщенности : 4:2:0
Битовая глубина : 8 бит
Тип развёртки : Прогрессивная
Бит/(Пиксели*Кадры) : 0.113
Размер потока : 90,3 Мбайт (91%)
Библиотека кодирования : x264 core 129 r2238 9c4ba4b
Настройки программы : cabac=1 / ref=3 / deblock=1:0:0 / analyse=0x3:0x113 / me=hex / subme=7 / psy=1 / psy_rd=1.00:0.00 / mixed_ref=1 / me_range=16 / chroma_me=1 / trellis=1 / 8x8dct=1 / cqm=0 / deadzone=21,11 / fast_pskip=1 / chroma_qp_offset=-2 / threads=6 / lookahead_threads=1 / sliced_threads=0 / nr=0 / decimate=1 / interlaced=0 / bluray_compat=0 / constrained_intra=0 / bframes=3 / b_pyramid=2 / b_adapt=1 / b_bias=0 / direct=1 / weightb=1 / open_gop=0 / weightp=2 / keyint=250 / keyint_min=23 / scenecut=40 / intra_refresh=0 / rc_lookahead=40 / rc=abr / mbtree=1 / bitrate=1400 / ratetol=1.0 / qcomp=0.60 / qpmin=0 / qpmax=69 / qpstep=4 / ip_ratio=1.40 / aq=1:1.00
Аудио
Идентификатор : 2
Формат : AAC
Формат/Информация : Advanced Audio Codec
Профиль формата : LC
Идентификатор кодека : 40
Продолжительность : 9 м. 7 с.
Вид битрейта : Переменный
Битрейт : 128 Кбит/сек
Каналы : 2 канала
Расположение каналов : Front: L R
Частота : 48,0 КГц
Метод сжатия : С потерями
Размер потока : 8,28 Мбайт (8%)
Язык : English

Обложко

Скринлист

Fanatik

Post 01-Feb-2016 22:52

[Quote]

Simone Sonay
Год производства: 2016 г.
Страна: USA
Жанр: BDSM, Gangbang, Anal, DP
Продолжительность: 01:01:57
В ролях: Simone Sonay

Описание: Mrs. S's son is still in therapy from the last time she gang banged his friends. Mrs S's claims she's changed her ways but when the smell of her sweet cherry pies baking summons the boys back she can't control herself and soon finds herself double stuffed! Hot MILF gangbang sex, double penetration, fisting, cum straight in her eyes and nasty cream pies are all included!
Качество видео: SiteRip
Формат видео: MP4
Видео: MPEG4 Video (H264) 960x540 29.97fps 1400 Kbps
Аудио: AAC 44.1 KHz 2 ch. 126 Kbps

Fanatik

Post 01-Feb-2016 22:30

[Quote]

Alyssa Lynn / Dominating My Girlfriends Moms Big Fake Tits
Год производства: 2016 г.
Страна: USA
Жанр: Milf, Big Tits, Hardcore, BDSM, Bondage, Fetish, Humilation, All Sex
Продолжительность: 00:40:30
Студия: SexAndSubmission.com / Kink.com
В ролях:
Michael Vegas and Alyssa Lynn
Описание: When Jasmin's slutty mom tries to seduce her step daughter's sheepish boyfriend, she unleashes his dark side. Mom get's slapped, electrocuted and tied down for a punishing, tit bouncing fuck that makes her sorry she hit on her innocent daughter's boyfriend. Alyssa Lynn's big fake tits look amazing tied up and bouncing as she get's pounded by Michael Vegas. This movie includes taboo love, big tits, ball gags, flogging, bondage and rough sex.
Тип HD видео: 540p
Качество видео: SiteRip
Формат видео: MP4
Видео: AVC at 1400 Кбит/сек : 960 x 540 (1.778) at 29.970 fps
Аудио: AAC at 128 Кбит/сек : 2 канала, 44,1 К
 

The time now is: Today 12:01

All times are GMT + 3 Hours