Сегодня идет свободное скачивание без начисления Download

Результатов поиска: 434

Автор Сообщение

Theseus

Пост 22-Янв-2019 19:01

[Цитировать]

Бамблби / Bumblebee- Год выхода: 2018
Страна: США
Жанр: фантастика, боевик, приключения
Продолжительность: 01:54:46
Перевод: Любительский многоголосый [MUZOBOZ]
Субтитры: Корейские (вшитые)-Режиссер: Трэвис Найт-В ролях: Дилан О'Брайен, Хейли Стайнфелд, Джастин Теру, Джон Сина, Анджела Бассетт, Памела Адлон, Мегин Прайс, Грэй ДеЛисл, Питер Каллен, Кеннет Чои-О фильме: 1987 год. Скрываясь от преследования, Бамблби находит убежище на автомобильной свалке в калифорнийском городке, где живет Чарли. Девушке скоро исполнится 18, она стремится найти свое место в жизни. И именно она наталкивается на покореженного и сломленного Бамблби. Приведя его в чувство, Чарли моментально осознает: на ее пути оказался не простой желтый Фольксваген Жук….- -Качество: WEBRip 1080p
Формат: MKV
Видео кодек: x.264
Аудио кодек: AC3
Видео: AVC, 1920x1080 (16:9), 23.976 fps, 6 086 kb/s
Аудио: AC-3, 48.0 kHz, 2 ch, 384 kb/s-Присутствует реклама-

Трейлер

-     - -

Theseus

Пост 22-Янв-2019 18:58

[Цитировать]

Бамблби / Bumblebee- Год выхода: 2018
Страна: США
Жанр: фантастика, боевик, приключения
Продолжительность: 01:54:46
Перевод: Любительский многоголосый [MUZOBOZ]
Субтитры: Корейские (вшитые)-Режиссер: Трэвис Найт-В ролях: Дилан О'Брайен, Хейли Стайнфелд, Джастин Теру, Джон Сина, Анджела Бассетт, Памела Адлон, Мегин Прайс, Грэй ДеЛисл, Питер Каллен, Кеннет Чои-О фильме: 1987 год. Скрываясь от преследования, Бамблби находит убежище на автомобильной свалке в калифорнийском городке, где живет Чарли. Девушке скоро исполнится 18, она стремится найти свое место в жизни. И именно она наталкивается на покореженного и сломленного Бамблби. Приведя его в чувство, Чарли моментально осознает: на ее пути оказался не простой желтый Фольксваген Жук….- -Качество: WEBRip 720p
Формат: MKV
Видео кодек: x.264
Аудио кодек: AC3
Видео: MPEG4-AVC, 1280x720, 23.976 fps, 5320 kbps
Аудио: AC3, 48.0 KHz, 2 ch, 384 kb/s-Присутствует реклама-

Трейлер

-   - -

Theseus

Пост 22-Янв-2019 16:10

[Цитировать]

Колетт / Colette -Год выхода: 2018
Страна: Великобритания, США
Жанр: Драма, биография, история
Продолжительность: 01:52:03
Перевод: Профессиональный (полное дублирование) [iTunes] , Профессиональный (многоголосый, закадровый) [HDRezka Studio]
Субтитры: Русские, английские-Режиссер: Уош Уэстмоленд-В ролях: Кира Найтли, Элинор Томлинсон, Доминик Уэст, Фиона Шоу, Аийша Харт, Денис Гоф, Аль Уивер, Дики Бо, Роберт Пью, Кэролайн Болтон-О фильме: Яркая и талантливая Колетт пишет гениальные произведения, которые ее муж Вилли, посредственный писатель, выдает за свои. Книги становятся бестселлерами, а богемная пара превращается в сенсацию высшего света Парижа. Но когда Вилли пытается заставить Колетт написать еще один роман, она начинает борьбу за творческую свободу, бросая вызов общественным понятиям о литературе, моде и сексуальности.- -Качество: BDRemux
Контейнер: MKV
Видео кодек: H.264
Аудио кодек: AC3, DTS-HD
Видео: AVC, 1920x1080 (16:9), 23.976 fps, 35,8 Mbps
Аудио 1: 48 kHz, AC3, 6 ch, 384 kbps | RUS (iTunes)
Аудио 2: 48 kHz, AC3, 2 ch, 192 kbps | RUS (HDRezka Studio)
Аудио 3: 48 kHz, DTS-HD MA, 6 ch, 3426 kbps | ENG-

MediaInfo

General
Unique ID : 198211124449605558056459476050173232290 (0x951E12F0EE59203EE60AA51DC50004A2)
Complete name : Colette.2018.REMUX.mkv
Format : Matroska
Format version : Version 4 / Version 2
File size : 31.2 GiB
Duration : 1 h 52 min
Overall bit rate mode : Variable
Overall bit rate : 39.8 Mb/s
Movie name : Colette.2018.1080p.BluRay.REMUX.AVC.DTS-HD.MA.5.1-FGT
Encoded date : UTC 2019-01-21 11:12:55
Writing application : mkvmerge v20.0.0 ('I Am The Sun') 64-bit
Writing library : libebml v1.3.5 + libmatroska v1.4.8
Video
ID : 1
Format : AVC
Format/Info : Advanced Video Codec
Format profile : High@L4.1
Format settings : CABAC / 4 Ref Frames
Format settings, CABAC : Yes
Format settings, RefFrames : 4 frames
Format settings, GOP : M=3, N=12
Codec ID : V_MPEG4/ISO/AVC
Duration : 1 h 52 min
Bit rate mode : Variable
Bit rate : 35.8 Mb/s
Maximum bit rate : 40.0 Mb/s
Width : 1 920 pixels
Height : 1 080 pixels
Display aspect ratio : 16:9
Frame rate mode : Constant
Frame rate : 23.976 (24000/1001) FPS
Color space : YUV
Chroma subsampling : 4:2:0
Bit depth : 8 bits
Scan type : Progressive
Bits/(Pixel*Frame) : 0.720
Stream size : 28.0 GiB (90%)
Language : English
Default : Yes
Forced : No
Audio #1
ID : 2
Format : AC-3
Format/Info : Audio Coding 3
Codec ID : A_AC3
Duration : 1 h 52 min
Bit rate mode : Constant
Bit rate : 384 kb/s
Channel(s) : 6 channels
Channel positions : Front: L C R, Side: L R, LFE
Sampling rate : 48.0 kHz
Frame rate : 31.250 FPS (1536 SPF)
Bit depth : 16 bits
Compression mode : Lossy
Stream size : 308 MiB (1%)
Title : iTunes
Language : Russian
Service kind : Complete Main
Default : Yes
Forced : No
Audio #2
ID : 3
Format : AC-3
Format/Info : Audio Coding 3
Codec ID : A_AC3
Duration : 1 h 52 min
Bit rate mode : Constant
Bit rate : 192 kb/s
Channel(s) : 2 channels
Channel positions : Front: L R
Sampling rate : 48.0 kHz
Frame rate : 31.250 FPS (1536 SPF)
Bit depth : 16 bits
Compression mode : Lossy
Stream size : 154 MiB (0%)
Title : HDRezka
Language : Russian
Service kind : Complete Main
Default : No
Forced : No
Audio #3
ID : 4
Format : DTS
Format/Info : Digital Theater Systems
Format profile : MA / Core
Codec ID : A_DTS
Duration : 1 h 52 min
Bit rate mode : Variable / Constant
Bit rate : 3 426 kb/s / 1 509 kb/s
Channel(s) : 6 channels
Channel positions : Front: L C R, Side: L R, LFE
Sampling rate : 48.0 kHz
Frame rate : 93.750 FPS (512 SPF)
Bit depth : 24 bits
Compression mode : Lossless / Lossy
Stream size : 2.68 GiB (9%)
Language : English
Default : No
Forced : No
Text #1
ID : 5
Format : UTF-8
Codec ID : S_TEXT/UTF8
Codec ID/Info : UTF-8 Plain Text
Duration : 1 h 43 min
Bit rate : 109 b/s
Count of elements : 1430
Stream size : 82.8 KiB (0%)
Title : Focs
Language : Russian
Default : No
Forced : No
Text #2
ID : 6
Format : UTF-8
Codec ID : S_TEXT/UTF8
Codec ID/Info : UTF-8 Plain Text
Duration : 1 h 42 min
Bit rate : 65 b/s
Count of elements : 1442
Stream size : 49.2 KiB (0%)
Language : English
Default : No
Forced : No
Menu
00:00:00.000 : en:Chapter 01
00:06:46.155 : en:Chapter 02
00:12:25.786 : en:Chapter 03
00:18:55.467 : en:Chapter 04
00:24:20.834 : en:Chapter 05
00:29:14.627 : en:Chapter 06
00:36:25.600 : en:Chapter 07
00:42:02.895 : en:Chapter 08
00:48:34.411 : en:Chapter 09
00:52:45.745 : en:Chapter 10
00:57:36.411 : en:Chapter 11
01:02:17.942 : en:Chapter 12
01:09:44.930 : en:Chapter 13
01:15:22.017 : en:Chapter 14
01:19:53.288 : en:Chapter 15
01:23:17.200 : en:Chapter 16
01:29:26.611 : en:Chapter 17
01:35:05.574 : en:Chapter 18
01:41:11.231 : en:Chapter 19
01:45:15.267 : en:Chapter 20

Трейлер

-     - -

Theseus

Пост 22-Янв-2019 01:26

[Цитировать]

Колетт / Colette -Год выхода: 2018
Страна: Великобритания, США
Жанр: Драма, биография, история
Продолжительность: 01:52:03
Перевод: Профессиональный (полное дублирование) [iTunes]
Субтитры: Русские, английские-Режиссер: Уош Уэстмоленд-В ролях: Кира Найтли, Элинор Томлинсон, Доминик Уэст, Фиона Шоу, Аийша Харт, Денис Гоф, Аль Уивер, Дики Бо, Роберт Пью, Кэролайн Болтон-О фильме: Яркая и талантливая Колетт пишет гениальные произведения, которые ее муж Вилли, посредственный писатель, выдает за свои. Книги становятся бестселлерами, а богемная пара превращается в сенсацию высшего света Парижа. Но когда Вилли пытается заставить Колетт написать еще один роман, она начинает борьбу за творческую свободу, бросая вызов общественным понятиям о литературе, моде и сексуальности.- -Качество: BDRip 1080p
Формат: MKV
Видео кодек: x.264
Аудио кодек: AC3
Видео: 1920x800 (2.40:1), 23,976 fps, x264, 9055 kbps
Аудио 1: 48 kHz, AC3, 6 ch, 384.00 kbps avg | RUS (iTunes)
Аудио 2: 48 kHz, AC3, 6 ch, 448.00 kbps avg | ENG-

MediaInfo

General
Уникальный идентификатор : 174855257636020507624439191161130506021 (0x838BE5CD2478E9CEBCF76C21DA4CD725)
Полное имя : ColetteBDRip1080p.mkv
Формат : Matroska
Версия формата : Version 4 / Version 2
Размер файла : 7.74 GiB
Продолжительность : 1 h 52 min
Общий поток : 9 886 kb/s
Дата кодирования : UTC 2019-01-21 03:01:49
Программа кодирования : mkvmerge v9.5.0 ('Quiet Fire') 64bit
Библиотека кодирования : libebml v1.3.4 + libmatroska v1.4.5
Video
Идентификатор : 1
Формат : AVC
Формат/Информация : Advanced Video Codec
Профиль формата : High@L4.1
Настройки формата : CABAC / 5 Ref Frames
Параметр CABAC формата : Yes
Параметр RefFrames формата : 5 frames
Идентификатор кодека : V_MPEG4/ISO/AVC
Продолжительность : 1 h 52 min
Битрейт : 9 055 kb/s
Ширина : 1 920 pixels
Высота : 800 pixels
Соотношение сторон : 2.40:1
Режим частоты кадров : Constant
Частота кадров : 23.976 (24000/1001) FPS
Цветовое пространство : YUV
Субдискретизация насыщенности : 4:2:0
Битовая глубина : 8 bits
Тип развёртки : Progressive
Бит/(Пиксели*Кадры) : 0.246
Размер потока : 7.08 GiB (92%)
Библиотека кодирования : x264 core 157 r2935 545de2f
Настройки программы : cabac=1 / ref=5 / deblock=1:-1:-1 / analyse=0x3:0x113 / me=umh / subme=11 / psy=1 / psy_rd=1.00:0.00 / mixed_ref=1 / me_range=32 / chroma_me=1 / trellis=2 / 8x8dct=1 / cqm=0 / deadzone=21,11 / fast_pskip=0 / chroma_qp_offset=-2 / threads=9 / lookahead_threads=2 / sliced_threads=0 / nr=0 / decimate=0 / interlaced=0 / bluray_compat=0 / constrained_intra=0 / bframes=14 / b_pyramid=2 / b_adapt=2 / b_bias=0 / direct=3 / weightb=1 / open_gop=0 / weightp=2 / keyint=240 / keyint_min=24 / scenecut=40 / intra_refresh=0 / rc_lookahead=120 / rc=2pass / mbtree=0 / bitrate=9055 / ratetol=1.0 / qcomp=0.70 / qpmin=0 / qpmax=69 / qpstep=4 / cplxblur=20.0 / qblur=0.5 / vbv_maxrate=50000 / vbv_bufsize=62500 / nal_hrd=none / filler=0 / ip_ratio=1.40 / pb_ratio=1.30 / aq=3:0.80
Язык : English
Default : Yes
Forced : No
Audio #1
Идентификатор : 2
Формат : AC-3
Формат/Информация : Audio Coding 3
Идентификатор кодека : A_AC3
Продолжительность : 1 h 52 min
Вид битрейта : Constant
Битрейт : 384 kb/s
Каналы : 6 channels
Расположение каналов : Front: L C R, Side: L R, LFE
Частота : 48.0 kHz
Частота кадров : 31.250 FPS (1536 SPF)
Битовая глубина : 16 bits
Метод сжатия : Lossy
Размер потока : 308 MiB (4%)
Язык : Russian
Default : Yes
Forced : No
Audio #2
Идентификатор : 3
Формат : AC-3
Формат/Информация : Audio Coding 3
Идентификатор кодека : A_AC3
Продолжительность : 1 h 52 min
Вид битрейта : Constant
Битрейт : 448 kb/s
Каналы : 6 channels
Расположение каналов : Front: L C R, Side: L R, LFE
Частота : 48.0 kHz
Частота кадров : 31.250 FPS (1536 SPF)
Битовая глубина : 16 bits
Метод сжатия : Lossy
Размер потока : 359 MiB (5%)
Язык : English
Default : No
Forced : No
Text #1
Идентификатор : 4
Формат : UTF-8
Идентификатор кодека : S_TEXT/UTF8
Идентификатор кодека/Информация : UTF-8 Plain Text
Продолжительность : 1 h 43 min
Битрейт : 108 b/s
ElementCount : 1430
Размер потока : 82.4 KiB (0%)
Язык : Russian
Default : No
Forced : No
Text #2
Идентификатор : 5
Формат : UTF-8
Идентификатор кодека : S_TEXT/UTF8
Идентификатор кодека/Информация : UTF-8 Plain Text
Продолжительность : 1 h 42 min
Битрейт : 67 b/s
ElementCount : 1515
Размер потока : 50.7 KiB (0%)
Язык : English
Default : No
Forced : No
Menu
00:00:00.000 : :Chapter 01
00:06:46.155 : :Chapter 02
00:12:25.786 : :Chapter 03
00:18:55.467 : :Chapter 04
00:24:20.834 : :Chapter 05
00:29:14.627 : :Chapter 06
00:36:25.600 : :Chapter 07
00:42:02.895 : :Chapter 08
00:48:34.411 : :Chapter 09
00:52:45.745 : :Chapter 10
00:57:36.411 : :Chapter 11
01:02:17.942 : :Chapter 12
01:09:44.930 : :Chapter 13
01:15:22.017 : :Chapter 14
01:19:53.288 : :Chapter 15
01:23:17.200 : :Chapter 16
01:29:26.611 : :Chapter 17
01:35:05.574 : :Chapter 18
01:41:11.231 : :Chapter 19
01:45:15.267 : :Chapter 20

Трейлер

-     - -

Theseus

Пост 22-Янв-2019 01:25

[Цитировать]

Колетт / Colette -Год выхода: 2018
Страна: Великобритания, США
Жанр: Драма, биография, история
Продолжительность: 01:52:03
Перевод: Профессиональный (полное дублирование) [iTunes]
Субтитры: Русские, английские-Режиссер: Уош Уэстмоленд-В ролях: Кира Найтли, Элинор Томлинсон, Доминик Уэст, Фиона Шоу, Аийша Харт, Денис Гоф, Аль Уивер, Дики Бо, Роберт Пью, Кэролайн Болтон-О фильме: Яркая и талантливая Колетт пишет гениальные произведения, которые ее муж Вилли, посредственный писатель, выдает за свои. Книги становятся бестселлерами, а богемная пара превращается в сенсацию высшего света Парижа. Но когда Вилли пытается заставить Колетт написать еще один роман, она начинает борьбу за творческую свободу, бросая вызов общественным понятиям о литературе, моде и сексуальности.- -Качество: BDRip 720p
Формат: MKV
Видео кодек: x.264
Аудио кодек: AC3
Видео: 1280x534 (2.40:1), 23,976 fps, x264, 4531 kbps
Аудио 1: 48 kHz, AC3, 6 ch, 384.00 kbps avg | RUS (iTunes)
Аудио 2: 48 kHz, AC3, 6 ch, 448.00 kbps avg | ENG-

MediaInfo

General
Уникальный идентификатор : 175104854798534260996950935406232379109 (0x83BBF7E43D4C899482ED4F9E96629EE5)
Полное имя : ColetteBDRip720p.mkv
Формат : Matroska
Версия формата : Version 4 / Version 2
Размер файла : 4.19 GiB
Продолжительность : 1 h 52 min
Общий поток : 5 356 kb/s
Дата кодирования : UTC 2019-01-21 03:07:17
Программа кодирования : mkvmerge v9.5.0 ('Quiet Fire') 64bit
Библиотека кодирования : libebml v1.3.4 + libmatroska v1.4.5
Video
Идентификатор : 1
Формат : AVC
Формат/Информация : Advanced Video Codec
Профиль формата : High@L4.1
Настройки формата : CABAC / 12 Ref Frames
Параметр CABAC формата : Yes
Параметр RefFrames формата : 12 frames
Идентификатор кодека : V_MPEG4/ISO/AVC
Продолжительность : 1 h 52 min
Битрейт : 4 531 kb/s
Ширина : 1 280 pixels
Высота : 534 pixels
Соотношение сторон : 2.40:1
Режим частоты кадров : Constant
Частота кадров : 23.976 (24000/1001) FPS
Цветовое пространство : YUV
Субдискретизация насыщенности : 4:2:0
Битовая глубина : 8 bits
Тип развёртки : Progressive
Бит/(Пиксели*Кадры) : 0.276
Размер потока : 3.54 GiB (84%)
Библиотека кодирования : x264 core 157 r2935 545de2f
Настройки программы : cabac=1 / ref=12 / deblock=1:-1:-1 / analyse=0x3:0x133 / me=umh / subme=11 / psy=1 / psy_rd=1.00:0.00 / mixed_ref=1 / me_range=32 / chroma_me=1 / trellis=2 / 8x8dct=1 / cqm=0 / deadzone=21,11 / fast_pskip=0 / chroma_qp_offset=-2 / threads=5 / lookahead_threads=1 / sliced_threads=0 / nr=0 / decimate=0 / interlaced=0 / bluray_compat=0 / constrained_intra=0 / bframes=12 / b_pyramid=2 / b_adapt=2 / b_bias=0 / direct=3 / weightb=1 / open_gop=0 / weightp=2 / keyint=240 / keyint_min=24 / scenecut=40 / intra_refresh=0 / rc_lookahead=120 / rc=2pass / mbtree=0 / bitrate=4531 / ratetol=1.0 / qcomp=0.70 / qpmin=0 / qpmax=69 / qpstep=4 / cplxblur=20.0 / qblur=0.5 / vbv_maxrate=62500 / vbv_bufsize=78125 / nal_hrd=none / filler=0 / ip_ratio=1.40 / pb_ratio=1.30 / aq=3:0.80
Язык : English
Default : Yes
Forced : No
Audio #1
Идентификатор : 2
Формат : AC-3
Формат/Информация : Audio Coding 3
Идентификатор кодека : A_AC3
Продолжительность : 1 h 52 min
Вид битрейта : Constant
Битрейт : 384 kb/s
Каналы : 6 channels
Расположение каналов : Front: L C R, Side: L R, LFE
Частота : 48.0 kHz
Частота кадров : 31.250 FPS (1536 SPF)
Битовая глубина : 16 bits
Метод сжатия : Lossy
Размер потока : 308 MiB (7%)
Язык : Russian
Default : Yes
Forced : No
Audio #2
Идентификатор : 3
Формат : AC-3
Формат/Информация : Audio Coding 3
Идентификатор кодека : A_AC3
Продолжительность : 1 h 52 min
Вид битрейта : Constant
Битрейт : 448 kb/s
Каналы : 6 channels
Расположение каналов : Front: L C R, Side: L R, LFE
Частота : 48.0 kHz
Частота кадров : 31.250 FPS (1536 SPF)
Битовая глубина : 16 bits
Метод сжатия : Lossy
Размер потока : 359 MiB (8%)
Язык : English
Default : No
Forced : No
Text #1
Идентификатор : 4
Формат : UTF-8
Идентификатор кодека : S_TEXT/UTF8
Идентификатор кодека/Информация : UTF-8 Plain Text
Продолжительность : 1 h 43 min
Битрейт : 108 b/s
ElementCount : 1430
Размер потока : 82.4 KiB (0%)
Язык : Russian
Default : No
Forced : No
Text #2
Идентификатор : 5
Формат : UTF-8
Идентификатор кодека : S_TEXT/UTF8
Идентификатор кодека/Информация : UTF-8 Plain Text
Продолжительность : 1 h 42 min
Битрейт : 67 b/s
ElementCount : 1515
Размер потока : 50.7 KiB (0%)
Язык : English
Default : No
Forced : No
Menu
00:00:00.000 : :Chapter 01
00:06:46.155 : :Chapter 02
00:12:25.786 : :Chapter 03
00:18:55.467 : :Chapter 04
00:24:20.834 : :Chapter 05
00:29:14.627 : :Chapter 06
00:36:25.600 : :Chapter 07
00:42:02.895 : :Chapter 08
00:48:34.411 : :Chapter 09
00:52:45.745 : :Chapter 10
00:57:36.411 : :Chapter 11
01:02:17.942 : :Chapter 12
01:09:44.930 : :Chapter 13
01:15:22.017 : :Chapter 14
01:19:53.288 : :Chapter 15
01:23:17.200 : :Chapter 16
01:29:26.611 : :Chapter 17
01:35:05.574 : :Chapter 18
01:41:11.231 : :Chapter 19
01:45:15.267 : :Chapter 20

Трейлер

-     - -

Theseus

Пост 10-Янв-2019 18:55

[Цитировать]

Веном / Venom- Год выхода: 2018
Страна: США, Китай
Жанр: ужасы, фантастика, боевик, триллер
Продолжительность: 01:52:08
Перевод 1: Профессиональный (полное дублирование) [Лицензия Blu-ray EUR/RUS]
Перевод 2: Авторский [Д. Есарев]
Перевод 3: Профессиональный (полное дублирование) [Лицензия Blu-ray EUR/UKR]
Субтитры: Русские , украинские, английские-Режиссер: Рубен Фляйшер-В ролях: Том Харди, Мишель Уильямс, Марчелла Браджио, Вуди Харрельсон, Дженни Слейт, Риз Ахмед, Мак Брандт, Рон Сепас Джонс, Мишель Ли, Мелора Уолтерс-О фильме: Что если в один прекрасный день в тебя вселяется существо-симбиот, которое наделяет тебя сверхчеловеческими способностями? Вот только Веном — симбиот совсем недобрый, и договориться с ним невозможно. Хотя нужно ли договариваться?.. Ведь в какой-то момент ты понимаешь, что быть плохим вовсе не так уж и плохо. Так даже веселее. В мире и так слишком много супергероев! Мы — Веном!- -Качество: Blu-ray 2160p
Контейнер: BDMV
Видео кодек: H.265
Аудио кодек: AC3, DTS-HD MA, Dolby TrueHD
Видео: HEVC, 3840x2160, 23.976 fps, 53,5 Mbps
Аудио 1: 48 kHz, Dolby TrueHD, 8 ch, 3852 kbps | ENG
Аудио 2: 48 kHz, AC3, 6 ch, 640 kbps | ENG
Аудио 3: 48 kHz, AC3, 6 ch, 640 kbps | RUS [DUB]
Аудио 4: 48 kHz, DTS-HD MA, 8 ch, 5430 kbps | RUS [DUB]
Аудио 5: 48 kHz, AC3, 6 ch, 640 kbps | UKR [DUB]
Аудио 6: 48 kHz, DTS-HD MA, 8 ch, 4456 kbps | RUS [AVO]-

DISC INFO

DISC INFO:
Disc Title: Venom (2018) – 4K Ultra HD
Disc Label: Venom.2018.UHD.BLURAY.2160p.DV.IVA(RUS.UKR.ENG).ExKinoRay
Disc Size: 65,130,563,547 bytes
Protection: AACS2
Extras: Ultra HD, BD-Java
BDInfo: 0.7.5.5
PLAYLIST REPORT:
Name: 00001.MPLS
Length: 1:52:08.722 (h:m:s.ms)
Size: 64,073,644,032 bytes
Total Bitrate: 76.18 Mbps
(*) Indicates included stream hidden by this playlist.
VIDEO:
Codec Bitrate Deion
----- ------- -----------
MPEG-H HEVC Video 53456 kbps 2160p / 23.976 fps / 16:9 / Main 10 @ Level 5.1 @ High / 10 bits / HDR10 / BT.2020
* MPEG-H HEVC Video 2085 kbps 1080p / 23.976 fps / 16:9 / Main 10 @ Level 5.1 @ High / 10 bits / Dolby Vision / BT.2020
AUDIO:
Codec Language Bitrate Deion
----- -------- ------- -----------
Dolby TrueHD/Atmos Audio English 3852 kbps 7.1 / 48 kHz / 3212 kbps / 24-bit (AC3 Embedded: 5.1 / 48 kHz / 640 kbps / DN -31dB)
Dolby Digital Audio English 640 kbps 5.1 / 48 kHz / 640 kbps / DN -31dB
Dolby Digital Audio Russian 640 kbps 5.1 / 48 kHz / 640 kbps / DN -31dB
DTS-HD Master Audio Russian 5430 kbps 7.1 / 48 kHz / 5430 kbps / 24-bit (DTS Core: 5.1 / 48 kHz / 1509 kbps / 24-bit)
Dolby Digital Audio Ukrainian 640 kbps 5.1 / 48 kHz / 640 kbps / DN -31dB
DTS-HD Master Audio Russian 4456 kbps 7.1 / 48 kHz / 4456 kbps / 24-bit (DTS Core: 5.1 / 48 kHz / 1509 kbps / 24-bit)
SUBTITLES:
Codec Language Bitrate Deion
----- -------- ------- -----------
Presentation Graphics English 43.653 kbps
Presentation Graphics English 31.729 kbps
Presentation Graphics Russian 28.393 kbps
Presentation Graphics Ukrainian 31.645 kbps
Presentation Graphics Ukrainian 0.265 kbps
Presentation Graphics Russian 0.356 kbps

Меню диска:

     

Трейлер

-    - -

Theseus

Пост 10-Янв-2019 18:47

[Цитировать]

Веном / Venom- Год выхода: 2018
Страна: США, Китай
Жанр: ужасы, фантастика, боевик, триллер
Продолжительность: 01:52:08
Перевод 1: Профессиональный (полное дублирование) [Лицензия Blu-ray EUR/RUS]
Перевод 2: Профессиональный многоголосый [HDRezka Studio]
Перевод 3: Авторский [Д. Есарев]
Перевод 4: Профессиональный (полное дублирование) [Лицензия Blu-ray EUR/UKR]
Субтитры: Русские (Forced, full), украинские (Full), английские-Режиссер: Рубен Фляйшер-В ролях: Том Харди, Мишель Уильямс, Марчелла Браджио, Вуди Харрельсон, Дженни Слейт, Риз Ахмед, Мак Брандт, Рон Сепас Джонс, Мишель Ли, Мелора Уолтерс-О фильме: Что если в один прекрасный день в тебя вселяется существо-симбиот, которое наделяет тебя сверхчеловеческими способностями? Вот только Веном — симбиот совсем недобрый, и договориться с ним невозможно. Хотя нужно ли договариваться?.. Ведь в какой-то момент ты понимаешь, что быть плохим вовсе не так уж и плохо. Так даже веселее. В мире и так слишком много супергероев! Мы — Веном!- -Качество: BDRemux 2160p
Контейнер: MKV
Видео кодек: H.265
Аудио кодек: AC3, DTS-HD MA, Dolby TrueHD
Видео: HEVC, 3840x2160, 23.976 fps, 53,5 Mbps
Аудио 1: 48 kHz, AC3, 6 ch, 640 kbps | RUS [DUB]
Аудио 2: 48 kHz, AC3, 6 ch, 192 kbps | RUS [MVO]
Аудио 3: 48 kHz, DTS-HD MA, 8 ch, 4453 kbps | RUS [AVO]
Аудио 4: 48 kHz, AC3, 6 ch, 640 kbps | UKR [DUB]
Аудио 5: 48 kHz, Dolby TrueHD, 8 ch, 3212 kbps | ENG
Аудио 6: 48 kHz, AC3, 6 ch, 640 kbps | ENG-

MI

General
Unique ID : 59244090070014835222791352000896143363 (0x2C91FF2858959D99ECD206DCC44D9003)
Complete name : Venom.2018.Lic.UHD.BDREMUX.2160p.HDR.seleZen.mkv
Format : Matroska
Format version : Version 4
File size : 49.6 GiB
Duration : 1 h 52 min
Overall bit rate mode : Variable
Overall bit rate : 63.3 Mb/s
Movie name : Venom 2018 4K from селезень
Encoded date : UTC 2019-01-04 17:45:12
Writing application : mkvmerge v29.0.0 ('Like It Or Not') 64-bit
Writing library : libebml v1.3.6 + libmatroska v1.4.9
Video
ID : 1
Format : HEVC
Format/Info : High Efficiency Video Coding
Commercial name : HDR10
Format profile : Main 10@L5.1@High
Codec ID : V_MPEGH/ISO/HEVC
Duration : 1 h 52 min
Bit rate : 53.5 Mb/s
Width : 3 840 pixels
Height : 2 160 pixels
Display aspect ratio : 16:9
Frame rate mode : Constant
Frame rate : 23.976 (24000/1001) FPS
Color space : YUV
Chroma subsampling : 4:2:0 (Type 2)
Bit depth : 10 bits
Bits/(Pixel*Frame) : 0.269
Stream size : 41.9 GiB (84%)
Language : English
Default : Yes
Forced : No
Color range : Limited
Color primaries : BT.2020
Transfer characteristics : PQ
Matrix coefficients : BT.2020 non-constant
Mastering display color pri : Display P3
Mastering display luminance : min: 0.0050 cd/m2, max: 4000 cd/m2
Maximum Content Light Level : 3903 cd/m2
Maximum Frame-Average Light : 1076 cd/m2
Audio #1
ID : 2
Format : AC-3
Format/Info : Audio Coding 3
Commercial name : Dolby Digital
Codec ID : A_AC3
Duration : 1 h 52 min
Bit rate mode : Constant
Bit rate : 640 kb/s
Channel(s) : 6 channels
Channel layout : L R C LFE Ls Rs
Sampling rate : 48.0 kHz
Frame rate : 31.250 FPS (1536 SPF)
Bit depth : 16 bits
Compression mode : Lossy
Stream size : 513 MiB (1%)
Title : Dub [License]
Language : Russian
Service kind : Complete Main
Default : Yes
Forced : Yes
Audio #2
ID : 3
Format : AC-3
Format/Info : Audio Coding 3
Commercial name : Dolby Digital
Codec ID : A_AC3
Duration : 1 h 52 min
Bit rate mode : Constant
Bit rate : 192 kb/s
Channel(s) : 2 channels
Channel layout : L R
Sampling rate : 48.0 kHz
Frame rate : 31.250 FPS (1536 SPF)
Bit depth : 16 bits
Compression mode : Lossy
Stream size : 154 MiB (0%)
Title : MVO [HDRezka Studio]
Language : Russian
Service kind : Complete Main
Default : No
Forced : No
Audio #3
ID : 4
Format : DTS XLL
Format/Info : Digital Theater Systems
Commercial name : DTS-HD Master Audio
Codec ID : A_DTS
Duration : 1 h 52 min
Bit rate mode : Variable
Bit rate : 4 453 kb/s
Channel(s) : 8 channels
Channel layout : C L R LFE Lb Rb Lss Rss
Sampling rate : 48.0 kHz
Frame rate : 93.750 FPS (512 SPF)
Bit depth : 24 bits
Compression mode : Lossless
Stream size : 3.49 GiB (7%)
Title : AVO [Yesarev]
Language : Russian
Default : No
Forced : No
Audio #4
ID : 5
Format : AC-3
Format/Info : Audio Coding 3
Commercial name : Dolby Digital
Codec ID : A_AC3
Duration : 1 h 52 min
Bit rate mode : Constant
Bit rate : 640 kb/s
Channel(s) : 6 channels
Channel layout : L R C LFE Ls Rs
Sampling rate : 48.0 kHz
Frame rate : 31.250 FPS (1536 SPF)
Bit depth : 16 bits
Compression mode : Lossy
Stream size : 513 MiB (1%)
Title : Dub [License]
Language : Ukrainian
Service kind : Complete Main
Default : No
Forced : No
Audio #5
ID : 6
Format : MLP FBA 16-ch
Format/Info : Meridian Lossless Packing FBA with 16-channel presentation
Commercial name : Dolby TrueHD with Dolby Atmos
Codec ID : A_TRUEHD
Duration : 1 h 52 min
Bit rate mode : Variable
Bit rate : 3 212 kb/s
Maximum bit rate : 5 394 kb/s
Channel(s) : 8 channels
Channel layout : L R C LFE Ls Rs Lb Rb
Sampling rate : 48.0 kHz
Frame rate : 1 200.000 FPS (40 SPF)
Compression mode : Lossless
Stream size : 2.52 GiB (5%)
Title : Original
Language : English
Default : No
Forced : No
Number of dynamic objects : 11
Bed channel count : 1 channel
Bed channel configuration : LFE
Audio #6
ID : 7
Format : AC-3
Format/Info : Audio Coding 3
Commercial name : Dolby Digital
Codec ID : A_AC3
Duration : 1 h 52 min
Bit rate mode : Constant
Bit rate : 640 kb/s
Channel(s) : 6 channels
Channel layout : L R C LFE Ls Rs
Sampling rate : 48.0 kHz
Frame rate : 31.250 FPS (1536 SPF)
Bit depth : 16 bits
Compression mode : Lossy
Stream size : 513 MiB (1%)
Language : English
Service kind : Complete Main
Default : No
Forced : No
Text #1
ID : 8
Format : UTF-8
Codec ID : S_TEXT/UTF8
Codec ID/Info : UTF-8 Plain Text
Duration : 1 h 49 min
Bit rate : 0 b/s
Count of elements : 7
Stream size : 209 Bytes (0%)
Title : Forced (iTunes)
Language : Russian
Default : Yes
Forced : Yes
Text #2
ID : 9
Format : UTF-8
Codec ID : S_TEXT/UTF8
Codec ID/Info : UTF-8 Plain Text
Duration : 1 h 50 min
Bit rate : 75 b/s
Count of elements : 1218
Stream size : 61.0 KiB (0%)
Title : Full (iTunes)
Language : Russian
Default : No
Forced : No
Text #3
ID : 10
Format : UTF-8
Codec ID : S_TEXT/UTF8
Codec ID/Info : UTF-8 Plain Text
Duration : 1 h 34 min
Bit rate : 101 b/s
Count of elements : 1334
Stream size : 70.6 KiB (0%)
Title : Full (FOCS)
Language : Russian
Default : No
Forced : No
Text #4
ID : 11
Format : UTF-8
Codec ID : S_TEXT/UTF8
Codec ID/Info : UTF-8 Plain Text
Duration : 1 h 50 min
Bit rate : 85 b/s
Count of elements : 1396
Stream size : 69.0 KiB (0%)
Title : Full (iTunes)
Language : Ukrainian
Default : No
Forced : No
Text #5
ID : 12
Format : UTF-8
Codec ID : S_TEXT/UTF8
Codec ID/Info : UTF-8 Plain Text
Duration : 1 h 49 min
Bit rate : 56 b/s
Count of elements : 1395
Stream size : 45.1 KiB (0%)
Title : SDH
Language : English
Default : No
Forced : No
Menu
00:00:00.000 : en:00:00:00.000
00:04:43.200 : en:00:04:43.200
00:10:58.074 : en:00:10:58.074
00:17:34.929 : en:00:17:34.929
00:24:05.486 : en:00:24:05.486
00:32:18.812 : en:00:32:18.812
00:40:07.447 : en:00:40:07.447
00:46:51.976 : en:00:46:51.976
00:53:26.203 : en:00:53:26.203
01:00:57.070 : en:01:00:57.070
01:04:01.796 : en:01:04:01.796
01:08:36.446 : en:01:08:36.446
01:11:12.852 : en:01:11:12.852
01:14:15.743 : en:01:14:15.743
01:21:18.749 : en:01:21:18.749
01:27:15.021 : en:01:27:15.021

Трейлер

-     - -

Theseus

Пост 10-Янв-2019 18:46

[Цитировать]

Веном / Venom- Год выхода: 2018
Страна: США, Китай
Жанр: ужасы, фантастика, боевик, триллер
Продолжительность: 01:52:08
Перевод 1: Профессиональный (полное дублирование) [Лицензия Blu-ray EUR/RUS]
Перевод 2: Профессиональный многоголосый [HDRezka Studio]
Перевод 3: Авторский [Д. Есарев]
Перевод 4: Профессиональный (полное дублирование) [Лицензия Blu-ray EUR/UKR]
Субтитры: Русские (Forced, full), украинские (Full), английские-Режиссер: Рубен Фляйшер-В ролях: Том Харди, Мишель Уильямс, Марчелла Браджио, Вуди Харрельсон, Дженни Слейт, Риз Ахмед, Мак Брандт, Рон Сепас Джонс, Мишель Ли, Мелора Уолтерс-О фильме: Что если в один прекрасный день в тебя вселяется существо-симбиот, которое наделяет тебя сверхчеловеческими способностями? Вот только Веном — симбиот совсем недобрый, и договориться с ним невозможно. Хотя нужно ли договариваться?.. Ведь в какой-то момент ты понимаешь, что быть плохим вовсе не так уж и плохо. Так даже веселее. В мире и так слишком много супергероев! Мы — Веном!- -Качество: BDRemux
Контейнер: MKV
Видео кодек: H.264
Аудио кодек: AC3, DTS-HD MA, Dolby TrueHD
Видео: MPEG4-AVC, 1920x1080, 23.976 fps, 30 Mbps
Аудио 1: 48 kHz, AC3, 6 ch, 640 kbps | RUS [DUB]
Аудио 2: 48 kHz, AC3, 6 ch, 192 kbps | RUS [MVO]
Аудио 3: 48 kHz, DTS-HD MA, 8 ch, 4453 kbps | RUS [AVO]
Аудио 4: 48 kHz, AC3, 6 ch, 640 kbps | UKR [DUB]
Аудио 5: 48 kHz, Dolby TrueHD, 8 ch, 3212 kbps | ENG
Аудио 6: 48 kHz, AC3, 6 ch, 640 kbps | ENG-

MI

General
Unique ID : 127990756790505099583513271320010113839 (0x604A1F842FD7983DF6CC564AA435432F)
Complete name : Venom.2018.Lic..BDREMUX.1080p.seleZen.mkv
Format : Matroska
Format version : Version 4
File size : 31.2 GiB
Duration : 1 h 52 min
Overall bit rate mode : Variable
Overall bit rate : 39.8 Mb/s
Movie name : Venom 2018 from селезень
Encoded date : UTC 2019-01-04 17:32:11
Writing application : mkvmerge v29.0.0 ('Like It Or Not') 64-bit
Writing library : libebml v1.3.6 + libmatroska v1.4.9
Video
ID : 1
Format : AVC
Format/Info : Advanced Video Codec
Format profile : High@L4.1
Format settings : CABAC / 2 Ref Frames
Format settings, CABAC : Yes
Format settings, ReFrames : 2 frames
Format settings, GOP : M=1, N=10
Codec ID : V_MPEG4/ISO/AVC
Duration : 1 h 52 min
Bit rate mode : Variable
Bit rate : 30.0 Mb/s
Width : 1 920 pixels
Height : 1 080 pixels
Display aspect ratio : 16:9
Frame rate mode : Constant
Frame rate : 23.976 (24000/1001) FPS
Color space : YUV
Chroma subsampling : 4:2:0
Bit depth : 8 bits
Scan type : Progressive
Bits/(Pixel*Frame) : 0.603
Stream size : 23.5 GiB (75%)
Language : English
Default : Yes
Forced : No
Audio #1
ID : 2
Format : AC-3
Format/Info : Audio Coding 3
Commercial name : Dolby Digital
Codec ID : A_AC3
Duration : 1 h 52 min
Bit rate mode : Constant
Bit rate : 640 kb/s
Channel(s) : 6 channels
Channel layout : L R C LFE Ls Rs
Sampling rate : 48.0 kHz
Frame rate : 31.250 FPS (1536 SPF)
Bit depth : 16 bits
Compression mode : Lossy
Stream size : 513 MiB (2%)
Title : Dub [License]
Language : Russian
Service kind : Complete Main
Default : Yes
Forced : Yes
Audio #2
ID : 3
Format : AC-3
Format/Info : Audio Coding 3
Commercial name : Dolby Digital
Codec ID : A_AC3
Duration : 1 h 52 min
Bit rate mode : Constant
Bit rate : 192 kb/s
Channel(s) : 2 channels
Channel layout : L R
Sampling rate : 48.0 kHz
Frame rate : 31.250 FPS (1536 SPF)
Bit depth : 16 bits
Compression mode : Lossy
Stream size : 154 MiB (0%)
Title : MVO [HDRezka Studio]
Language : Russian
Service kind : Complete Main
Default : No
Forced : No
Audio #3
ID : 4
Format : DTS XLL
Format/Info : Digital Theater Systems
Commercial name : DTS-HD Master Audio
Codec ID : A_DTS
Duration : 1 h 52 min
Bit rate mode : Variable
Bit rate : 4 453 kb/s
Channel(s) : 8 channels
Channel layout : C L R LFE Lb Rb Lss Rss
Sampling rate : 48.0 kHz
Frame rate : 93.750 FPS (512 SPF)
Bit depth : 24 bits
Compression mode : Lossless
Stream size : 3.49 GiB (11%)
Title : AVO [Yesarev]
Language : Russian
Default : No
Forced : No
Audio #4
ID : 5
Format : AC-3
Format/Info : Audio Coding 3
Commercial name : Dolby Digital
Codec ID : A_AC3
Duration : 1 h 52 min
Bit rate mode : Constant
Bit rate : 640 kb/s
Channel(s) : 6 channels
Channel layout : L R C LFE Ls Rs
Sampling rate : 48.0 kHz
Frame rate : 31.250 FPS (1536 SPF)
Bit depth : 16 bits
Compression mode : Lossy
Stream size : 513 MiB (2%)
Title : Dub [License]
Language : Ukrainian
Service kind : Complete Main
Default : No
Forced : No
Audio #5
ID : 6
Format : MLP FBA 16-ch
Format/Info : Meridian Lossless Packing FBA with 16-channel presentation
Commercial name : Dolby TrueHD with Dolby Atmos
Codec ID : A_TRUEHD
Duration : 1 h 52 min
Bit rate mode : Variable
Bit rate : 3 212 kb/s
Maximum bit rate : 5 394 kb/s
Channel(s) : 8 channels
Channel layout : L R C LFE Ls Rs Lb Rb
Sampling rate : 48.0 kHz
Frame rate : 1 200.000 FPS (40 SPF)
Compression mode : Lossless
Stream size : 2.52 GiB (8%)
Title : Original
Language : English
Default : No
Forced : No
Number of dynamic objects : 11
Bed channel count : 1 channel
Bed channel configuration : LFE
Audio #6
ID : 7
Format : AC-3
Format/Info : Audio Coding 3
Commercial name : Dolby Digital
Codec ID : A_AC3
Duration : 1 h 52 min
Bit rate mode : Constant
Bit rate : 640 kb/s
Channel(s) : 6 channels
Channel layout : L R C LFE Ls Rs
Sampling rate : 48.0 kHz
Frame rate : 31.250 FPS (1536 SPF)
Bit depth : 16 bits
Compression mode : Lossy
Stream size : 513 MiB (2%)
Language : English
Service kind : Complete Main
Default : No
Forced : No
Text #1
ID : 8
Format : UTF-8
Codec ID : S_TEXT/UTF8
Codec ID/Info : UTF-8 Plain Text
Duration : 1 h 49 min
Bit rate : 0 b/s
Count of elements : 7
Stream size : 209 Bytes (0%)
Title : Forced (iTunes)
Language : Russian
Default : Yes
Forced : Yes
Text #2
ID : 9
Format : UTF-8
Codec ID : S_TEXT/UTF8
Codec ID/Info : UTF-8 Plain Text
Duration : 1 h 50 min
Bit rate : 75 b/s
Count of elements : 1218
Stream size : 61.0 KiB (0%)
Title : Full (iTunes)
Language : Russian
Default : No
Forced : No
Text #3
ID : 10
Format : UTF-8
Codec ID : S_TEXT/UTF8
Codec ID/Info : UTF-8 Plain Text
Duration : 1 h 34 min
Bit rate : 101 b/s
Count of elements : 1334
Stream size : 70.6 KiB (0%)
Title : Full (FOCS)
Language : Russian
Default : No
Forced : No
Text #4
ID : 11
Format : UTF-8
Codec ID : S_TEXT/UTF8
Codec ID/Info : UTF-8 Plain Text
Duration : 1 h 50 min
Bit rate : 85 b/s
Count of elements : 1396
Stream size : 69.0 KiB (0%)
Title : Full (iTunes)
Language : Ukrainian
Default : No
Forced : No
Text #5
ID : 12
Format : UTF-8
Codec ID : S_TEXT/UTF8
Codec ID/Info : UTF-8 Plain Text
Duration : 1 h 49 min
Bit rate : 56 b/s
Count of elements : 1395
Stream size : 45.1 KiB (0%)
Title : SDH
Language : English
Default : No
Forced : No
Menu
00:00:00.000 : en:00:00:00.000
00:04:43.200 : en:00:04:43.200
00:10:58.074 : en:00:10:58.074
00:17:34.929 : en:00:17:34.929
00:24:05.486 : en:00:24:05.486
00:32:18.812 : en:00:32:18.812
00:40:07.447 : en:00:40:07.447
00:46:51.976 : en:00:46:51.976
00:53:26.203 : en:00:53:26.203
01:00:57.070 : en:01:00:57.070
01:04:01.796 : en:01:04:01.796
01:08:36.446 : en:01:08:36.446
01:11:12.852 : en:01:11:12.852
01:14:15.743 : en:01:14:15.743
01:21:18.749 : en:01:21:18.749
01:27:15.021 : en:01:27:15.021

Трейлер

-     - -

Theseus

Пост 10-Янв-2019 18:45

[Цитировать]

Веном / Venom- Год выхода: 2018
Страна: США, Китай
Жанр: ужасы, фантастика, боевик, триллер
Продолжительность: 01:52:08
Перевод 1: Профессиональный (полное дублирование) [Лицензия Blu-ray EUR/RUS]
Перевод 2: Профессиональный многоголосый [HDRezka Studio]
Перевод 3: Авторский [Д. Есарев]
Перевод 4: Профессиональный (полное дублирование) [Лицензия Blu-ray EUR/UKR]
Субтитры: Русские (Forced, full), украинские (Full), английские-Режиссер: Рубен Фляйшер-В ролях: Том Харди, Мишель Уильямс, Марчелла Браджио, Вуди Харрельсон, Дженни Слейт, Риз Ахмед, Мак Брандт, Рон Сепас Джонс, Мишель Ли, Мелора Уолтерс-О фильме: Что если в один прекрасный день в тебя вселяется существо-симбиот, которое наделяет тебя сверхчеловеческими способностями? Вот только Веном — симбиот совсем недобрый, и договориться с ним невозможно. Хотя нужно ли договариваться?.. Ведь в какой-то момент ты понимаешь, что быть плохим вовсе не так уж и плохо. Так даже веселее. В мире и так слишком много супергероев! Мы — Веном!- -Качество: BDRip 1080p
Формат: MKV
Видео кодек: x.264
Аудио кодек: AC3, DTS
Видео: MPEG4-AVC, 1920x800, 23.976 fps, 10,5 Mbps
Аудио 1: 48 kHz, AC3, 6 ch, 640 kbps | RUS [DUB]
Аудио 2: 48 kHz, AC3, 6 ch, 192 kbps | RUS [MVO]
Аудио 3: 48 kHz, AC3, 6 ch, 640 kbps | RUS [AVO]
Аудио 4: 48 kHz, DTS, 6 ch, 1509 kbps | RUS [AVO]
Аудио 5: 48 kHz, AC3, 6 ch, 640 kbps | UKR [DUB]
Аудио 6: 48 kHz, DTS, 6 ch, 1509 kbps | ENG-

MI

General
Unique ID : 91781497543211974402139657249309605695 (0x450C7933C06C491E039B4B7D2A303F3F)
Complete name : Venom.2018.Lic.BDRip.1080p.seleZen.mkv
Format : Matroska
Format version : Version 4
File size : 12.3 GiB
Duration : 1 h 52 min
Overall bit rate : 15.6 Mb/s
Movie name : Venom 2018 from селезень
Encoded date : UTC 2019-01-04 17:23:12
Writing application : mkvmerge v29.0.0 ('Like It Or Not') 64-bit
Writing library : libebml v1.3.6 + libmatroska v1.4.9
Video
ID : 1
Format : AVC
Format/Info : Advanced Video Codec
Format profile : High@L4.1
Format settings : CABAC / 5 Ref Frames
Format settings, CABAC : Yes
Format settings, ReFrames : 5 frames
Codec ID : V_MPEG4/ISO/AVC
Duration : 1 h 52 min
Bit rate : 10.5 Mb/s
Width : 1 920 pixels
Height : 800 pixels
Display aspect ratio : 2.40:1
Frame rate mode : Constant
Frame rate : 23.976 (24000/1001) FPS
Color space : YUV
Chroma subsampling : 4:2:0
Bit depth : 8 bits
Scan type : Progressive
Bits/(Pixel*Frame) : 0.285
Stream size : 8.23 GiB (67%)
Title : seleZen
Writing library : x264 core 148 r2705kMod 3f5ed56
Encoding settings : cabac=1 / ref=5 / deblock=1:-2:-2 / analyse=0x3:0x133 / me=umh / subme=11 / psy=1 / fade_compensate=0.00 / psy_rd=1.05:0.06 / mixed_ref=1 / me_range=48 / chroma_me=1 / trellis=2 / 8x8dct=1 / cqm=0 / deadzone=21,11 / fast_pskip=0 / chroma_qp_offset=-3 / threads=12 / lookahead_threads=2 / sliced_threads=0 / nr=0 / decimate=0 / interlaced=0 / bluray_compat=0 / constrained_intra=0 / fgo=0 / bframes=8 / b_pyramid=2 / b_adapt=2 / b_bias=0 / direct=3 / weightb=1 / open_gop=0 / weightp=2 / keyint=240 / keyint_min=23 / scenecut=40 / intra_refresh=0 / rc_lookahead=50 / rc=2pass / mbtree=0 / bitrate=10500 / ratetol=1.0 / qcomp=0.60 / qpmin=0 / qpmax=51 / qpstep=4 / cplxblur=20.0 / qblur=0.5 / vbv_maxrate=50000 / vbv_bufsize=62500 / nal_hrd=none / filler=0 / ip_ratio=1.40 / pb_ratio=1.30 / aq=3:0.80
Language : English
Default : Yes
Forced : No
Audio #1
ID : 2
Format : AC-3
Format/Info : Audio Coding 3
Commercial name : Dolby Digital
Codec ID : A_AC3
Duration : 1 h 52 min
Bit rate mode : Constant
Bit rate : 640 kb/s
Channel(s) : 6 channels
Channel layout : L R C LFE Ls Rs
Sampling rate : 48.0 kHz
Frame rate : 31.250 FPS (1536 SPF)
Bit depth : 16 bits
Compression mode : Lossy
Stream size : 513 MiB (4%)
Title : Dub [License]
Language : Russian
Service kind : Complete Main
Default : Yes
Forced : Yes
Audio #2
ID : 3
Format : AC-3
Format/Info : Audio Coding 3
Commercial name : Dolby Digital
Codec ID : A_AC3
Duration : 1 h 52 min
Bit rate mode : Constant
Bit rate : 192 kb/s
Channel(s) : 2 channels
Channel layout : L R
Sampling rate : 48.0 kHz
Frame rate : 31.250 FPS (1536 SPF)
Bit depth : 16 bits
Compression mode : Lossy
Stream size : 154 MiB (1%)
Title : MVO [HDRezka Studio]
Language : Russian
Service kind : Complete Main
Default : No
Forced : No
Audio #3
ID : 4
Format : AC-3
Format/Info : Audio Coding 3
Commercial name : Dolby Digital
Codec ID : A_AC3
Duration : 1 h 52 min
Bit rate mode : Constant
Bit rate : 640 kb/s
Channel(s) : 6 channels
Channel layout : L R C LFE Ls Rs
Sampling rate : 48.0 kHz
Frame rate : 31.250 FPS (1536 SPF)
Bit depth : 16 bits
Compression mode : Lossy
Stream size : 513 MiB (4%)
Title : AVO [Yesarev]
Language : Russian
Service kind : Complete Main
Default : No
Forced : No
Audio #4
ID : 5
Format : DTS
Format/Info : Digital Theater Systems
Codec ID : A_DTS
Duration : 1 h 52 min
Bit rate mode : Constant
Bit rate : 1 509 kb/s
Channel(s) : 6 channels
Channel layout : C L R Ls Rs LFE
Sampling rate : 48.0 kHz
Frame rate : 93.750 FPS (512 SPF)
Bit depth : 24 bits
Compression mode : Lossy
Stream size : 1.18 GiB (10%)
Title : AVO [Yesarev]
Language : Russian
Default : No
Forced : No
Audio #5
ID : 6
Format : AC-3
Format/Info : Audio Coding 3
Commercial name : Dolby Digital
Codec ID : A_AC3
Duration : 1 h 52 min
Bit rate mode : Constant
Bit rate : 640 kb/s
Channel(s) : 6 channels
Channel layout : L R C LFE Ls Rs
Sampling rate : 48.0 kHz
Frame rate : 31.250 FPS (1536 SPF)
Bit depth : 16 bits
Compression mode : Lossy
Stream size : 513 MiB (4%)
Title : Dub [License]
Language : Ukrainian
Service kind : Complete Main
Default : No
Forced : No
Audio #6
ID : 7
Format : DTS
Format/Info : Digital Theater Systems
Codec ID : A_DTS
Duration : 1 h 52 min
Bit rate mode : Constant
Bit rate : 1 509 kb/s
Channel(s) : 6 channels
Channel layout : C L R Ls Rs LFE
Sampling rate : 48.0 kHz
Frame rate : 93.750 FPS (512 SPF)
Bit depth : 16 bits
Compression mode : Lossy
Stream size : 1.18 GiB (10%)
Title : Original
Language : English
Default : No
Forced : No
Text #1
ID : 8
Format : UTF-8
Codec ID : S_TEXT/UTF8
Codec ID/Info : UTF-8 Plain Text
Duration : 1 h 49 min
Bit rate : 0 b/s
Count of elements : 7
Stream size : 209 Bytes (0%)
Title : Forced (iTunes)
Language : Russian
Default : Yes
Forced : Yes
Text #2
ID : 9
Format : UTF-8
Codec ID : S_TEXT/UTF8
Codec ID/Info : UTF-8 Plain Text
Duration : 1 h 50 min
Bit rate : 75 b/s
Count of elements : 1218
Stream size : 61.0 KiB (0%)
Title : Full (iTunes)
Language : Russian
Default : No
Forced : No
Text #3
ID : 10
Format : UTF-8
Codec ID : S_TEXT/UTF8
Codec ID/Info : UTF-8 Plain Text
Duration : 1 h 34 min
Bit rate : 101 b/s
Count of elements : 1334
Stream size : 70.6 KiB (0%)
Title : Full (FOCS)
Language : Russian
Default : No
Forced : No
Text #4
ID : 11
Format : UTF-8
Codec ID : S_TEXT/UTF8
Codec ID/Info : UTF-8 Plain Text
Duration : 1 h 50 min
Bit rate : 85 b/s
Count of elements : 1396
Stream size : 69.0 KiB (0%)
Title : Full (iTunes)
Language : Ukrainian
Default : No
Forced : No
Text #5
ID : 12
Format : UTF-8
Codec ID : S_TEXT/UTF8
Codec ID/Info : UTF-8 Plain Text
Duration : 1 h 49 min
Bit rate : 56 b/s
Count of elements : 1395
Stream size : 45.1 KiB (0%)
Title : SDH
Language : English
Default : No
Forced : No
Menu
00:00:00.000 : en:00:00:00.000
00:04:43.200 : en:00:04:43.200
00:10:58.074 : en:00:10:58.074
00:17:34.929 : en:00:17:34.929
00:24:05.486 : en:00:24:05.486
00:32:18.812 : en:00:32:18.812
00:40:07.447 : en:00:40:07.447
00:46:51.976 : en:00:46:51.976
00:53:26.203 : en:00:53:26.203
01:00:57.070 : en:01:00:57.070
01:04:01.796 : en:01:04:01.796
01:08:36.446 : en:01:08:36.446
01:11:12.852 : en:01:11:12.852
01:14:15.743 : en:01:14:15.743
01:21:18.749 : en:01:21:18.749
01:27:15.021 : en:01:27:15.021

Трейлер

-     - -

Theseus

Пост 10-Янв-2019 18:44

[Цитировать]

Веном / Venom- Год выхода: 2018
Страна: США, Китай
Жанр: ужасы, фантастика, боевик, триллер
Продолжительность: 01:52:08
Перевод 1: Профессиональный (полное дублирование) [Лицензия Blu-ray EUR/RUS]
Перевод 2: Профессиональный многоголосый [HDRezka Studio]
Перевод 3: Авторский [Д. Есарев]
Перевод 4: Профессиональный (полное дублирование) [Лицензия Blu-ray EUR/UKR]
Субтитры: Русские (Forced, full), украинские (Full), английские-Режиссер: Рубен Фляйшер-В ролях: Том Харди, Мишель Уильямс, Марчелла Браджио, Вуди Харрельсон, Дженни Слейт, Риз Ахмед, Мак Брандт, Рон Сепас Джонс, Мишель Ли, Мелора Уолтерс-О фильме: Что если в один прекрасный день в тебя вселяется существо-симбиот, которое наделяет тебя сверхчеловеческими способностями? Вот только Веном — симбиот совсем недобрый, и договориться с ним невозможно. Хотя нужно ли договариваться?.. Ведь в какой-то момент ты понимаешь, что быть плохим вовсе не так уж и плохо. Так даже веселее. В мире и так слишком много супергероев! Мы — Веном!- -Качество: BDRip 720p
Формат: MKV
Видео кодек: x.264
Аудио кодек: AC3, DTS
Видео: MPEG4-AVC, 1280x534, 23.976 fps, 5500 kbps
Аудио 1: 48 kHz, AC3, 6 ch, 640 kbps | RUS [DUB]
Аудио 2: 48 kHz, AC3, 6 ch, 192 kbps | RUS [MVO]
Аудио 3: 48 kHz, AC3, 6 ch, 640 kbps | RUS [AVO]
Аудио 4: 48 kHz, DTS, 6 ch, 1509 kbps | RUS [AVO]
Аудио 5: 48 kHz, AC3, 6 ch, 640 kbps | UKR [DUB]
Аудио 6: 48 kHz, DTS, 6 ch, 1509 kbps | ENG-

MI

General
Unique ID : 204337561688374044089489700046083121057 (0x99B9FB9E2575525B36162429588ADFA1)
Complete name : Venom.2018.Lic.BDRip.720p.seleZen.mkv
Format : Matroska
Format version : Version 4
File size : 8.33 GiB
Duration : 1 h 52 min
Overall bit rate : 10.6 Mb/s
Movie name : Venom 2018 from селезень
Encoded date : UTC 2019-01-04 17:17:30
Writing application : mkvmerge v29.0.0 ('Like It Or Not') 64-bit
Writing library : libebml v1.3.6 + libmatroska v1.4.9
Video
ID : 1
Format : AVC
Format/Info : Advanced Video Codec
Format profile : High@L4.1
Format settings : CABAC / 12 Ref Frames
Format settings, CABAC : Yes
Format settings, ReFrames : 12 frames
Codec ID : V_MPEG4/ISO/AVC
Duration : 1 h 52 min
Bit rate : 5 500 kb/s
Width : 1 280 pixels
Height : 534 pixels
Display aspect ratio : 2.40:1
Frame rate mode : Constant
Frame rate : 23.976 (24000/1001) FPS
Color space : YUV
Chroma subsampling : 4:2:0
Bit depth : 8 bits
Scan type : Progressive
Bits/(Pixel*Frame) : 0.336
Stream size : 4.31 GiB (52%)
Title : seleZen
Writing library : x264 core 148 r2705kMod 3f5ed56
Encoding settings : cabac=1 / ref=12 / deblock=1:-2:-2 / analyse=0x3:0x133 / me=umh / subme=11 / psy=1 / fade_compensate=0.00 / psy_rd=1.05:0.06 / mixed_ref=1 / me_range=48 / chroma_me=1 / trellis=2 / 8x8dct=1 / cqm=0 / deadzone=21,11 / fast_pskip=0 / chroma_qp_offset=-3 / threads=12 / lookahead_threads=2 / sliced_threads=0 / nr=0 / decimate=0 / interlaced=0 / bluray_compat=0 / constrained_intra=0 / fgo=0 / bframes=8 / b_pyramid=2 / b_adapt=2 / b_bias=0 / direct=3 / weightb=1 / open_gop=0 / weightp=2 / keyint=240 / keyint_min=23 / scenecut=40 / intra_refresh=0 / rc_lookahead=50 / rc=2pass / mbtree=0 / bitrate=5500 / ratetol=1.0 / qcomp=0.60 / qpmin=0 / qpmax=51 / qpstep=4 / cplxblur=20.0 / qblur=0.5 / vbv_maxrate=50000 / vbv_bufsize=62500 / nal_hrd=none / filler=0 / ip_ratio=1.40 / pb_ratio=1.30 / aq=3:0.80
Language : English
Default : Yes
Forced : No
Audio #1
ID : 2
Format : AC-3
Format/Info : Audio Coding 3
Commercial name : Dolby Digital
Codec ID : A_AC3
Duration : 1 h 52 min
Bit rate mode : Constant
Bit rate : 640 kb/s
Channel(s) : 6 channels
Channel layout : L R C LFE Ls Rs
Sampling rate : 48.0 kHz
Frame rate : 31.250 FPS (1536 SPF)
Bit depth : 16 bits
Compression mode : Lossy
Stream size : 513 MiB (6%)
Title : Dub [License]
Language : Russian
Service kind : Complete Main
Default : Yes
Forced : Yes
Audio #2
ID : 3
Format : AC-3
Format/Info : Audio Coding 3
Commercial name : Dolby Digital
Codec ID : A_AC3
Duration : 1 h 52 min
Bit rate mode : Constant
Bit rate : 192 kb/s
Channel(s) : 2 channels
Channel layout : L R
Sampling rate : 48.0 kHz
Frame rate : 31.250 FPS (1536 SPF)
Bit depth : 16 bits
Compression mode : Lossy
Stream size : 154 MiB (2%)
Title : MVO [HDRezka Studio]
Language : Russian
Service kind : Complete Main
Default : No
Forced : No
Audio #3
ID : 4
Format : AC-3
Format/Info : Audio Coding 3
Commercial name : Dolby Digital
Codec ID : A_AC3
Duration : 1 h 52 min
Bit rate mode : Constant
Bit rate : 640 kb/s
Channel(s) : 6 channels
Channel layout : L R C LFE Ls Rs
Sampling rate : 48.0 kHz
Frame rate : 31.250 FPS (1536 SPF)
Bit depth : 16 bits
Compression mode : Lossy
Stream size : 513 MiB (6%)
Title : AVO [Yesarev]
Language : Russian
Service kind : Complete Main
Default : No
Forced : No
Audio #4
ID : 5
Format : DTS
Format/Info : Digital Theater Systems
Codec ID : A_DTS
Duration : 1 h 52 min
Bit rate mode : Constant
Bit rate : 1 509 kb/s
Channel(s) : 6 channels
Channel layout : C L R Ls Rs LFE
Sampling rate : 48.0 kHz
Frame rate : 93.750 FPS (512 SPF)
Bit depth : 24 bits
Compression mode : Lossy
Stream size : 1.18 GiB (14%)
Title : AVO [Yesarev]
Language : Russian
Default : No
Forced : No
Audio #5
ID : 6
Format : AC-3
Format/Info : Audio Coding 3
Commercial name : Dolby Digital
Codec ID : A_AC3
Duration : 1 h 52 min
Bit rate mode : Constant
Bit rate : 640 kb/s
Channel(s) : 6 channels
Channel layout : L R C LFE Ls Rs
Sampling rate : 48.0 kHz
Frame rate : 31.250 FPS (1536 SPF)
Bit depth : 16 bits
Compression mode : Lossy
Stream size : 513 MiB (6%)
Title : Dub [License]
Language : Ukrainian
Service kind : Complete Main
Default : No
Forced : No
Audio #6
ID : 7
Format : DTS
Format/Info : Digital Theater Systems
Codec ID : A_DTS
Duration : 1 h 52 min
Bit rate mode : Constant
Bit rate : 1 509 kb/s
Channel(s) : 6 channels
Channel layout : C L R Ls Rs LFE
Sampling rate : 48.0 kHz
Frame rate : 93.750 FPS (512 SPF)
Bit depth : 16 bits
Compression mode : Lossy
Stream size : 1.18 GiB (14%)
Title : Original
Language : English
Default : No
Forced : No
Text #1
ID : 8
Format : UTF-8
Codec ID : S_TEXT/UTF8
Codec ID/Info : UTF-8 Plain Text
Duration : 1 h 49 min
Bit rate : 0 b/s
Count of elements : 7
Stream size : 209 Bytes (0%)
Title : Forced (iTunes)
Language : Russian
Default : Yes
Forced : Yes
Text #2
ID : 9
Format : UTF-8
Codec ID : S_TEXT/UTF8
Codec ID/Info : UTF-8 Plain Text
Duration : 1 h 50 min
Bit rate : 75 b/s
Count of elements : 1218
Stream size : 61.0 KiB (0%)
Title : Full (iTunes)
Language : Russian
Default : No
Forced : No
Text #3
ID : 10
Format : UTF-8
Codec ID : S_TEXT/UTF8
Codec ID/Info : UTF-8 Plain Text
Duration : 1 h 34 min
Bit rate : 101 b/s
Count of elements : 1334
Stream size : 70.6 KiB (0%)
Title : Full (FOCS)
Language : Russian
Default : No
Forced : No
Text #4
ID : 11
Format : UTF-8
Codec ID : S_TEXT/UTF8
Codec ID/Info : UTF-8 Plain Text
Duration : 1 h 50 min
Bit rate : 85 b/s
Count of elements : 1396
Stream size : 69.0 KiB (0%)
Title : Full (iTunes)
Language : Ukrainian
Default : No
Forced : No
Text #5
ID : 12
Format : UTF-8
Codec ID : S_TEXT/UTF8
Codec ID/Info : UTF-8 Plain Text
Duration : 1 h 49 min
Bit rate : 56 b/s
Count of elements : 1395
Stream size : 45.1 KiB (0%)
Title : SDH
Language : English
Default : No
Forced : No
Menu
00:00:00.000 : en:00:00:00.000
00:04:43.200 : en:00:04:43.200
00:10:58.074 : en:00:10:58.074
00:17:34.929 : en:00:17:34.929
00:24:05.486 : en:00:24:05.486
00:32:18.812 : en:00:32:18.812
00:40:07.447 : en:00:40:07.447
00:46:51.976 : en:00:46:51.976
00:53:26.203 : en:00:53:26.203
01:00:57.070 : en:01:00:57.070
01:04:01.796 : en:01:04:01.796
01:08:36.446 : en:01:08:36.446
01:11:12.852 : en:01:11:12.852
01:14:15.743 : en:01:14:15.743
01:21:18.749 : en:01:21:18.749
01:27:15.021 : en:01:27:15.021

Трейлер

-     - -

Theseus

Пост 10-Янв-2019 15:00

[Цитировать]

Нация убийц / Assassination Nation- Год выхода: 2018
Страна: США
Жанр: Триллер, драма, комедия, криминал
Продолжительность: 01:47:59
Перевод: Профессиональный, многоголосый, закадровый | HDrezka Studio
Субтитры: Английские-Режиссер: Сэм Левинсон-В ролях: Одесса Янг, Хари Неф, Сьюки Уотерхаус, Абра, Колман Доминго, Билл Скарсгард, Джоэл МакХэйл, Аника Нони Роуз, Белла Торн-О фильме: Селфи, эмоджи, снэпчаты и секстинг — вот в чем хороши старшеклассница Лили и ее лучшие подруги, живущие в мире бесконечных угарных вечеринок, интриг и секса без обязательств. Но, когда в результате хакерской атаки в открытый доступ выливаются тонны грязи и компромата, именно их делают крайними. Тихий городок Салем погружается в пучину кровавой анархии, и выжить здесь можно только убивая на опережение….- -Качество: BDRip 1080p
Формат: MKV
Видео кодек: H.265
Аудио кодек: AC3, DTS
Видео: HEVC, 1920x800 (2.40:1), 23.976 fps, 5 821 Kbps
Аудио 1: AC-3, 48.0 KHz, 2 ch, 192 Kbps | RUS [MVO, HDrezka Studio]
Аудио 2: AC-3, 48.0 KHz, 2 ch, 192 Kbps | UKR [DUB, AAA-Sound]
Аудио 3: DTS, 48.0 kHz, 6 ch, 1 509 kb/s | ENG-Без рекламы!-Сэмпл-

MediaInfo

Код:
General
Unique ID                                : 189201330453317255278684869049971902002 (0x8E56D9CCF77EC6C9ABD1EB9DA6340632)
Complete name                            : Assassination.Nation.2018.BDRip.1080p.HEVC.mkv
Format                                   : Matroska
Format version                           : Version 4
File size                                : 5.83 GiB
Duration                                 : 1 h 47 min
Overall bit rate                         : 7 727 kb/s
Encoded date                             : UTC 2019-01-02 17:22:56
Writing application                      : mkvmerge v8.3.0 ('Over the Horizon') 64bit
Writing library                          : libebml v1.3.1 + libmatroska v1.4.2
Video
ID                                       : 1
Format                                   : HEVC
Format/Info                              : High Efficiency Video Coding
Format profile                           : Main 10@L4.1@High
Codec ID                                 : V_MPEGH/ISO/HEVC
Duration                                 : 1 h 47 min
Bit rate                                 : 5 821 kb/s
Width                                    : 1 920 pixels
Height                                   : 800 pixels
Display aspect ratio                     : 2.40:1
Frame rate mode                          : Constant
Frame rate                               : 23.976 (24000/1001) FPS
Color space                              : YUV
Chroma subsampling                       : 4:2:0
Bit depth                                : 10 bits
Bits/(Pixel*Frame)                       : 0.158
Stream size                              : 4.39 GiB (75%)
Writing library                          : x265 2.9+2-7e978ed93d60:[Windows][GCC 8.2.0][64 bit] 10bit
Encoding settings                        : cpuid=1111039 / frame-threads=4 / numa-pools=14,14 / wpp / pmode / no-pme / no-psnr / no-ssim / log-level=2 / input-csp=1 / input-res=1920x800 / interlace=0 / total-frames=155353 / level-idc=41 / high-tier=1 / uhd-bd=0 / ref=3 / no-allow-non-conformance / no-repeat-headers / annexb / no-aud / no-hrd / info / hash=0 / no-temporal-layers / open-gop / min-keyint=23 / keyint=240 / gop-lookahead=0 / bframes=4 / b-adapt=2 / b-pyramid / bframe-bias=0 / rc-lookahead=20 / lookahead-slices=5 / scenecut=40 / radl=0 / no-intra-refresh / ctu=32 / min-cu-size=8 / no-rect / no-amp / max-tu-size=32 / tu-inter-depth=1 / tu-intra-depth=1 / limit-tu=0 / rdoq-level=0 / dynamic-rd=0.00 / no-ssim-rd / signhide / no-tskip / nr-intra=0 / nr-inter=0 / no-constrained-intra / no-strong-intra-smoothing / max-merge=2 / limit-refs=0 / no-limit-modes / me=2 / subme=5 / merange=32 / temporal-mvp / weightp / no-weightb / no-analyze-src-pics / deblock=-3:-3 / no-sao / no-sao-non-deblock / rd=3 / no-early-skip / rskip / no-fast-intra / no-tskip-fast / no-cu-lossless / no-b-intra / no-splitrd-skip / rdpenalty=0 / psy-rd=2.00 / psy-rdoq=0.00 / no-rd-refine / no-lossless / cbqpoffs=0 / crqpoffs=0 / rc=crf / crf=18.0 / qcomp=0.60 / qpstep=4 / stats-write=0 / stats-read=0 / vbv-maxrate=50000 / vbv-bufsize=50000 / vbv-init=0.9 / crf-max=0.0 / crf-min=0.0 / ipratio=1.40 / pbratio=1.30 / aq-mode=1 / aq-strength=1.00 / cutree / zone-count=0 / no-strict-cbr / qg-size=32 / no-rc-grain / qpmax=69 / qpmin=0 / no-const-vbv / sar=0 / overscan=0 / videoformat=5 / range=0 / colorprim=1 / transfer=1 / colormatrix=1 / chromaloc=0 / display-window=0 / max-cll=0,0 / min-luma=0 / max-luma=1023 / log2-max-poc-lsb=8 / vui-timing-info / vui-hrd-info / slices=1 / no-opt-qp-pps / no-opt-ref-list-length-pps / no-multi-pass-opt-rps / scenecut-bias=0.05 / no-opt-cu-delta-qp / no-aq-motion / no-hdr / no-hdr-opt / no-dhdr10-opt / no-idr-recovery-sei / analysis-reuse-level=5 / scale-factor=0 / refine-intra=0 / refine-inter=0 / refine-mv=0 / no-limit-sao / ctu-info=0 / no-lowpass-dct / refine-mv-type=0 / copy-pic=1 / max-ausize-factor=1.0 / no-dynamic-refine / no-single-sei
Language                                 : English
Default                                  : Yes
Forced                                   : No
Color range                              : Limited
Color primaries                          : BT.709
Transfer characteristics                 : BT.709
Matrix coefficients                      : BT.709
Audio #1
ID                                       : 2
Format                                   : AC-3
Format/Info                              : Audio Coding 3
Commercial name                          : Dolby Digital
Codec ID                                 : A_AC3
Duration                                 : 1 h 47 min
Bit rate mode                            : Constant
Bit rate                                 : 192 kb/s
Channel(s)                               : 2 channels
Channel layout                           : L R
Sampling rate                            : 48.0 kHz
Frame rate                               : 31.250 FPS (1536 SPF)
Bit depth                                : 16 bits
Compression mode                         : Lossy
Stream size                              : 148 MiB (2%)
Title                                    : HDrezka Studio
Language                                 : Russian
Service kind                             : Complete Main
Default                                  : Yes
Forced                                   : No
Audio #2
ID                                       : 3
Format                                   : AC-3
Format/Info                              : Audio Coding 3
Commercial name                          : Dolby Digital
Codec ID                                 : A_AC3
Duration                                 : 1 h 47 min
Bit rate mode                            : Constant
Bit rate                                 : 192 kb/s
Channel(s)                               : 2 channels
Channel layout                           : L R
Sampling rate                            : 48.0 kHz
Frame rate                               : 31.250 FPS (1536 SPF)
Bit depth                                : 16 bits
Compression mode                         : Lossy
Stream size                              : 148 MiB (2%)
Title                                    : AAA-Sound
Language                                 : Ukrainian
Service kind                             : Complete Main
Default                                  : No
Forced                                   : No
Audio #3
ID                                       : 4
Format                                   : DTS
Format/Info                              : Digital Theater Systems
Codec ID                                 : A_DTS
Duration                                 : 1 h 47 min
Bit rate mode                            : Constant
Bit rate                                 : 1 509 kb/s
Channel(s)                               : 6 channels
Channel layout                           : C L R Ls Rs LFE
Sampling rate                            : 48.0 kHz
Frame rate                               : 93.750 FPS (512 SPF)
Bit depth                                : 24 bits
Compression mode                         : Lossy
Stream size                              : 1.14 GiB (20%)
Language                                 : English
Default                                  : No
Forced                                   : No
Text
ID                                       : 5
Format                                   : PGS
Muxing mode                              : zlib
Codec ID                                 : S_HDMV/PGS
Codec ID/Info                            : Picture based subtitle format used on BDs/HD-DVDs
Duration                                 : 1 h 46 min
Bit rate                                 : 10.8 kb/s
Count of elements                        : 3188
Stream size                              : 8.22 MiB (0%)
Language                                 : English
Default                                  : Yes
Forced                                   : No
Menu
00:00:00.000                             : :Chapter 01
00:22:06.366                             : :Chapter 02
00:43:51.712                             : :Chapter 03
01:01:11.334                             : :Chapter 04
01:16:31.169                             : :Chapter 05
01:21:47.694                             : :Chapter 06
01:28:27.135                             : :Chapter 07
01:39:32.883                             : :Chapter 08
-    - -

Theseus

Пост 10-Янв-2019 14:59

[Цитировать]

Нация убийц / Assassination Nation- Год выхода: 2018
Страна: США
Жанр: Триллер, драма, комедия, криминал
Продолжительность: 01:47:59
Перевод: Профессиональный, многоголосый, закадровый | HDrezka Studio
Субтитры: Отсутствуют-Режиссер: Сэм Левинсон-В ролях: Одесса Янг, Хари Неф, Сьюки Уотерхаус, Абра, Колман Доминго, Билл Скарсгард, Джоэл МакХэйл, Аника Нони Роуз, Белла Торн-О фильме: Селфи, эмоджи, снэпчаты и секстинг — вот в чем хороши старшеклассница Лили и ее лучшие подруги, живущие в мире бесконечных угарных вечеринок, интриг и секса без обязательств. Но, когда в результате хакерской атаки в открытый доступ выливаются тонны грязи и компромата, именно их делают крайними. Тихий городок Салем погружается в пучину кровавой анархии, и выжить здесь можно только убивая на опережение….- -Качество: BDRip 1080p
Формат: MKV
Видео кодек: x.264
Аудио кодек: AC3, DTS
Видео: AVC, 1920x808 (2.40:1), 23.976 fps, 8 634 kb/s
Аудио 1: AC-3, 48.0 KHz, 2 ch, 192 Kbps | RUS
Аудио 2: DTS, 48.0 kHz, 6 ch, 1 509 kb/s | ENG-Без рекламы!-

MediaInfo

Код:
Формат : Matroska
Версия формата : Version 4 / Version 2
Размер файла : 7,80 Гбайт
Продолжительность : 1 ч. 47 м.
Общий поток : 10,3 Мбит/сек
Дата кодирования : UTC 2019-01-02 08:28:19
Программа кодирования : mkvmerge v29.0.0 ('Like It Or Not') 64-bit
Библиотека кодирования : libebml v1.3.6 + libmatroska v1.4.9
Видео
Идентификатор : 1
Формат : AVC
Формат/Информация : Advanced Video Codec
Профиль формата : High@L4.1
Настройки формата : CABAC / 5 Ref Frames
Параметр CABAC формата : Да
Параметр RefFrames формата : 5 кадров
Идентификатор кодека : V_MPEG4/ISO/AVC
Продолжительность : 1 ч. 47 м.
Битрейт : 8634 Кбит/сек
Ширина : 1920 пикселей
Высота : 808 пикселей
Соотношение сторон : 2,40:1
Режим частоты кадров : Постоянный
Частота кадров : 23,976 (24000/1001) кадра/сек
Цветовое пространство : YUV
Субдискретизация насыщенности : 4:2:0
Битовая глубина : 8 бит
Тип развёртки : Прогрессивная
Бит/(Пиксели*Кадры) : 0.232
Размер потока : 6,51 Гбайт (84%)
Библиотека кодирования : x264 core 157 r2935 545de2f
Настройки программы : cabac=1 / ref=5 / deblock=1:-3:-3 / analyse=0x3:0x133 / me=umh / subme=8 / psy=1 / psy_rd=1.00:0.00 / mixed_ref=1 / me_range=16 / chroma_me=1 / trellis=1 / 8x8dct=1 / cqm=0 / deadzone=21,11 / fast_pskip=0 / chroma_qp_offset=-2 / threads=25 / lookahead_threads=4 / sliced_threads=0 / nr=0 / decimate=1 / interlaced=0 / bluray_compat=0 / constrained_intra=0 / bframes=3 / b_pyramid=2 / b_adapt=1 / b_bias=0 / direct=3 / weightb=1 / open_gop=0 / weightp=2 / keyint=250 / keyint_min=23 / scenecut=40 / intra_refresh=0 / rc_lookahead=50 / rc=2pass / mbtree=1 / bitrate=8634 / ratetol=1.0 / qcomp=0.60 / qpmin=0 / qpmax=69 / qpstep=4 / cplxblur=20.0 / qblur=0.5 / vbv_maxrate=62500 / vbv_bufsize=78125 / nal_hrd=none / filler=0 / ip_ratio=1.40 / aq=1:1.00
Default : Да
Forced : Нет
Аудио #1
Идентификатор : 2
Формат : AC-3
Формат/Информация : Audio Coding 3
Идентификатор кодека : A_AC3
Продолжительность : 1 ч. 47 м.
Вид битрейта : Постоянный
Битрейт : 192 Кбит/сек
Каналы : 2 канала
Расположение каналов : Front: L R
Частота : 48,0 КГц
Частота кадров : 31,250 кадров/сек (1536 SPF)
Битовая глубина : 16 бит
Метод сжатия : С потерями
Размер потока : 148 Мбайт (2%)
Язык : Russian
Default : Да
Forced : Да
Аудио #2
Идентификатор : 3
Формат : DTS
Формат/Информация : Digital Theater Systems
Идентификатор кодека : A_DTS
Продолжительность : 1 ч. 47 м.
Вид битрейта : Постоянный
Битрейт : 1509 Кбит/сек
Каналы : 6 каналов
Расположение каналов : Front: L C R, Side: L R, LFE
Частота : 48,0 КГц
Частота кадров : 93,750 кадра/сек (512 SPF)
Битовая глубина : 24 бит
Метод сжатия : С потерями
Размер потока : 1,14 Гбайт (15%)
Язык : English
Default : Нет
Forced : Нет
Меню
00:00:00.000 : en:00:00:00.000
00:22:06.367 : en:00:22:06.367
00:43:51.712 : en:00:43:51.712
01:01:11.334 : en:01:01:11.334
01:16:31.170 : en:01:16:31.170
01:21:47.694 : en:01:21:47.694
01:28:27.135 : en:01:28:27.135
01:39:32.884 : en:01:39:32.884
-    - -

Theseus

Пост 10-Янв-2019 14:51

[Цитировать]

Агент Джонни Инглиш 3.0 / Johnny English Strikes Again- Год выхода: 2018
Страна: Великобритания, Франция, США
Жанр: Боевик, Комедия, Приключения
Продолжительность: 01:28:33
Перевод: Профессиональный (полное дублирование) [iTunes]
Субтитры: Английские-Режиссер: Дэвид Керр-В ролях: Эмма Томпсон, Ольга Куриленко, Роуэн Аткинсон, Джейк Лэси, Бен Миллер, Миранда Хеннесси, Адам Джеймс, Пиппа Беннетт-Уорнер, Ирена Тишина, Джеймс Илс-О фильме: Когда все агенты секретной службы Её Величества внезапно выходят из строя, в игру вступает запасной вариант. Образец английского стиля и любимец роковых красоток; король безвыходных ситуаций и хранитель аналоговых традиций в цифровом мире, агент Джонни Инглиш — боль и гордость британской разведки. Этому парню есть что взбалтывать, и он взболтает не по-детски.- -Качество: BDRemux
Контейнер: MKV
Видео кодек: H.264
Аудио кодек: AC3, DTS-HD MA
Видео: MPEG-4 AVC, 1920x1080, 23.976 fps, 26,5 Mbps
Аудио 1: 48 kHz, AC3, 6 ch, 384 kbps | Rus
Аудио 2: 48 kHz, DTS-HD MA, 8 ch, 5909 kbps | Eng-

MI

General
Unique ID : 291454650237719178692587017786464656214 (0xDB441FB37A78FBB75A67D242CB9FDB56)
Complete name : Johnny.English.Strikes.Again.2018.BDREMUX.1080p.seleZen.mkv
Format : Matroska
Format version : Version 4
File size : 20.3 GiB
Duration : 1 h 28 min
Overall bit rate mode : Variable
Overall bit rate : 32.8 Mb/s
Movie name : Johnny English Strikes Again 2018 from селезень
Encoded date : UTC 2019-01-10 05:50:31
Writing application : mkvmerge v29.0.0 ('Like It Or Not') 64-bit
Writing library : libebml v1.3.6 + libmatroska v1.4.9
Video
ID : 1
Format : AVC
Format/Info : Advanced Video Codec
Format profile : High@L4.1
Format settings : CABAC / 4 Ref Frames
Format settings, CABAC : Yes
Format settings, ReFrames : 4 frames
Codec ID : V_MPEG4/ISO/AVC
Duration : 1 h 28 min
Bit rate mode : Variable
Bit rate : 26.5 Mb/s
Maximum bit rate : 29.0 Mb/s
Width : 1 920 pixels
Height : 1 080 pixels
Display aspect ratio : 16:9
Frame rate mode : Constant
Frame rate : 23.976 (24000/1001) FPS
Color space : YUV
Chroma subsampling : 4:2:0
Bit depth : 8 bits
Scan type : Progressive
Bits/(Pixel*Frame) : 0.533
Stream size : 16.4 GiB (81%)
Default : Yes
Forced : No
Audio #1
ID : 2
Format : AC-3
Format/Info : Audio Coding 3
Commercial name : Dolby Digital
Codec ID : A_AC3
Duration : 1 h 28 min
Bit rate mode : Constant
Bit rate : 384 kb/s
Channel(s) : 6 channels
Channel layout : L R C LFE Ls Rs
Sampling rate : 48.0 kHz
Frame rate : 31.250 FPS (1536 SPF)
Bit depth : 16 bits
Compression mode : Lossy
Stream size : 243 MiB (1%)
Title : iTunes
Language : Russian
Service kind : Complete Main
Default : Yes
Forced : Yes
Audio #2
ID : 3
Format : DTS XLL X
Format/Info : Digital Theater Systems
Commercial name : DTS-HD Master Audio
Codec ID : A_DTS
Duration : 1 h 28 min
Bit rate mode : Variable
Bit rate : 5 909 kb/s
Channel(s) : 8 channels
Channel(s)_Original : Object Based
Channel layout : Object Based
Sampling rate : 48.0 kHz
Frame rate : 93.750 FPS (512 SPF)
Bit depth : 24 bits
Stream size : 3.66 GiB (18%)
Title : Original
Language : English
Default : No
Forced : No
Text
ID : 4
Format : UTF-8
Codec ID : S_TEXT/UTF8
Codec ID/Info : UTF-8 Plain Text
Duration : 1 h 22 min
Bit rate : 56 b/s
Count of elements : 1022
Stream size : 34.3 KiB (0%)
Title : Full
Language : English
Default : No
Forced : No
Menu
00:00:00.000 : :Chapter 01
00:05:06.681 : :Chapter 02
00:09:05.378 : :Chapter 03
00:13:14.794 : :Chapter 04
00:19:22.369 : :Chapter 05
00:21:31.832 : :Chapter 06
00:26:41.975 : :Chapter 07
00:32:31.240 : :Chapter 08
00:34:48.086 : :Chapter 09
00:39:49.428 : :Chapter 10
00:45:49.121 : :Chapter 11
00:51:22.204 : :Chapter 12
00:54:31.851 : :Chapter 13
00:58:58.201 : :Chapter 14
01:02:58.441 : :Chapter 15
01:08:21.597 : :Chapter 16
01:11:40.963 : :Chapter 17
01:15:03.415 : :Chapter 18
01:20:54.808 : :Chapter 19
01:23:52.527 : :Chapter 20
-     - -

Theseus

Пост 10-Янв-2019 14:50

[Цитировать]

Агент Джонни Инглиш 3.0 / Johnny English Strikes Again- Год выхода: 2018
Страна: Великобритания, Франция, США
Жанр: Боевик, Комедия, Приключения
Продолжительность: 01:28:33
Перевод: Профессиональный (полное дублирование) [iTunes]
Субтитры: Английские-Режиссер: Дэвид Керр-В ролях: Эмма Томпсон, Ольга Куриленко, Роуэн Аткинсон, Джейк Лэси, Бен Миллер, Миранда Хеннесси, Адам Джеймс, Пиппа Беннетт-Уорнер, Ирена Тишина, Джеймс Илс-О фильме: Когда все агенты секретной службы Её Величества внезапно выходят из строя, в игру вступает запасной вариант. Образец английского стиля и любимец роковых красоток; король безвыходных ситуаций и хранитель аналоговых традиций в цифровом мире, агент Джонни Инглиш — боль и гордость британской разведки. Этому парню есть что взбалтывать, и он взболтает не по-детски.- -Качество: BDRip 1080p
Формат: MKV
Видео кодек: x.264
Аудио кодек: AC3, DTS
Видео: MPEG-4 AVC, 1920x804, 23.976 fps, 10.3 Mbps
Аудио 1: 48 kHz, AC3, 6 ch, 384 kbps | Rus
Аудио 2: 48 kHz, DTS, 6 ch, 1509 kbps | Eng-

MI

General
Unique ID : 283691312435006661257519439330944869663 (0xD56CF5987E392ACC52B0C2D09FD9E51F)
Complete name : Johnny.English.Strikes.Again.2018.BDRip.1080p.seleZen.mkv
Format : Matroska
Format version : Version 4
File size : 7.47 GiB
Duration : 1 h 28 min
Overall bit rate : 12.1 Mb/s
Movie name : Johnny English Strikes Again 2018 from селезень
Encoded date : UTC 2019-01-10 05:35:17
Writing application : mkvmerge v29.0.0 ('Like It Or Not') 64-bit
Writing library : libebml v1.3.6 + libmatroska v1.4.9
Video
ID : 1
Format : AVC
Format/Info : Advanced Video Codec
Format profile : High@L4.1
Format settings : CABAC / 5 Ref Frames
Format settings, CABAC : Yes
Format settings, ReFrames : 5 frames
Codec ID : V_MPEG4/ISO/AVC
Duration : 1 h 28 min
Bit rate : 10.3 Mb/s
Width : 1 920 pixels
Height : 804 pixels
Display aspect ratio : 2.40:1
Frame rate mode : Constant
Frame rate : 23.976 (24000/1001) FPS
Color space : YUV
Chroma subsampling : 4:2:0
Bit depth : 8 bits
Scan type : Progressive
Bits/(Pixel*Frame) : 0.277
Stream size : 6.30 GiB (84%)
Writing library : x264 core 148 r2705kMod 3f5ed56
Encoding settings : cabac=1 / ref=5 / deblock=1:-2:-2 / analyse=0x3:0x133 / me=umh / subme=11 / psy=1 / fade_compensate=0.00 / psy_rd=1.05:0.05 / mixed_ref=1 / me_range=48 / chroma_me=1 / trellis=2 / 8x8dct=1 / cqm=0 / deadzone=21,11 / fast_pskip=0 / chroma_qp_offset=-3 / threads=12 / lookahead_threads=3 / sliced_threads=0 / nr=0 / decimate=0 / interlaced=0 / bluray_compat=0 / constrained_intra=0 / fgo=0 / bframes=10 / b_pyramid=2 / b_adapt=2 / b_bias=0 / direct=3 / weightb=1 / open_gop=0 / weightp=2 / keyint=240 / keyint_min=23 / scenecut=40 / intra_refresh=0 / rc_lookahead=50 / rc=2pass / mbtree=0 / bitrate=10250 / ratetol=1.0 / qcomp=0.60 / qpmin=0 / qpmax=51 / qpstep=4 / cplxblur=20.0 / qblur=0.5 / vbv_maxrate=50000 / vbv_bufsize=62500 / nal_hrd=none / filler=0 / ip_ratio=1.40 / pb_ratio=1.30 / aq=3:0.80
Language : English
Default : Yes
Forced : No
Audio #1
ID : 2
Format : AC-3
Format/Info : Audio Coding 3
Commercial name : Dolby Digital
Codec ID : A_AC3
Duration : 1 h 28 min
Bit rate mode : Constant
Bit rate : 384 kb/s
Channel(s) : 6 channels
Channel layout : L R C LFE Ls Rs
Sampling rate : 48.0 kHz
Frame rate : 31.250 FPS (1536 SPF)
Bit depth : 16 bits
Compression mode : Lossy
Stream size : 243 MiB (3%)
Title : iTunes
Language : Russian
Service kind : Complete Main
Default : Yes
Forced : Yes
Audio #2
ID : 3
Format : DTS
Format/Info : Digital Theater Systems
Codec ID : A_DTS
Duration : 1 h 28 min
Bit rate mode : Constant
Bit rate : 1 509 kb/s
Channel(s) : 6 channels
Channel layout : C L R Ls Rs LFE
Sampling rate : 48.0 kHz
Frame rate : 93.750 FPS (512 SPF)
Bit depth : 24 bits
Compression mode : Lossy
Stream size : 956 MiB (12%)
Title : Original
Language : English
Default : No
Forced : No
Text
ID : 4
Format : UTF-8
Codec ID : S_TEXT/UTF8
Codec ID/Info : UTF-8 Plain Text
Duration : 1 h 22 min
Bit rate : 56 b/s
Count of elements : 1022
Stream size : 34.3 KiB (0%)
Title : Full
Language : English
Default : No
Forced : No
Menu
00:00:00.000 : :Chapter 01
00:05:06.681 : :Chapter 02
00:09:05.378 : :Chapter 03
00:13:14.794 : :Chapter 04
00:19:22.369 : :Chapter 05
00:21:31.832 : :Chapter 06
00:26:41.975 : :Chapter 07
00:32:31.240 : :Chapter 08
00:34:48.086 : :Chapter 09
00:39:49.428 : :Chapter 10
00:45:49.121 : :Chapter 11
00:51:22.204 : :Chapter 12
00:54:31.851 : :Chapter 13
00:58:58.201 : :Chapter 14
01:02:58.441 : :Chapter 15
01:08:21.597 : :Chapter 16
01:11:40.963 : :Chapter 17
01:15:03.415 : :Chapter 18
01:20:54.808 : :Chapter 19
01:23:52.527 : :Chapter 20
-     - -

Theseus

Пост 10-Янв-2019 14:50

[Цитировать]

Агент Джонни Инглиш 3.0 / Johnny English Strikes Again- Год выхода: 2018
Страна: Великобритания, Франция, США
Жанр: Боевик, Комедия, Приключения
Продолжительность: 01:28:33
Перевод: Профессиональный (полное дублирование) [iTunes]
Субтитры: Английские-Режиссер: Дэвид Керр-В ролях: Эмма Томпсон, Ольга Куриленко, Роуэн Аткинсон, Джейк Лэси, Бен Миллер, Миранда Хеннесси, Адам Джеймс, Пиппа Беннетт-Уорнер, Ирена Тишина, Джеймс Илс-О фильме: Когда все агенты секретной службы Её Величества внезапно выходят из строя, в игру вступает запасной вариант. Образец английского стиля и любимец роковых красоток; король безвыходных ситуаций и хранитель аналоговых традиций в цифровом мире, агент Джонни Инглиш — боль и гордость британской разведки. Этому парню есть что взбалтывать, и он взболтает не по-детски.- -Качество: BDRip 720p
Формат: MKV
Видео кодек: x.264
Аудио кодек: AC3, DTS
Видео: MPEG-4 AVC, 1280x536, 23.976 fps, 5000 kbps
Аудио 1: 48 kHz, AC3, 6 ch, 384 kbps | Rus
Аудио 2: 48 kHz, DTS, 6 ch, 1509 kbps | Eng-

MI

General
Unique ID : 278511777932675899914721122994858346622 (0xD1876AD4132FAAAA75DE4171DDCDC87E)
Complete name : Johnny.English.Strikes.Again.2018.BDRip.720p.seleZen.mkv
Format : Matroska
Format version : Version 4
File size : 4.26 GiB
Duration : 1 h 28 min
Overall bit rate : 6 880 kb/s
Movie name : Johnny English Strikes Again 2018 from селезень
Encoded date : UTC 2019-01-10 05:41:07
Writing application : mkvmerge v29.0.0 ('Like It Or Not') 64-bit
Writing library : libebml v1.3.6 + libmatroska v1.4.9
Video
ID : 1
Format : AVC
Format/Info : Advanced Video Codec
Format profile : High@L4.1
Format settings : CABAC / 12 Ref Frames
Format settings, CABAC : Yes
Format settings, ReFrames : 12 frames
Codec ID : V_MPEG4/ISO/AVC
Duration : 1 h 28 min
Bit rate : 5 000 kb/s
Width : 1 280 pixels
Height : 536 pixels
Display aspect ratio : 2.40:1
Frame rate mode : Constant
Frame rate : 23.976 (24000/1001) FPS
Color space : YUV
Chroma subsampling : 4:2:0
Bit depth : 8 bits
Scan type : Progressive
Bits/(Pixel*Frame) : 0.304
Stream size : 3.08 GiB (72%)
Title : seleZen
Writing library : x264 core 148 r2705kMod 3f5ed56
Encoding settings : cabac=1 / ref=12 / deblock=1:-2:-2 / analyse=0x3:0x133 / me=umh / subme=11 / psy=1 / fade_compensate=0.00 / psy_rd=1.05:0.05 / mixed_ref=1 / me_range=48 / chroma_me=1 / trellis=2 / 8x8dct=1 / cqm=0 / deadzone=21,11 / fast_pskip=0 / chroma_qp_offset=-3 / threads=12 / lookahead_threads=3 / sliced_threads=0 / nr=0 / decimate=0 / interlaced=0 / bluray_compat=0 / constrained_intra=0 / fgo=0 / bframes=10 / b_pyramid=2 / b_adapt=2 / b_bias=0 / direct=3 / weightb=1 / open_gop=0 / weightp=2 / keyint=240 / keyint_min=23 / scenecut=40 / intra_refresh=0 / rc_lookahead=50 / rc=2pass / mbtree=0 / bitrate=5000 / ratetol=1.0 / qcomp=0.60 / qpmin=0 / qpmax=51 / qpstep=4 / cplxblur=20.0 / qblur=0.5 / vbv_maxrate=50000 / vbv_bufsize=62500 / nal_hrd=none / filler=0 / ip_ratio=1.40 / pb_ratio=1.30 / aq=3:0.80
Language : English
Default : Yes
Forced : No
Audio #1
ID : 2
Format : AC-3
Format/Info : Audio Coding 3
Commercial name : Dolby Digital
Codec ID : A_AC3
Duration : 1 h 28 min
Bit rate mode : Constant
Bit rate : 384 kb/s
Channel(s) : 6 channels
Channel layout : L R C LFE Ls Rs
Sampling rate : 48.0 kHz
Frame rate : 31.250 FPS (1536 SPF)
Bit depth : 16 bits
Compression mode : Lossy
Stream size : 243 MiB (6%)
Title : iTunes
Language : Russian
Service kind : Complete Main
Default : Yes
Forced : Yes
Audio #2
ID : 3
Format : DTS
Format/Info : Digital Theater Systems
Codec ID : A_DTS
Duration : 1 h 28 min
Bit rate mode : Constant
Bit rate : 1 509 kb/s
Channel(s) : 6 channels
Channel layout : C L R Ls Rs LFE
Sampling rate : 48.0 kHz
Frame rate : 93.750 FPS (512 SPF)
Bit depth : 24 bits
Compression mode : Lossy
Stream size : 956 MiB (22%)
Title : Original
Language : English
Default : No
Forced : No
Text
ID : 4
Format : UTF-8
Codec ID : S_TEXT/UTF8
Codec ID/Info : UTF-8 Plain Text
Duration : 1 h 22 min
Bit rate : 56 b/s
Count of elements : 1022
Stream size : 34.3 KiB (0%)
Title : Full
Language : English
Default : No
Forced : No
Menu
00:00:00.000 : :Chapter 01
00:05:06.681 : :Chapter 02
00:09:05.378 : :Chapter 03
00:13:14.794 : :Chapter 04
00:19:22.369 : :Chapter 05
00:21:31.832 : :Chapter 06
00:26:41.975 : :Chapter 07
00:32:31.240 : :Chapter 08
00:34:48.086 : :Chapter 09
00:39:49.428 : :Chapter 10
00:45:49.121 : :Chapter 11
00:51:22.204 : :Chapter 12
00:54:31.851 : :Chapter 13
00:58:58.201 : :Chapter 14
01:02:58.441 : :Chapter 15
01:08:21.597 : :Chapter 16
01:11:40.963 : :Chapter 17
01:15:03.415 : :Chapter 18
01:20:54.808 : :Chapter 19
01:23:52.527 : :Chapter 20
-     - -
 

Текущее время: Сегодня 02:14

Часовой пояс: GMT + 3