Сегодня идет свободное скачивание без начисления Download

Результатов поиска: 150

Автор Сообщение

Theseus

Пост 20-Сен-2017 13:59

[Цитировать]

Малыш на драйве / Baby Driver- Год выхода: 2017
Страна: Великобритания , США
Жанр: боевик, триллер, криминал, музыка
Продолжительность: 01:52:40
Перевод: Любительский (многоголосый, закадровый) | студия Paradox & Omskbird records-Режиссер: Эдгар Райт-В ролях: Энсел Элгорт, Джон Бернтал, Джон Хэмм, Эйса Гонсалес, Лили Джеймс, Кевин Спейси, Скай Феррейра, Вивиана Чавез, Лэнни Джун-О фильме: Молодой парень по прозвищу Малыш обожает стильную музыку, быструю езду и адреналин в крови. Вся его жизнь — это сплошные погони и перестрелки, ведь он работает водителем, который помогает бандитам скрыться с места преступления. Однажды он по-настоящему влюбляется и решает выйти из игры, но сначала ему предстоит выполнить еще одно задание, которое вполне может оказаться последним в его жизни.- -Качество: WEBDL 1080p (AMAZON версия)
Формат: MKV
Видео кодек: x.264
Аудио кодек: AC3
Видео: AVC, 1920x800 (2.40:1), 23.976 fps, 12 Mbps (0.325 bit/pixel)
Аудио 1: AC-3, 48.0 KHz, 2 ch, 384 Kbps, CBR (Russian)
Аудио 2: AC-3, 48.0 KHz, 6 ch, 640 Kbps, CBR (English)
Субтитры: английские)- -

MI

Общее
Уникальный идентификатор : 199746462487112085471836949921955549348 (0x9645C4F3657DBD1A8A6331E8350F90A4)
Полное имя : Baby driver.2017.WEB-DL.1080p.AMAZON.mkv
Формат : Matroska
Версия формата : Version 4 / Version 2
Размер файла : 10,2 Гбайт
Продолжительность : 1 ч. 52 м.
Режим общего битрейта : Переменный
Общий поток : 13,0 Мбит/сек
Название фильма : AMAZON
Дата кодирования : UTC 2017-09-19 19:26:37
Программа кодирования : mkvmerge v8.3.0 ('Over the Horizon') 64bit
Библиотека кодирования : libebml v1.3.1 + libmatroska v1.4.2
Видео
Идентификатор : 1
Формат : AVC
Формат/Информация : Advanced Video Codec
Профиль формата : High@L4
Параметр CABAC формата : Да
Параметр ReFrames формата : 4 кадра
Идентификатор кодека : V_MPEG4/ISO/AVC
Продолжительность : 1 ч. 52 м.
Вид битрейта : Переменный
Битрейт : 12,0 Мбит/сек
Максимальный битрейт : 15,0 Мбит/сек
Ширина : 1920 пикселей
Высота : 800 пикселей
Соотношение сторон : 2,40:1
Режим частоты кадров : Постоянный
Частота кадров : 23,976 (24000/1001) кадра/сек
Цветовое пространство : YUV
Субдискретизация насыщенности : 4:2:0
Битовая глубина : 8 бит
Тип развёртки : Прогрессивная
Бит/(Пиксели*Кадры) : 0.325
Размер потока : 9,43 Гбайт (92%)
Default : Да
Forced : Нет
Цветовой диапазон : Limited
Основные цвета : BT.709
Характеристики трансфера : BT.709
Коэффициенты матрицы : BT.709
Аудио #1
Идентификатор : 2
Формат : AC-3
Формат/Информация : Audio Coding 3
Параметр Endianness формата : Big
Идентификатор кодека : A_AC3
Продолжительность : 1 ч. 52 м.
Вид битрейта : Постоянный
Битрейт : 384 Кбит/сек
Каналы : 2 канала
Расположение каналов : Front: L R
Частота : 48,0 КГц
Частота кадров : 31,250 кадров/сек (1536 spf)
Битовая глубина : 16 бит
Метод сжатия : С потерями
Размер потока : 309 Мбайт (3%)
Заголовок : Paradox & Omskbird records
Язык : Russian
Default : Да
Forced : Да
Аудио #2
Идентификатор : 3
Формат : E-AC-3
Формат/Информация : Enhanced Audio Coding 3
Параметр Endianness формата : Big
Идентификатор кодека : A_EAC3
Продолжительность : 1 ч. 52 м.
Вид битрейта : Постоянный
Битрейт : 640 Кбит/сек
Каналы : 6 каналов
Расположение каналов : Front: L C R, Side: L R, LFE
Частота : 48,0 КГц
Частота кадров : 187,500 кадров/сек (256 spf)
Метод сжатия : С потерями
Размер потока : 516 Мбайт (5%)
Язык : English
Default : Нет
Forced : Нет
Текст
Идентификатор : 4
Формат : UTF-8
Идентификатор кодека : S_TEXT/UTF8
Идентификатор кодека/Информация : UTF-8 Plain Text
Продолжительность : 1 ч. 51 м.
Битрейт : 78 бит/сек
ElementCount : 2275
Размер потока : 64,3 Кбайт (0%)
Язык : English
Default : Нет
Forced : Нет

Трейлер

-     - - -

Theseus

Пост 15-Сен-2017 16:26

[Цитировать]

Бабушка лёгкого поведения- Год выхода: 2017
Страна: Россия
Жанр: Комедия
Продолжительность: 01:21:23
Перевод: Не требуется | iTunes-Режиссер: Марюс Вайсберг-В ролях: Александр Ревва, Глюкоза, Филипп Киркоров, Елена Валюшкина, Владимир Толоконников, Евгений Герчаков, Ёла Санько, Ольга Благая, Наталья Бардо, Марина Федункив-О фильме: Мастер перевоплощений Саня по прозвищу Трансформер провернул кучу афер, точь-в-точь изображая десятки персонажей. Но в этот раз он украл не у тех… Теперь у парня на хвосте очень плохие люди с пистолетами. Саня решает залечь на дно в доме престарелых в образе пожилой тети. И когда ему казалось, что он попал в безвыходную ситуацию, новый поворот судьбы дарит ему любовь и надежду превратиться в приличного человека.- -Качество: WEB-DL 1080p
Формат: MKV
Видео кодек: x.264
Аудио кодек: AC3
Видео: MPEG-4 AVC, 1920x1080 (16:9), 25.000 fps, x264 ~5034 kbps avg
Аудио: 48 kHz, AC3 Dolby Digital, 3/2 (L,C,R,l,r) + LFE ch, ~384.00 kbps avg-

Трейлер

-     - - -

Theseus

Пост 15-Сен-2017 16:24

[Цитировать]

Бабушка лёгкого поведения- Год выхода: 2017
Страна: Россия
Жанр: Комедия
Продолжительность: 01:21:23
Перевод: Не требуется | iTunes-Режиссер: Марюс Вайсберг-В ролях: Александр Ревва, Глюкоза, Филипп Киркоров, Елена Валюшкина, Владимир Толоконников, Евгений Герчаков, Ёла Санько, Ольга Благая, Наталья Бардо, Марина Федункив-О фильме: Мастер перевоплощений Саня по прозвищу Трансформер провернул кучу афер, точь-в-точь изображая десятки персонажей. Но в этот раз он украл не у тех… Теперь у парня на хвосте очень плохие люди с пистолетами. Саня решает залечь на дно в доме престарелых в образе пожилой тети. И когда ему казалось, что он попал в безвыходную ситуацию, новый поворот судьбы дарит ему любовь и надежду превратиться в приличного человека.- -Качество: WEB-DL 720p
Формат: MKV
Видео кодек: x.264
Аудио кодек: AC3
Видео: 1280x720 (16:9), 25.000 fps, x264 ~4000 kbps avg
Аудио: 48 kHz, AC3 Dolby Digital, 3/2 (L,C,R,l,r) + LFE ch, ~384.00 kbps avg-

Трейлер

-     - - -

Theseus

Пост 14-Сен-2017 11:34

[Цитировать]

Трансформеры: Последний рыцарь
Transformers: The Last Knight
Год выхода: 2017
Страна: США
Жанр: фантастика, боевик, триллер, приключения
Продолжительность: 02:34:43
Перевод: Профессиональный (полное дублирование) | iTunes
Субтитры: Русские (forced, full), английские-Режиссер: Майкл Бэй-В ролях: Марк Уолберг, Лора Хэддок, Энтони Хопкинс, Джемма Чан, Сантьяго Кабрера, Джон Гудман, Стэнли Туччи, Джош Дюамель, Изабела Монер, Джон Туртурро-О фильме: Оптимус Прайм исчез. Люди ведут войну с Трансформерами. Ключ к нашему будущему погребен в тайнах прошлого, в скрытой истории Трансформеров на Земле… Миссия по спасению мира ложится на плечи разношерстной компании, состоящей из Кейда Йегера, Бамблби, английского лорда и профессора из Оксфорда. Пришла пора действовать! Жертвы станут героями. Герои станут злодеями. Выстоит только один мир: их или наш.- -Качество: WEBDL 1080p | (AMAZON версия)
Формат: MKV
Видео кодек: x.264
Аудио кодек: AC3
Видео: MPEG-4 AVC, 1920x1040, 8965 Кbit/s, 23.976 fps
Аудио 1: 48 kHz, AC3, 6 ch, 384 kbps | RUS
Аудио 2: 48 kHz, AC3, 6 ch, 384 kbps | ENG-

Трейлер

-     - - -

Theseus

Пост 13-Сен-2017 17:14

[Цитировать]

Пираты Карибского моря: Мертвецы не рассказывают сказки
Pirates of the Caribbean: Dead Men Tell No Tales
Год выхода: 2017
Страна: США
Жанр: Фэнтези, боевик, комедия, приключения
Продолжительность: 02:09:07
Перевод: Профессиональный (полное дублирование) | Лицензия
Субтитры: русские (форсированные, полные), английские (полные, SDH)-Режиссер: Хоаким Роннинг, Эспен Сандберг
В ролях: Джонни Депп, Кира Найтли, Кая Скоделарио, Дэвид Уэнэм, Орландо Блум, Джеффри Раш, Брентон Туэйтс, Хавьер Бардем, Голшифте Фарахани, Стивен Грэм-О фильме: Исчерпавший свою удачу капитан Джек Воробей обнаруживает, что за ним охотится его старый неприятель, ужасный капитан Салазар и его призрачные пираты. Они только что сбежали из Дьявольского треугольника и намерены уничтожить всех пиратов, включая Джека. Поможет спастись лишь могущественный артефакт - трезубец Посейдона, который дарует своему обладателю полный контроль над морями.- -Качество: Blu-Ray
Контейнер: BDMV
Видео кодек: H.264
Аудио кодек: AC3/DTS-HD
Видео: MPEG-4 AVC Video 28069 kbps 1080p / 23,976 fps / 16:9 / High Profile 4.1
Аудио #01: DTS-HD Master Audio English 7.1 / 48 kHz / 5598 kbps / 24-bit (DTS Core: 5.1 / 48 kHz / 1509 kbps / 24-bit)
Аудио #02: Dolby Digital Audio English 2.0 / 48 kHz / 320 kbps
Аудио #03: Dolby Digital Audio Russian 5.1 / 48 kHz / 640 kbps
Аудио #04: Dolby Digital Audio Chinese 5.1 / 48 kHz / 640 kbps
Субтитры: Русские, английские, китайские, корейские-

BDinfo

DISC INFO:
Disc Title: Pirates.of.the.Caribbean.Dead.Men.Tell.No.Tales.2017.Blu-Ray.ExKinoRay
Disc Size: 45 359 362 748 bytes
Protection: AACS
BD-Java: Yes
BDInfo: 0.5.8
PLAYLIST REPORT:
Name: 00099.MPLS
Length: 2:09:07.239 (h:m:s.ms)
Size: 36 230 393 856 bytes
Total Bitrate: 37,41 Mbps
(*) Indicates included stream hidden by this playlist.
VIDEO:
Codec Bitrate Deion
----- ------- -----------
MPEG-4 AVC Video 28069 kbps 1080p / 23,976 fps / 16:9 / High Profile 4.1
AUDIO:
Codec Language Bitrate Deion
----- -------- ------- -----------
* DTS-HD Master Audio English 5598 kbps 7.1 / 48 kHz / 5598 kbps / 24-bit (DTS Core: 5.1 / 48 kHz / 1509 kbps / 24-bit)
Dolby Digital Audio English 320 kbps 2.0 / 48 kHz / 320 kbps
* Dolby Digital Audio Russian 640 kbps 5.1 / 48 kHz / 640 kbps
* Dolby Digital Audio Chinese 640 kbps 5.1 / 48 kHz / 640 kbps
SUBTITLES:
Codec Language Bitrate Deion
----- -------- ------- -----------
* Presentation Graphics English 32,772 kbps
* Presentation Graphics Russian 25,169 kbps
* Presentation Graphics Chinese 17,510 kbps
* Presentation Graphics Chinese 20,524 kbps
* Presentation Graphics Chinese 15,004 kbps
* Presentation Graphics Korean 13,976 kbps
* Presentation Graphics Russian 0,264 kbps
* Presentation Graphics Chinese 0,277 kbps
* Presentation Graphics Chinese 1,313 kbps
FILES:
Name Time In Length Size Total Bitrate
---- ------- ------ ---- -------------
00800.M2TS 0:00:00.000 2:09:07.239 36 230 393 856 37 412
CHAPTERS:
Number Time In Length Avg Video Rate Max 1-Sec Rate Max 1-Sec Time Max 5-Sec Rate Max 5-Sec Time Max 10Sec Rate Max 10Sec Time Avg Frame Size Max Frame Size Max Frame Time
------ ------- ------ -------------- -------------- -------------- -------------- -------------- -------------- -------------- -------------- -------------- --------------
1 0:00:00.000 0:05:49.515 33 246 kbps 37 095 kbps 00:05:31.664 34 569 kbps 00:02:09.420 34 411 kbps 00:02:10.088 173 308 bytes 438 391 bytes 00:01:23.583
2 0:05:49.515 0:02:44.706 30 274 kbps 37 582 kbps 00:08:07.695 34 756 kbps 00:08:09.238 34 476 kbps 00:08:08.279 157 836 bytes 470 354 bytes 00:08:13.576
3 0:08:34.222 0:05:06.597 27 788 kbps 35 612 kbps 00:08:45.566 34 460 kbps 00:08:45.566 34 112 kbps 00:09:11.551 144 872 bytes 378 004 bytes 00:08:48.486
4 0:13:40.820 0:02:48.334 27 312 kbps 33 565 kbps 00:13:46.784 31 227 kbps 00:13:43.656 29 319 kbps 00:13:40.820 142 394 bytes 402 189 bytes 00:13:47.743
5 0:16:29.154 0:06:04.697 27 763 kbps 36 033 kbps 00:22:21.298 32 852 kbps 00:22:24.926 32 551 kbps 00:22:21.089 144 745 bytes 423 488 bytes 00:21:08.850
6 0:22:33.852 0:02:45.415 29 349 kbps 33 967 kbps 00:24:33.805 32 355 kbps 00:24:55.118 31 864 kbps 00:24:52.282 153 011 bytes 388 873 bytes 00:24:46.109
7 0:25:19.267 0:02:46.833 26 211 kbps 29 321 kbps 00:27:48.958 27 791 kbps 00:27:40.867 27 699 kbps 00:27:40.283 136 650 bytes 279 679 bytes 00:25:23.271
8 0:28:06.101 0:03:35.673 26 523 kbps 34 386 kbps 00:31:21.379 30 395 kbps 00:31:21.379 29 215 kbps 00:30:44.509 138 278 bytes 362 281 bytes 00:30:51.391
9 0:31:41.774 0:02:03.039 29 846 kbps 36 643 kbps 00:32:38.081 34 762 kbps 00:32:34.035 34 272 kbps 00:33:06.442 155 603 bytes 479 774 bytes 00:32:39.040
10 0:33:44.814 0:03:17.238 31 517 kbps 38 721 kbps 00:35:31.212 35 134 kbps 00:35:27.208 34 415 kbps 00:35:22.203 164 313 bytes 341 318 bytes 00:35:31.921
11 0:37:02.053 0:05:25.658 27 944 kbps 33 415 kbps 00:37:42.718 32 020 kbps 00:37:38.798 31 431 kbps 00:37:36.754 145 687 bytes 415 848 bytes 00:38:10.955
12 0:42:27.711 0:06:41.359 28 027 kbps 34 376 kbps 00:45:23.262 32 717 kbps 00:43:12.798 32 044 kbps 00:43:14.091 146 121 bytes 421 769 bytes 00:44:14.401
13 0:49:09.071 0:04:51.207 27 931 kbps 33 225 kbps 00:50:35.449 30 787 kbps 00:49:53.657 29 901 kbps 00:53:18.278 145 622 bytes 398 456 bytes 00:50:09.214
14 0:54:00.278 0:03:19.115 27 995 kbps 33 636 kbps 00:57:12.429 31 267 kbps 00:57:11.344 30 305 kbps 00:56:10.617 145 955 bytes 331 710 bytes 00:56:43.858
15 0:57:19.394 0:03:19.324 27 298 kbps 30 694 kbps 00:58:25.335 29 708 kbps 00:58:20.705 28 870 kbps 00:58:30.965 142 321 bytes 337 685 bytes 00:58:04.647
16 1:00:38.718 0:07:51.220 28 187 kbps 37 247 kbps 01:01:14.462 34 888 kbps 01:01:10.500 34 516 kbps 01:01:05.453 146 956 bytes 359 990 bytes 01:06:17.056
17 1:08:29.939 0:03:27.081 26 701 kbps 33 448 kbps 01:11:24.196 31 669 kbps 01:11:24.113 31 118 kbps 01:11:20.401 139 208 bytes 329 343 bytes 01:08:49.125
18 1:11:57.021 0:04:53.918 27 754 kbps 35 737 kbps 01:14:10.821 33 286 kbps 01:14:07.860 30 850 kbps 01:13:35.494 144 695 bytes 311 614 bytes 01:16:48.061
19 1:16:50.939 0:02:36.531 27 380 kbps 33 853 kbps 01:17:42.407 30 972 kbps 01:17:40.030 29 815 kbps 01:17:40.030 142 746 bytes 416 259 bytes 01:18:51.768
20 1:19:27.471 0:05:37.337 27 263 kbps 32 938 kbps 01:22:18.433 31 602 kbps 01:23:10.360 30 791 kbps 01:23:53.278 142 136 bytes 415 591 bytes 01:22:07.422
21 1:25:04.808 0:02:37.365 28 040 kbps 35 377 kbps 01:25:24.661 34 179 kbps 01:25:20.657 34 090 kbps 01:25:15.652 146 189 bytes 309 971 bytes 01:25:32.544
22 1:27:42.173 0:04:01.616 27 574 kbps 31 351 kbps 01:28:27.218 30 471 kbps 01:28:40.940 30 053 kbps 01:28:34.267 143 758 bytes 318 396 bytes 01:30:08.236
23 1:31:43.789 0:06:39.023 27 191 kbps 36 737 kbps 01:32:47.979 35 006 kbps 01:32:48.354 34 510 kbps 01:32:49.438 141 760 bytes 372 721 bytes 01:37:18.332
24 1:38:22.813 0:04:13.962 28 287 kbps 35 886 kbps 01:41:25.662 34 552 kbps 01:41:24.745 33 644 kbps 01:41:20.824 147 476 bytes 376 007 bytes 01:41:45.516
25 1:42:36.775 0:04:46.786 26 673 kbps 33 012 kbps 01:45:45.505 31 363 kbps 01:45:11.138 29 830 kbps 01:45:38.749 139 060 bytes 452 811 bytes 01:44:12.204
26 1:47:23.562 0:05:35.126 28 201 kbps 36 279 kbps 01:51:42.112 34 143 kbps 01:52:39.043 32 611 kbps 01:52:35.874 147 027 bytes 319 064 bytes 01:49:29.604
27 1:52:58.688 0:06:11.245 26 807 kbps 33 210 kbps 01:54:01.334 31 578 kbps 01:53:59.874 30 666 kbps 01:53:55.328 139 757 bytes 355 985 bytes 01:56:49.085
28 1:59:09.934 0:09:57.305 27 897 kbps 40 067 kbps 02:07:25.512 34 937 kbps 02:08:14.812 34 446 kbps 02:08:09.807 145 452 bytes 514 910 bytes 02:07:26.305
STREAM DIAGNOSTICS:
File PID Type Codec Language Seconds Bitrate Bytes Packets
---- --- ---- ----- -------- -------------- -------------- ------------- -----
00800.M2TS 4113 (0x1011) 0x1B AVC 7747,073 28 070 27 182 379 806 147 838 685
00800.M2TS 4352 (0x1100) 0x86 DTS-HD MA eng (English) 7747,073 5 598 5 421 252 444 30 674 943
00800.M2TS 4353 (0x1101) 0x81 AC3 eng (English) 7747,073 320 309 890 560 1 936 816
00800.M2TS 4354 (0x1102) 0x81 AC3 rus (Russian) 7747,073 640 619 781 120 3 631 530
00800.M2TS 4355 (0x1103) 0x81 AC3 zho (Chinese) 7747,073 640 619 781 120 3 631 530
00800.M2TS 4608 (0x1200) 0x90 PGS eng (English) 7747,073 33 31 736 543 184 831
00800.M2TS 4609 (0x1201) 0x90 PGS rus (Russian) 7747,073 25 24 373 642 141 670
00800.M2TS 4610 (0x1202) 0x90 PGS zho (Chinese) 7747,073 18 16 957 058 101 540
00800.M2TS 4611 (0x1203) 0x90 PGS zho (Chinese) 7747,073 21 19 875 794 118 170
00800.M2TS 4612 (0x1204) 0x90 PGS zho (Chinese) 7747,073 15 14 530 061 88 092
00800.M2TS 4613 (0x1205) 0x90 PGS kor (Korean) 7747,073 14 13 534 801 82 122
00800.M2TS 4614 (0x1206) 0x90 PGS rus (Russian) 7747,073 0 255 193 1 463
00800.M2TS 4615 (0x1207) 0x90 PGS zho (Chinese) 7747,073 0 268 686 1 609
00800.M2TS 4616 (0x1208) 0x90 PGS zho (Chinese) 7747,073 1 1 271 458 7 399

Трейлер

-     - - -

Theseus

Пост 13-Сен-2017 17:03

[Цитировать]

Пираты Карибского моря: Мертвецы не рассказывают сказки
Pirates of the Caribbean: Dead Men Tell No Tales
Год выхода: 2017
Страна: США
Жанр: Фэнтези, боевик, комедия, приключения
Продолжительность: 02:09:07
Перевод: Профессиональный (полное дублирование) | Лицензия
Субтитры: русские (форсированные, полные), английские (полные, SDH)-Режиссер: Хоаким Роннинг, Эспен Сандберг
В ролях: Джонни Депп, Кира Найтли, Кая Скоделарио, Дэвид Уэнэм, Орландо Блум, Джеффри Раш, Брентон Туэйтс, Хавьер Бардем, Голшифте Фарахани, Стивен Грэм-О фильме: Исчерпавший свою удачу капитан Джек Воробей обнаруживает, что за ним охотится его старый неприятель, ужасный капитан Салазар и его призрачные пираты. Они только что сбежали из Дьявольского треугольника и намерены уничтожить всех пиратов, включая Джека. Поможет спастись лишь могущественный артефакт - трезубец Посейдона, который дарует своему обладателю полный контроль над морями.- -Качество: BDRemux
Контейнер: MKV
Видео кодек: H.264
Аудио кодек: AC3/DTS-HD
Видео: AVC, 1920x1080 (16:9), 23.976 fps, ~28 Mbps
Аудио 1: 48 kHz, AC3, 6 ch, 640 kbps | RUS
Аудио 2: 48 kHz, DTS-HD MA, 8 ch, 5599 kbps | ENG-

Mediainfo

Полное имя : Pirates of the Caribbean_Dead Men Tell No Tales.2017.BDRemux .mkv
Формат : Matroska
Версия формата : Version 2
Размер файла : 30,8 Гбайт
Продолжительность : 2 ч. 9 м.
Режим общего битрейта : Переменный
Общий поток : 34,1 Мбит/сек
Название фильма : Pirates of the Caribbean: Dead Men Tell No Tales.2017.BDRemux
Дата кодирования : UTC 2017-09-12 20:19:48
Программа кодирования : mkvmerge v4.0.0 ('The Stars were mine') сборка от Jun 6 2010 16:18:42
Библиотека кодирования : libebml v1.0.0 + libmatroska v1.0.0
Видео
Идентификатор : 1
Формат : AVC
Формат/Информация : Advanced Video Codec
Профиль формата : High@L4.1
Настройки формата : CABAC / 4 Ref Frames
Параметр CABAC формата : Да
Параметр RefFrames формата : 4 кадра
Идентификатор кодека : V_MPEG4/ISO/AVC
Продолжительность : 2 ч. 9 м.
Вид битрейта : Переменный
Максимальный битрейт : 34,5 Мбит/сек
Ширина : 1920 пикселей
Высота : 1080 пикселей
Соотношение сторон : 16:9
Режим частоты кадров : Постоянный
Частота кадров : 23,976 (24000/1001) кадра/сек
Цветовое пространство : YUV
Субдискретизация насыщенности : 4:2:0
Битовая глубина : 8 бит
Тип развёртки : Прогрессивная
Язык : English
Default : Да
Forced : Нет
Аудио #1
Идентификатор : 2
Формат : AC-3
Формат/Информация : Audio Coding 3
Параметр Endianness формата : Big
Идентификатор кодека : A_AC3
Продолжительность : 2 ч. 9 м.
Вид битрейта : Постоянный
Битрейт : 640 Кбит/сек
Каналы : 6 каналов
Расположение каналов : Front: L C R, Side: L R, LFE
Частота : 48,0 КГц
Частота кадров : 31,250 кадров/сек (1536 SPF)
Битовая глубина : 16 бит
Метод сжатия : С потерями
Размер потока : 591 Мбайт (2%)
Язык : Russian
ServiceKind : Complete Main
Default : Да
Forced : Нет
Аудио #2
Идентификатор : 3
Формат : DTS
Формат/Информация : Digital Theater Systems
Профиль формата : MA / Core
Режим : 16
Параметр Endianness формата : Big
Идентификатор кодека : A_DTS
Продолжительность : 2 ч. 9 м.
Вид битрейта : Переменный / Постоянный
Битрейт : Неизвестно / 1509 Кбит/сек
Каналы : 8 каналов / 6 каналов
Расположение каналов : Front: L C R, Side: L R, Back: L R, LFE / Front: L C R, Side: L R, LFE
Частота : 48,0 КГц
Частота кадров : 93,750 кадра/сек (512 SPF)
Битовая глубина : 24 бит
Метод сжатия : Без потерь / Lossy
Язык : English
Default : Нет
Forced : Нет
Текст #1
Идентификатор : 4
Формат : UTF-8
Идентификатор кодека : S_TEXT/UTF8
Идентификатор кодека/Информация : UTF-8 Plain Text
Заголовок : Forced
Язык : Russian
Default : Да
Forced : Нет
Текст #2
Идентификатор : 5
Формат : UTF-8
Идентификатор кодека : S_TEXT/UTF8
Идентификатор кодека/Информация : UTF-8 Plain Text
Заголовок : Full
Язык : Russian
Default : Нет
Forced : Нет
Текст #3
Идентификатор : 6
Формат : UTF-8
Идентификатор кодека : S_TEXT/UTF8
Идентификатор кодека/Информация : UTF-8 Plain Text
Заголовок : Full
Язык : English
Default : Нет
Forced : Нет
Текст #4
Идентификатор : 7
Формат : UTF-8
Идентификатор кодека : S_TEXT/UTF8
Идентификатор кодека/Информация : UTF-8 Plain Text
Заголовок : SDH
Язык : English
Default : Нет
Forced : Нет
Меню
00:00:00.000 : en:00:00:00.000
00:05:49.516 : en:00:05:49.516
00:08:34.222 : en:00:08:34.222
00:13:40.820 : en:00:13:40.820
00:16:29.155 : en:00:16:29.155
00:22:33.852 : en:00:22:33.852
00:25:19.268 : en:00:25:19.268
00:28:06.101 : en:00:28:06.101
00:31:41.775 : en:00:31:41.775
00:33:44.814 : en:00:33:44.814
00:37:02.053 : en:00:37:02.053
00:42:27.712 : en:00:42:27.712
00:49:09.071 : en:00:49:09.071
00:54:00.279 : en:00:54:00.279
00:57:19.394 : en:00:57:19.394
01:00:38.718 : en:01:00:38.718
01:08:29.939 : en:01:08:29.939
01:11:57.021 : en:01:11:57.021
01:16:50.940 : en:01:16:50.940
01:19:27.471 : en:01:19:27.471
01:25:04.808 : en:01:25:04.808
01:27:42.174 : en:01:27:42.174
01:31:43.790 : en:01:31:43.790
01:38:22.814 : en:01:38:22.814
01:42:36.776 : en:01:42:36.776
01:47:23.562 : en:01:47:23.562
01:52:58.689 : en:01:52:58.689
01:59:09.934 : en:01:59:09.934

Трейлер

-    - - -

Theseus

Пост 13-Сен-2017 16:49

[Цитировать]

Пираты Карибского моря: Мертвецы не рассказывают сказки
Pirates of the Caribbean: Dead Men Tell No Tales
Год выхода: 2017
Страна: США
Жанр: Фэнтези, боевик, комедия, приключения
Продолжительность: 02:09:07
Перевод: Профессиональный (полное дублирование) | Лицензия
Субтитры: русские (форсированные, полные), английские (полные, SDH)-Режиссер: Хоаким Роннинг, Эспен Сандберг
В ролях: Джонни Депп, Кира Найтли, Кая Скоделарио, Дэвид Уэнэм, Орландо Блум, Джеффри Раш, Брентон Туэйтс, Хавьер Бардем, Голшифте Фарахани, Стивен Грэм-О фильме: Исчерпавший свою удачу капитан Джек Воробей обнаруживает, что за ним охотится его старый неприятель, ужасный капитан Салазар и его призрачные пираты. Они только что сбежали из Дьявольского треугольника и намерены уничтожить всех пиратов, включая Джека. Поможет спастись лишь могущественный артефакт - трезубец Посейдона, который дарует своему обладателю полный контроль над морями.- -Качество: BDRip 720p
Формат: MKV
Видео кодек: x.264
Аудио кодек: AC3
Видео: AVC, 1280x534 (2.40:1), 23.976 fps, 5904 Kbps (0.360 bit/pixel)
Аудио 1: 48 kHz, AC3, 6 ch, 640 kbps | RUS
Аудио 2: 48 kHz, AC3, 6 ch, 640 kbps | ENG-

Трейлер

-     - - -

Theseus

Пост 13-Сен-2017 15:35

[Цитировать]

Бог войны / God of War / Dang kou feng yun Год выпуска: 2017
Страна: Гонконг, Китай
Жанр: боевик, история, военный, биография
Продолжительность: 02:08:36
Перевод: Любительский (двухголосый закадровый) [East Dream]
Субтитры: английские-В ролях: Винсент Чжао, Саммо Хун, Ясуаки Курата, Реджина Вань, Кэйсукэ Койдэ, Тимми Хун, Рю Кохата, Дин Лю, Майкл Тун, Ван Бань
Режиссёр: Гордон Чан-Описание: 1557 год. Морские разбойники уже несколько десятилетий грабят восточные рубежи Поднебесной. После того, как пираты захватили большой портовый город Цэньган, столичный генштаб посылает на помощь старому полководцу Юй Дао его более молодого и амбициозного коллегу Ци Цзигуана, уверенного в том, что в войне с пиратами можно поставить точку. Для этого необходимы две вещи — железная дисциплина и новая армия.- -Качество: BDRip 1080p
Формат: MKV
Видео кодек: x.264
Аудио кодек: AC3/DTS-HD
Видео: AVC, 1920x804 (2.40:1), 24.000 fps, 14.0 Mbps (0.378 bit/pixel)
Аудио 1: AC-3, 48.0 KHz, 2 ch, 192 Kbps, CBR | Russian
Аудио 2: DTS-HD MA, 48.0 KHz, 8 ch, 8190 Kbps | Chinese-Рекламы нет !-

MediaInfo

Общее
Уникальный идентификатор : 231750957021877037496636091894701791017 (0xAE599C5BDFB2A35F84BD265F98149729)
Полное имя : God of War.2017.BDRip.1080p
Формат : Matroska
Версия формата : Version 4 / Version 2
Размер файла : 20,1 Гбайт
Продолжительность : 2 ч. 8 м.
Общий поток : 22,4 Мбит/сек
Дата кодирования : UTC 2017-09-13 10:00:28
Программа кодирования : mkvmerge v8.3.0 ('Over the Horizon') 64bit
Библиотека кодирования : libebml v1.3.1 + libmatroska v1.4.2
Видео
Идентификатор : 1
Формат : AVC
Формат/Информация : Advanced Video Codec
Профиль формата : High@L4.1
Параметр CABAC формата : Да
Параметр ReFrames формата : 5 кадров
Идентификатор кодека : V_MPEG4/ISO/AVC
Продолжительность : 2 ч. 8 м.
Битрейт : 14,0 Мбит/сек
Ширина : 1920 пикселей
Высота : 804 пикселя
Соотношение сторон : 2,40:1
Режим частоты кадров : Постоянный
Частота кадров : 24,000 кадра/сек
Цветовое пространство : YUV
Субдискретизация насыщенности : 4:2:0
Битовая глубина : 8 бит
Тип развёртки : Прогрессивная
Бит/(Пиксели*Кадры) : 0.378
Размер потока : 12,6 Гбайт (63%)
Библиотека кодирования : x264 core 146 r2538 121396c
Настройки программы : cabac=1 / ref=5 / deblock=1:-3:-3 / analyse=0x3:0x133 / me=umh / subme=10 / psy=1 / psy_rd=1.00:0.00 / mixed_ref=1 / me_range=48 / chroma_me=1 / trellis=2 / 8x8dct=1 / cqm=0 / deadzone=21,11 / fast_pskip=0 / chroma_qp_offset=-2 / threads=12 / lookahead_threads=1 / sliced_threads=0 / nr=0 / decimate=0 / interlaced=0 / bluray_compat=0 / constrained_intra=0 / bframes=6 / b_pyramid=2 / b_adapt=2 / b_bias=0 / direct=3 / weightb=1 / open_gop=0 / weightp=2 / keyint=230 / keyint_min=22 / scenecut=40 / intra_refresh=0 / rc_lookahead=60 / rc=2pass / mbtree=1 / bitrate=14000 / ratetol=1.0 / qcomp=0.60 / qpmin=0 / qpmax=69 / qpstep=4 / cplxblur=20.0 / qblur=0.5 / vbv_maxrate=50000 / vbv_bufsize=50000 / nal_hrd=none / filler=0 / ip_ratio=1.40 / aq=1:1.00
Default : Да
Forced : Нет
Аудио #1
Идентификатор : 2
Формат : AC-3
Формат/Информация : Audio Coding 3
Параметр Endianness формата : Big
Идентификатор кодека : A_AC3
Продолжительность : 2 ч. 8 м.
Вид битрейта : Постоянный
Битрейт : 192 Кбит/сек
Каналы : 2 канала
Расположение каналов : Front: L R
Частота : 48,0 КГц
Частота кадров : 31,250 кадров/сек (1536 spf)
Битовая глубина : 16 бит
Метод сжатия : С потерями
Размер потока : 177 Мбайт (1%)
Заголовок : L2 [East Dream]
Язык : Russian
Default : Да
Forced : Нет
Аудио #2
Идентификатор : 3
Формат : DTS
Формат/Информация : Digital Theater Systems
Профиль формата : MA / Core
Режим : 16
Параметр Endianness формата : Big
Идентификатор кодека : A_DTS
Продолжительность : 2 ч. 8 м.
Вид битрейта : Переменный / Постоянный
Битрейт : 8190 Кбит/сек / 1509 Кбит/сек
Каналы : 8 каналов / 6 каналов
Расположение каналов : Front: L C R, Side: L R, Back: L R, LFE / Front: L C R, Side: L R, LFE
Частота : 48,0 КГц
Частота кадров : 93,750 кадра/сек (512 spf)
Битовая глубина : 24 бит
Метод сжатия : Без потерь / Lossy
Размер потока : 7,35 Гбайт (37%)
Язык : Chinese
Default : Нет
Forced : Нет
Текст
Идентификатор : 4
Формат : UTF-8
Идентификатор кодека : S_TEXT/UTF8
Идентификатор кодека/Информация : UTF-8 Plain Text
Продолжительность : 2 ч. 2 м.
Битрейт : 37 бит/сек
ElementCount : 1538
Размер потока : 33,8 Кбайт (0%)
Язык : English
Default : Да
Forced : Нет

Трейлер

-     - - -

Theseus

Пост 13-Сен-2017 15:33

[Цитировать]

Бог войны / God of War / Dang kou feng yun Год выпуска: 2017
Страна: Гонконг, Китай
Жанр: боевик, история, военный, биография
Продолжительность: 02:08:36
Перевод: Любительский (двухголосый закадровый) [East Dream]
Субтитры: английские-В ролях: Винсент Чжао, Саммо Хун, Ясуаки Курата, Реджина Вань, Кэйсукэ Койдэ, Тимми Хун, Рю Кохата, Дин Лю, Майкл Тун, Ван Бань
Режиссёр: Гордон Чан-Описание: 1557 год. Морские разбойники уже несколько десятилетий грабят восточные рубежи Поднебесной. После того, как пираты захватили большой портовый город Цэньган, столичный генштаб посылает на помощь старому полководцу Юй Дао его более молодого и амбициозного коллегу Ци Цзигуана, уверенного в том, что в войне с пиратами можно поставить точку. Для этого необходимы две вещи — железная дисциплина и новая армия.- -Качество: BDRip 720p
Формат: MKV
Видео кодек: x.264
Аудио кодек: AC3/DTS
Видео: AVC, 1280x536 (2.40:1), 24.000 fps, 7 000 Kbps (0.425 bit/pixel)
Аудио 1: AC-3, 48.0 KHz, 2 ch, 192 Kbps, CBR | Russian
Аудио 2: DTS, 48.0 KHz, 6 ch, 1 509 Kbps, CBR | Chinese-Рекламы нет !-

MediaInfo

Общее
Уникальный идентификатор : 234824499189767691004515159584198245072 (0xB0A98DAFFB89FD54A2F7F42781363AD0)
Полное имя : God of War.2017.720p
Формат : Matroska
Версия формата : Version 4 / Version 2
Размер файла : 7,81 Гбайт
Продолжительность : 2 ч. 8 м.
Общий поток : 8696 Кбит/сек
Дата кодирования : UTC 2017-09-12 21:39:01
Программа кодирования : mkvmerge v8.3.0 64bit
Библиотека кодирования : libebml v1.3.1 + libmatroska v1.4.2
Видео
Идентификатор : 1
Формат : AVC
Формат/Информация : Advanced Video Codec
Профиль формата : High @ L4.1
Параметр CABAC формата : Да
Параметр ReFrames формата : 12 кадров
Идентификатор кодека : V_MPEG4/ISO/AVC
Продолжительность : 2 ч. 8 м.
Битрейт : 7000 Кбит/сек
Ширина : 1280 пикселей
Высота : 536 пикселей
Соотношение сторон : 2,40:1
Режим частоты кадров : Постоянный
Частота кадров : 24,000 кадра/сек
Цветовое пространство : YUV
Субдискретизация насыщенности : 4:2:0
Битовая глубина : 8 бит
Тип развёртки : Прогрессивная
Бит/(Пиксели*Кадры) : 0.425
Размер потока : 6,28 Гбайт (80%)
Библиотека кодирования : x264 core 146 r2538 121396c
Настройки программы : cabac=1 / ref=12 / deblock=1:-2:-2 / analyse=0x3:0x133 / me=umh / subme=10 / psy=1 / psy_rd=1.00:0.00 / mixed_ref=1 / me_range=32 / chroma_me=1 / trellis=2 / 8x8dct=1 / cqm=0 / deadzone=21,11 / fast_pskip=0 / chroma_qp_offset=-2 / threads=12 / lookahead_threads=1 / sliced_threads=0 / nr=0 / decimate=0 / interlaced=0 / bluray_compat=0 / constrained_intra=0 / bframes=6 / b_pyramid=2 / b_adapt=2 / b_bias=0 / direct=3 / weightb=1 / open_gop=0 / weightp=2 / keyint=230 / keyint_min=22 / scenecut=40 / intra_refresh=0 / rc_lookahead=60 / rc=2pass / mbtree=1 / bitrate=7000 / ratetol=1.0 / qcomp=0.60 / qpmin=0 / qpmax=69 / qpstep=4 / cplxblur=20.0 / qblur=0.5 / vbv_maxrate=50000 / vbv_bufsize=50000 / nal_hrd=none / filler=0 / ip_ratio=1.40 / aq=1:1.00
Default : Да
Forced : Нет
Аудио #1
Идентификатор : 2
Формат : AC-3
Формат/Информация : Audio Coding 3
Параметр Endianness формата : Big
Идентификатор кодека : A_AC3
Продолжительность : 2 ч. 8 м.
Вид битрейта : Постоянный
Битрейт : 192 Кбит/сек
Каналы : 2 канала
Расположение каналов : Front: L R
Частота : 48,0 КГц
Частота кадров : 31,250 кадров/сек (1536 spf)
Битовая глубина : 16 бит
Метод сжатия : С потерями
Размер потока : 177 Мбайт (2%)
Заголовок : L2 [East Dream]
Язык : Russian
Default : Да
Forced : Нет
Аудио #2
Идентификатор : 3
Формат : DTS
Формат/Информация : Digital Theater Systems
Режим : 16
Параметр Endianness формата : Big
Идентификатор кодека : A_DTS
Продолжительность : 2 ч. 8 м.
Вид битрейта : Постоянный
Битрейт : 1509 Кбит/сек
Каналы : 6 каналов
Расположение каналов : Front: L C R, Side: L R, LFE
Частота : 48,0 КГц
Частота кадров : 93,750 кадра/сек (512 spf)
Битовая глубина : 24 бит
Метод сжатия : С потерями
Размер потока : 1,36 Гбайт (17%)
Язык : Chinese
Default : Нет
Forced : Нет
Текст
Идентификатор : 4
Формат : UTF-8
Идентификатор кодека : S_TEXT/UTF8
Идентификатор кодека/Информация : UTF-8 Plain Text
Продолжительность : 2 ч. 2 м.
Битрейт : 37 бит/сек
ElementCount : 1538
Размер потока : 33,8 Кбайт (0%)
Язык : English
Default : Да
Forced : Нет

Трейлер

-     - - -

Theseus

Пост 09-Сен-2017 14:06

[Цитировать]

Трансформеры: Последний рыцарь
Transformers: The Last Knight
Год выхода: 2017
Страна: США
Жанр: фантастика, боевик, триллер, приключения
Продолжительность: 02:34:43
Перевод: Профессиональный (полное дублирование) | iTunes
Субтитры: Русские (forced, full), английские-Режиссер: Майкл Бэй-В ролях: Марк Уолберг, Лора Хэддок, Энтони Хопкинс, Джемма Чан, Сантьяго Кабрера, Джон Гудман, Стэнли Туччи, Джош Дюамель, Изабела Монер, Джон Туртурро-О фильме: Оптимус Прайм исчез. Люди ведут войну с Трансформерами. Ключ к нашему будущему погребен в тайнах прошлого, в скрытой истории Трансформеров на Земле… Миссия по спасению мира ложится на плечи разношерстной компании, состоящей из Кейда Йегера, Бамблби, английского лорда и профессора из Оксфорда. Пришла пора действовать! Жертвы станут героями. Герои станут злодеями. Выстоит только один мир: их или наш.- -Качество: WEBDL 1080p
Формат: MKV
Видео кодек: x.264
Аудио кодек: AC3
Видео: MPEG-4 AVC, 1920x1010, 5003 Кbit/s, 23.976 fps
Аудио 1: 48 kHz, AC3, 6 ch, 384 kbps | RUS
Аудио 2: 48 kHz, AC3, 6 ch, 384 kbps | ENG-

Трейлер

-     - - -

Theseus

Пост 07-Сен-2017 22:34

[Цитировать]

Пираты Карибского моря: Мертвецы не рассказывают сказки
Pirates of the Caribbean: Dead Men Tell No Tales
Год выхода: 2017
Страна: США
Жанр: Фэнтези, боевик, комедия, приключения
Продолжительность: 02:09:07
Перевод: Профессиональный (полное дублирование) | Лицензия
Субтитры: русские (форсированные, полные), английские (полные, SDH)-Режиссер: Хоаким Роннинг, Эспен Сандберг
В ролях: Джонни Депп, Кира Найтли, Кая Скоделарио, Дэвид Уэнэм, Орландо Блум, Джеффри Раш, Брентон Туэйтс, Хавьер Бардем, Голшифте Фарахани, Стивен Грэм-О фильме: Исчерпавший свою удачу капитан Джек Воробей обнаруживает, что за ним охотится его старый неприятель, ужасный капитан Салазар и его призрачные пираты. Они только что сбежали из Дьявольского треугольника и намерены уничтожить всех пиратов, включая Джека. Поможет спастись лишь могущественный артефакт - трезубец Посейдона, который дарует своему обладателю полный контроль над морями.- -Качество: BDRip 1080p
Формат: MKV
Видео кодек: x.264
Аудио кодек: AC3
Видео: AVC, 1920x800 (2.40:1), 23.976 fps, 11,5 Mbps (0.312 bit/pixel)
Аудио 1: 48 kHz, AC3, 6 ch, 640 kbps | RUS
Аудио 2: 48 kHz, AC3, 6 ch, 640 kbps | ENG-

Трейлер

-     - - -

Theseus

Пост 06-Сен-2017 15:50

[Цитировать]

Братство клинков 2: Адское поле битвы / Xiu chun dao II: xiu luo zhan chang -Год выпуска: 2017
Страна: Китай
Жанр: боевик, история
Продолжительность: 01:59:58
Перевод: Любительский (двухголосый закадровый) [East Dream]
Субтитры: китайские, английские [вшитые неотключаемые]-В ролях: Чан Чэнь, Ян Ми, Чжан И, Цзинь Шицзя, Лэй Цзяинь, Синь Чжилэй …
Режиссёр: Лу Ян-Описание: Действия фильма происходят во времена династии Мин, главный герой Шэнь Лянь должен разгадать тайну убийства евнуха Го из сыскной службы, но капнув чуть глубже понимает, что не всё так просто... Евнух Го и повстанцы Дунлина затеяли убийство Императора, что по тем временам было не редкостью, но наш доблестный капитан лейб-гвардии Шэнь Лянь, узнаёт про организатора сего покушения, это оказывается художник Бэй Чжэй из ближайшей деревни, и чтоб распутать это дело Шэнь Ляню потребуется много сил, ибо враги повсюду...- -Качество: WEBRip 2160p
Формат: MKV
Видео кодек: H.264
Аудио кодек: AC3/AAC
Видео: AVC, 3840x1440 , 24.000 fps, 6126 Kbps (0.046 bit/pixel)
Аудио 1: AC3, 48.0 KHz, 192 Kbps, 2 ch | Russian
Аудио 2: HE-AAC(LC), 48.0 KHz, 63 Kbps, 2 ch | Chinese-Рекламы нет !-

MediaInfo

Общее
Уникальный идентификатор : 239509399079039249030458397104076441035 (0xB42FD515DCE73F9B91FF1A2AD0E345CB)
Полное имя : Brotherhood.of.Blades.II.2017.WEB-DL.2160P.H264
Формат : Matroska
Версия формата : Version 4 / Version 2
Размер файла : 5,35 Гбайт
Продолжительность : 1 ч. 59 м.
Общий поток : 6383 Кбит/сек
Дата кодирования : UTC 2017-09-05 12:24:47
Программа кодирования : mkvmerge v8.3.0 ('Over the Horizon') 64bit
Библиотека кодирования : libebml v1.3.1 + libmatroska v1.4.2
Видео
Идентификатор : 1
Формат : AVC
Формат/Информация : Advanced Video Codec
Профиль формата : High @ L5
Параметр CABAC формата : Да
Параметр ReFrames формата : 3 кадра
Идентификатор кодека : V_MPEG4/ISO/AVC
Продолжительность : 1 ч. 59 м.
Битрейт : 6126 Кбит/сек
Ширина : 3840 пикселей
Высота : 1440 пикселей
Соотношение сторон : 2,667
Режим частоты кадров : Переменный
Частота кадров : 24,000 кадра/сек
Цветовое пространство : YUV
Субдискретизация насыщенности : 4:2:0
Битовая глубина : 8 бит
Тип развёртки : Прогрессивная
Бит/(Пиксели*Кадры) : 0.046
Размер потока : 5,13 Гбайт (96%)
Библиотека кодирования : qiyi . com vtc-test
Default : Да
Forced : Нет
Цветовой диапазон : Limited
Основные цвета : BT.709
Характеристики трансфера : BT.709
Коэффициенты матрицы : BT.709
Аудио #1
Идентификатор : 2
Формат : AC-3
Формат/Информация : Audio Coding 3
Расширение режима : CM (complete main)
Параметр Endianness формата : Big
Идентификатор кодека : A_AC3
Продолжительность : 1 ч. 59 м.
Вид битрейта : Постоянный
Битрейт : 192 Кбит/сек
Каналы : 2 канала
Расположение каналов : Front: L R
Частота : 48,0 КГц
Частота кадров : 31,250 кадров/сек (1536 spf)
Битовая глубина : 16 бит
Метод сжатия : С потерями
Задержка видео : -83 мс.
Размер потока : 165 Мбайт (3%)
Язык : Russian
Default : Да
Forced : Нет
Аудио #2
Идентификатор : 3
Формат : AAC
Формат/Информация : Advanced Audio Codec
Профиль формата : HE-AAC / LC
Идентификатор кодека : A_AAC
Продолжительность : 1 ч. 59 м.
Битрейт : 63,0 Кбит/сек
Каналы : 2 канала
Расположение каналов : Front: L R
Частота : 44,1 КГц / 22,05 КГц
Частота кадров : 21,533 кадра/сек (1024 spf)
Метод сжатия : С потерями
Задержка видео : -83 мс.
Размер потока : 54,0 Мбайт (1%)
Язык : Chinese
Default : Нет
Forced : Нет

Трейлер

-     - - -

Theseus

Пост 02-Сен-2017 21:49

[Цитировать]

Перезалито 02.09.17 на релиз без рекламы

Theseus

Пост 31-Авг-2017 21:13

[Цитировать]

Гадкий я 3 / Despicable Me 3-Год выпуска: 2017
Страна: США
Жанр: мультфильм, комедия, криминал, семейный
Продолжительность: 01:29:47
Перевод: Профессиональный (полное дублирование) | Звук с TS
Субтитры: Отсутствуют-В ролях: Стив Карелл, Кристен Уиг, Трей Паркер, Миранда Косгров, Дэна Гайер, Nev Scharrel, Пьер Коффан, Стив Куган, Джули Эндрюс, Дженни Слейт...
Режиссёр: Kайл Балда, Пьер Коффин, Эрик Гиллон-Описание: Грядет третье пришествие. Многодетный суперагент, роковая красотка и бессмертные миньоны на подходе. Готовьтесь. Они будут править миром.- -Качество: WEBRip 1080p
Формат: MKV
Видео кодек: x.264
Аудио кодек: AC3
Видео: AVC, 1920x800 (2.40:1), 23.976 fps, 4 881 Kbps (0.133 bit/pixel)
Аудио: AC-3, 48.0 KHz, 2 ch, 384 Kbps, CBR-Примечание : Присутствует текстовая реклама, видео реклама вырезана

Трейлер

-          - - -

Theseus

Пост 30-Авг-2017 21:34

[Цитировать]

Телохранитель киллера / The Hitman's Bodyguard -Год выпуска: 2017
Страна: США, Китай, Болгария, Нидерланды
Жанр: боевик, комедия
Продолжительность: 01:59:22
Перевод: Любительский (многоголосый, закадровый) | MUZOBOZ
Режиссёр: Патрик Хьюз-В ролях: Райан Рейнольдс, Сэмюэл Л. Джексон, Элоди Юнг, Сальма Хайек, Гари Олдман, Жоаки де Алмейда, Юрий Колокольников, Тине Жустра, Сэм Хэзелдайн, Ричард Э. Грант-Описание: Он — телохранитель мирового уровня. Его новая работа — охранять киллера, которого все мечтают убить. Он и сам с удовольствием прикончил бы этого гада. Но работа есть работа: смертельные враги в прошлом, они вынуждены объединиться в настоящем, чтобы выжить. Однако их методы настолько различны, а принципы противоположны, что вопрос выживания — под большим вопросом.- -Качество: WEB-DL 720p
Формат: MKV
Видео кодек: x.264
Аудио кодек: AC3
Видео: AVC, 1280x536 (2.40:1), 23.976 fps, 4 121 Kbps
Аудио: AC-3, 48.0 KHz, 2 ch, 384 Kbps, CBR- -

Трейлер

-   - - -
 

Текущее время: Сегодня 03:20

Часовой пояс: GMT + 3