Сегодня идет свободное скачивание без начисления Download

Результатов поиска: 325

Автор Сообщение

Theseus

Пост Вчера 14:10

[Цитировать]

Красный воробей / Red Sparrow- Год выхода: 2018
Страна: США
Жанр: триллер, детектив
Продолжительность: 02:15:48
Перевод: Любительский (многоголосый) [КОЛОБОК]
Субтитры: Корейские (вшитые), русские форсированные (на непереведённые фразы), английские-Режиссер: Френсис Лоуренс-В ролях: Дженнифер Лоуренс, Джоэл Эдгертон, Маттиас Шонартс, Шарлотта Рэмплинг, Мэри-Луиз Паркер, Киран Хайндс, Джоэли Ричардсон, Билл Кэмп, Джереми Айронс, Текла Рютен-О фильме: После вынужденного окончания карьеры из-за профессиональной травмы Доминика Егорова и ее мать сталкиваются с мрачным и неопределенным будущим. Героиня соглашается стать рекрутом в Школе Воробьев, секретной службе, которая обучает уникальных молодых людей использовать свое тело и ум в качестве опаснейшего оружия. После долгого садистского обучения девушка превращается в самого опасного Воробья за всю историю секретной службы. Теперь бывшая балерина должна примирить в себе человека, которым она была, и силу, которой она овладела, со своей собственной жизнью и жизнью всех, кто ей дорог. В том числе, американского агента ЦРУ, пытающегося убедить ее, что он единственный человек, которому она может доверять.- -Качество: WEBRip 720p
Формат: MKV
Видео кодек: x.264
Аудио кодек: AC3
Видео: AVC, 1280x538 (2.40:1), 29.970 fps, 3 500 Kbps
Аудио #1: AC-3, 48.0 KHz, 2 ch, 320 Kbps, CBR | RUS (КОЛОБОК) (редакция Ash61)
Аудио #2: AC-3, 48.0 KHz, 2 ch, 192 Kbps, CBR | UKR (DUB/Postmodern)
Аудио #3: AC-3, 48.0 KHz, 2 ch, 384 Kbps, CBR | ENG-Релиз без рекламы!-

MediaInfo

Общее
Уникальный идентификатор : 200756338469157992360735248243397406750 (0x970843AE4C550FF486FC4665170EB01E)
Полное имя : Red.Sparrow.2018.WEBRip.720p.mkv
Формат : Matroska
Версия формата : Version 4 / Version 2
Размер файла : 4,12 Гбайт
Продолжительность : 2 ч. 15 м.
Общий поток : 4342 Кбит/сек
Дата кодирования : UTC 2018-04-24 10:13:54
Программа кодирования : mkvmerge v8.3.0 ('Over the Horizon') 64bit
Библиотека кодирования : libebml v1.3.1 + libmatroska v1.4.2
Видео
Идентификатор : 1
Формат : AVC
Формат/Информация : Advanced Video Codec
Профиль формата : High@L4.1
Параметр CABAC формата : Да
Параметр ReFrames формата : 4 кадра
Идентификатор кодека : V_MPEG4/ISO/AVC
Продолжительность : 2 ч. 15 м.
Битрейт : 3500 Кбит/сек
Ширина : 1280 пикселей
Высота : 538 пикселей
Соотношение сторон : 2,40:1
Режим частоты кадров : Переменный
Частота кадров : 29,970 (29970/1000) кадров/сек
Цветовое пространство : YUV
Субдискретизация насыщенности : 4:2:0
Битовая глубина : 8 бит
Тип развёртки : Прогрессивная
Бит/(Пиксели*Кадры) : 0.170
Размер потока : 3,27 Гбайт (79%)
Библиотека кодирования : x264 core 148 r2795 aaa9aa8
Настройки программы : cabac=1 / ref=4 / deblock=1:0:0 / analyse=0x3:0x113 / me=hex / subme=8 / psy=1 / psy_rd=1.00:0.00 / mixed_ref=1 / me_range=16 / chroma_me=1 / trellis=2 / 8x8dct=1 / cqm=0 / deadzone=21,11 / fast_pskip=1 / chroma_qp_offset=-2 / threads=17 / lookahead_threads=2 / sliced_threads=0 / nr=0 / decimate=1 / interlaced=0 / bluray_compat=0 / constrained_intra=0 / bframes=3 / b_pyramid=2 / b_adapt=1 / b_bias=0 / direct=3 / weightb=1 / open_gop=0 / weightp=2 / keyint=250 / keyint_min=25 / scenecut=40 / intra_refresh=0 / rc_lookahead=50 / rc=abr / mbtree=1 / bitrate=3500 / ratetol=1.0 / qcomp=0.60 / qpmin=0 / qpmax=69 / qpstep=4 / ip_ratio=1.40 / aq=1:1.00
Default : Да
Forced : Нет
Аудио #1
Идентификатор : 2
Формат : AC-3
Формат/Информация : Audio Coding 3
Расширение режима : CM (complete main)
Параметр Endianness формата : Big
Идентификатор кодека : A_AC3
Продолжительность : 2 ч. 15 м.
Вид битрейта : Постоянный
Битрейт : 320 Кбит/сек
Каналы : 2 канала
Расположение каналов : Front: L R
Частота : 48,0 КГц
Частота кадров : 31,250 кадров/сек (1536 spf)
Битовая глубина : 16 бит
Метод сжатия : С потерями
Размер потока : 311 Мбайт (7%)
Заголовок : Колобок (редакция Ash61)
Язык : Russian
Default : Да
Forced : Нет
Аудио #2
Идентификатор : 3
Формат : AC-3
Формат/Информация : Audio Coding 3
Расширение режима : CM (complete main)
Параметр Endianness формата : Big
Идентификатор кодека : A_AC3
Продолжительность : 2 ч. 15 м.
Вид битрейта : Постоянный
Битрейт : 192 Кбит/сек
Каналы : 2 канала
Расположение каналов : Front: L R
Частота : 48,0 КГц
Частота кадров : 31,250 кадров/сек (1536 spf)
Битовая глубина : 16 бит
Метод сжатия : С потерями
Размер потока : 186 Мбайт (4%)
Заголовок : DUB [Postmodern]
Язык : Ukrainian
Default : Нет
Forced : Нет
Аудио #3
Идентификатор : 4
Формат : AC-3
Формат/Информация : Audio Coding 3
Расширение режима : CM (complete main)
Параметр Endianness формата : Big
Идентификатор кодека : A_AC3
Продолжительность : 2 ч. 15 м.
Вид битрейта : Постоянный
Битрейт : 384 Кбит/сек
Каналы : 2 канала
Расположение каналов : Front: L R
Частота : 48,0 КГц
Частота кадров : 31,250 кадров/сек (1536 spf)
Битовая глубина : 16 бит
Метод сжатия : С потерями
Размер потока : 373 Мбайт (9%)
Язык : English
Default : Нет
Forced : Нет
Текст #1
Идентификатор : 5
Формат : UTF-8
Идентификатор кодека : S_TEXT/UTF8
Идентификатор кодека/Информация : UTF-8 Plain Text
Продолжительность : 1 ч. 34 м.
Битрейт : 0 бит/сек
Count of elements : 4
Размер потока : 200 байт (0%)
Заголовок : Форсированные (на непереведённые фразы)
Язык : Russian
Default : Да
Forced : Нет
Текст #2
Идентификатор : 6
Формат : UTF-8
Идентификатор кодека : S_TEXT/UTF8
Идентификатор кодека/Информация : UTF-8 Plain Text
Продолжительность : 2 ч. 15 м.
Битрейт : 89 бит/сек
Count of elements : 1522
Размер потока : 88,6 Кбайт (0%)
Язык : English
Default : Нет
Forced : Нет

Трейлер

-     - -

Theseus

Пост 23-Апр-2018 19:52

[Цитировать]

Тебя никогда здесь не было / You Were Never Really Here- Год выпуска: 2017
Страна: Великобритания, Франция, США
Жанр: триллер, драма, детектив
Продолжительность: 01:29:29
Перевод: Любительский многоголосый | HDRezka Studio
Субтитры: Русские, английские-Режиссер: Линн Рэмси-В ролях: Хоакин Феникс, Екатерина Самсонова, Алекс Манетт, Джон Доумен, Джудит Анна Робертс, Алессандро Нивола, Данте Перейра-Олсон-О фильме: У сурового Джо непростая судьба. Он никого не боится, лишь вспышки воспоминаний заставляют его вздрагивать. Безжалостный герой-одиночка, идущий напролом ради спасения слабых. Для Нины, юной дочери сенатора, Джо — единственная надежда. И даже самые изощрённые и жестокие силы не должны помешать ему вызволить её из ада, в который она попала.- -Качество: BDRip 1080p
Формат: MKV
Видео кодек: x.264
Аудио кодек: AC3, DTS
Видео: AVC, 1920x804 (2.40:1), 24.000 fps, 8 000 Kbps (0.216 bit/pixel)
Аудио #1: AC-3, 48.0 KHz, 2 ch, 384 Kbps, CBR (Russian/HDrezka)
Аудио #2: AC-3, 48.0 KHz, 6 ch, 384 Kbps, CBR (Russian/HDrezka)
Аудио #3: DTS, 48.0 KHz, 6 ch, 1 509 Kbps, CBR (English)-Примечание : аудио дорожка №2 получена из английской дорожки 5.1 с заменой центрального канала-

MediaInfo

Общее
Уникальный идентификатор : 233152125786240895008357930998361046266 (0xAF67775007EF4D7F89D7B563C7E93CFA)
Полное имя : You.Were.Never.Really.Here.2017.BDRip.1080p.mkv
Формат : Matroska
Версия формата : Version 4 / Version 2
Размер файла : 6,42 Гбайт
Продолжительность : 1 ч. 29 м.
Общий поток : 10,3 Мбит/сек
Дата кодирования : UTC 2018-04-23 15:20:41
Программа кодирования : mkvmerge v8.3.0 ('Over the Horizon') 64bit
Библиотека кодирования : libebml v1.3.1 + libmatroska v1.4.2
Видео
Идентификатор : 1
Формат : AVC
Формат/Информация : Advanced Video Codec
Профиль формата : High@L4.1
Параметр CABAC формата : Да
Параметр ReFrames формата : 4 кадра
Идентификатор кодека : V_MPEG4/ISO/AVC
Продолжительность : 1 ч. 29 м.
Битрейт : 8000 Кбит/сек
Ширина : 1920 пикселей
Высота : 804 пикселя
Соотношение сторон : 2,40:1
Режим частоты кадров : Постоянный
Частота кадров : 24,000 кадра/сек
Цветовое пространство : YUV
Субдискретизация насыщенности : 4:2:0
Битовая глубина : 8 бит
Тип развёртки : Прогрессивная
Бит/(Пиксели*Кадры) : 0.216
Размер потока : 4,99 Гбайт (78%)
Библиотека кодирования : x264 core 155 r2901 7d0ff22
Настройки программы : cabac=1 / ref=4 / deblock=1:-3:-3 / analyse=0x3:0x113 / me=umh / subme=8 / psy=1 / psy_rd=1.00:0.00 / mixed_ref=1 / me_range=16 / chroma_me=1 / trellis=2 / 8x8dct=1 / cqm=0 / deadzone=21,11 / fast_pskip=0 / chroma_qp_offset=-2 / threads=12 / lookahead_threads=3 / sliced_threads=0 / nr=0 / decimate=1 / interlaced=0 / bluray_compat=0 / constrained_intra=0 / bframes=4 / b_pyramid=2 / b_adapt=2 / b_bias=0 / direct=1 / weightb=1 / open_gop=0 / weightp=2 / keyint=250 / keyint_min=23 / scenecut=40 / intra_refresh=0 / rc_lookahead=40 / rc=2pass / mbtree=1 / bitrate=8000 / ratetol=1.0 / qcomp=0.60 / qpmin=0 / qpmax=69 / qpstep=4 / cplxblur=20.0 / qblur=0.5 / vbv_maxrate=50000 / vbv_bufsize=62500 / nal_hrd=none / filler=0 / ip_ratio=1.40 / aq=1:0.70
Язык : English
Default : Да
Forced : Нет
Цветовой диапазон : Limited
Основные цвета : BT.709
Характеристики трансфера : BT.709
Коэффициенты матрицы : BT.709
Аудио #1
Идентификатор : 2
Формат : AC-3
Формат/Информация : Audio Coding 3
Расширение режима : CM (complete main)
Параметр Endianness формата : Big
Идентификатор кодека : A_AC3
Продолжительность : 1 ч. 29 м.
Вид битрейта : Постоянный
Битрейт : 384 Кбит/сек
Каналы : 2 канала
Расположение каналов : Front: L R
Частота : 48,0 КГц
Частота кадров : 31,250 кадров/сек (1536 spf)
Битовая глубина : 16 бит
Метод сжатия : С потерями
Размер потока : 246 Мбайт (4%)
Заголовок : HDrezka Studio
Язык : Russian
Default : Да
Forced : Нет
Аудио #2
Идентификатор : 3
Формат : AC-3
Формат/Информация : Audio Coding 3
Расширение режима : CM (complete main)
Параметр Endianness формата : Big
Идентификатор кодека : A_AC3
Продолжительность : 1 ч. 29 м.
Вид битрейта : Постоянный
Битрейт : 384 Кбит/сек
Каналы : 6 каналов
Расположение каналов : Front: L C R, Side: L R, LFE
Частота : 48,0 КГц
Частота кадров : 31,250 кадров/сек (1536 spf)
Битовая глубина : 16 бит
Метод сжатия : С потерями
Размер потока : 246 Мбайт (4%)
Заголовок : HDrezka Studio
Язык : Russian
Default : Нет
Forced : Нет
Аудио #3
Идентификатор : 4
Формат : DTS
Формат/Информация : Digital Theater Systems
Режим : 16
Параметр Endianness формата : Big
Идентификатор кодека : A_DTS
Продолжительность : 1 ч. 29 м.
Вид битрейта : Постоянный
Битрейт : 1509 Кбит/сек
Каналы : 6 каналов
Расположение каналов : Front: L C R, Side: L R, LFE
Частота : 48,0 КГц
Частота кадров : 93,750 кадра/сек (512 spf)
Битовая глубина : 24 бит
Метод сжатия : С потерями
Размер потока : 966 Мбайт (15%)
Язык : English
Default : Нет
Forced : Нет
Текст #1
Идентификатор : 5
Формат : UTF-8
Идентификатор кодека : S_TEXT/UTF8
Идентификатор кодека/Информация : UTF-8 Plain Text
Продолжительность : 1 ч. 29 м.
Битрейт : 23 бит/сек
Count of elements : 363
Размер потока : 15,5 Кбайт (0%)
Язык : Russian
Default : Да
Forced : Нет
Текст #2
Идентификатор : 6
Формат : UTF-8
Идентификатор кодека : S_TEXT/UTF8
Идентификатор кодека/Информация : UTF-8 Plain Text
Продолжительность : 1 ч. 20 м.
Битрейт : 22 бит/сек
Count of elements : 502
Размер потока : 13,5 Кбайт (0%)
Язык : English
Default : Нет
Forced : Нет
Меню
00:00:00.000 : en:00:00:00.000
00:11:50.292 : en:00:11:50.292
00:22:44.375 : en:00:22:44.375
00:31:55.833 : en:00:31:55.833
00:42:47.375 : en:00:42:47.375
00:53:22.583 : en:00:53:22.583
01:01:47.250 : en:01:01:47.250
01:09:53.625 : en:01:09:53.625

Трейлер

-     - -

Theseus

Пост 20-Апр-2018 15:26

[Цитировать]

Тихоокеанский рубеж 2 / Pacific Rim Uprising- Год выпуска: 2018
Производство: Китай, США
Жанр: фантастика, боевик, приключения
Продолжительность: 01:52:51
Перевод: Любительский (многоголосый) [MUZOBOZ]
Субтитры: Корейские (вшитые)-Режиссер: Стивен С. ДеНайт-В ролях: Джон Бойега, Скотт Иствуд, Кэйли Спэни, Берн Горман, Чарли Дэй, Цзин Тянь, Макс Чжан, Адриа Архона, Ринко Кикути, Каран Брэр-Описание: Команда пилотируемых роботов-защитников остановила вторжение гигантских инопланетных монстров. Великая битва за Тихоокеанский рубеж ознаменовала новую главу в истории человечества. Однако война только начинается…
Пришло время нового поколения отстаивать своё право на Землю..- -Качество: WEBRip 1080p
Формат: MKV
Видео кодек: x.264
Аудио кодек: AC3
Видео: AVC, 1920x800, 23.976 fps, 6119 Kbps
Аудио: AC-3, 48.0 KHz, 2 ch, 384 Kbps, CBR-Присутствует реклама !-

Трейлер

-   - -

Theseus

Пост 20-Апр-2018 15:24

[Цитировать]

Тихоокеанский рубеж 2 / Pacific Rim Uprising- Год выпуска: 2018
Производство: Китай, США
Жанр: фантастика, боевик, приключения
Продолжительность: 01:52:51
Перевод: Любительский (многоголосый) [MUZOBOZ]
Субтитры: Корейские (вшитые)-Режиссер: Стивен С. ДеНайт-В ролях: Джон Бойега, Скотт Иствуд, Кэйли Спэни, Берн Горман, Чарли Дэй, Цзин Тянь, Макс Чжан, Адриа Архона, Ринко Кикути, Каран Брэр-Описание: Команда пилотируемых роботов-защитников остановила вторжение гигантских инопланетных монстров. Великая битва за Тихоокеанский рубеж ознаменовала новую главу в истории человечества. Однако война только начинается…
Пришло время нового поколения отстаивать своё право на Землю..- -Качество: WEBRip 720p
Формат: MKV
Видео кодек: x.264
Аудио кодек: AC3
Видео: AVC, 1280x536, 23.976 fps, 4 975 Kbps
Аудио: AC-3, 48.0 KHz, 2 ch, 384 Kbps, CBR-Присутствует реклама !-

Трейлер

-   - -

Theseus

Пост 19-Апр-2018 23:35

[Цитировать]

-Красный воробей / Red Sparrow-Год выхода: 2018
Страна: США
Жанр: триллер, детектив
Продолжительность: 02:15:48
Перевод: Любительский (многоголосый) | КОЛОБОК
Субтитры: Корейские (вшитые), Русские (форсированные) [на 3 непереведённые фразы]-Режиссер: Френсис Лоуренс-В ролях: Дженнифер Лоуренс, Джоэл Эдгертон, Маттиас Шонартс, Шарлотта Рэмплинг, Мэри-Луиз Паркер, Киран Хайндс, Джоэли Ричардсон, Билл Кэмп, Джереми Айронс, Текла Рютен-О фильме: После вынужденного окончания карьеры из-за профессиональной травмы Доминика Егорова и ее мать сталкиваются с мрачным и неопределенным будущим. Героиня соглашается стать рекрутом в Школе Воробьев, секретной службе, которая обучает уникальных молодых людей использовать свое тело и ум в качестве опаснейшего оружия. После долгого садистского обучения девушка превращается в самого опасного Воробья за всю историю секретной службы. Теперь бывшая балерина должна примирить в себе человека, которым она была, и силу, которой она овладела, со своей собственной жизнью и жизнью всех, кто ей дорог. В том числе, американского агента ЦРУ, пытающегося убедить ее, что он единственный человек, которому она может доверять.- -Качество: WEBRip 1080p
Формат: MKV
Видео кодек: x.264
Аудио кодек: AC3
Видео: AVC, 1904х800 (2.40:1), 29.970 fps, 4882 Kbps
Аудио #1: AC-3, 48.0 KHz, 2 ch, 320 Kbps, CBR (Russian) [редакция Ash61]
Аудио #2: AC-3, 48.0 KHz, 2 ch, 320 Kbps, CBR (English)-Релиз без рекламы!-

Трейлер

-     - -

Theseus

Пост 19-Апр-2018 14:39

[Цитировать]

Пассажир / The Commuter- Год выпуска: 2018
Производство: Великобритания, Франция, США
Жанр: боевик, триллер, драма, криминал, детектив
Продолжительность: 01:44:55
Перевод: Профессиональный (полное дублирование) iTunes / Любительский многоголосый HDRezka Studio
Субтитры: Русские, английские-Режиссер: Жаума Кольет-Серра-В ролях: Лиам Нисон, Вера Фармига, Патрик Уилсон, Джонатан Бэнкс, Сэм Нил, Элизабет МакГоверн, Киллиан Скотт, Шазад Латиф, Энди Найман, Клара Лаго-Описание: Еще вчера его день начинался с поездки на работу в одном и том же поезде, в компании уже давно знакомых лиц, но сегодня таинственная незнакомка предлагает ему поучаствовать в эксперименте. Одна остановка, чтобы принять решение, и единственный шанс из тысячи победить. Осторожно, игра начинается…- -Качество: BDRemux 2160p
Контейнер: MKV
Видео кодек: H.265
Аудио кодек: AC3, TrueHD
Видео: MPEG-H HEVC HDR Video, 3840x2160, 58.6 Mbit/s, 23.976 fps
Аудио 1: AC-3, 48.0 KHz, 6 ch, 384 Kbps | RUS [DUB / iTunes]
Аудио 2: AC-3, 48.0 KHz, 2 ch, 384 Kbps | RUS [HDRezka]
Аудио 3: TrueHD, 48.0 KHz, 8 ch, 4211 Kbps | ENG [Original]
Аудио 4: AC-3, 48.0 KHz, 6 ch, 448 Kbps | ENG [Original, AC3 Core]
Аудио 5: AC-3, 48.0 KHz, 2 ch, 192 Kbps | ENG [Audiodeion]-

MI

Общее
Уникальный идентификатор : 211852675139412462569029395640328438049 (0x9F61575157F0C748E303F73481BCC121)
Полное имя : The.Commuter.2018.D.MVO.UHD.BDRemux.2160p.HEVC.HDR.IVA(RUS.ENG).ExKinoRay.mkv
Формат : Matroska
Версия формата : Version 4 / Version 2
Размер файла : 47,1 Гбайт
Продолжительность : 1 ч. 44 м.
Режим общего битрейта : Переменный
Общий поток : 64,3 Мбит/сек
Название фильма : Пассажир / The Commuter ( 2018 ) BDRemux | HDR, 4K | IVA(RUS.ENG) | ExKinoRay
Дата кодирования : UTC 2018-04-18 19:15:20
Программа кодирования : mkvmerge v22.0.0 ('At The End Of The World') 64-bit
Библиотека кодирования : libebml v1.3.5 + libmatroska v1.4.8
Обложка : Yes
Видео
Идентификатор : 1
Формат : HEVC
Формат/Информация : High Efficiency Video Coding
Коммерческое название : HDR10
Профиль формата : Main 10@L5.1@High
Идентификатор кодека : V_MPEGH/ISO/HEVC
Продолжительность : 1 ч. 44 м.
Битрейт : 58,6 Мбит/сек
Ширина : 3840 пикселей
Высота : 2160 пикселей
Соотношение сторон : 16:9
Режим частоты кадров : Постоянный
Частота кадров : 23,976 (24000/1001) кадра/сек
Цветовое пространство : YUV
Субдискретизация насыщенности : 4:2:0 (Type 2)
Битовая глубина : 10 бит
Бит/(Пиксели*Кадры) : 0.295
Размер потока : 42,9 Гбайт (91%)
Заголовок : The.Commuter.2018.UHD.BDRemux.2160p.HEVC.HDR
Язык : English
Default : Да
Forced : Нет
Цветовой диапазон : Limited
Основные цвета : BT.2020
Характеристики трансфера : PQ
Коэффициенты матрицы : BT.2020 non-constant
MasteringDisplay_ColorPrimaries : BT.709
MasteringDisplay_Luminance : min: 0.0050 cd/m2, max: 1000 cd/m2
MaxCLL : 1000 cd/m2
MaxFALL : 530 cd/m2
Аудио #1
Идентификатор : 2
Формат : AC-3
Формат/Информация : Audio Coding 3
Идентификатор кодека : A_AC3
Продолжительность : 1 ч. 44 м.
Вид битрейта : Постоянный
Битрейт : 384 Кбит/сек
Каналы : 6 каналов
Расположение каналов : Front: L C R, Side: L R, LFE
Частота : 48,0 КГц
Частота кадров : 31,250 кадров/сек (1536 SPF)
Битовая глубина : 16 бит
Метод сжатия : С потерями
Размер потока : 288 Мбайт (1%)
Заголовок : | iTunes |
Язык : Russian
ServiceKind : Complete Main
Default : Да
Forced : Да
Аудио #2
Идентификатор : 3
Формат : AC-3
Формат/Информация : Audio Coding 3
Идентификатор кодека : A_AC3
Продолжительность : 1 ч. 44 м.
Вид битрейта : Постоянный
Битрейт : 384 Кбит/сек
Каналы : 2 канала
Расположение каналов : Front: L R
Частота : 48,0 КГц
Частота кадров : 31,250 кадров/сек (1536 SPF)
Битовая глубина : 16 бит
Метод сжатия : С потерями
Размер потока : 288 Мбайт (1%)
Заголовок : | MVO [HDRezka] |
Язык : Russian
ServiceKind : Complete Main
Default : Нет
Forced : Нет
Аудио #3
Идентификатор : 4
Формат : TrueHD
Профиль формата : TrueHD+Atmos / TrueHD
Идентификатор кодека : A_TRUEHD
Продолжительность : 1 ч. 44 м.
Вид битрейта : Переменный
Битрейт : 4211 Кбит/сек
Максимальный битрейт : 7737 Кбит/сек
Каналы : Object Based / 8 каналов
Расположение каналов : Object Based / Front: L C R, Side: L R, Back: L R, LFE
Частота : / 48,0 КГц
Частота кадров : 1200,000 кадров/сек (40 SPF)
Метод сжатия : Без потерь
Размер потока : 3,09 Гбайт (7%)
Заголовок : | Original |
Язык : English
Default : Нет
Forced : Нет
Аудио #4
Идентификатор : 5
Формат : AC-3
Формат/Информация : Audio Coding 3
Идентификатор кодека : A_AC3
Продолжительность : 1 ч. 44 м.
Вид битрейта : Постоянный
Битрейт : 448 Кбит/сек
Каналы : 6 каналов
Расположение каналов : Front: L C R, Side: L R, LFE
Частота : 48,0 КГц
Частота кадров : 31,250 кадров/сек (1536 SPF)
Битовая глубина : 16 бит
Метод сжатия : С потерями
Размер потока : 336 Мбайт (1%)
Заголовок : | Original, AC3 Core |
Язык : English
ServiceKind : Complete Main
Default : Нет
Forced : Нет
Аудио #5
Идентификатор : 6
Формат : AC-3
Формат/Информация : Audio Coding 3
Идентификатор кодека : A_AC3
Продолжительность : 1 ч. 44 м.
Вид битрейта : Постоянный
Битрейт : 192 Кбит/сек
Каналы : 2 канала
Расположение каналов : Front: L R
Частота : 48,0 КГц
Частота кадров : 31,250 кадров/сек (1536 SPF)
Битовая глубина : 16 бит
Метод сжатия : С потерями
Задержка видео : 5 мс.
Размер потока : 144 Мбайт (0%)
Заголовок : | Audiodeion |
Язык : English
ServiceKind : Complete Main
Default : Нет
Forced : Нет
Текст #1
Идентификатор : 7
Формат : UTF-8
Идентификатор кодека : S_TEXT/UTF8
Идентификатор кодека/Информация : UTF-8 Plain Text
Продолжительность : 1 ч. 37 м.
Битрейт : 94 бит/сек
ElementCount : 1429
Размер потока : 67,4 Кбайт (0%)
Заголовок : Full
Язык : Russian
Default : Нет
Forced : Нет
Текст #2
Идентификатор : 8
Формат : UTF-8
Идентификатор кодека : S_TEXT/UTF8
Идентификатор кодека/Информация : UTF-8 Plain Text
Продолжительность : 1 ч. 37 м.
Битрейт : 64 бит/сек
ElementCount : 1342
Размер потока : 46,0 Кбайт (0%)
Заголовок : Full
Язык : English
Default : Нет
Forced : Нет
Текст #3
Идентификатор : 9
Формат : UTF-8
Идентификатор кодека : S_TEXT/UTF8
Идентификатор кодека/Информация : UTF-8 Plain Text
Продолжительность : 1 ч. 37 м.
Битрейт : 71 бит/сек
ElementCount : 1594
Размер потока : 51,3 Кбайт (0%)
Заголовок : SDH
Язык : English
Default : Нет
Forced : Нет
Текст #4
Идентификатор : 10
Формат : UTF-8
Идентификатор кодека : S_TEXT/UTF8
Идентификатор кодека/Информация : UTF-8 Plain Text
Продолжительность : 1 ч. 37 м.
Битрейт : 107 бит/сек
ElementCount : 1594
Размер потока : 77,1 Кбайт (0%)
Заголовок : SDH Colored
Язык : English
Default : Нет
Forced : Нет
Меню
00:00:00.000 : en:Chapter 1
00:05:38.254 : en:Chapter 2
00:12:23.492 : en:Chapter 3
00:16:54.471 : en:Chapter 4
00:25:36.117 : en:Chapter 5
00:32:20.855 : en:Chapter 6
00:41:37.953 : en:Chapter 7
00:44:38.217 : en:Chapter 8
00:52:38.989 : en:Chapter 9
00:59:30.650 : en:Chapter 10
01:04:50.845 : en:Chapter 11
01:11:53.517 : en:Chapter 12
01:20:23.318 : en:Chapter 13
01:25:23.159 : en:Chapter 14
01:30:45.648 : en:Chapter 15
01:37:26.340 : en:Chapter 16

Трейлер

-     - -

Theseus

Пост 19-Апр-2018 14:38

[Цитировать]

Пассажир / The Commuter- Год выпуска: 2018
Производство: Великобритания, Франция, США
Жанр: боевик, триллер, драма, криминал, детектив
Продолжительность: 01:44:55
Перевод: Профессиональный (полное дублирование) iTunes / Любительский многоголосый HDRezka Studio
Субтитры: Русские, английские-Режиссер: Жаума Кольет-Серра-В ролях: Лиам Нисон, Вера Фармига, Патрик Уилсон, Джонатан Бэнкс, Сэм Нил, Элизабет МакГоверн, Киллиан Скотт, Шазад Латиф, Энди Найман, Клара Лаго-Описание: Еще вчера его день начинался с поездки на работу в одном и том же поезде, в компании уже давно знакомых лиц, но сегодня таинственная незнакомка предлагает ему поучаствовать в эксперименте. Одна остановка, чтобы принять решение, и единственный шанс из тысячи победить. Осторожно, игра начинается…- -Качество: BDRemux
Контейнер: MKV
Видео кодек: H.264
Аудио кодек: AC3, TrueHD
Видео: MPEG-4 AVC, 1920x1080, 34.7 Mbit/s, 23.976 fps
Аудио 1: AC-3, 48.0 KHz, 6 ch, 384 Kbps | RUS [DUB / iTunes]
Аудио 2: AC-3, 48.0 KHz, 2 ch, 384 Kbps | RUS [HDRezka]
Аудио 3: TrueHD, 48.0 KHz, 8 ch, 4970 Kbps | ENG
Аудио 4: AC-3, 48.0 KHz, 6 ch, 448 Kbps | ENG-

MI

General
Unique ID : 137174667689242263600194783127086877982 (0x6732E1486D796DCF4EC47BD03D00CD1E)
Complete name : The.Commuter.2018.D.MVO.BDREMUX.1080p.ExKinoRay.mkv
Format : Matroska
Format version : Version 4 / Version 2
File size : 30.0 GiB
Duration : 1 h 44 min
Overall bit rate mode : Variable
Overall bit rate : 41.0 Mb/s
Movie name : The Commuter 2018 from ExKinoRay
Encoded date : UTC 2018-04-16 21:42:15
Writing application : mkvmerge v22.0.0 ('At The End Of The World') 64-bit
Writing library : libebml v1.3.5 + libmatroska v1.4.8
Video
ID : 1
Format : AVC
Format/Info : Advanced Video Codec
Format profile : High@L4.1
Format settings : CABAC / 4 Ref Frames
Format settings, CABAC : Yes
Format settings, ReFrames : 4 frames
Codec ID : V_MPEG4/ISO/AVC
Duration : 1 h 44 min
Bit rate mode : Variable
Bit rate : 34.7 Mb/s
Maximum bit rate : 37.0 Mb/s
Width : 1 920 pixels
Height : 1 080 pixels
Display aspect ratio : 16:9
Frame rate mode : Constant
Frame rate : 23.976 (24000/1001) FPS
Color space : YUV
Chroma subsampling : 4:2:0
Bit depth : 8 bits
Scan type : Progressive
Bits/(Pixel*Frame) : 0.699
Stream size : 25.5 GiB (85%)
Language : English
Default : Yes
Forced : No
Audio #1
ID : 2
Format : AC-3
Format/Info : Audio Coding 3
Codec ID : A_AC3
Duration : 1 h 44 min
Bit rate mode : Constant
Bit rate : 384 kb/s
Channel(s) : 6 channels
Channel positions : Front: L C R, Side: L R, LFE
Sampling rate : 48.0 kHz
Frame rate : 31.250 FPS (1536 SPF)
Bit depth : 16 bits
Compression mode : Lossy
Stream size : 288 MiB (1%)
Title : iTunes
Language : Russian
Service kind : Complete Main
Default : Yes
Forced : Yes
Audio #2
ID : 3
Format : AC-3
Format/Info : Audio Coding 3
Codec ID : A_AC3
Duration : 1 h 44 min
Bit rate mode : Constant
Bit rate : 384 kb/s
Channel(s) : 2 channels
Channel positions : Front: L R
Sampling rate : 48.0 kHz
Frame rate : 31.250 FPS (1536 SPF)
Bit depth : 16 bits
Compression mode : Lossy
Stream size : 288 MiB (1%)
Title : MVO [HDRezka]
Language : Russian
Service kind : Complete Main
Default : No
Forced : No
Audio #3
ID : 4
Format : TrueHD
Format profile : TrueHD+Atmos / TrueHD
Codec ID : A_TRUEHD
Duration : 1 h 44 min
Bit rate mode : Variable
Bit rate : 4 970 kb/s
Maximum bit rate : 6 402 kb/s
Channel(s) : Object Based / 8 channels
Channel positions : Object Based / Front: L C R, Side: L R, Back: L R, LFE
Sampling rate : / 48.0 kHz
Frame rate : 1 200.000 FPS (40 SPF)
Compression mode : Lossless
Stream size : 3.64 GiB (12%)
Title : Original
Language : English
Default : No
Forced : No
Audio #4
ID : 5
Format : AC-3
Format/Info : Audio Coding 3
Codec ID : A_AC3
Duration : 1 h 44 min
Bit rate mode : Constant
Bit rate : 448 kb/s
Channel(s) : 6 channels
Channel positions : Front: L C R, Side: L R, LFE
Sampling rate : 48.0 kHz
Frame rate : 31.250 FPS (1536 SPF)
Bit depth : 16 bits
Compression mode : Lossy
Stream size : 336 MiB (1%)
Language : English
Service kind : Complete Main
Default : No
Forced : No
Text #1
ID : 6
Format : UTF-8
Codec ID : S_TEXT/UTF8
Codec ID/Info : UTF-8 Plain Text
Duration : 1 h 37 min
Bit rate : 94 b/s
Count of elements : 1429
Stream size : 67.4 KiB (0%)
Title : Full
Language : Russian
Default : No
Forced : No
Text #2
ID : 7
Format : UTF-8
Codec ID : S_TEXT/UTF8
Codec ID/Info : UTF-8 Plain Text
Duration : 1 h 37 min
Bit rate : 64 b/s
Count of elements : 1342
Stream size : 46.0 KiB (0%)
Title : Full
Language : English
Default : No
Forced : No
Text #3
ID : 8
Format : UTF-8
Codec ID : S_TEXT/UTF8
Codec ID/Info : UTF-8 Plain Text
Duration : 1 h 37 min
Bit rate : 71 b/s
Count of elements : 1594
Stream size : 51.3 KiB (0%)
Title : SDH
Language : English
Default : No
Forced : No
Text #4
ID : 9
Format : UTF-8
Codec ID : S_TEXT/UTF8
Codec ID/Info : UTF-8 Plain Text
Duration : 1 h 37 min
Bit rate : 107 b/s
Count of elements : 1594
Stream size : 77.1 KiB (0%)
Title : SDH Colored
Language : English
Default : No
Forced : No
Menu
00:00:00.000 : en:00:00:00.000
00:05:38.255 : en:00:05:38.255
00:12:23.493 : en:00:12:23.493
00:16:54.472 : en:00:16:54.472
00:25:36.118 : en:00:25:36.118
00:32:20.855 : en:00:32:20.855
00:41:37.954 : en:00:41:37.954
00:44:38.217 : en:00:44:38.217
00:52:38.989 : en:00:52:38.989
00:59:30.650 : en:00:59:30.650
01:04:50.845 : en:01:04:50.845
01:11:53.517 : en:01:11:53.517
01:20:23.318 : en:01:20:23.318
01:25:23.160 : en:01:25:23.160
01:30:45.648 : en:01:30:45.648
01:37:26.340 : en:01:37:26.340

Трейлер

-     - -

Theseus

Пост 19-Апр-2018 14:37

[Цитировать]

Пассажир / The Commuter- Год выпуска: 2018
Производство: Великобритания, Франция, США
Жанр: боевик, триллер, драма, криминал, детектив
Продолжительность: 01:44:55
Перевод: Профессиональный (полное дублирование) | iTunes
Субтитры: Отсутствуют-Режиссер: Жаума Кольет-Серра-В ролях: Лиам Нисон, Вера Фармига, Патрик Уилсон, Джонатан Бэнкс, Сэм Нил, Элизабет МакГоверн, Киллиан Скотт, Шазад Латиф, Энди Найман, Клара Лаго-Описание: Еще вчера его день начинался с поездки на работу в одном и том же поезде, в компании уже давно знакомых лиц, но сегодня таинственная незнакомка предлагает ему поучаствовать в эксперименте. Одна остановка, чтобы принять решение, и единственный шанс из тысячи победить. Осторожно, игра начинается…- -Качество: BDRip 1080p
Формат: MKV
Видео кодек: x.264
Аудио кодек: AC3
Видео: AVC, 1920x804 (2.40:1), 8500 kbps, 23,976 fps
Аудио: AC-3, 48.0 KHz, 6 ch, 384 Kbps, CBR
-

Трейлер

-    - -

Theseus

Пост 19-Апр-2018 14:36

[Цитировать]

Пассажир / The Commuter- Год выпуска: 2018
Производство: Великобритания, Франция, США
Жанр: боевик, триллер, драма, криминал, детектив
Продолжительность: 01:44:55
Перевод: Профессиональный (полное дублирование) | iTunes
Субтитры: русские, английские-Режиссер: Жаума Кольет-Серра-В ролях: Лиам Нисон, Вера Фармига, Патрик Уилсон, Джонатан Бэнкс, Сэм Нил, Элизабет МакГоверн, Киллиан Скотт, Шазад Латиф, Энди Найман, Клара Лаго-Описание: Еще вчера его день начинался с поездки на работу в одном и том же поезде, в компании уже давно знакомых лиц, но сегодня таинственная незнакомка предлагает ему поучаствовать в эксперименте. Одна остановка, чтобы принять решение, и единственный шанс из тысячи победить. Осторожно, игра начинается…- -Качество: BDRip 720p
Формат: MKV
Видео кодек: x.264
Аудио кодек: AC3
Видео: AVC, 1280x536 (2.40:1), 4119 kbps, 23,976 fps
Аудио 1: AC3 / 5.1 / 48 kHz / 384 kbps / 16 bit | RUS
Аудио 2: AC3 / 5.1 / 48 kHz / 448 kbps / 16 bit | ENG
-

Трейлер

-     - -

Theseus

Пост 19-Апр-2018 13:18

[Цитировать]

Ограбление в ураган / The Hurricane Heist- Год выпуска: 2018
Производство: США
Жанр: боевик, триллер
Продолжительность: 01:42:31
Перевод: Профессиональный (полное дублирование) | iTunes
Субтитры: Английские-Режиссер: Роб Коэн-В ролях: Тоби Кеббелл, Мэгги Грэйс, Райан Квантен, Ралф Айнесон, Мелисса Болона, Бен Кросс, Джэми Эндрю Катлер, Кристиан Райан Контрерас, Jimmy Walker, Эд Бирч..-Описание: На побережье Америки стремительно надвигается ураган. Тем временем банда воров планирует идеальное ограбление: украсть 600 миллионов долларов из казначейства США, воспользовавшись стихийным бедствием как прикрытием. Но один фактор грабители не учли — честную и подготовленную работницу казначейства. Женщина вовремя объединяется с исследователем ураганов на специализированном бронированном автомобиле, и теперь они — единственные, кто может помешать ворам осуществить план ограбления. Почти единственные, ведь для урагана вне категорий не существует деления на своих и чужих.- -Качество: WEB-DL 1080p
Формат: MKV
Видео кодек: x.264
Аудио кодек: AC3
Видео: MPEG-4 AVC, 1912x824, 4597 Kbit/s, 23.976 fps
Аудио: AC-3, 48.0 KHz, 6 ch, 384 Kbps, CBR
-

Трейлер

-     - -

Theseus

Пост 19-Апр-2018 13:12

[Цитировать]

Ограбление в ураган / The Hurricane Heist- Год выпуска: 2018
Производство: США
Жанр: боевик, триллер
Продолжительность: 01:42:31
Перевод: Профессиональный (полное дублирование) | iTunes
Субтитры: Английские-Режиссер: Роб Коэн-В ролях: Тоби Кеббелл, Мэгги Грэйс, Райан Квантен, Ралф Айнесон, Мелисса Болона, Бен Кросс, Джэми Эндрю Катлер, Кристиан Райан Контрерас, Jimmy Walker, Эд Бирч..-Описание: На побережье Америки стремительно надвигается ураган. Тем временем банда воров планирует идеальное ограбление: украсть 600 миллионов долларов из казначейства США, воспользовавшись стихийным бедствием как прикрытием. Но один фактор грабители не учли — честную и подготовленную работницу казначейства. Женщина вовремя объединяется с исследователем ураганов на специализированном бронированном автомобиле, и теперь они — единственные, кто может помешать ворам осуществить план ограбления. Почти единственные, ведь для урагана вне категорий не существует деления на своих и чужих.- -Качество: WEB-DL 720p
Формат: MKV
Видео кодек: x.264
Аудио кодек: AC3
Видео: MPEG-4 AVC, 1280x552, 4061 Kbit/s, 23.976 fps
Аудио: AC-3, 48.0 KHz, 6 ch, 384 Kbps, CBR
-

Трейлер

-     - -

Theseus

Пост 18-Апр-2018 21:37

[Цитировать]

Тихоокеанский рубеж 2 / Pacific Rim Uprising- Год выпуска: 2018
Производство: Китай, США
Жанр: фантастика, боевик, приключения
Продолжительность: 01:52:51
Перевод: Профессиональный (полное дублирование) | Звук с TS
Субтитры: Корейские (вшитые)-Режиссер: Стивен С. ДеНайт-В ролях: Джон Бойега, Скотт Иствуд, Кэйли Спэни, Берн Горман, Чарли Дэй, Цзин Тянь, Макс Чжан, Адриа Архона, Ринко Кикути, Каран Брэр-Описание: Команда пилотируемых роботов-защитников остановила вторжение гигантских инопланетных монстров. Великая битва за Тихоокеанский рубеж ознаменовала новую главу в истории человечества. Однако война только начинается…
Пришло время нового поколения отстаивать своё право на Землю..- -Качество: WEBRip 720p
Формат: MKV
Видео кодек: x.264
Аудио кодек: AC3
Видео: AVC, 1280x536, 23.976 fps, 4 975 Kbps
Аудио: AC-3, 48.0 KHz, 2 ch, 384 Kbps, CBR-Присутствует реклама !-

Трейлер

-   - -

Theseus

Пост 18-Апр-2018 16:55

[Цитировать]

Кавалерия / 12 Strong- Год выпуска: 2018
Производство: США
Жанр: боевик, драма, военный, история
Продолжительность: 02:12:00
Перевод: Профессиональный (полное дублирование) | Чистый звук
Субтитры: Отсутствуют-Режиссер: Николай Фульси-В ролях: Крис Хемсворт, Майкл Шеннон, Майкл Пенья, Навид Негабан, Треванте Роудс, Джофф Стульц, Тэд Лакинбилл, Остин Хеберт, Остин Стоуэлл, Бен О'Тул.-Описание: Их бросили в пекло после 11 сентября, когда мир раскололся на «до» и «после». Именно им предстояло на передовой бороться с врагом, не знающим пощады. На чужой земле преимущество у всадников — этому их научили нежданные союзники. Вместе они попытаются удержать мир от погружения в хаос.- -Качество: BDRip 1080p
Формат: MKV
Видео кодек: x.264
Аудио кодек: AC3
Видео: AVC, 1920x800 (2.40:1), 23.976 fps, 10,4 Mbps
Аудио: AC-3, 48.0 KHz, 2 ch, 448 Kbps, CBR-Примечание: присутствует реклама
-

Трейлер

-   - -

Theseus

Пост 18-Апр-2018 16:53

[Цитировать]

Кавалерия / 12 Strong- Год выпуска: 2018
Производство: США
Жанр: боевик, драма, военный, история
Продолжительность: 02:12:00
Перевод: Профессиональный (полное дублирование) | Чистый звук
Субтитры: Отсутствуют-Режиссер: Николай Фульси-В ролях: Крис Хемсворт, Майкл Шеннон, Майкл Пенья, Навид Негабан, Треванте Роудс, Джофф Стульц, Тэд Лакинбилл, Остин Хеберт, Остин Стоуэлл, Бен О'Тул.-Описание: Их бросили в пекло после 11 сентября, когда мир раскололся на «до» и «после». Именно им предстояло на передовой бороться с врагом, не знающим пощады. На чужой земле преимущество у всадников — этому их научили нежданные союзники. Вместе они попытаются удержать мир от погружения в хаос.- -Качество: BDRip 720p
Формат: MKV
Видео кодек: x.264
Аудио кодек: AC3
Видео: AVC, 1280x534 (2.40:1), 23.976 fps, 6 234 Kbps
Аудио: AC-3, 48.0 KHz, 2 ch, 448 Kbps, CBR-Примечание: присутствует реклама
-

Трейлер

-   - -

Theseus

Пост 17-Апр-2018 23:33

[Цитировать]

Ограбление в ураган / The Hurricane Heist- Год выпуска: 2018
Производство: США
Жанр: боевик, триллер
Продолжительность: 01:39:29
Перевод: Профессиональный (полное дублирование) | Чистый звук
Субтитры: Отсутствуют-Режиссер: Роб Коэн-В ролях: Тоби Кеббелл, Мэгги Грэйс, Райан Квантен, Ралф Айнесон, Мелисса Болона, Бен Кросс, Джэми Эндрю Катлер, Кристиан Райан Контрерас, Jimmy Walker, Эд Бирч..-Описание: На побережье Америки стремительно надвигается ураган. Тем временем банда воров планирует идеальное ограбление: украсть 600 миллионов долларов из казначейства США, воспользовавшись стихийным бедствием как прикрытием. Но один фактор грабители не учли — честную и подготовленную работницу казначейства. Женщина вовремя объединяется с исследователем ураганов на специализированном бронированном автомобиле, и теперь они — единственные, кто может помешать ворам осуществить план ограбления. Почти единственные, ведь для урагана вне категорий не существует деления на своих и чужих.- -Качество: WEB-DL 1080p
Формат: MKV
Видео кодек: x.264
Аудио кодек: AC3
Видео: AVC, 1920x800, 23.976 fps, 5 164 Kbps
Аудио: AC-3, 48.0 KHz, 2 ch, 384 Kbps, CBR-Примечание: присутствует реклама
-

Трейлер

-   - -
 

Текущее время: Сегодня 15:26

Часовой пояс: GMT + 3