Сегодня идет свободное скачивание без начисления Download

Результатов поиска: 343

Автор Сообщение

SatrapY

Пост Сегодня 23:40

[Цитировать]

Have you been looking to buy passport, online, buy ielts certificate, buy driver’s license, I.D, Birth certificate, maybe to buy fake passport online for Australian or a Canadian document ? is it fake or real passport, SSN, driver’s license, I.D, Birth certificate, diploma or any other document ? Please “Search no further", Your curiosity has landed you to the right place whether you are based in America’s, Australia, Africa, Asia or Europe as long as you have a Valid P.O Box or House Address we shall make sure the problem is over. For more information, Contact Us for more guidance.
We guarantee you a New Identity (passport, SSN, driver’s license, I.D, Birth certificate, diploma) starting from a clean new Genuine Birth Certificate, IELTS CERTIFICATE, ID card, Drivers License, , Novelty Drivers License, Genuine Passports, Novelty Passport, Social security card with SSN, school diplomas, school degrees and Bank Statements all in an entirely NEW NAME issued and registered in the government database system so you can travel with no problem across security borders even when the authorities checked them you documents will be report legit with fresh number . We produce documents principally in two formats, that’s Genuine.
Apply for Visas & Passports
We produce Just Real Visa. This real Visa is legal and you shall legally use it to travel to the Country that it is issued from. And you will never have problem traveling with this Visa because it is genuine. For the Passport, we produce both Real and Fake Passports. The Real Passports will have all your information registered in the database system of the Country and if the Passport is Checked at the Airport, all your information will show up in the data checking machine so the Passport will legal. We also produce Fake Passports for some clients who wishes to use the Passport just for camouflage purpose and do not intend to use it legally. The passport Look just the same as the real one with the same quality and secret features. The only different is that this Fake passport will not have it’s information registered in the system. So if it is checked in any airport scan it will detect Fake. So we always advise our clients to let us produce them the REAL Passport so that they can legally use it.
Visit our renewed website: w w w. buyrealpassport.cc w w w. buyrealpassport.cc
Buy genuine Green card Training certificates,GCSE, A-levels,High School Diploma Certificates ,GMAT, MCAT, and LSAT examination Certificates and credit cards, school diplomas, school degrees all in an entirely new name issued and registered in the government’s data-base system
We have sofisticated means to issue registered real ID cards, buy real ID cards online verified id cards | passport registered | Canada Cards |buy real ID cards online. United States Cards | Student Cards | International Cards | Private Cards | Adoption Certificates | Baptism Certificates | Birth Certificates | Birth Certificates | Divorce Certificates | Marriage Certificates | Custom Certificates | High School Diplomas | G.E.D. Diplomas | Home School Diplomas | College Degrees | University Degrees | Trade Skill Certificates | Social Security | Validate SSN Number | Driver License | Spy Products | Voice Changers | Listening Devices | Invisible Ink | DMV Record Inquiry | Background Check | buy real ID cards onlineInvestigate Anyone | visa issues.buy real ID cards online.
Registered and unregistered passport of all countries.visas,biometric passport,degrees,drivers license,I.D cards.Training certificates M GCSE, A-levels, High School Diploma Certificates ,GMAT, MCAT, and LSAT Examination
Certificates , Novelty Birth, Marriage, and Birth Certificates , Novelty Passports and New Identity Packages , Replicated, False Degrees/Diplomas from most post-secondary institutions from around the world
We produce certificates for various language test world wide, including the :
English : IELTS, TOEFL, TOEIC, CaMLA, EFSET, ECCE, ECPE, MELAB, MTELP and ESOL
Korean : Test of Proficiency in Korean Korean Language Proficiency Test
Chinese : Hanyu Shuiping Kaoshi (HSK)
Dutch : CNaVT and NT2
French : DELF, DALF and TNF
German : Deutsches Sprachdiplom Stufe I and II , TestDaf and NTD
Italian : CELI, CILS and PLIDA
Polish : Certificate Examinations in Polish as a Foreign Language
Spanish : DELE and CELU
Portuguese : CELPE-Bras and CAPLE
Russian :TORFL
Japanese :JLPT and NNS
Visit our renewed website: w w w. buyrealpassport.cc w w w. buyrealpassport.cc
We issue visas that will be validated by the embassy or consualtates. It will entitle you to travel to any country and apply for admission. The immigration officials will validate them once presented at port of entry because of their eligibilities. We also affix stamps and visas on already existing passports/documents at an affordable price.
SSN(with card)
We issue social security numbers(with cards) that will permit your income to be tracked and used to identify you and you’d be able to open bank accounts and build new credit records with the SSNs we offer.
British National Insurance Number
Claim benefits, receive free health care and even ask for subsidized housing or open a bank account.
Database Hacking
We erase criminal records and insert new details of the client(s). These include finger prints and eye scans.
Get a green card, become a permanent resident and other residency issues. Whether seeking to apply for replacement or renewal, our guide can help. Our green cards grant you the authorization to live and work in the US on a permanent basis.
Visas
Bought off the shelf by illegal immigrants, counterfeited passport pages, with forged pages visas, bright maroon instead of deep brown colour, no flimsy pages, place for signature and photograph is at the back not the front(UK passport, validated by Seniorn Home Office civil servant).
Genuine passports
Visit our renewed website: w w w. buyrealpassport.cc w w w. buyrealpassport.cc
Certificates, Degrees, Diplomas
Training Certificates, GCSE, A-levels, High School Diplomas,Certificates,GMAT,MCAT and LSAT Examination Certificates,School Degrees all in an entirely new name issued and registered in the government’s database system.
USA Driving/Driver Licence(se) and Id Cards
UK driving license
Get a new driving/driver’s licence in less than and not more than a week the driving/driver’s licence will be ready, as soon as we email you copy of confirmations that the new driving/driver’s licence is being prepared. We use identical microprint both on our PVC as well as holograms because we outsource to a European company with an expensive offset printer. We spend a lot of time on development and r&d(research and development).Microprint printed layers done via offset printers and then there diecut and repackaged and stelth imported.We fill in variable bar-codes stateside and done offset and is tougher in customs if opened. UK driving licence is registered into the DVLA(Drivers Vehicle Licensing Agency) and US driver’s license is registered into the DMV(Department of Motor Vehicles).
Visit our renewed website: w w w. buyrealpassport.cc w w w. buyrealpassport.cc

Theseus

Пост Сегодня 16:43

[Цитировать]

Рэмпейдж / Rampage -Год выхода: 2018
Страна: США
Жанр: Фантастика, боевик, приключения
Продолжительность: 01:47:14
Перевод: Профессиональный (полное дублирование) | Чистый звук
Субтитры: Русские (Forced, Full), английские-Режиссер: Брэд Пейтон-В ролях: Дуэйн Джонсон, Джеффри Дин Морган, Малин Акерман, Джо Манганьелло, Марли Шелтон, Уилл Юн Ли, Наоми Харрис, Джек Куэйд, Джейк Лэси, Бриэнн Хилл-О фильме: Приматолог Дэвис Окойи предпочитает держаться подальше от людей и дружит с Джорджем, удивительно умным самцом гориллы, которого он воспитывал с самого рождения. Но вышедший из-под контроля генетический эксперимент превращает послушную обезьяну в яростного монстра. Более того, вскоре обнаруживается, что существуют и другие модифицированные хищники. Пока свежесозданные чудовища превращают в руины Северную Америку, стирая с лица Земли все, что попадается у них на пути, Окойи вместе с опальным генным инженером пытается изобрести антидот, прорываясь по бесконечному полю боя не только, чтобы предотвратить глобальную катастрофу, но и спасти бесстрашное существо, которое когда-то было его другом.- -Качество: WEBDL 1080p
Формат: MKV
Видео кодек: x.264
Аудио кодек: AC3
Видео: AVC, 1920x800 (2.40:1), 23.976 fps, 4 525 kb/s (0.123 bit/pixel)
Звук 1: 48 kHz, AC3 Dolby Digital, 2/0 ch, ~384 kbps avg - Dub [русский (Line)]
Звук 2: 48 kHz, AC3 Dolby Digital, 2/0 ch, ~192 kbps avg - Dub [украинский (Hurtom)]
Звук 3: 48 kHz, AC3 Dolby Digital, 5/1 ch, ~384 kbps avg - Eng-Рекламы нет !-

MI

Общее
Уникальный идентификатор : 258568872080750501105713029861957471193 (0xC2868DA7DD94A7B105485A3E395C8BD9)
Полное имя : Rampage.2018.WEB-DL.1080p.DUB.Line.IVA(RUS.UKR.ENG).ExKinoRay.mkv
Формат : Matroska
Версия формата : Version 4 / Version 2
Размер файла : 4,11 Гбайт
Продолжительность : 1 ч. 47 м.
Общий поток : 5487 Кбит/сек
Название фильма : Рэмпейдж / Rampage (2018) | DUB.Line | IVA(RUS.UKR.ENG).ExKinoRay
Дата кодирования : UTC 2018-06-20 05:06:43
Программа кодирования : mkvmerge v24.0.0 ('Beyond The Pale') 64-bit
Библиотека кодирования : libebml v1.3.6 + libmatroska v1.4.9
Видео
Идентификатор : 1
Формат : AVC
Формат/Информация : Advanced Video Codec
Профиль формата : High@L4
Настройки формата : CABAC / 5 Ref Frames
Параметр CABAC формата : Да
Параметр RefFrames формата : 5 кадров
Идентификатор кодека : V_MPEG4/ISO/AVC
Продолжительность : 1 ч. 47 м.
Битрейт : 4525 Кбит/сек
Ширина : 1920 пикселей
Высота : 800 пикселей
Соотношение сторон : 2,40:1
Режим частоты кадров : Постоянный
Частота кадров : 23,976 (24000/1001) кадра/сек
Цветовое пространство : YUV
Субдискретизация насыщенности : 4:2:0
Битовая глубина : 8 бит
Тип развёртки : Прогрессивная
Бит/(Пиксели*Кадры) : 0.123
Размер потока : 3,39 Гбайт (82%)
Заголовок : Rampage.2018.WEB-DL.1080p
Язык : English
Default : Да
Forced : Нет
Цветовой диапазон : Limited
Основные цвета : BT.709
Характеристики трансфера : BT.709
Коэффициенты матрицы : BT.709
Аудио #1
Идентификатор : 2
Формат : AC-3
Формат/Информация : Audio Coding 3
Идентификатор кодека : A_AC3
Продолжительность : 1 ч. 47 м.
Вид битрейта : Постоянный
Битрейт : 384 Кбит/сек
Каналы : 2 канала
Расположение каналов : Front: L R
Частота : 48,0 КГц
Частота кадров : 31,250 кадров/сек (1536 SPF)
Битовая глубина : 16 бит
Метод сжатия : С потерями
Задержка видео : -42 мс.
Размер потока : 295 Мбайт (7%)
Заголовок : DUB [Line]
Язык : Russian
ServiceKind : Complete Main
Default : Да
Forced : Нет
Аудио #2
Идентификатор : 3
Формат : AC-3
Формат/Информация : Audio Coding 3
Идентификатор кодека : A_AC3
Продолжительность : 1 ч. 47 м.
Вид битрейта : Постоянный
Битрейт : 192 Кбит/сек
Каналы : 2 канала
Расположение каналов : Front: L R
Частота : 48,0 КГц
Частота кадров : 31,250 кадров/сек (1536 SPF)
Битовая глубина : 16 бит
Метод сжатия : С потерями
Задержка видео : -42 мс.
Размер потока : 147 Мбайт (3%)
Заголовок : DUB [Line]
Язык : Ukrainian
ServiceKind : Complete Main
Default : Нет
Forced : Нет
Аудио #3
Идентификатор : 4
Формат : AC-3
Формат/Информация : Audio Coding 3
Идентификатор кодека : A_AC3
Продолжительность : 1 ч. 47 м.
Вид битрейта : Постоянный
Битрейт : 384 Кбит/сек
Каналы : 6 каналов
Расположение каналов : Front: L C R, Side: L R, LFE
Частота : 48,0 КГц
Частота кадров : 31,250 кадров/сек (1536 SPF)
Битовая глубина : 16 бит
Метод сжатия : С потерями
Задержка видео : -42 мс.
Размер потока : 295 Мбайт (7%)
Заголовок : Original
Язык : English
ServiceKind : Complete Main
Default : Нет
Forced : Нет
Текст #1
Идентификатор : 5
Формат : UTF-8
Идентификатор кодека : S_TEXT/UTF8
Идентификатор кодека/Информация : UTF-8 Plain Text
Продолжительность : 1 ч. 32 м.
Битрейт : 2 бит/сек
ElementCount : 31
Размер потока : 1,75 Кбайт (0%)
Заголовок : Forced
Язык : Russian
Default : Да
Forced : Да
Текст #2
Идентификатор : 6
Формат : UTF-8
Идентификатор кодека : S_TEXT/UTF8
Идентификатор кодека/Информация : UTF-8 Plain Text
Продолжительность : 1 ч. 46 м.
Битрейт : 83 бит/сек
ElementCount : 1292
Размер потока : 65,0 Кбайт (0%)
Заголовок : Full
Язык : Russian
Default : Нет
Forced : Нет
Текст #3
Идентификатор : 7
Формат : UTF-8
Идентификатор кодека : S_TEXT/UTF8
Идентификатор кодека/Информация : UTF-8 Plain Text
Продолжительность : 1 ч. 37 м.
Битрейт : 56 бит/сек
ElementCount : 1352
Размер потока : 40,6 Кбайт (0%)
Заголовок : Full
Язык : English
Default : Нет
Forced : Нет
Меню
00:00:00.000 : en:1
00:12:58.000 : en:2
00:19:56.000 : en:3
00:29:53.000 : en:4
00:40:35.000 : en:5
00:49:10.000 : en:6
01:02:38.000 : en:7
01:10:37.000 : en:8
01:20:10.000 : en:9
01:29:23.000 : en:10
01:39:42.000 : en:11

Трейлер

-     - -

}{@R0N

Пост 18-Июн-2018 20:51

[Цитировать]

Первому игроку приготовиться / Ready Player One (2018) WEB-DL «Загрузи новую реальность»- Производство: США | Warner Bros. Pictures, Village Roadshow Pictures...
Жанр: Фантастика, боевик, приключения
Режиссер: Стивен Спилберг
Актеры: Тай Шеридан, Оливия Кук, Бен Мендельсон, Лина Уэйте, ТиДжей Миллер, Саймон Пегг, Марк Райлэнс, Филип Чжао, Уин Морисаки, Ханна Джон-Кэймен
Описание:
Действие фильма происходит в 2045 году, мир погружается в хаос и находится на грани коллапса. Люди ищут спасения в игре OASIS — огромной вселенной виртуальной реальности. Ее создатель, гениальный и эксцентричный Джеймс Холлидэй, оставляет уникальное завещание. Все его состояние получит игрок, первым обнаруживший цифровое «пасхальное яйцо», которое миллиардер спрятал на просторах OASISа. Запущенный им квест охватывает весь мир. Совершенно негероический парень по имени Уэйд Уоттс решает принять участие в состязании, с головой бросаясь в головокружительную, искажающую реальность погоню за сокровищами по фантастической вселенной, полной загадок, открытий и опасностей.

Возраст: 12+ (зрителям, достигшим 12 лет)
Рейтинг MPAA: PG-13 (детям до 13 лет просмотр нежелателен)
Дата мировой премьеры: 11 марта 2018
Дата российской премьеры: 29 марта 2018, «Каро-Премьер»
Цифровой релиз: 4 июля 2018, «Warner Bros.»
Продолжительность: 02:19:55
Качество видео: WEB-DL Сэмпл
Перевод: Многоголосый закадровый (HDRezka Studio)
Субтитры: Pусские (forced, full), английские (full)
Видео: AVC/H.264, 1920x800 (2.40:1), ~4582 kbps, 23.976 fps
Аудио: AC3, 2 ch, 48.0 kHz, 192 kbps cbr

Mediainfo:

General
Unique ID : 81391042802769494178950171766971480489 (0x3D3B583B3C84908CAB71CA520338B9A9)
Complete name : D:\Ready_Player_One_2018_WEB-DL_1080p_HDRezka.mkv
Format : Matroska
Format version : Version 4 / Version 2
File size : 4.67 GiB
Duration : 2 h 19 min
Overall bit rate : 4 776 kb/s
Movie name : Ready Player One 2018 from ExKinoRay
Encoded date : UTC 2018-06-18 07:01:18
Writing application : mkvmerge v23.0.0 ('The Bride Said No') 64-bit
Writing library : libebml v1.3.6 + libmatroska v1.4.9
Video
ID : 1
Format : AVC
Format/Info : Advanced Video Codec
Format profile : High@L4
Format settings, CABAC : Yes
Format settings, ReFrames : 5 frames
Codec ID : V_MPEG4/ISO/AVC
Duration : 2 h 19 min
Bit rate : 4 582 kb/s
Width : 1 920 pixels
Height : 800 pixels
Display aspect ratio : 2.40:1
Frame rate mode : Constant
Frame rate : 23.976 (24000/1001) FPS
Color space : YUV
Chroma subsampling : 4:2:0
Bit depth : 8 bits
Scan type : Progressive
Bits/(Pixel*Frame) : 0.124
Stream size : 4.48 GiB (96%)
Language : English
Default : Yes
Forced : No
Color range : Limited
Color primaries : BT.709
Transfer characteristics : BT.709
Matrix coefficients : BT.709
Audio
ID : 2
Format : AC-3
Format/Info : Audio Coding 3
Format settings, Endianness : Big
Codec ID : A_AC3
Duration : 2 h 19 min
Bit rate mode : Constant
Bit rate : 192 kb/s
Channel(s) : 2 channels
Channel positions : Front: L R
Sampling rate : 48.0 kHz
Frame rate : 31.250 FPS (1536 spf)
Bit depth : 16 bits
Compression mode : Lossy
Delay relative to video : -42 ms
Stream size : 192 MiB (4%)
Title : HDRezka Studio
Language : Russian
Service kind : Complete Main
Default : Yes
Forced : Yes
Text #1
ID : 3
Format : UTF-8
Codec ID : S_TEXT/UTF8
Codec ID/Info : UTF-8 Plain Text
Duration : 2 h 8 min
Bit rate : 1 b/s
Count of elements : 34
Stream size : 1.26 KiB (0%)
Title : Forced
Language : Russian
Default : Yes
Forced : Yes
Text #2
ID : 4
Format : UTF-8
Codec ID : S_TEXT/UTF8
Codec ID/Info : UTF-8 Plain Text
Duration : 2 h 10 min
Bit rate : 92 b/s
Count of elements : 1411
Stream size : 88.3 KiB (0%)
Title : Full
Language : Russian
Default : No
Forced : No
Text #3
ID : 5
Format : UTF-8
Codec ID : S_TEXT/UTF8
Codec ID/Info : UTF-8 Plain Text
Duration : 2 h 8 min
Bit rate : 62 b/s
Count of elements : 1856
Stream size : 59.0 KiB (0%)
Title : Full
Language : English
Default : No
Forced : No
Скриншоты:
       

Дополнительные скриншоты:

       

Theseus

Пост 03-Июн-2018 15:40

[Цитировать]

Tomb Raider: Лара Крофт / Tomb Raider- Год выхода: 2018
Страна: Великобритания, США
Жанр: Боевик, Приключения
Продолжительность: 01:57:50
Перевод: Mногоголосый, закадровый | HDrezka Studio
Субтитры: Английские-Режиссер: Роар Утхауг-В ролях: Алисия Викандер, Доминик Уэст, Уолтон Гоггинс, Дэниэл Ву, Кристин Скотт Томас, Дерек Джекоби, Александр Виллауме, Тамер Барджаг, Эдриан Коллинз, Кинэн Эррисон-О фильме: Лара Крофт — весьма самостоятельная дочь эксцентричного искателя приключений, который пропал, едва она стала подростком. Теперь ей двадцать один, она бесцельно проживает свою жизнь, курьером рассекая на байке по забитым улицам восточного Лондона. Решительно настроенная пробиться сама, она отказывается брать на себя руководство глобальной империей отца, столь же категорично отвергая мысль о том, что он действительно пропал. Слыша советы о том, что ей нужно смириться с этим фактом и жить дальше после семи лет бесплодных поисков, Лара уже и сама не понимает, что же заставляет ее распутывать обстоятельства его таинственного исчезновения.- -Качество: BDRip 1080p
Формат: MKV
Видео кодек: x.264
Аудио кодек: AC3, DTS
Видео: AVC, 1920x800 (2.40:1), 23,976 fps, 15 Mbps (0.407 bit/pixel)
Аудио #1: 48 kHz, AC3, 2 ch, 192 kbps | RUS (HDRezka)
Аудио #2: 48 kHz, DTS, 6 ch, 1509 kbps | ENG-Рекламы нет !-

MI

Формат : Matroska
Версия формата : Version 2
Размер файла : 13,7 Гбайт
Продолжительность : 1 ч. 57 м.
Общий поток : 16,7 Мбит/сек
Название фильма : Tomb.Raider.2018.1080p.BluRay.ZGV
Дата кодирования : UTC 2018-06-01 02:31:37
Программа кодирования : mkvmerge v5.8.0 ('No Sleep / Pillow') built on Sep 2 2012 15:37:04
Библиотека кодирования : libebml v1.2.3 + libmatroska v1.3.0
Attachements : cover.jpg
Видео
Идентификатор : 1
Формат : AVC
Формат/Информация : Advanced Video Codec
Профиль формата : High@L4.1
Параметр CABAC формата : Да
Параметр ReFrames формата : 5 кадров
Идентификатор кодека : V_MPEG4/ISO/AVC
Продолжительность : 1 ч. 57 м.
Битрейт : 15,0 Мбит/сек
Ширина : 1920 пикселей
Высота : 800 пикселей
Соотношение сторон : 2,40:1
Режим частоты кадров : Постоянный
Частота кадров : 23,976 кадра/сек
Цветовое пространство : YUV
Субдискретизация насыщенности : 4:2:0
Битовая глубина : 8 бит
Тип развёртки : Прогрессивная
Бит/(Пиксели*Кадры) : 0.407
Размер потока : 12,1 Гбайт (88%)
Заголовок : Tomb.Raider.2018.1080p.BluRay
Библиотека кодирования : x264 core 152 r2851kMod ba24899
Настройки программы : cabac=1 / ref=5 / deblock=1:-3:-3 / analyse=0x3:0x133 / me=umh / subme=11 / psy=1 / fade_compensate=0.00 / psy_rd=1.05:0.00 / mixed_ref=1 / me_range=48 / chroma_me=1 / trellis=2 / 8x8dct=1 / cqm=0 / deadzone=21,11 / fast_pskip=0 / chroma_qp_offset=-2 / threads=24 / lookahead_threads=4 / sliced_threads=0 / nr=0 / decimate=0 / interlaced=0 / bluray_compat=0 / constrained_intra=0 / bframes=8 / b_pyramid=2 / b_adapt=2 / b_bias=0 / direct=3 / weightb=1 / open_gop=0 / weightp=2 / keyint=240 / keyint_min=2 / scenecut=40 / intra_refresh=0 / rc=2pass / mbtree=0 / bitrate=15000 / ratetol=1.0 / qcomp=0.70 / qpmin=0 / qpmax=69 / qpstep=4 / cplxblur=20.0 / qblur=0.5 / ip_ratio=1.30 / pb_ratio=1.20 / aq=3:0.80
Язык : English
Default : Да
Forced : Нет
Аудио #1
Идентификатор : 2
Формат : AC-3
Формат/Информация : Audio Coding 3
Расширение режима : CM (complete main)
Параметр Endianness формата : Big
Идентификатор кодека : A_AC3
Продолжительность : 1 ч. 57 м.
Вид битрейта : Постоянный
Битрейт : 192 Кбит/сек
Каналы : 2 канала
Расположение каналов : Front: L R
Частота : 48,0 КГц
Метод сжатия : С потерями
Размер потока : 162 Мбайт (1%)
Заголовок : MVO (HDrezka Studio)
Язык : Russian
Default : Да
Forced : Нет
Аудио #2
Идентификатор : 3
Формат : DTS
Формат/Информация : Digital Theater Systems
Режим : 16
Параметр Endianness формата : Big
Идентификатор кодека : A_DTS
Продолжительность : 1 ч. 57 м.
Вид битрейта : Постоянный
Битрейт : 1509 Кбит/сек
Каналы : 6 каналов
Расположение каналов : Front: L C R, Side: L R, LFE
Частота : 48,0 КГц
Битовая глубина : 24 бит
Метод сжатия : С потерями
Размер потока : 1,24 Гбайт (9%)
Язык : English
Default : Нет
Forced : Нет
Текст
Идентификатор : 4
Формат : UTF-8
Идентификатор кодека : S_TEXT/UTF8
Идентификатор кодека/Информация : UTF-8 Plain Text
Язык : English
Default : Нет
Forced : Нет
Меню
00:00:00.000 : en:Chapter 01
00:05:08.891 : en:Chapter 02
00:10:40.056 : en:Chapter 03
00:16:01.669 : en:Chapter 04
00:20:57.214 : en:Chapter 05
00:27:01.161 : en:Chapter 06
00:32:53.388 : en:Chapter 07
00:37:43.636 : en:Chapter 08
00:43:36.155 : en:Chapter 09
00:49:28.757 : en:Chapter 10
00:55:40.086 : en:Chapter 11
01:00:08.479 : en:Chapter 12
01:05:07.528 : en:Chapter 13
01:10:51.121 : en:Chapter 14
01:17:03.368 : en:Chapter 15
01:25:01.262 : en:Chapter 16
01:35:37.815 : en:Chapter 17
01:39:38.889 : en:Chapter 18
01:48:05.061 : en:Chapter 19
01:52:37.751 : en:Chapter 20

Трейлер

-    - -

Theseus

Пост 03-Июн-2018 15:39

[Цитировать]

Tomb Raider: Лара Крофт / Tomb Raider- Год выхода: 2018
Страна: Великобритания, США
Жанр: Боевик, Приключения
Продолжительность: 01:57:50
Перевод: Mногоголосый, закадровый | HDrezka Studio
Субтитры: Английские-Режиссер: Роар Утхауг-В ролях: Алисия Викандер, Доминик Уэст, Уолтон Гоггинс, Дэниэл Ву, Кристин Скотт Томас, Дерек Джекоби, Александр Виллауме, Тамер Барджаг, Эдриан Коллинз, Кинэн Эррисон-О фильме: Лара Крофт — весьма самостоятельная дочь эксцентричного искателя приключений, который пропал, едва она стала подростком. Теперь ей двадцать один, она бесцельно проживает свою жизнь, курьером рассекая на байке по забитым улицам восточного Лондона. Решительно настроенная пробиться сама, она отказывается брать на себя руководство глобальной империей отца, столь же категорично отвергая мысль о том, что он действительно пропал. Слыша советы о том, что ей нужно смириться с этим фактом и жить дальше после семи лет бесплодных поисков, Лара уже и сама не понимает, что же заставляет ее распутывать обстоятельства его таинственного исчезновения.- -Качество: BDRip 720p
Формат: MKV
Видео кодек: x.264
Аудио кодек: AC3, DTS
Видео: AVC, 1280x534 (2.40:1), 23,976 fps, 4824 Kbps (0.294 bit/pixel)
Аудио #1: 48 kHz, AC3, 2 ch, 192 kbps | RUS (HDRezka)
Аудио #2: 48 kHz, DTS, 6 ch, 1509 kbps | ENG-Рекламы нет !-

MI

Общее
Уникальный идентификатор : 173023216001507074733548949787226899997 (0x822B0F2CC985711CB8D862BBB1C3861D)
Полное имя : Tomb.Raider.2018.MVO.BDRip.720p.mkv
Формат : Matroska
Версия формата : Version 2
Размер файла : 5,48 Гбайт
Продолжительность : 1 ч. 57 м.
Общий поток : 6658 Кбит/сек
Дата кодирования : UTC 2018-05-31 23:08:19
Программа кодирования : mkvmerge v7.8.0 ('River Man') 32bit built on Apr 3 2015 12:11:22
Библиотека кодирования : libebml v1.3.1 + libmatroska v1.4.2
Видео
Идентификатор : 1
Формат : AVC
Формат/Информация : Advanced Video Codec
Профиль формата : High@L4.1
Настройки формата : CABAC / 12 Ref Frames
Параметр CABAC формата : Да
Параметр RefFrames формата : 12 кадров
Идентификатор кодека : V_MPEG4/ISO/AVC
Продолжительность : 1 ч. 57 м.
Битрейт : 4824 Кбит/сек
Ширина : 1280 пикселей
Высота : 534 пикселя
Соотношение сторон : 2,40:1
Режим частоты кадров : Постоянный
Частота кадров : 23,976 (24000/1001) кадра/сек
Цветовое пространство : YUV
Субдискретизация насыщенности : 4:2:0
Битовая глубина : 8 бит
Тип развёртки : Прогрессивная
Бит/(Пиксели*Кадры) : 0.294
Размер потока : 3,97 Гбайт (72%)
Заголовок : HDChina
Библиотека кодирования : x264 core 152 r2851kMod ba24899
Настройки программы : cabac=1 / ref=12 / deblock=1:-3:-3 / analyse=0x3:0x133 / me=umh / subme=11 / psy=1 / fade_compensate=0.00 / psy_rd=1.05:0.00 / mixed_ref=1 / me_range=48 / chroma_me=1 / trellis=2 / 8x8dct=1 / cqm=0 / deadzone=21,11 / fast_pskip=0 / chroma_qp_offset=-2 / threads=17 / lookahead_threads=2 / sliced_threads=0 / nr=0 / decimate=0 / interlaced=0 / bluray_compat=0 / constrained_intra=0 / bframes=8 / b_pyramid=2 / b_adapt=2 / b_bias=0 / direct=3 / weightb=1 / open_gop=0 / weightp=2 / keyint=240 / keyint_min=2 / scenecut=40 / intra_refresh=0 / rc_lookahead=60 / rc=crf / mbtree=0 / crf=16.6000 / qcomp=0.70 / qpmin=0 / qpmax=69 / qpstep=4 / vbv_maxrate=50000 / vbv_bufsize=30000 / crf_max=0.0 / nal_hrd=none / filler=0 / ip_ratio=1.30 / pb_ratio=1.20 / aq=3:0.80
Язык : English
Default : Да
Forced : Нет
Аудио #1
Идентификатор : 2
Формат : AC-3
Формат/Информация : Audio Coding 3
Идентификатор кодека : A_AC3
Продолжительность : 1 ч. 57 м.
Вид битрейта : Постоянный
Битрейт : 192 Кбит/сек
Каналы : 2 канала
Расположение каналов : Front: L R
Частота : 48,0 КГц
Частота кадров : 31,250 кадров/сек (1536 SPF)
Битовая глубина : 16 бит
Метод сжатия : С потерями
Размер потока : 162 Мбайт (3%)
Заголовок : MVO
Язык : Russian
Default : Да
Forced : Нет
Аудио #2
Идентификатор : 3
Формат : DTS
Формат/Информация : Digital Theater Systems
Идентификатор кодека : A_DTS
Продолжительность : 1 ч. 57 м.
Вид битрейта : Постоянный
Битрейт : 1509 Кбит/сек
Каналы : 6 каналов
Расположение каналов : Front: L C R, Side: L R, LFE
Частота : 48,0 КГц
Частота кадров : 93,750 кадра/сек (512 SPF)
Битовая глубина : 16 бит
Метод сжатия : С потерями
Размер потока : 1,24 Гбайт (23%)
Язык : English
Default : Нет
Forced : Нет
Текст
Идентификатор : 4
Формат : UTF-8
Идентификатор кодека : S_TEXT/UTF8
Идентификатор кодека/Информация : UTF-8 Plain Text
Язык : English
Default : Нет
Forced : Нет
Меню
00:00:00.000 : en:Chapter 01
00:05:08.891 : en:Chapter 02
00:10:40.056 : en:Chapter 03
00:16:01.669 : en:Chapter 04
00:20:57.214 : en:Chapter 05
00:27:01.161 : en:Chapter 06
00:32:53.388 : en:Chapter 07
00:37:43.636 : en:Chapter 08
00:43:36.155 : en:Chapter 09
00:49:28.757 : en:Chapter 10
00:55:40.086 : en:Chapter 11
01:00:08.479 : en:Chapter 12
01:05:07.528 : en:Chapter 13
01:10:51.121 : en:Chapter 14
01:17:03.368 : en:Chapter 15
01:25:01.262 : en:Chapter 16
01:35:37.815 : en:Chapter 17
01:39:38.889 : en:Chapter 18
01:48:05.061 : en:Chapter 19
01:52:37.751 : en:Chapter 20

Трейлер

-    - -

Theseus

Пост 31-Май-2018 21:26

[Цитировать]

Тихое место / A Quiet Place- Год выхода: 2018
Страна: США
Жанр: ужасы, фантастика, триллер, драма
Продолжительность: 01:30:31
Перевод: Профессиональный (многоголосый, закадровый) | HDrezka Studio
Субтитры: Корейские (вшитые) , русские-Режиссер: Джон Красински-В ролях: Эмили Блант, Джон Красински, Милли Симмондс, Ноа Джуп, Кейд Вудворд, Леон Рассом, Дорис МакКарти, Рода Пелл-О фильме: Семья с двумя детьми живёт на отдалённой ферме. Казалось бы, жизнь этих людей совершенно не отличается от жизни других таких семей, но они живут в месте, которое наполнено ужасными монстрами, реагирующими на любой звук. Семейство разучило целый комплекс специальных жестов, которые помогают им общаться друг с другом, не издавая ни единого звука. Кроме того, каждый из членов семьи должен очень тихо передвигаться, чтобы опасные существа их не услышали. Однако дом, где живут дети, не может быть самым тихим местом на земле.- -Качество: WEBRip 1080p
Формат: MKV
Видео кодек: x.264
Аудио кодек: AC3
Видео: AVC, 1920x800 (2.40:1), 29.970 fps, 5 500 Kbps (0.119 bit/pixel)
Аудио #1: AC-3, 48.0 KHz, 2 ch, 192 Kbps, CBR (Russian)
Аудио #2: AC-3, 48.0 KHz, 2 ch, 192 Kbps, CBR (English)- - -

Трейлер

-    - -

Theseus

Пост 27-Май-2018 16:43

[Цитировать]

Жажда смерти / Death Wish- Год выпуска: 2018
Производство: США
Жанр: боевик, триллер, криминал
Продолжительность: 01:46:44
Перевод: Профессиональный (полное дублирование) | Чистый звук
Субтитры: Английские-Режиссер: Элай Рот-В ролях: Брюс Уиллис, Винсент Д'Онофрио, Элизабет Шу, Камила Морроне, Дин Норрис, Бо Напп, Кимберли Элиз, Лен Кариу, Джек Кеси, Ронни Джин Блевинс-Описание: Пол Керси — хирург, привыкший вытаскивать людей с того света после криминальных разборок. Но после того, как его жена и дочь становятся жертвами уличной банды, а полиция бездействует, он берет карающий меч правосудия в свои руки. Видео изобретательных убийств преступников покоряют интернет-топы, а среди жителей города расходятся слухи о неуловимом народном мстителе, которому теперь принадлежит весь город. Он мстит бодро, весело и со вкусом..- -Качество: BDRip 1080p
Формат: MKV
Видео кодек: x.264
Аудио кодек: AC3, DTS
Видео: AVC, 1920x800 (2.40:1), 23.976 fps, 12.5 Mbps (0.339 bit/pixel)
Аудио #1: AC-3, 48.0 KHz, 2 ch, 192 Kbps, CBR | RUS (Line)
Аудио #2: AC-3, 48.0 KHz, 6 ch, 640 Kbps, CBR | RUS (Центральный канал Line / редакция WetY)
Аудио #3: DTS, 48.0 KHz, 6 ch, 1 509 Kbps, CBR | ENG (Оригинал)- - -

MediaInfo

Общее
Уникальный идентификатор : 206878566462998175964989547463395911577 (0x9BA35CD35F8B14429BC9EE542E0A2799)
Полное имя : Death.Wish.2018.1080p.BDRip.mkv
Формат : Matroska
Версия формата : Version 4 / Version 2
Размер файла : 11,1 Гбайт
Продолжительность : 1 ч. 46 м.
Общий поток : 14,8 Мбит/сек
Дата кодирования : UTC 2018-05-27 11:07:25
Программа кодирования : mkvmerge v8.3.0 ('Over the Horizon') 64bit
Библиотека кодирования : libebml v1.3.1 + libmatroska v1.4.2
Видео
Идентификатор : 1
Формат : AVC
Формат/Информация : Advanced Video Codec
Профиль формата : High@L4.1
Настройки формата : CABAC / 5 Ref Frames
Параметр CABAC формата : Да
Параметр RefFrames формата : 5 кадров
Идентификатор кодека : V_MPEG4/ISO/AVC
Продолжительность : 1 ч. 46 м.
Битрейт : 12,5 Мбит/сек
Ширина : 1920 пикселей
Высота : 800 пикселей
Соотношение сторон : 2,40:1
Режим частоты кадров : Постоянный
Частота кадров : 23,976 (24000/1001) кадра/сек
Цветовое пространство : YUV
Субдискретизация насыщенности : 4:2:0
Битовая глубина : 8 бит
Тип развёртки : Прогрессивная
Бит/(Пиксели*Кадры) : 0.339
Размер потока : 9,31 Гбайт (84%)
Библиотека кодирования : x264 core 148 r2665kMod a01e339
Настройки программы : cabac=1 / ref=5 / deblock=1:-3:-3 / analyse=0x3:0x133 / me=umh / subme=11 / psy=1 / fade_compensate=0.00 / psy_rd=0.85:0.00 / mixed_ref=1 / me_range=48 / chroma_me=1 / trellis=2 / 8x8dct=1 / cqm=0 / deadzone=21,11 / fast_pskip=0 / chroma_qp_offset=-2 / threads=24 / lookahead_threads=4 / sliced_threads=0 / nr=0 / decimate=0 / interlaced=0 / bluray_compat=0 / constrained_intra=0 / fgo=0 / bframes=8 / b_pyramid=2 / b_adapt=2 / b_bias=0 / direct=3 / weightb=1 / open_gop=0 / weightp=2 / keyint=240 / keyint_min=24 / scenecut=40 / intra_refresh=0 / rc=2pass / mbtree=0 / bitrate=12500 / ratetol=1.0 / qcomp=0.70 / qpmin=0 / qpmax=69 / qpstep=4 / cplxblur=20.0 / qblur=0.5 / ip_ratio=1.20 / pb_ratio=1.20 / aq=3:0.80
Default : Да
Forced : Нет
Аудио #1
Идентификатор : 2
Формат : AC-3
Формат/Информация : Audio Coding 3
Идентификатор кодека : A_AC3
Продолжительность : 1 ч. 46 м.
Вид битрейта : Постоянный
Битрейт : 192 Кбит/сек
Каналы : 2 канала
Расположение каналов : Front: L R
Частота : 48,0 КГц
Частота кадров : 31,250 кадров/сек (1536 SPF)
Битовая глубина : 16 бит
Метод сжатия : С потерями
Размер потока : 147 Мбайт (1%)
Заголовок : Line
Язык : Russian
ServiceKind/String : Complete Main
Default : Да
Forced : Нет
Аудио #2
Идентификатор : 3
Формат : AC-3
Формат/Информация : Audio Coding 3
Идентификатор кодека : A_AC3
Продолжительность : 1 ч. 46 м.
Вид битрейта : Постоянный
Битрейт : 640 Кбит/сек
Каналы : 6 каналов
Расположение каналов : Front: L C R, Side: L R, LFE
Частота : 48,0 КГц
Частота кадров : 31,250 кадров/сек (1536 SPF)
Битовая глубина : 16 бит
Метод сжатия : С потерями
Размер потока : 489 Мбайт (4%)
Заголовок : Line (ред. WetY)
Язык : Russian
ServiceKind/String : Complete Main
Default : Нет
Forced : Нет
Аудио #3
Идентификатор : 4
Формат : DTS
Формат/Информация : Digital Theater Systems
Идентификатор кодека : A_DTS
Продолжительность : 1 ч. 46 м.
Вид битрейта : Постоянный
Битрейт : 1509 Кбит/сек
Каналы : 6 каналов
Расположение каналов : Front: L C R, Side: L R, LFE
Частота : 48,0 КГц
Частота кадров : 93,750 кадра/сек (512 SPF)
Битовая глубина : 24 бит
Метод сжатия : С потерями
Размер потока : 1,12 Гбайт (10%)
Язык : English
Default : Нет
Forced : Нет
Текст
Идентификатор : 5
Формат : UTF-8
Идентификатор кодека : S_TEXT/UTF8
Идентификатор кодека/Информация : UTF-8 Plain Text
Продолжительность : 1 ч. 39 м.
Битрейт : 63 бит/сек
ElementCount : 1532
Размер потока : 46,4 Кбайт (0%)
Язык : English
Default : Да
Forced : Нет
Меню
00:00:00.000 : en:00:00:00.000
00:05:39.089 : en:00:05:39.089
00:08:51.239 : en:00:08:51.239
00:11:55.798 : en:00:11:55.798
00:19:12.860 : en:00:19:12.860
00:24:34.139 : en:00:24:34.139
00:28:37.174 : en:00:28:37.174
00:32:45.964 : en:00:32:45.964
00:36:15.840 : en:00:36:15.840
00:43:49.168 : en:00:43:49.168
00:47:10.411 : en:00:47:10.411
00:53:49.518 : en:00:53:49.518
00:56:56.330 : en:00:56:56.330
01:00:27.082 : en:01:00:27.082
01:07:55.154 : en:01:07:55.154
01:11:16.564 : en:01:11:16.564
01:15:52.256 : en:01:15:52.256
01:19:23.926 : en:01:19:23.926
01:22:41.415 : en:01:22:41.415
01:25:43.889 : en:01:25:43.889
01:28:20.837 : en:01:28:20.837
01:31:24.813 : en:01:31:24.813
01:37:14.537 : en:01:37:14.537
01:40:07.585 : en:01:40:07.585

Трейлер

-    - -

Theseus

Пост 27-Май-2018 16:42

[Цитировать]

Жажда смерти / Death Wish- Год выпуска: 2018
Производство: США
Жанр: боевик, триллер, криминал
Продолжительность: 01:46:43
Перевод: Профессиональный (полное дублирование) | Чистый звук
Субтитры: Английские-Режиссер: Элай Рот-В ролях: Брюс Уиллис, Винсент Д'Онофрио, Элизабет Шу, Камила Морроне, Дин Норрис, Бо Напп, Кимберли Элиз, Лен Кариу, Джек Кеси, Ронни Джин Блевинс-Описание: Пол Керси — хирург, привыкший вытаскивать людей с того света после криминальных разборок. Но после того, как его жена и дочь становятся жертвами уличной банды, а полиция бездействует, он берет карающий меч правосудия в свои руки. Видео изобретательных убийств преступников покоряют интернет-топы, а среди жителей города расходятся слухи о неуловимом народном мстителе, которому теперь принадлежит весь город. Он мстит бодро, весело и со вкусом..- -Качество: BDRip 720p
Формат: MKV
Видео кодек: x.264
Аудио кодек: AC3
Видео: AVC, 1280x534, 23.976 fps, x.264, 5000 kbps
Аудио 1: AC3, 48.0 KHz, 2 ch, 192 Kbps, CBR | RUS
Аудио 2: AC3, 48.0 KHz, 6 ch, 640 Kbps, CBR | ENG
-

Трейлер

-    - -

Theseus

Пост 21-Май-2018 18:00

[Цитировать]

451 градус по Фаренгейту / Fahrenheit 451 -Год выхода: 2018
Страна: США
Жанр: фантастика, драма
Продолжительность: 01:40:14
Перевод: Профессиональный (многоголосый, закадровый) [Amedia]
Субтитры: Русские, английские-Режиссер: Рамин Бахрани-В ролях: Майкл Б. Джордан, София Бутелла, Майкл Шеннон, Кир Дуллеа, Кэнди Александр, Мартин Донован, Лилли Сингх, Мэйко Нгуйен, Джо Пинг, Грэйс Линн Кунг-О фильме: В некоем тоталитарном обществе история переписывается, книги безжалостно сжигаются, их чтение преследуется по закону, чтобы граждане не думали и были счастливы. Во время очередного рейда по наводке информаторши Клариссы «пожарные» находят невероятно большую библиотеку, и служащий Гай Монтэг из любопытства оставляет одну книгу себе. Немного почитав и подружившись с Клариссой, парень начинает сомневаться в правильности своей жизни.- -Качество: WEB-DL 1080p [Amazon]
Формат: MKV
Видео кодек: x.264
Аудио кодек: AC3
Видео: AVC, 1920x1080 (16:9), 23.976 fps, 9315 Kbps
Аудио #1: AC-3, 48.0 KHz, 2 ch, 192 Kbps, CBR (Russian)
Аудио #2: E-AC-3, 48.0 KHz, 6 ch, 640 Kbps, CBR (English)-Рекламы нет !-

MI

Общее
Уникальный идентификатор : 45014833980690289498088976698045390329 (0x21DD8AAAEB083D2357F40AEC25705DF9)
Полное имя : Fahrenheit_451.2018.WEB-DL.1080p.mkv
Формат : Matroska
Версия формата : Version 4 / Version 2
Размер файла : 7,10 Гбайт
Продолжительность : 1 ч. 40 м.
Общий поток : 10,1 Мбит/сек
Дата кодирования : UTC 2018-05-20 23:33:25
Программа кодирования : mkvmerge v23.0.0 ('The Bride Said No') 64-bit
Библиотека кодирования : libebml v1.3.6 + libmatroska v1.4.9
Видео
Идентификатор : 1
Формат : AVC
Формат/Информация : Advanced Video Codec
Профиль формата : High@L4
Настройки формата : CABAC / 4 Ref Frames
Параметр CABAC формата : Да
Параметр RefFrames формата : 4 кадра
Идентификатор кодека : V_MPEG4/ISO/AVC
Продолжительность : 1 ч. 40 м.
Битрейт : 9315 Кбит/сек
Ширина : 1920 пикселей
Высота : 1080 пикселей
Соотношение сторон : 16:9
Режим частоты кадров : Постоянный
Частота кадров : 23,976 (24000/1001) кадра/сек
Цветовое пространство : YUV
Субдискретизация насыщенности : 4:2:0
Битовая глубина : 8 бит
Тип развёртки : Прогрессивная
Бит/(Пиксели*Кадры) : 0.187
Размер потока : 6,52 Гбайт (92%)
Язык : English
Default : Да
Forced : Нет
Цветовой диапазон : Limited
Основные цвета : BT.709
Характеристики трансфера : BT.709
Коэффициенты матрицы : BT.709
Аудио #1
Идентификатор : 2
Формат : AC-3
Формат/Информация : Audio Coding 3
Идентификатор кодека : A_AC3
Продолжительность : 1 ч. 38 м.
Вид битрейта : Постоянный
Битрейт : 192 Кбит/сек
Каналы : 2 канала
Расположение каналов : Front: L R
Частота : 48,0 КГц
Частота кадров : 31,250 кадров/сек (1536 SPF)
Битовая глубина : 16 бит
Метод сжатия : С потерями
Размер потока : 135 Мбайт (2%)
Заголовок : MVO (Amedia)
Язык : Russian
ServiceKind : Complete Main
Default : Да
Forced : Нет
Аудио #2
Идентификатор : 3
Формат : E-AC-3
Формат/Информация : Enhanced Audio Coding 3
Идентификатор кодека : A_EAC3
Продолжительность : 1 ч. 40 м.
Вид битрейта : Постоянный
Битрейт : 640 Кбит/сек
Каналы : 6 каналов
Расположение каналов : Front: L C R, Side: L R, LFE
Частота : 48,0 КГц
Частота кадров : 187,500 кадров/сек (256 SPF)
Метод сжатия : С потерями
Задержка видео : 16 мс.
Размер потока : 459 Мбайт (6%)
Язык : English
ServiceKind : Complete Main
Default : Нет
Forced : Нет
Текст #1
Идентификатор : 4
Формат : UTF-8
Идентификатор кодека : S_TEXT/UTF8
Идентификатор кодека/Информация : UTF-8 Plain Text
Продолжительность : 1 ч. 34 м.
Битрейт : 73 бит/сек
ElementCount : 1057
Размер потока : 51,1 Кбайт (0%)
Язык : Russian
Default : Нет
Forced : Нет
Текст #2
Идентификатор : 5
Формат : UTF-8
Идентификатор кодека : S_TEXT/UTF8
Идентификатор кодека/Информация : UTF-8 Plain Text
Продолжительность : 1 ч. 32 м.
Битрейт : 49 бит/сек
ElementCount : 1072
Размер потока : 33,8 Кбайт (0%)
Язык : English
Default : Нет
Forced : Нет
Текст #3
Идентификатор : 6
Формат : UTF-8
Идентификатор кодека : S_TEXT/UTF8
Идентификатор кодека/Информация : UTF-8 Plain Text
Продолжительность : 1 ч. 34 м.
Битрейт : 52 бит/сек
ElementCount : 1176
Размер потока : 36,7 Кбайт (0%)
Заголовок : SDH
Язык : English
Default : Нет
Forced : Нет

Трейлер

-    - -

Theseus

Пост 11-Май-2018 21:11

[Цитировать]

Перезалито 11.05.18.
Добавлена русская аудио дорожка от iTunes + русские доп. субтитры

Theseus

Пост 10-Май-2018 20:36

[Цитировать]

Чёрная Пантера / Black Panther- Год выпуска: 2018
Страна: США
Жанр: Фантастика, Боевик, Приключения
Продолжительность: 02:14:33
Перевод: Профессиональный (полное дублирование) [iTunes] | Профессиональный многоголосый [HDrezka Studio]
Субтитры: Русские (forced, full, SDH (iTunes)), английские (full, SDH, SDH Colored)-Режиссер: Райан Куглер-В ролях: Чэдвик Боузмэн, Майкл Б. Джордан, Лупита Нионго, Данай Джекесай Гурира, Мартин Фриман, Дэниэл Калуя, Летишиа Райт, Уинстон Дьюк, Стерлинг К. Браун, Анджела Бассетт-Описание: С первого взгляда можно решить, что Ваканда — обычная территория дикой Африки, но это не так. Здесь, в недрах пустынных земель, скрываются залежи уникального металла, способного поглощать вибрацию. Многие пытались добраться до него, разоряя всё на своём пути и принося смерть аборигенам, но каждый раз таинственный дух саванны — Чёрная Пантера — вставал на защиту угнетённых.
Спустя много лет беда снова приходит в Ваканду, и в этот раз враг заручился поддержкой современных технологий. Когда шансов почти не остаётся, Т`Чалла, молодой принц Ваканды, узнаёт, что именно ему предстоит возродить легенду и продолжить вечную борьбу, надев маску Чёрной Пантеры.- -Качество: BDRip 1080p
Формат: MKV
Видео кодек: H.265
Аудио кодек: AC3, DTS
Видео: HEVC, 1920x804 (2.40:1), 23.976 fps, 5 157 Kbps
Аудио 1: AC-3, 48.0 KHz, 6 ch, 384 Kbps, CBR | RUS [DUB (iTunes)]
Аудио 2: AC-3, 48.0 KHz, 2 ch, 192 Kbps, CBR | RUS [MVO (HDRezka Studio)]
Аудио 3: AC-3, 48.0 KHz, 2 ch, 192 Kbps, CBR | UKR [DUB (LeDoyen)]
Аудио 4: DTS, 48.0 KHz, 6 ch, 1 509 Kbps, CBR | ENG-Рекламы нет !-Сэмпл-

MediaInfo

Общее
Уникальный идентификатор : 243091583832570421629900374796518257338 (0xB6E1BC6DFAF747C0BC2CAC2D070372BA)
Полное имя : Black.Panther.2018.BDRip.1080p.H.265.2xRus.Ua.En.mkv
Формат : Matroska
Версия формата : Version 4 / Version 2
Размер файла : 6,99 Гбайт
Продолжительность : 2 ч. 14 м.
Общий поток : 7428 Кбит/сек
Дата кодирования : UTC 2018-05-11 14:57:50
Программа кодирования : mkvmerge v8.3.0 ('Over the Horizon') 64bit
Библиотека кодирования : libebml v1.3.1 + libmatroska v1.4.2
Видео
Идентификатор : 1
Формат : HEVC
Формат/Информация : High Efficiency Video Coding
Профиль формата : Main 10@L4@Main
Идентификатор кодека : V_MPEGH/ISO/HEVC
Продолжительность : 2 ч. 14 м.
Битрейт : 5157 Кбит/сек
Ширина : 1920 пикселей
Высота : 804 пикселя
Соотношение сторон : 2,40:1
Режим частоты кадров : Постоянный
Частота кадров : 23,976 (24000/1001) кадра/сек
Частота кадров в оригинале : 23,976 (23976/1000) кадра/сек
Цветовое пространство : YUV
Субдискретизация насыщенности : 4:2:0
Битовая глубина : 10 бит
Бит/(Пиксели*Кадры) : 0.139
Размер потока : 4,85 Гбайт (69%)
Библиотека кодирования : x265 2.7+15-b9f5b5d7bf95:[Windows][MSVC 1800][64 bit] 10bit
Настройки программы : cpuid=1173503 / frame-threads=3 / numa-pools=8 / wpp / no-pmode / no-pme / no-psnr / no-ssim / log-level=2 / input-csp=1 / input-res=1920x804 / interlace=0 / total-frames=0 / level-idc=0 / high-tier=1 / uhd-bd=0 / ref=6 / no-allow-non-conformance / repeat-headers / annexb / no-aud / no-hrd / info / hash=0 / no-temporal-layers / no-open-gop / min-keyint=23 / keyint=250 / gop-lookahead=0 / bframes=8 / b-adapt=2 / b-pyramid / bframe-bias=0 / rc-lookahead=24 / lookahead-slices=5 / scenecut=40 / radl=0 / no-intra-refresh / ctu=64 / min-cu-size=8 / no-rect / no-amp / max-tu-size=32 / tu-inter-depth=1 / tu-intra-depth=1 / limit-tu=0 / rdoq-level=0 / dynamic-rd=0.00 / no-ssim-rd / signhide / no-tskip / nr-intra=0 / nr-inter=0 / no-constrained-intra / no-strong-intra-smoothing / max-merge=2 / limit-refs=3 / no-limit-modes / me=2 / subme=7 / merange=48 / temporal-mvp / weightp / weightb / no-analyze-src-pics / deblock=0:0 / sao / no-sao-non-deblock / rd=4 / no-early-skip / rskip / no-fast-intra / no-tskip-fast / no-cu-lossless / no-b-intra / no-splitrd-skip / rdpenalty=0 / psy-rd=2.00 / psy-rdoq=0.00 / no-rd-refine / no-lossless / cbqpoffs=0 / crqpoffs=0 / rc=crf / crf=17.0 / qcomp=0.60 / qpstep=4 / stats-write=0 / stats-read=0 / ipratio=1.40 / pbratio=1.30 / aq-mode=3 / aq-strength=1.00 / cutree / zone-count=0 / no-strict-cbr / qg-size=32 / no-rc-grain / qpmax=69 / qpmin=0 / no-const-vbv / sar=0 / overscan=0 / videoformat=5 / range=0 / colorprim=2 / transfer=2 / colormatrix=2 / chromaloc=0 / display-window=0 / max-cll=0,0 / min-luma=0 / max-luma=1023 / log2-max-poc-lsb=8 / vui-timing-info / vui-hrd-info / slices=1 / no-opt-qp-pps / no-opt-ref-list-length-pps / no-multi-pass-opt-rps / scenecut-bias=0.05 / no-opt-cu-delta-qp / aq-motion / no-hdr / no-hdr-opt / no-dhdr10-opt / no-idr-recovery-sei / analysis-reuse-level=5 / scale-factor=0 / refine-intra=0 / refine-inter=0 / refine-mv=0 / no-limit-sao / ctu-info=0 / no-lowpass-dct / refine-mv-type=0 / copy-pic=1 / max-ausize-factor=1.0 / no-dynamic-refine
Язык : English
Default : Да
Forced : Нет
Аудио #1
Идентификатор : 2
Формат : AC-3
Формат/Информация : Audio Coding 3
Идентификатор кодека : A_AC3
Продолжительность : 2 ч. 14 м.
Вид битрейта : Постоянный
Битрейт : 384 Кбит/сек
Каналы : 6 каналов
Расположение каналов : Front: L C R, Side: L R, LFE
Частота : 48,0 КГц
Частота кадров : 31,250 кадров/сек (1536 SPF)
Битовая глубина : 16 бит
Метод сжатия : С потерями
Размер потока : 370 Мбайт (5%)
Заголовок : Dub (iTunes)
Язык : Russian
ServiceKind/String : Complete Main
Default : Да
Forced : Нет
Аудио #2
Идентификатор : 3
Формат : AC-3
Формат/Информация : Audio Coding 3
Идентификатор кодека : A_AC3
Продолжительность : 2 ч. 14 м.
Вид битрейта : Постоянный
Битрейт : 192 Кбит/сек
Каналы : 2 канала
Расположение каналов : Front: L R
Частота : 48,0 КГц
Частота кадров : 31,250 кадров/сек (1536 SPF)
Битовая глубина : 16 бит
Метод сжатия : С потерями
Размер потока : 185 Мбайт (3%)
Заголовок : HDrezka Studio
Язык : Russian
ServiceKind/String : Complete Main
Default : Нет
Forced : Нет
Аудио #3
Идентификатор : 4
Формат : AC-3
Формат/Информация : Audio Coding 3
Идентификатор кодека : A_AC3
Продолжительность : 2 ч. 14 м.
Вид битрейта : Постоянный
Битрейт : 192 Кбит/сек
Каналы : 2 канала
Расположение каналов : Front: L R
Частота : 48,0 КГц
Частота кадров : 31,250 кадров/сек (1536 SPF)
Битовая глубина : 16 бит
Метод сжатия : С потерями
Размер потока : 185 Мбайт (3%)
Заголовок : LeDoyen
Язык : Ukrainian
ServiceKind/String : Complete Main
Default : Нет
Forced : Нет
Аудио #4
Идентификатор : 5
Формат : DTS
Формат/Информация : Digital Theater Systems
Идентификатор кодека : A_DTS
Продолжительность : 2 ч. 14 м.
Вид битрейта : Постоянный
Битрейт : 1509 Кбит/сек
Каналы : 6 каналов
Расположение каналов : Front: L C R, Side: L R, LFE
Частота : 48,0 КГц
Частота кадров : 93,750 кадра/сек (512 SPF)
Битовая глубина : 24 бит
Метод сжатия : С потерями
Размер потока : 1,42 Гбайт (20%)
Язык : English
Default : Нет
Forced : Нет
Текст #1
Идентификатор : 6
Формат : UTF-8
Идентификатор кодека : S_TEXT/UTF8
Идентификатор кодека/Информация : UTF-8 Plain Text
Продолжительность : 2 ч. 12 м.
Битрейт : 2 бит/сек
ElementCount : 77
Размер потока : 2,20 Кбайт (0%)
Заголовок : Forced
Язык : Russian
Default : Да
Forced : Нет
Текст #2
Идентификатор : 7
Формат : UTF-8
Идентификатор кодека : S_TEXT/UTF8
Идентификатор кодека/Информация : UTF-8 Plain Text
Продолжительность : 2 ч. 14 м.
Битрейт : 64 бит/сек
ElementCount : 1460
Размер потока : 63,8 Кбайт (0%)
Заголовок : Full
Язык : Russian
Default : Нет
Forced : Нет
Текст #3
Идентификатор : 8
Формат : UTF-8
Идентификатор кодека : S_TEXT/UTF8
Идентификатор кодека/Информация : UTF-8 Plain Text
Продолжительность : 2 ч. 14 м.
Битрейт : 78 бит/сек
ElementCount : 1849
Размер потока : 77,3 Кбайт (0%)
Заголовок : SDH
Язык : Russian
Default : Нет
Forced : Нет
Текст #4
Идентификатор : 9
Формат : UTF-8
Идентификатор кодека : S_TEXT/UTF8
Идентификатор кодека/Информация : UTF-8 Plain Text
Продолжительность : 2 ч. 10 м.
Битрейт : 1 бит/сек
ElementCount : 68
Размер потока : 1,15 Кбайт (0%)
Заголовок : Forced
Язык : English
Default : Нет
Forced : Нет
Текст #5
Идентификатор : 10
Формат : UTF-8
Идентификатор кодека : S_TEXT/UTF8
Идентификатор кодека/Информация : UTF-8 Plain Text
Продолжительность : 2 ч. 14 м.
Битрейт : 42 бит/сек
ElementCount : 1585
Размер потока : 41,6 Кбайт (0%)
Заголовок : Full
Язык : English
Default : Нет
Forced : Нет
Текст #6
Идентификатор : 11
Формат : UTF-8
Идентификатор кодека : S_TEXT/UTF8
Идентификатор кодека/Информация : UTF-8 Plain Text
Продолжительность : 2 ч. 14 м.
Битрейт : 49 бит/сек
ElementCount : 1835
Размер потока : 48,2 Кбайт (0%)
Заголовок : SHD
Язык : English
Default : Нет
Forced : Нет
Меню
00:00:00.000 : en:00:00:00.000
00:06:56.291 : en:00:06:56.291
00:12:02.805 : en:00:12:02.805
00:19:12.360 : en:00:19:12.360
00:28:32.961 : en:00:28:32.961
00:33:11.698 : en:00:33:11.698
00:40:57.497 : en:00:40:57.497
00:48:34.036 : en:00:48:34.036
00:53:46.098 : en:00:53:46.098
01:01:57.339 : en:01:01:57.339
01:08:33.026 : en:01:08:33.026
01:16:46.769 : en:01:16:46.769
01:22:24.022 : en:01:22:24.022
01:31:21.434 : en:01:31:21.434
01:41:15.361 : en:01:41:15.361
01:50:56.483 : en:01:50:56.483
01:59:16.941 : en:01:59:16.941
02:02:43.648 : en:02:02:43.648

Внимание!

- H.265/HEVC (High Efficiency Video Coding) - это новый стандарт кодирования видео.
- Стандарт H.265/HEVC является логическим продолжением стандарта H.264/AVC (Advanced Video Coding), и характеризуется более эффективными алгоритмами сжатия, а также поддержкой высокого разрешения вплоть до 8K UHD (8192x4320). Первая версия стандарта H.265 была опубликована в начале 2013 года.
- Рипы в фомате HEVC поддерживается не всеми аппаратными и программными проигрывателями.
- Для корректного воспроизведения может потребоваться обновление ПО.
- Владельцам несовместимого железа просьба не беспокоить, есть альтернативные релизы.

Трейлер

-     - -

Theseus

Пост 06-Май-2018 16:30

[Цитировать]

Тихоокеанский рубеж 2 / Pacific Rim Uprising- Год выпуска: 2018
Производство: Китай, США
Жанр: фантастика, боевик, приключения
Продолжительность: 01:50:43
Перевод: Профессиональный многоголосый [HDrezka Studio]
Субтитры: Корейские (вшитые), английские-Режиссер: Стивен С. ДеНайт-В ролях: Джон Бойега, Скотт Иствуд, Кэйли Спэни, Берн Горман, Чарли Дэй, Цзин Тянь, Макс Чжан, Адриа Архона, Ринко Кикути, Каран Брэр-Описание: Команда пилотируемых роботов-защитников остановила вторжение гигантских инопланетных монстров. Великая битва за Тихоокеанский рубеж ознаменовала новую главу в истории человечества. Однако война только начинается…
Пришло время нового поколения отстаивать своё право на Землю..- -Качество: WEBRip 1080p
Формат: MKV
Видео кодек: x.264
Аудио кодек: AC3
Видео: AVC, 1920x800 (2.40:1), 29.970 fps, 14 Mbps
Аудио #1: AC-3, 48.0 KHz, 2 ch, 192 Kbps, CBR | RUS [MVO/HDrezka Studio]
Аудио #2: AC-3, 48.0 KHz, 2 ch, 192 Kbps, CBR | UKR [DUB/LeDoyen]
Аудио #3: AC-3, 48.0 KHz, 2 ch, 192 Kbps, CBR | ENG-Рекламы нет !-> Сэмпл-

MediaInfo

Общее
Уникальный идентификатор : 230817136891597812671532087582562141400 (0xADA5C378C7FFEBBEBC297D38239F44D8)
Полное имя : Pacific.Rim.2.Uprising.2018.1080p.WEBRip.mkv
Формат : Matroska
Версия формата : Version 4 / Version 2
Размер файла : 11,2 Гбайт
Продолжительность : 1 ч. 50 м.
Общий поток : 14,5 Мбит/сек
Дата кодирования : UTC 2018-05-06 11:58:54
Программа кодирования : mkvmerge v8.3.0 ('Over the Horizon') 64bit
Библиотека кодирования : libebml v1.3.1 + libmatroska v1.4.2
Видео
Идентификатор : 1
Формат : AVC
Формат/Информация : Advanced Video Codec
Профиль формата : High@L4.1
Настройки формата : CABAC / 4 Ref Frames
Параметр CABAC формата : Да
Параметр RefFrames формата : 4 кадра
Идентификатор кодека : V_MPEG4/ISO/AVC
Продолжительность : 1 ч. 50 м.
Битрейт : 14,0 Мбит/сек
Ширина : 1920 пикселей
Высота : 800 пикселей
Соотношение сторон : 2,40:1
Режим частоты кадров : Постоянный
Частота кадров : 29,970 (30000/1001) кадров/сек
Цветовое пространство : YUV
Субдискретизация насыщенности : 4:2:0
Битовая глубина : 8 бит
Тип развёртки : Прогрессивная
Бит/(Пиксели*Кадры) : 0.304
Размер потока : 10,8 Гбайт (96%)
Библиотека кодирования : x264 core 142 r2479 dd79a61
Настройки программы : cabac=1 / ref=1 / deblock=1:0:0 / analyse=0x3:0x113 / me=hex / subme=2 / psy=1 / psy_rd=1.00:0.00 / mixed_ref=0 / me_range=16 / chroma_me=1 / trellis=0 / 8x8dct=1 / cqm=0 / deadzone=21,11 / fast_pskip=1 / chroma_qp_offset=0 / threads=12 / lookahead_threads=4 / sliced_threads=0 / nr=0 / decimate=1 / interlaced=0 / bluray_compat=0 / constrained_intra=0 / bframes=3 / b_pyramid=2 / b_adapt=1 / b_bias=0 / direct=1 / weightb=1 / open_gop=0 / weightp=1 / keyint=300 / keyint_min=30 / scenecut=40 / intra_refresh=0 / rc_lookahead=10 / rc=abr / mbtree=1 / bitrate=14000 / ratetol=1.0 / qcomp=0.60 / qpmin=0 / qpmax=69 / qpstep=4 / vbv_maxrate=62500 / vbv_bufsize=78125 / nal_hrd=none / filler=0 / ip_ratio=1.40 / aq=1:1.00
Default : Да
Forced : Нет
Цветовой диапазон : Limited
Основные цвета : BT.709
Характеристики трансфера : BT.709
Коэффициенты матрицы : BT.709
Аудио #1
Идентификатор : 2
Формат : AC-3
Формат/Информация : Audio Coding 3
Идентификатор кодека : A_AC3
Продолжительность : 1 ч. 50 м.
Вид битрейта : Постоянный
Битрейт : 192 Кбит/сек
Каналы : 2 канала
Расположение каналов : Front: L R
Частота : 48,0 КГц
Частота кадров : 31,250 кадров/сек (1536 SPF)
Битовая глубина : 16 бит
Метод сжатия : С потерями
Задержка видео : -67 мс.
Размер потока : 152 Мбайт (1%)
Заголовок : HDrezka
Язык : Russian
ServiceKind/String : Complete Main
Default : Да
Forced : Нет
Аудио #2
Идентификатор : 3
Формат : AC-3
Формат/Информация : Audio Coding 3
Идентификатор кодека : A_AC3
Продолжительность : 1 ч. 50 м.
Вид битрейта : Постоянный
Битрейт : 192 Кбит/сек
Каналы : 2 канала
Расположение каналов : Front: L R
Частота : 48,0 КГц
Частота кадров : 31,250 кадров/сек (1536 SPF)
Битовая глубина : 16 бит
Метод сжатия : С потерями
Задержка видео : -67 мс.
Размер потока : 152 Мбайт (1%)
Заголовок : DUB [LeDoyen]
Язык : Ukrainian
ServiceKind/String : Complete Main
Default : Нет
Forced : Нет
Аудио #3
Идентификатор : 4
Формат : AC-3
Формат/Информация : Audio Coding 3
Идентификатор кодека : A_AC3
Продолжительность : 1 ч. 50 м.
Вид битрейта : Постоянный
Битрейт : 192 Кбит/сек
Каналы : 2 канала
Расположение каналов : Front: L R
Частота : 48,0 КГц
Частота кадров : 31,250 кадров/сек (1536 SPF)
Битовая глубина : 16 бит
Метод сжатия : С потерями
Задержка видео : -5 мс.
Размер потока : 152 Мбайт (1%)
Язык : English
ServiceKind/String : Complete Main
Default : Нет
Forced : Нет
Текст #1
Идентификатор : 5
Формат : UTF-8
Идентификатор кодека : S_TEXT/UTF8
Идентификатор кодека/Информация : UTF-8 Plain Text
Продолжительность : 1 ч. 40 м.
Битрейт : 98 бит/сек
ElementCount : 1127
Размер потока : 72,0 Кбайт (0%)
Язык : English
Default : Нет
Forced : Нет
Текст #2
Идентификатор : 6
Формат : SSA
Идентификатор кодека : S_TEXT/SSA
Идентификатор кодека/Информация : Sub Station Alpha
Продолжительность : 1 ч. 40 м.
Битрейт : 128 бит/сек
ElementCount : 1127
Метод сжатия : Без потерь
Размер потока : 94,1 Кбайт (0%)
Язык : English
Default : Нет
Forced : Нет
Текст #3
Идентификатор : 7
Формат : SSA
Идентификатор кодека : S_TEXT/SSA
Идентификатор кодека/Информация : Sub Station Alpha
Продолжительность : 1 ч. 40 м.
Битрейт : 138 бит/сек
ElementCount : 1127
Метод сжатия : Без потерь
Размер потока : 102 Кбайт (0%)
Язык : English
Default : Нет
Forced : Нет

Трейлер

-    - -

Theseus

Пост 04-Май-2018 15:45

[Цитировать]

Титан / The Titan -Год выхода: 2018
Страна: Великобритания, США, Испания
Жанр: фантастика
Продолжительность: 01:37:22
Перевод: Профессиональный (полное дублирование) iTunes / Профессиональный (многоголосый, закадровый) NewStudio
Субтитры: Русские, английские-Режиссер: Леннарт Рафф-В ролях: Сэм Уортингтон, Тейлор Шиллинг, Том Уилкинсон, Агнесс Дейн, Натали Эммануэль, Кори Джонсон, Александр Йованович, Аарон Хеффернан, Натали Поса, Стивен Кри-О фильме: Американский военный Рик принимает участие в грандиозной космической программе. Лучшие умы планеты пытаются создать сверхлюдей, которые после гибели Земли обеспечат продолжение существования человечества на планете Титан. Однако эксперимент по скрещиванию генов Homo sapiens с инопланетным существом приводит к совершенно непредсказуемым последствиям.- -Качество: WEB-DL 1080p [AMZN Version]
Формат: MKV
Видео кодек: x.264
Аудио кодек: AC3
Видео: MPEG-4 AVC, 1920x800, 4373 Kbit/s, 23.976 fps
Аудио 1: AC-3, 48.0 KHz, 6 ch, 384 Kbps | RUS (DUB / iTunes)
Аудио 2: AC-3, 48.0 KHz, 6 ch, 384 Kbps | RUS (MVO / NewStudio)
Аудио 3: AC-3, 48.0 KHz, 6 ch, 384 Kbps | ENG-

Трейлер

-     - -

Theseus

Пост 28-Апр-2018 21:47

[Цитировать]

Тихоокеанский рубеж 2 / Pacific Rim Uprising- Год выпуска: 2018
Производство: Китай, США
Жанр: фантастика, боевик, приключения
Продолжительность: 01:50:43
Перевод: Профессиональный многоголосый [HDrezka Studio]
Субтитры: Корейские (вшитые), английские-Режиссер: Стивен С. ДеНайт-В ролях: Джон Бойега, Скотт Иствуд, Кэйли Спэни, Берн Горман, Чарли Дэй, Цзин Тянь, Макс Чжан, Адриа Архона, Ринко Кикути, Каран Брэр-Описание: Команда пилотируемых роботов-защитников остановила вторжение гигантских инопланетных монстров. Великая битва за Тихоокеанский рубеж ознаменовала новую главу в истории человечества. Однако война только начинается…
Пришло время нового поколения отстаивать своё право на Землю..- -Качество: WEBRip 720p
Формат: MKV
Видео кодек: x.264
Аудио кодек: AC3
Видео: AVC, 1280x536 (2.40:1), 23.976 fps, 3 954 Kbps
Аудио #1: AC-3, 48.0 KHz, 2 ch, 192 Kbps, CBR | RUS [MVO/HDrezka Studio]
Аудио #2: AC-3, 48.0 KHz, 2 ch, 192 Kbps, CBR | UKR [DUB/LeDoyen]
Аудио #3: AC-3, 48.0 KHz, 2 ch, 192 Kbps, CBR | ENG-Рекламы нет !-

MediaInfo

Общее
Уникальный идентификатор : 187637407315982686739551003690637201317 (0x8D29A66FD15883E9BFDB7A3D86C80FA5)
Полное имя : Pacific.Rim.2.Uprising.2018.WEBRip.720p.mkv
Формат : Matroska
Версия формата : Version 4 / Version 2
Размер файла : 3,51 Гбайт
Продолжительность : 1 ч. 50 м.
Общий поток : 4533 Кбит/сек
Дата кодирования : UTC 2018-04-28 15:43:07
Программа кодирования : mkvmerge v8.3.0 ('Over the Horizon') 64bit
Библиотека кодирования : libebml v1.3.1 + libmatroska v1.4.2
Видео
Идентификатор : 1
Формат : AVC
Формат/Информация : Advanced Video Codec
Профиль формата : High@L4.1
Параметр CABAC формата : Да
Параметр ReFrames формата : 12 кадров
Идентификатор кодека : V_MPEG4/ISO/AVC
Продолжительность : 1 ч. 50 м.
Битрейт : 3954 Кбит/сек
Ширина : 1280 пикселей
Высота : 536 пикселей
Соотношение сторон : 2,40:1
Режим частоты кадров : Переменный
Частота кадров : 23,976 (24000/1001) кадра/сек
Цветовое пространство : YUV
Субдискретизация насыщенности : 4:2:0
Битовая глубина : 8 бит
Тип развёртки : Прогрессивная
Бит/(Пиксели*Кадры) : 0.240
Размер потока : 3,06 Гбайт (87%)
Библиотека кодирования : x264 core 142 r2431+42 c69a006 tMod [8-bit@all X86]
Настройки программы : cabac=1 / ref=12 / deblock=1:-3:-3 / analyse=0x3:0x113 / me=hex / subme=7 / psy=1 / fade_compensate=0.00 / psy_rd=1.00:0.00 / mixed_ref=1 / me_range=16 / chroma_me=1 / trellis=2 / 8x8dct=1 / cqm=0 / deadzone=21,11 / fast_pskip=0 / chroma_qp_offset=-2 / threads=12 / lookahead_threads=4 / sliced_threads=0 / nr=0 / decimate=1 / interlaced=0 / bluray_compat=0 / constrained_intra=0 / fgo=0 / bframes=7 / b_pyramid=2 / b_adapt=2 / b_bias=0 / direct=1 / weightb=1 / open_gop=0 / weightp=2 / keyint=240 / keyint_min=23 / scenecut=40 / intra_refresh=0 / rc_lookahead=48 / rc=crf / mbtree=1 / crf=21.0000 / qcomp=0.60 / qpmin=0:0:0 / qpmax=69:69:69 / qpstep=4 / vbv_maxrate=49000 / vbv_bufsize=49000 / crf_max=0.0 / nal_hrd=none / filler=0 / ip_ratio=1.40 / aq=4:0.85 / aq-sensitivity=10.00 / aq-factor=1.00:1.00:1.00 / aq2=0 / aq3=0
Язык : English
Default : Да
Forced : Нет
Цветовой диапазон : Limited
Основные цвета : BT.709
Характеристики трансфера : BT.709
Коэффициенты матрицы : BT.709
Аудио #1
Идентификатор : 2
Формат : AC-3
Формат/Информация : Audio Coding 3
Расширение режима : CM (complete main)
Параметр Endianness формата : Big
Идентификатор кодека : A_AC3
Продолжительность : 1 ч. 50 м.
Вид битрейта : Постоянный
Битрейт : 192 Кбит/сек
Каналы : 2 канала
Расположение каналов : Front: L R
Частота : 48,0 КГц
Частота кадров : 31,250 кадров/сек (1536 spf)
Битовая глубина : 16 бит
Метод сжатия : С потерями
Размер потока : 152 Мбайт (4%)
Заголовок : HDrezka
Язык : Russian
Default : Да
Forced : Нет
Аудио #2
Идентификатор : 3
Формат : AC-3
Формат/Информация : Audio Coding 3
Расширение режима : CM (complete main)
Параметр Endianness формата : Big
Идентификатор кодека : A_AC3
Продолжительность : 1 ч. 50 м.
Вид битрейта : Постоянный
Битрейт : 192 Кбит/сек
Каналы : 2 канала
Расположение каналов : Front: L R
Частота : 48,0 КГц
Частота кадров : 31,250 кадров/сек (1536 spf)
Битовая глубина : 16 бит
Метод сжатия : С потерями
Размер потока : 152 Мбайт (4%)
Заголовок : DUB [LeDoyen]
Язык : Ukrainian
Default : Нет
Forced : Нет
Аудио #3
Идентификатор : 4
Формат : AC-3
Формат/Информация : Audio Coding 3
Профиль формата : Dolby Digital
Расширение режима : CM (complete main)
Параметр Endianness формата : Big
Идентификатор кодека : A_AC3
Продолжительность : 1 ч. 50 м.
Вид битрейта : Постоянный
Битрейт : 192 Кбит/сек
Каналы : 2 канала
Расположение каналов : Front: L R
Частота : 48,0 КГц
Частота кадров : 31,250 кадров/сек (1536 spf)
Битовая глубина : 16 бит
Метод сжатия : С потерями
Задержка видео : 27 мс.
Размер потока : 152 Мбайт (4%)
Язык : English
Default : Нет
Forced : Нет
Текст #1
Идентификатор : 5
Формат : UTF-8
Идентификатор кодека : S_TEXT/UTF8
Идентификатор кодека/Информация : UTF-8 Plain Text
Продолжительность : 1 ч. 40 м.
Битрейт : 98 бит/сек
Count of elements : 1127
Размер потока : 72,0 Кбайт (0%)
Язык : English
Default : Нет
Forced : Нет
Текст #2
Идентификатор : 6
Формат : SSA
Идентификатор кодека : S_TEXT/SSA
Идентификатор кодека/Информация : Sub Station Alpha
Продолжительность : 1 ч. 40 м.
Битрейт : 128 бит/сек
Count of elements : 1127
Метод сжатия : Без потерь
Размер потока : 94,1 Кбайт (0%)
Язык : English
Default : Нет
Forced : Нет
Текст #3
Идентификатор : 7
Формат : SSA
Идентификатор кодека : S_TEXT/SSA
Идентификатор кодека/Информация : Sub Station Alpha
Продолжительность : 1 ч. 40 м.
Битрейт : 138 бит/сек
Count of elements : 1127
Метод сжатия : Без потерь
Размер потока : 102 Кбайт (0%)
Язык : English
Default : Нет
Forced : Нет

Трейлер

-     - -

Theseus

Пост 27-Апр-2018 17:40

[Цитировать]

Тихоокеанский рубеж 2 / Pacific Rim Uprising- Год выпуска: 2018
Производство: Китай, США
Жанр: фантастика, боевик, приключения
Продолжительность: 01:50:43
Перевод: Профессиональный многоголосый [HDrezka Studio]
Субтитры: Корейские (вшитые), английские-Режиссер: Стивен С. ДеНайт-В ролях: Джон Бойега, Скотт Иствуд, Кэйли Спэни, Берн Горман, Чарли Дэй, Цзин Тянь, Макс Чжан, Адриа Архона, Ринко Кикути, Каран Брэр-Описание: Команда пилотируемых роботов-защитников остановила вторжение гигантских инопланетных монстров. Великая битва за Тихоокеанский рубеж ознаменовала новую главу в истории человечества. Однако война только начинается…
Пришло время нового поколения отстаивать своё право на Землю..- -Качество: WEBRip 1080p
Формат: MKV
Видео кодек: x.264
Аудио кодек: AC3
Видео: AVC, 1920x800 (2.40:1), 29.970 fps, 5 500 Kbps
Аудио #1: AC-3, 48.0 KHz, 2 ch, 192 Kbps, CBR | RUS [MVO/HDrezka Studio]
Аудио #2: AC-3, 48.0 KHz, 2 ch, 192 Kbps, CBR | UKR [DUB/LeDoyen]
Аудио #3: AC-3, 48.0 KHz, 2 ch, 384 Kbps, CBR | ENG-Рекламы нет !-

Трейлер

-     - -
 

Текущее время: Сегодня 23:41

Часовой пояс: GMT + 3