Сегодня идет свободное скачивание без начисления Download

Результатов поиска: 116

Автор Сообщение

Theseus

Пост 14-Июл-2017 12:29

[Цитировать]

Призрак в доспехах / Ghost in the Shell - Год выпуска: 2017
Производство: США, Индия, Китай, Япония, Гонконг, Великобритания, Новая Зеландия, Канада, Австралия
Жанр: фантастика, боевик, триллер, драма, криминал, детектив
Продолжительность: 01:46:56
Перевод: Профессиональный (полное дублирование) | iTunes
Режиссер: Руперт Сандерс-В ролях: Скарлетт Йоханссон, Йохан Филип Асбек, Такеши Китано, Жюльет Бинош, Майкл Питт, Чин Хань, Дануся Самал, Ласарус Ратуэре-Описание: Кибер-технологии подчинили себе все сферы жизни, а самые опасные преступники переместились в виртуальное пространство. Киборг-гибрид, стоящий во главе элитного подразделения полиции, идет по следу могущественного хакера.- -Качество: BDRip 1080p
Формат: MKV
Видео кодек: x.264
Аудио кодек: AC3
Видео: MPEG-4 AVC, 1920x1080, 12 Mbit/s, 23.976 fps
Аудио 1: 48.0 kHz, AC3 Dolby Digital, 3/2 (L,C,R,l,r) + LFE ch, ~384 kbps
Аудио 2: 48.0 kHz, AC3 Dolby Digital, 3/2 (L,C,R,l,r) + LFE ch, ~640 kbps
Субтитры: Русские
-
     - - -

Theseus

Пост 14-Июл-2017 12:27

[Цитировать]

Призрак в доспехах / Ghost in the Shell - Год выпуска: 2017
Производство: США, Индия, Китай, Япония, Гонконг, Великобритания, Новая Зеландия, Канада, Австралия
Жанр: фантастика, боевик, триллер, драма, криминал, детектив
Продолжительность: 01:46:56
Перевод: Профессиональный (полное дублирование) | iTunes
Режиссер: Руперт Сандерс-В ролях: Скарлетт Йоханссон, Йохан Филип Асбек, Такеши Китано, Жюльет Бинош, Майкл Питт, Чин Хань, Дануся Самал, Ласарус Ратуэре-Описание: Кибер-технологии подчинили себе все сферы жизни, а самые опасные преступники переместились в виртуальное пространство. Киборг-гибрид, стоящий во главе элитного подразделения полиции, идет по следу могущественного хакера.- -Качество: BDRip 720p
Формат: MKV
Видео кодек: x.264
Аудио кодек: AC3
Видео: MPEG-4 AVC, 1280x720, 6000 Kbit/s, 23.976 fps
Аудио 1: 48.0 kHz, AC3 Dolby Digital, 3/2 (L,C,R,l,r) + LFE ch, ~384 kbps
Аудио 2: 48.0 kHz, AC3 Dolby Digital, 3/2 (L,C,R,l,r) + LFE ch, ~640 kbps
Субтитры: Русские (forced, full), английские (Full, SDH Colored)
-
     - - -

}{@R0N

Пост 07-Июл-2017 19:19

[Цитировать]

-Призрак в доспехах
Ghost in the Shell
-- Производство: США
Год выпуска: 2017 г.
Жанр: фантастика, боевик, триллер, драма, криминал, детектив
Продолжительность: 01:47:25
Перевод: Профессиональный (полное дублирование) [iTunes] (Rus)
Перевод 2: Профессиональный (полное дублирование) [iTunes] (Ukr)
Оригинальный аудиопоток: английский
Режиссёр: Руперт Сандерс / Rupert Sanders-В ролях: Скарлетт Йоханссон, Йохан Филип Асбек, Такеши Китано, Жюльетт Бинош, Майкл Питт, Чин Хань, Дануся Самал, Ласарус Ратуэре, Ютака Идзумихара, Таванда Маниймо-Описание: В будущем люди улучшают себя с помощью технологий. Поверив, что ее спасли от близкой смерти, Майор становится первой в своем роде: человеческим разумом внутри искусственного тела, и ее роль - борьба в войне против киберпреступлений. Разыскивая опасного преступника, Майор открывает шокирующую правду - корпорация, которая создала ее, солгала ей о ее прошлой жизни, чтобы контролировать ее. Не зная, во что верить, Майор не остановится ни перед чем, чтобы раскрыть тайну своей истинной личности и отомстить корпорации, которой она должна была служить...
- -Качество видео: WEB-DL
Контейнер: MKV
Стандарт разрешения: 1080p
Видео кодек: H.264/AVC
Аудио кодек: AC3, AAC
Видео: 1912x800 at 24.000 fps (True24p), MPEG-4 AVC, ~5000 kbps avg
Аудио #1: Russian: 48 kHz, AC3, 3/2 (L,C,R,l,r) + LFE ch, ~384.00 kbps avg |Дубляж, iTunes Russia|
Аудио #2: English: 48 kHz, AC3, 3/2 (L,C,R,l,r) + LFE ch, ~384.00 kbps avg
Cубтитры: Russian (Full-length, Forced iTunes), Ukrainian (Full-length, Forced iTunes), English (Forced iTunes)

Media Info

Код:
Format                      : Matroska
Format version              : Version 4 / Version 2
File size                   : 4.44 GiB
Duration                    : 1h 47mn
Overall bit rate            : 5 918 Kbps
Encoded date                : UTC 2017-07-06 19:07:11
Writing application         : mkvmerge v6.9.1 ('Blue Panther') 32bit built on Apr 18 2014 18:15:44
Writing library             : libebml v1.3.0 + libmatroska v1.4.1
Video
ID                          : 1
Format                      : AVC
Format/Info                 : Advanced Video Codec
Format profile              : High@L4.0
Format settings, CABAC      : Yes
Format settings, ReFrames   : 4 frames
Codec ID                    : V_MPEG4/ISO/AVC
Duration                    : 1h 47mn
Width                       : 1 920 pixels
Height                      : 1 080 pixels
Display aspect ratio        : 16:9
Frame rate mode             : Constant
Frame rate                  : 23.976 fps
Color space                 : YUV
Chroma subsampling          : 4:2:0
Bit depth                   : 8 bits
Scan type                   : Progressive
Language                    : English
Default                     : Yes
Forced                      : No
Color primaries             : BT.709
Transfer characteristics    : BT.709
Matrix coefficients         : BT.709
Color range                 : Limited
Audio #1
ID                          : 2
Format                      : AC-3
Format/Info                 : Audio Coding 3
Mode extension              : CM (complete main)
Format settings, Endianness : Big
Codec ID                    : A_AC3
Duration                    : 1h 47mn
Bit rate mode               : Constant
Bit rate                    : 384 Kbps
Channel(s)                  : 6 channels
Channel positions           : Front: L C R, Side: L R, LFE
Sampling rate               : 48.0 KHz
Bit depth                   : 16 bits
Compression mode            : Lossy
Stream size                 : 295 MiB (6%)
Title                       : [DUB] DD 5.1 @ 384 kbps (iTunes)
Language                    : Russian
Default                     : Yes
Forced                      : No
Audio #2
ID                          : 3
Format                      : AAC
Format/Info                 : Advanced Audio Codec
Format profile              : LC
Codec ID                    : A_AAC
Duration                    : 1h 47mn
Channel(s)                  : 2 channels
Channel positions           : Front: L R
Sampling rate               : 48.0 KHz
Compression mode            : Lossy
Title                       : [DUB] AAC 2.0 @ 160 kbps
Language                    : Ukrainian
Default                     : No
Forced                      : No
Audio #3
ID                          : 4
Format                      : AC-3
Format/Info                 : Audio Coding 3
Mode extension              : CM (complete main)
Format settings, Endianness : Big
Codec ID                    : A_AC3
Duration                    : 1h 47mn
Bit rate mode               : Constant
Bit rate                    : 384 Kbps
Channel(s)                  : 6 channels
Channel positions           : Front: L C R, Side: L R, LFE
Sampling rate               : 48.0 KHz
Bit depth                   : 16 bits
Compression mode            : Lossy
Stream size                 : 295 MiB (6%)
Title                       : [ORIGINAL] DD 5.1 @ 384 kbps (iTunes)
Language                    : English
Default                     : No
Forced                      : No
Text #1
ID                          : 5
Format                      : UTF-8
Codec ID                    : S_TEXT/UTF8
Codec ID/Info               : UTF-8 Plain Text
Title                       : Forced
Language                    : English
Default                     : No
Forced                      : No
Text #2
ID                          : 6
Format                      : UTF-8
Codec ID                    : S_TEXT/UTF8
Codec ID/Info               : UTF-8 Plain Text
Title                       : Forced
Language                    : Russian
Default                     : Yes
Forced                      : Yes
Text #3
ID                          : 7
Format                      : UTF-8
Codec ID                    : S_TEXT/UTF8
Codec ID/Info               : UTF-8 Plain Text
Title                       : Forced
Language                    : Ukrainian
Default                     : No
Forced                      : No
Text #4
ID                          : 8
Format                      : UTF-8
Codec ID                    : S_TEXT/UTF8
Codec ID/Info               : UTF-8 Plain Text
Title                       : Full-lenth
Language                    : Russian
Default                     : No
Forced                      : No
Text #5
ID                          : 9
Format                      : UTF-8
Codec ID                    : S_TEXT/UTF8
Codec ID/Info               : UTF-8 Plain Text
Title                       : Full-lenth
Language                    : Ukrainian
Default                     : No
Forced                      : No
Menu
00:00:00.000                : en:1
00:08:08.000                : en:2
00:14:38.000                : en:3
00:21:24.000                : en:4
00:28:00.000                : en:5
00:34:10.000                : en:6
00:39:24.000                : en:7
00:43:54.000                : en:8
00:51:45.000                : en:9
00:55:13.000                : en:10
01:01:02.000                : en:11
01:07:43.000                : en:12
01:14:31.000                : en:13
01:20:26.000                : en:14
01:27:40.000                : en:15
01:33:34.000                : en:16
01:37:53.000                : en:17

Скриншот c названием фильма

 

Скриншоты

         
         

Theseus

Пост 29-Июн-2017 21:40

[Цитировать]

Логан / Logan- Год выпуска: 2017
Производство: США
Жанр: фантастика, боевик, триллер, драма
Продолжительность: 02:17:23
Перевод: Профессиональный (полное дублирование) BD EUR | любительский многоголосый | авторский
Режиссер: Джеймс Мэнголд
В ролях: Хью Джекман, Патрик Стюарт, Дафни Кин, Бойд Холбрук, Стивен Мерчант, Элизабет Родригес, Ричард Э. Грант, Эрик Ла Салль
Описание: В недалеком будущем уставший от жизни Логан заботится о больном профессоре Икс, который прячется неподалеку от мексиканской границы. Но Логан больше не сможет скрывать свое прошлое, когда встретится с юным мутантом, которого преследуют темные силы.

Качество: BDRip 720p
Формат: MKV
Видео кодек: x.264
Аудио кодек: AC3
Видео: AVC, 1280x536 (2.40:1), 5084 kbps, 23,976 fps
Аудио №1: AC3 / 5.1 / 48 kHz / 448 kbps / 16 bit | DUB - Blu-ray EUR
Аудио №2: AC3 / 5.1 / 48 kHz / 640 kbps / 16 bit | L - Paradox & Omskbird Records
Аудио №3: AC3 / 5.1 / 48 kHz / 640 kbps / 16 bit | AVO - Д.Есарев
Аудио №4: AC3 / 5.1 / 48 kHz / 640 kbps / 16 bit | AVO - М.Чадов
Аудио №5: AC3 / 5.1 / 48 kHz / 640 kbps / 16 bit | ENG
Субтитры: русские (полные + форс.), английские (Full + SDH + SDH-Colored)
Навигация по главам: есть

    -

Theseus

Пост 29-Июн-2017 21:39

[Цитировать]

Логан / Logan- Год выпуска: 2017
Производство: США
Жанр: фантастика, боевик, триллер, драма
Продолжительность: 02:17:23
Перевод: Профессиональный (полное дублирование) BD EUR | любительский многоголосый | авторский
Режиссер: Джеймс Мэнголд
В ролях: Хью Джекман, Патрик Стюарт, Дафни Кин, Бойд Холбрук, Стивен Мерчант, Элизабет Родригес, Ричард Э. Грант, Эрик Ла Салль
Описание: В недалеком будущем уставший от жизни Логан заботится о больном профессоре Икс, который прячется неподалеку от мексиканской границы. Но Логан больше не сможет скрывать свое прошлое, когда встретится с юным мутантом, которого преследуют темные силы.

Качество: BDRip 1080p
Формат: MKV
Видео кодек: x.264
Аудио кодек: AC3
Видео: AVC, 1920x804 (2,40:1), 7607 kbps, 23,976 fps
Аудио №1: AC3 / 5.1 / 48 kHz / 448 kbps / 16 bit | DUB - Blu-ray EUR
Аудио №2: AC3 / 5.1 / 48 kHz / 640 kbps / 16 bit | L - Paradox & Omskbird Records
Аудио №3: AC3 / 5.1 / 48 kHz / 640 kbps / 16 bit | AVO - Д.Есарев
Аудио №4: AC3 / 5.1 / 48 kHz / 640 kbps / 16 bit | AVO - М.Чадов
Аудио №5: AC3 / 5.1 / 48 kHz / 640 kbps / 16 bit | ENG
Субтитры: русские (полные + форс.), английские (Full + SDH + SDH-Colored)
Навигация по главам: есть

    -

Theseus

Пост 29-Июн-2017 21:36

[Цитировать]

Логан / Logan- Год выпуска: 2017
Производство: США
Жанр: фантастика, боевик, триллер, драма
Продолжительность: 02:17:23
Перевод: Профессиональный (полное дублирование)
Режиссер: Джеймс Мэнголд
В ролях: Хью Джекман, Патрик Стюарт, Дафни Кин, Бойд Холбрук, Стивен Мерчант, Элизабет Родригес, Ричард Э. Грант, Эрик Ла Салль
Описание: В недалеком будущем уставший от жизни Логан заботится о больном профессоре Икс, который прячется неподалеку от мексиканской границы. Но Логан больше не сможет скрывать свое прошлое, когда встретится с юным мутантом, которого преследуют темные силы.

Качество: Blu-Ray
Контейнер: BDMV
Видео кодек: H.264
Аудио кодек: AC3 | DTS
Видео: 1920x1080 (16:9), 23,976 fps, MPEG-4 AVC Video ~ 23879 kbps avg, High Profile 4.1
Аудио#1: DTS-HD Master Audio English 7.1 / 48 kHz / 4899 kbps / 24-bit (DTS Core: 5.1 / 48 kHz / 1509 kbps / 24-bit)
Аудио#2: Dolby Digital Audio English 2.0 / 48 kHz / 224 kbps
Аудио#3: DTS Audio Spanish 5.1 / 48 kHz / 768 kbps / 24-bit
Аудио#4: DTS Audio Russian 5.1 / 48 kHz / 768 kbps / 24-bit
Аудио#5: Dolby Digital Audio Polish 5.1 / 48 kHz / 448 kbps
Аудио#6: Dolby Digital Audio Ukrainian 5.1 / 48 kHz / 448 kbps
Аудио#7: Dolby Digital Audio English 2.0 / 48 kHz / 224 kbps
Субтитры: Русский (Форс. + полные), Украинский, Английский, Испанский, Датский, Финский, Норвежский, Шведский, Эстонский, Корейский, Латышский, Литовский, Польский

Дополнительные материалы на диске (переведено субтитрами)

Удаленные сцены
Как создавался "Логан"
Аудиокомментарии Джеймса Мэнголда
Трейлеры

BDInfo

DISC INFO:
Disc Title: LOGAN
Disc Size: 49.596.803.379 bytes
Protection: AACS
BD-Java: Yes
BDInfo: 0.5.8
PLAYLIST REPORT:
Name: 00800.MPLS
Length: 2:17:23.276 (h:m:s.ms)
Size: 35.331.084.288 bytes
Total Bitrate: 34,29 Mbps
VIDEO:
Codec Bitrate Description
----- ------- -----------
MPEG-4 AVC Video 23879 kbps 1080p / 23,976 fps / 16:9 / High Profile 4.1
AUDIO:
Codec Language Bitrate Description
----- -------- ------- -----------
DTS-HD Master Audio English 4899 kbps 7.1 / 48 kHz / 4899 kbps / 24-bit (DTS Core: 5.1 / 48 kHz / 1509 kbps / 24-bit)
Dolby Digital Audio English 224 kbps 2.0 / 48 kHz / 224 kbps
DTS Audio Spanish 768 kbps 5.1 / 48 kHz / 768 kbps / 24-bit
DTS Audio Russian 768 kbps 5.1 / 48 kHz / 768 kbps / 24-bit
Dolby Digital Audio Polish 448 kbps 5.1 / 48 kHz / 448 kbps
Dolby Digital Audio Ukrainian 448 kbps 5.1 / 48 kHz / 448 kbps
Dolby Digital Audio English 224 kbps 2.0 / 48 kHz / 224 kbps
SUBTITLES:
Codec Language Bitrate Description
----- -------- ------- -----------
Presentation Graphics English 23,885 kbps
Presentation Graphics Spanish 21,740 kbps
Presentation Graphics Danish 20,310 kbps
Presentation Graphics Finnish 18,777 kbps
Presentation Graphics Norwegian 21,857 kbps
Presentation Graphics Russian 22,656 kbps
Presentation Graphics Swedish 22,006 kbps
Presentation Graphics Estonian 23,307 kbps
Presentation Graphics Korean 14,792 kbps
Presentation Graphics Latvian 21,791 kbps
Presentation Graphics Lithuanian 22,714 kbps
Presentation Graphics Polish 18,427 kbps
Presentation Graphics Ukrainian 22,637 kbps
Presentation Graphics Spanish 57,867 kbps
Presentation Graphics Danish 56,940 kbps
Presentation Graphics Finnish 55,776 kbps
Presentation Graphics Norwegian 56,247 kbps
Presentation Graphics Russian 60,341 kbps
Presentation Graphics Swedish 53,405 kbps
Presentation Graphics Korean 33,432 kbps
FILES:
Name Time In Length Size Total Bitrate
---- ------- ------ ---- -------------
02577.M2TS 0:00:00.000 2:17:23.276 35.331.084.288 34.288
    -

Dybrik13

Пост 07-Июн-2017 12:17

[Цитировать]

Время псов / The Hunter's Prayer- -Производство: США, Испания, Германия
Жанр: Боевик, триллер
Продолжительность: 01:30:50
Режиссер: Джонатан Мостоу
Актеры: Сэм Уортингтон, Мартин Компстон, Одейя Раш, Вероника Эчеги, Аллен Лич, Эми Ландекер, Дин Джаггер III, Катя Бокор, Сэм Каллингворт...
Дата мировой премьеры: 8 июня 2017
Дата российской премьеры: 8 июня 2017, «Парадиз»-Чтобы преподать урок своему работнику, крупный бизнесмен мистер Эдисон, нанимает киллера по имени Лукас. Лукасу нужно убить дочь бывшего адвоката мистера Эдисона. Но Лукас не справляется с заданием, сам становится целью и теперь они вместе вынуждены бежать от убийц Эдисона ...
- -Возраст: 18+ (зрителям, достигшим 18 лет. запрещено для детей)
Рейтинг MPAA: R (лицам до 17 лет обязательно присутствие взрослого)-Качество видео: WEB-DL
Перевод: Профессиональный многоголосый, авторский
Субтитры: Отсутствуют
Видео: AVC/H.264, 1920x804 (2.35:1), 23.976 fps, 4 406 Kbps (0.119 bit/pixel)
Аудио #1: AC-3, 48.0 KHz, 6 ch, 384 Kbps, CBR | Многоголосый ("Paradox" & Omskbird records)
Аудио #2: AC-3, 48.0 KHz, 6 ch, 384 Kbps, CBR | Авторский (BadBajo)
Аудио #3: AC-3, 48.0 KHz, 6 ch, 384 Kbps, CBR | Английский

MediaInfo:

Общее
Уникальный идентификатор : 238746720937561414490596196800408667791 (0xB39CF2265B8ECEFFB37D9A342DBD468F)
Полное имя : C:\NNM\Время псов\Vremya psov 2017 WEB-DL 1080p-LQ.mkv
Формат : Matroska
Версия формата : Version 4 / Version 2
Размер файла : 3,60 Гбайт
Продолжительность : 1 ч. 30 м.
Общий поток : 5671 Кбит/сек
Дата кодирования : UTC 2017-05-31 13:15:27
Программа кодирования : mkvmerge v6.9.1 ('Blue Panther') 32bit built on Apr 18 2014 18:15:44
Библиотека кодирования : libebml v1.3.0 + libmatroska v1.4.1
Видео
Идентификатор : 1
Формат : AVC
Формат/Информация : Advanced Video Codec
Профиль формата : High@L4
Параметр CABAC формата : Да
Параметр ReFrames формата : 5 кадров
Идентификатор кодека : V_MPEG4/ISO/AVC
Продолжительность : 1 ч. 30 м.
Битрейт : 4406 Кбит/сек
Ширина : 1920 пикселей
Высота : 804 пикселя
Соотношение сторон : 2,40:1
Режим частоты кадров : Постоянный
Частота кадров : 23,976 кадра/сек
Цветовое пространство : YUV
Субдискретизация насыщенности : 4:2:0
Битовая глубина : 8 бит
Тип развёртки : Прогрессивная
Бит/(Пиксели*Кадры) : 0.119
Размер потока : 2,80 Гбайт (78%)
Язык : English
Default : Да
Forced : Нет
Аудио #1
Идентификатор : 2
Формат : AC-3
Формат/Информация : Audio Coding 3
Расширение режима : CM (complete main)
Параметр Endianness формата : Big
Идентификатор кодека : A_AC3
Продолжительность : 1 ч. 30 м.
Вид битрейта : Постоянный
Битрейт : 384 Кбит/сек
Каналы : 6 каналов
Расположение каналов : Front: L C R, Side: L R, LFE
Частота : 48,0 КГц
Частота кадров : 31,250 кадров/сек (1536 spf)
Битовая глубина : 16 бит
Метод сжатия : С потерями
Размер потока : 249 Мбайт (7%)
Заголовок : Rus MVO
Язык : Russian
Default : Да
Forced : Нет
Аудио #2
Идентификатор : 3
Формат : AC-3
Формат/Информация : Audio Coding 3
Расширение режима : CM (complete main)
Параметр Endianness формата : Big
Идентификатор кодека : A_AC3
Продолжительность : 1 ч. 30 м.
Вид битрейта : Постоянный
Битрейт : 384 Кбит/сек
Каналы : 6 каналов
Расположение каналов : Front: L C R, Side: L R, LFE
Частота : 48,0 КГц
Частота кадров : 31,250 кадров/сек (1536 spf)
Битовая глубина : 16 бит
Метод сжатия : С потерями
Размер потока : 249 Мбайт (7%)
Заголовок : AVO (BadBajo)
Язык : Russian
Default : Нет
Forced : Нет
Аудио #3
Идентификатор : 4
Формат : AC-3
Формат/Информация : Audio Coding 3
Расширение режима : CM (complete main)
Параметр Endianness формата : Big
Идентификатор кодека : A_AC3
Продолжительность : 1 ч. 30 м.
Вид битрейта : Постоянный
Битрейт : 384 Кбит/сек
Каналы : 6 каналов
Расположение каналов : Front: L C R, Side: L R, LFE
Частота : 48,0 КГц
Частота кадров : 31,250 кадров/сек (1536 spf)
Битовая глубина : 16 бит
Метод сжатия : С потерями
Размер потока : 249 Мбайт (7%)
Заголовок : Eng
Язык : English
Default : Нет
Forced : Нет
Меню
00:00:00.000 : en:Opening Sequence
00:05:34.000 : en:You Make This Yourself?
00:11:19.000 : en:Hired To Kill You
00:18:01.000 : en:Claustrophobic
00:23:18.000 : en:Well Protected
00:28:18.000 : en:Professional Assassin
00:34:05.000 : en:Need Your Strength
00:39:25.000 : en:Her Name's Dani
00:44:38.000 : en:Indestructible
00:50:55.000 : en:How Do You Kill
00:57:15.000 : en:Are You Afraid
01:02:17.000 : en:So Much Trouble
01:07:11.000 : en:The Airport
01:12:38.000 : en:Who I Am
01:18:48.000 : en:Stay With Me
01:23:35.000 : en:End Credits

Скриншоты:

       

Theseus

Пост 25-Апр-2017 21:12

[Цитировать]

Перезалито 25.04.17 на релиз без реклам + звук от iTunes

Theseus

Пост 22-Апр-2017 15:15

[Цитировать]

Звонки / Rings- Год выпуска: 2016
Премьера (РФ): 2017
Страна: США
Жанр: ужасы, драма
Продолжительность: 01:42:11
Перевод: Профессиональный (полное дублирование) | iTunes
Режиссер: Ф. Хавьер Гутьеррес-В ролях: Матильда Анна Ингрид Лутс, Алекс Роу, Джонни Галэки, Винсент Д’Онофрио, Эйми Тигарден, Бонни Морган, Чак Дэвид Уиллис, Патрик Р. Уокер, Зак Рериг, Лаура Уиггинс...-Описание: Молодой человек увлеченно исследует мрачную субкультуру, связанную с таинственной видеокассетой, через 7 дней после просмотра которой гибнет всякий увидевший запись. Однако, его девушка уверена, что бойфренду грозит опасность, и чтобы спасти его, она решает принять удар на себя. Её ждет немало чудовищных открытий, но самым страшным станет фильм в фильме, который прежде никто не видел.- -Качество: BDRip 1080p
Формат: MKV
Видео кодек: x.264
Аудио кодек: AC3
Видео: MPEG-4 AVC, 1920x1080, 16.2 Mbit/s, 23.976 fps
Аудио #01: 48 kHz, AC3, 5.1, 384 Kbps | iTunes | RUS |
Аудио #02: 48 kHz, AC3, 5.1, 640 Kbps | ENG
Субтитры: Русские (force, full), английские (full, SDH Colored)
-

MI

General
Unique ID : 233546157576750862352502664289544969035 (0xAFB35A946E1EB42BB7F6EC90C9DA1B4B)
Complete name : Rings.2017.BDRip.1080p.ExKinoRay.mkv
Format : Matroska
Format version : Version 4 / Version 2
File size : 12.3 GiB
Duration : 1 h 42 min
Overall bit rate : 17.2 Mb/s
Encoded date : UTC 2017-04-24 21:09:25
Writing application : mkvmerge v11.0.0 ('Alive') 64bit
Writing library : libebml v1.3.4 + libmatroska v1.4.5
Video
ID : 1
Format : AVC
Format/Info : Advanced Video Codec
Format profile : High@L4.1
Format settings, CABAC : Yes
Format settings, ReFrames : 4 frames
Codec ID : V_MPEG4/ISO/AVC
Duration : 1 h 42 min
Bit rate : 16.2 Mb/s
Width : 1 920 pixels
Height : 1 080 pixels
Display aspect ratio : 16:9
Frame rate mode : Constant
Frame rate : 23.976 (24000/1001) FPS
Color space : YUV
Chroma subsampling : 4:2:0
Bit depth : 8 bits
Scan type : Progressive
Bits/(Pixel*Frame) : 0.326
Stream size : 11.5 GiB (94%)
Writing library : x264 core 148 r2665kMod a01e339
Encoding settings : cabac=1 / ref=4 / deblock=1:-1:-1 / analyse=0x3:0x133 / me=umh / subme=11 / psy=1 / fade_compensate=0.00 / psy_rd=1.00:0.00 / mixed_ref=1 / me_range=64 / chroma_me=1 / trellis=2 / 8x8dct=1 / cqm=0 / deadzone=21,11 / fast_pskip=0 / chroma_qp_offset=-2 / threads=12 / lookahead_threads=2 / sliced_threads=0 / nr=0 / decimate=0 / interlaced=0 / bluray_compat=0 / constrained_intra=0 / fgo=0 / bframes=9 / b_pyramid=2 / b_adapt=2 / b_bias=0 / direct=3 / weightb=1 / open_gop=0 / weightp=2 / keyint=240 / keyint_min=24 / scenecut=40 / intra_refresh=0 / rc_lookahead=40 / rc=2pass / mbtree=1 / bitrate=16200 / ratetol=1.0 / qcomp=0.70 / qpmin=0 / qpmax=69 / qpstep=4 / cplxblur=20.0 / qblur=0.5 / vbv_maxrate=50000 / vbv_bufsize=30000 / nal_hrd=none / filler=0 / ip_ratio=1.20 / aq=3:0.80
Language : English
Default : Yes
Forced : No
Audio #1
ID : 2
Format : AC-3
Format/Info : Audio Coding 3
Format settings, Endianness : Big
Codec ID : A_AC3
Duration : 1 h 42 min
Bit rate mode : Constant
Bit rate : 384 kb/s
Channel(s) : 6 channels
Channel positions : Front: L C R, Side: L R, LFE
Sampling rate : 48.0 kHz
Frame rate : 31.250 FPS (1536 spf)
Bit depth : 16 bits
Compression mode : Lossy
Stream size : 281 MiB (2%)
Title : iTunes
Language : Russian
Service kind : Complete Main
Default : Yes
Forced : No
Audio #2
ID : 3
Format : AC-3
Format/Info : Audio Coding 3
Format settings, Endianness : Big
Codec ID : A_AC3
Duration : 1 h 42 min
Bit rate mode : Constant
Bit rate : 640 kb/s
Channel(s) : 6 channels
Channel positions : Front: L C R, Side: L R, LFE
Sampling rate : 48.0 kHz
Frame rate : 31.250 FPS (1536 spf)
Bit depth : 16 bits
Compression mode : Lossy
Stream size : 468 MiB (4%)
Title : Original
Language : English
Service kind : Complete Main
Default : No
Forced : No
Text #1
ID : 4
Format : UTF-8
Codec ID : S_TEXT/UTF8
Codec ID/Info : UTF-8 Plain Text
Duration : 1 h 38 min
Bit rate : 0 b/s
Count of elements : 17
Stream size : 726 Bytes (0%)
Title : Forced
Language : Russian
Default : Yes
Forced : No
Text #2
ID : 5
Format : UTF-8
Codec ID : S_TEXT/UTF8
Codec ID/Info : UTF-8 Plain Text
Duration : 1 h 41 min
Bit rate : 48 b/s
Count of elements : 793
Stream size : 36.2 KiB (0%)
Title : Full
Language : Russian
Default : No
Forced : No
Text #3
ID : 6
Format : UTF-8
Codec ID : S_TEXT/UTF8
Codec ID/Info : UTF-8 Plain Text
Duration : 1 h 36 min
Bit rate : 30 b/s
Count of elements : 795
Stream size : 21.3 KiB (0%)
Title : Full
Language : English
Default : No
Forced : No
Text #4
ID : 7
Format : UTF-8
Codec ID : S_TEXT/UTF8
Codec ID/Info : UTF-8 Plain Text
Duration : 1 h 36 min
Bit rate : 50 b/s
Count of elements : 999
Stream size : 35.8 KiB (0%)
Title : SDH {Colored)
Language : English
Default : No
Forced : No
Menu
00:00:00.000 : en:00:00:00.000
00:08:42.731 : en:00:08:42.731
00:15:28.136 : en:00:15:28.136
00:20:39.989 : en:00:20:39.989
00:25:25.190 : en:00:25:25.190
00:32:55.182 : en:00:32:55.182
00:39:17.855 : en:00:39:17.855
00:48:53.722 : en:00:48:53.722
00:55:06.929 : en:00:55:06.929
01:00:24.371 : en:01:00:24.371
01:07:38.221 : en:01:07:38.221
01:18:21.113 : en:01:18:21.113
01:31:47.210 : en:01:31:47.210
01:36:37.500 : en:01:36:37.500

Трейлер

-     - - -

Theseus

Пост 25-Апр-2017 21:05

[Цитировать]

Перезалито 25.04.17 на релиз без реклам + звук от iTunes

Theseus

Пост 22-Апр-2017 15:09

[Цитировать]

Звонки / Rings- Год выпуска: 2016
Премьера (РФ): 2017
Страна: США
Жанр: ужасы, драма
Продолжительность: 01:42:11
Перевод: Профессиональный (полное дублирование) | iTunes
Режиссер: Ф. Хавьер Гутьеррес-В ролях: Матильда Анна Ингрид Лутс, Алекс Роу, Джонни Галэки, Винсент Д’Онофрио, Эйми Тигарден, Бонни Морган, Чак Дэвид Уиллис, Патрик Р. Уокер, Зак Рериг, Лаура Уиггинс...-Описание: Молодой человек увлеченно исследует мрачную субкультуру, связанную с таинственной видеокассетой, через 7 дней после просмотра которой гибнет всякий увидевший запись. Однако, его девушка уверена, что бойфренду грозит опасность, и чтобы спасти его, она решает принять удар на себя. Её ждет немало чудовищных открытий, но самым страшным станет фильм в фильме, который прежде никто не видел.- -Качество: BDRip 720p
Формат: MKV
Видео кодек: x.264
Аудио кодек: AC3
Видео: MPEG-4 AVC, 1280x720, 6500 Кbit/s, 23.976 fps
Аудио #01: 48 kHz, AC3, 5.1, 384 Kbps | iTunes | RUS |
Аудио #02: 48 kHz, AC3, 5.1, 640 Kbps | ENG
Субтитры: Русские (force, full), английские (full, SDH Colored)
-

MI

General
Unique ID : 212794425309629194226395610182112603018 (0xA016B72F9CA09297BCEFD572AEE16B8A)
Complete name : Rings.2017.BDRip.720p.ExKinoRay.mkv
Format : Matroska
Format version : Version 4 / Version 2
File size : 5.37 GiB
Duration : 1 h 42 min
Overall bit rate : 7 521 kb/s
Encoded date : UTC 2017-04-24 21:04:50
Writing application : mkvmerge v11.0.0 ('Alive') 64bit
Writing library : libebml v1.3.4 + libmatroska v1.4.5
Video
ID : 1
Format : AVC
Format/Info : Advanced Video Codec
Format profile : High@L4.1
Format settings, CABAC : Yes
Format settings, ReFrames : 9 frames
Codec ID : V_MPEG4/ISO/AVC
Duration : 1 h 42 min
Bit rate : 6 500 kb/s
Width : 1 280 pixels
Height : 720 pixels
Display aspect ratio : 16:9
Frame rate mode : Constant
Frame rate : 23.976 (23976/1000) FPS
Color space : YUV
Chroma subsampling : 4:2:0
Bit depth : 8 bits
Scan type : Progressive
Bits/(Pixel*Frame) : 0.294
Stream size : 4.64 GiB (86%)
Writing library : x264 core 146 r2538 121396c
Encoding settings : cabac=1 / ref=9 / deblock=1:-3:-3 / analyse=0x3:0x133 / me=umh / subme=11 / psy=1 / psy_rd=1.05:0.05 / mixed_ref=1 / me_range=32 / chroma_me=1 / trellis=2 / 8x8dct=1 / cqm=0 / deadzone=21,11 / fast_pskip=0 / chroma_qp_offset=-3 / threads=6 / lookahead_threads=1 / sliced_threads=0 / nr=0 / decimate=0 / interlaced=0 / bluray_compat=0 / constrained_intra=0 / bframes=8 / b_pyramid=2 / b_adapt=2 / b_bias=0 / direct=3 / weightb=1 / open_gop=0 / weightp=2 / keyint=240 / keyint_min=23 / scenecut=40 / intra_refresh=0 / rc_lookahead=50 / rc=2pass / mbtree=0 / bitrate=6500 / ratetol=1.0 / qcomp=0.60 / qpmin=0 / qpmax=69 / qpstep=4 / cplxblur=20.0 / qblur=0.5 / vbv_maxrate=50000 / vbv_bufsize=62500 / nal_hrd=none / filler=0 / ip_ratio=1.40 / pb_ratio=1.30 / aq=1:0.80
Language : English
Default : Yes
Forced : No
Audio #1
ID : 2
Format : AC-3
Format/Info : Audio Coding 3
Format settings, Endianness : Big
Codec ID : A_AC3
Duration : 1 h 42 min
Bit rate mode : Constant
Bit rate : 384 kb/s
Channel(s) : 6 channels
Channel positions : Front: L C R, Side: L R, LFE
Sampling rate : 48.0 kHz
Frame rate : 31.250 FPS (1536 spf)
Bit depth : 16 bits
Compression mode : Lossy
Stream size : 281 MiB (5%)
Title : iTunes
Language : Russian
Service kind : Complete Main
Default : Yes
Forced : No
Audio #2
ID : 3
Format : AC-3
Format/Info : Audio Coding 3
Format settings, Endianness : Big
Codec ID : A_AC3
Duration : 1 h 42 min
Bit rate mode : Constant
Bit rate : 640 kb/s
Channel(s) : 6 channels
Channel positions : Front: L C R, Side: L R, LFE
Sampling rate : 48.0 kHz
Frame rate : 31.250 FPS (1536 spf)
Bit depth : 16 bits
Compression mode : Lossy
Stream size : 468 MiB (9%)
Title : Original
Language : English
Service kind : Complete Main
Default : No
Forced : No
Text #1
ID : 4
Format : UTF-8
Codec ID : S_TEXT/UTF8
Codec ID/Info : UTF-8 Plain Text
Duration : 1 h 38 min
Bit rate : 0 b/s
Count of elements : 17
Stream size : 726 Bytes (0%)
Title : Forced
Language : Russian
Default : Yes
Forced : No
Text #2
ID : 5
Format : UTF-8
Codec ID : S_TEXT/UTF8
Codec ID/Info : UTF-8 Plain Text
Duration : 1 h 41 min
Bit rate : 48 b/s
Count of elements : 793
Stream size : 36.2 KiB (0%)
Title : Full
Language : Russian
Default : No
Forced : No
Text #3
ID : 6
Format : UTF-8
Codec ID : S_TEXT/UTF8
Codec ID/Info : UTF-8 Plain Text
Duration : 1 h 36 min
Bit rate : 30 b/s
Count of elements : 795
Stream size : 21.3 KiB (0%)
Title : Full
Language : English
Default : No
Forced : No
Text #4
ID : 7
Format : UTF-8
Codec ID : S_TEXT/UTF8
Codec ID/Info : UTF-8 Plain Text
Duration : 1 h 36 min
Bit rate : 50 b/s
Count of elements : 999
Stream size : 35.8 KiB (0%)
Title : SDH {Colored)
Language : English
Default : No
Forced : No
Menu
00:00:00.000 : en:00:00:00.000
00:08:42.731 : en:00:08:42.731
00:15:28.136 : en:00:15:28.136
00:20:39.989 : en:00:20:39.989
00:25:25.190 : en:00:25:25.190
00:32:55.182 : en:00:32:55.182
00:39:17.855 : en:00:39:17.855
00:48:53.722 : en:00:48:53.722
00:55:06.929 : en:00:55:06.929
01:00:24.371 : en:01:00:24.371
01:07:38.221 : en:01:07:38.221
01:18:21.113 : en:01:18:21.113
01:31:47.210 : en:01:31:47.210
01:36:37.500 : en:01:36:37.500

Трейлер

-     - - -

Dracula

Пост 25-Апр-2017 18:19

[Цитировать]

Топик был перенесен из форума Новинки (HD|DVD|BD|WEB|TV|SAT|PDTV|-Rip) в форум Новинки (BD|HDTV|DVD)


}{@R0N

Theseus

Пост 24-Апр-2017 23:15

[Цитировать]

Тетрадь смерти: Зажги новый мир / Death Note: Light Up the New World-
Год выпуска: 2016
Страна: Япония
Жанр: триллер, драма, криминал
Продолжительность: 02:16:24
Перевод: Любительский (многоголосый, закадровый) | Колобок
Режиссер: Синсуке Сато-В ролях: Масахиро Хигасидэ, Сосукэ Икэмацу, Масаки Суда, Эрика Тода, Рина Каваэи, Мина Фудзи, Тацуя Фудзивара, Мацуяма Кэнити, Ноэмиэ Накаи, Сергей Куваев-Описание: Спустя десять лет после известных трагических событий синдром Киры возвращается на планету. После длинной серии смертей на Уолл-стрит и в Сибуе спецслужбы начинают догадываться, что Тетрадь Смерти снова с нами. Агент Цукуру Мисима и его команда узнают, что тетрадей теперь шесть. И стоит за этим один конкретный человек, решивший возродить Лайта Ягами.- -Качество: WEBRip 720p
Формат: MKV
Видео кодек: x.264
Аудио кодек: AC3
Видео: AVC, 1280x536 (2.40:1), 23.976 fps, 3 740 Kbps (0.227 bit/pixel)
Аудио: AC-3, 48.0 KHz, 2 ch, 384 Kbps, CBR
Субтитры: Корейские (вшитые)
- -

Трейлер

-     - - -

Dracula

Пост 17-Апр-2017 22:38

[Цитировать]

Топик был перенесен из форума Новинки (HD|DVD|BD|WEB|TV|SAT|PDTV|-Rip) в форум Новинки (BD|HDTV|DVD)


}{@R0N

Theseus

Пост 17-Апр-2017 22:32

[Цитировать]

Логан / Logan- Год выпуска: 2017
Производство: США
Жанр: фантастика, боевик, триллер, драма
Продолжительность: 02:18:32
Перевод: Любительский (многоголосый, закадровый) | Синема УС
Режиссер: Джеймс Мэнголд
В ролях: Хью Джекман, Патрик Стюарт, Дафни Кин, Бойд Холбрук, Стивен Мерчант, Элизабет Родригес, Ричард Э. Грант, Эрик Ла Салль
Описание: В недалеком будущем уставший от жизни Логан заботится о больном профессоре Икс, который прячется неподалеку от мексиканской границы. Но Логан больше не сможет скрывать свое прошлое, когда встретится с юным мутантом, которого преследуют темные силы.

Качество: WEBRip 1080р
Формат: MKV
Видео кодек: x.264
Аудио кодек: AC3
Видео: 1920x1080 (16:9), 29.970 fps, MPEG-4 AVC ~4 933 kbps avg
Аудио: 48 kHz, AC3 Dolby Digital, 2/0 (L,R) ch, ~384 kbps
Субтитры: корейские (вшитые)

   - - -
 

Текущее время: Сегодня 19:44

Часовой пояс: GMT + 3