Сегодня идет свободное скачивание без начисления Download

Результатов поиска: 375

Автор Сообщение

Theseus

Пост 14-Авг-2018 22:48

[Цитировать]

Ночная смена -Год выхода: 2018
Страна: Россия
Жанр: Комедия
Продолжительность: 01:31:55
Перевод: Не требуется | iTunes
Субтитры: Отсутствуют-Режиссер: Марюс Вайсберг-В ролях: Владимир Яглыч, Павел Деревянко, Ксения Теплова, Наталья Бардо, Игорь Жижикин, Валентина Мазунина, Елена Валюшкина, Сергей Глушко, Эмин Агаларов, Наталья Бочкарёва-О фильме: Макс теряет работу на заводе и, чтобы прокормить семью, вынужден согласиться на неожиданное предложение бывшей одноклассницы — поработать стриптизером. Скрывая новую профессию от жены Ани, Макс попадает в массу удивительных и нелепых ситуаций и в итоге теряет доверие любимой женщины. Стремясь вернуть мир и гармонию в семью, он обращается за помощью к коллегам из стрип-клуба, что и вовсе приводит к веселому хаосу…- -Качество: WEB-DL 1080p
Формат: MKV
Видео кодек: x264
Аудио кодек: AC3
Видео: MPEG-4 AVC, 1920x1080, 5159 kbps, 25,000 fps
Аудио: 48 kHz, AC3, 6 ch, 384.00 kbps-

MI

General
Уникальный идентификатор : 234638439775510525735026063963244402867 (0xB085B84003E97D7584D743A952DB18B3)
Полное имя : NochnayaSmena1080p.mkv
Формат : Matroska
Версия формата : Version 4 / Version 2
Размер файла : 3.56 GiB
Продолжительность : 1 h 31 min
Общий поток : 5 545 kb/s
Дата кодирования : UTC 2018-08-03 07:50:46
Программа кодирования : mkvmerge v9.5.0 ('Quiet Fire') 64bit
Библиотека кодирования : libebml v1.3.4 + libmatroska v1.4.5
Video
Идентификатор : 1
Формат : AVC
Формат/Информация : Advanced Video Codec
Профиль формата : High@L4
Настройки формата : CABAC / 4 Ref Frames
Параметр CABAC формата : Yes
Параметр RefFrames формата : 4 frames
Идентификатор кодека : V_MPEG4/ISO/AVC
Продолжительность : 1 h 31 min
Битрейт : 5 159 kb/s
Ширина : 1 920 pixels
Высота : 1 080 pixels
Соотношение сторон : 16:9
Режим частоты кадров : Constant
Частота кадров : 25.000 FPS
Цветовое пространство : YUV
Субдискретизация насыщенности : 4:2:0
Битовая глубина : 8 bits
Тип развёртки : Progressive
Бит/(Пиксели*Кадры) : 0.100
Размер потока : 3.31 GiB (93%)
Язык : English
Default : Yes
Forced : No
Цветовой диапазон : Limited
Основные цвета : BT.709
Характеристики трансфера : BT.709
Коэффициенты матрицы : BT.709
Audio
Идентификатор : 2
Формат : AC-3
Формат/Информация : Audio Coding 3
Идентификатор кодека : A_AC3
Продолжительность : 1 h 31 min
Вид битрейта : Constant
Битрейт : 384 kb/s
Каналы : 6 channels
Расположение каналов : Front: L C R, Side: L R, LFE
Частота : 48.0 kHz
Частота кадров : 31.250 FPS (1536 SPF)
Битовая глубина : 16 bits
Метод сжатия : Lossy
Размер потока : 252 MiB (7%)
Язык : Russian
Default : Yes
Forced : No
Menu
00:00:00.000 : en:Глава 1
00:06:44.400 : en:Глава 2
00:14:25.360 : en:Глава 3
00:19:18.760 : en:Глава 4
00:25:01.200 : en:Глава 5
00:30:46.480 : en:Глава 6
00:36:09.960 : en:Глава 7
00:42:14.360 : en:Глава 8
00:47:15.200 : en:Глава 9
00:53:52.120 : en:Глава 10
00:59:51.200 : en:Глава 11
01:04:44.040 : en:Глава 12
01:10:35.760 : en:Глава 13
01:17:36.520 : en:Глава 14
01:22:50.840 : en:Глава 15

Трейлер

-     - -

Theseus

Пост 14-Авг-2018 16:50

[Цитировать]

План побега 2 / Escape Plan 2: Hades -Год выхода: 2018
Страна: Китай, США
Жанр: боевик, триллер
Продолжительность: 01:33:37
Перевод: Профессиональный (полное дублирование) [iTunes]
Субтитры: Английские-Режиссер: Стивен С. Миллер-В ролях: Дэйв Батиста, Байли Каррен, Сильвестр Сталлоне, Джейми Кинг, Уэс Чэтэм, Титус Уэлливер, Джесси Меткалф, 50 Cent, Винсент Янг, Лидия Халл-О фильме: Новая, самая современная тюрьма, из которой не сбежать. Ему снова брошен вызов! Он вернулся, чтобы выручить напарника и доказать, что для него нет невозможного. Добро пожаловать в АиД!- -Качество: BDRemux
Контейнер: MKV
Видео кодек: H.264
Аудио кодек: AC3, DTS-HD MA
Видео: MPEG-4 AVC, 1920x1080, 34.5 Mbit/s, 23.976 fps
Аудио #1: 48 kHz, AC3, 6 ch, 384 kbps | RUS
Аудио #2: 48 kHz, DTS-HD MA, 6 ch, 4108 kbps | ENG-

MI

General
Unique ID : 239923109044857827042439260636108743928 (0xB47F828FC0C85A1AA323049B615AE4F8)
Complete name : Escape.Plan.2.Hades.2018.BDREMUX.1080p.ExKinoRay.mkv
Format : Matroska
Format version : Version 4 / Version 2
File size : 25.5 GiB
Duration : 1 h 33 min
Overall bit rate mode : Variable
Overall bit rate : 38.9 Mb/s
Movie name : Escape Plan 2 Hades 2018 from ExKinoRay
Encoded date : UTC 2018-08-12 21:04:38
Writing application : mkvmerge v7.3.0 ('Nouages') 64bit built on Oct 22 2014 18:53:34
Writing library : libebml v1.3.0 + libmatroska v1.4.1
Video
ID : 1
Format : AVC
Format/Info : Advanced Video Codec
Format profile : High@L4.1
Format settings : CABAC / 4 Ref Frames
Format settings, CABAC : Yes
Format settings, ReFrames : 4 frames
Format settings, GOP : M=1, N=12
Codec ID : V_MPEG4/ISO/AVC
Duration : 1 h 33 min
Bit rate mode : Variable
Bit rate : 34.5 Mb/s
Maximum bit rate : 37.0 Mb/s
Width : 1 920 pixels
Height : 1 080 pixels
Display aspect ratio : 16:9
Frame rate mode : Constant
Frame rate : 23.976 (24000/1001) FPS
Color space : YUV
Chroma subsampling : 4:2:0
Bit depth : 8 bits
Scan type : Progressive
Bits/(Pixel*Frame) : 0.693
Stream size : 22.5 GiB (88%)
Language : English
Default : Yes
Forced : No
Audio #1
ID : 2
Format : AC-3
Format/Info : Audio Coding 3
Commercial name : Dolby Digital
Codec ID : A_AC3
Duration : 1 h 33 min
Bit rate mode : Constant
Bit rate : 384 kb/s
Channel(s) : 6 channels
Channel positions : Front: L C R, Side: L R, LFE
Sampling rate : 48.0 kHz
Frame rate : 31.250 FPS (1536 SPF)
Bit depth : 16 bits
Compression mode : Lossy
Stream size : 257 MiB (1%)
Title : iTunes
Language : Russian
Service kind : Complete Main
Default : Yes
Forced : Yes
Audio #2
ID : 3
Format : DTS
Format/Info : Digital Theater Systems
Format profile : MA / Core
Codec ID : A_DTS
Duration : 1 h 33 min
Bit rate mode : Variable / Constant
Bit rate : 4 108 kb/s / 1 509 kb/s
Channel(s) : 6 channels
Channel positions : Front: L C R, Side: L R, LFE
Sampling rate : 48.0 kHz
Frame rate : 93.750 FPS (512 SPF)
Bit depth : 24 bits
Compression mode : Lossless / Lossy
Stream size : 2.69 GiB (11%)
Title : Original
Language : English
Default : No
Forced : No
Text #1
ID : 4
Format : UTF-8
Codec ID : S_TEXT/UTF8
Codec ID/Info : UTF-8 Plain Text
Duration : 1 h 24 min
Bit rate : 44 b/s
Count of elements : 846
Stream size : 27.4 KiB (0%)
Title : Full
Language : English
Default : No
Forced : No
Text #2
ID : 5
Format : UTF-8
Codec ID : S_TEXT/UTF8
Codec ID/Info : UTF-8 Plain Text
Duration : 1 h 24 min
Bit rate : 47 b/s
Count of elements : 939
Stream size : 29.7 KiB (0%)
Title : SDH
Language : English
Default : No
Forced : No
Menu
00:00:00.000 : en:00:00:00.000
00:05:48.890 : en:00:05:48.890
00:12:17.445 : en:00:12:17.445
00:16:28.988 : en:00:16:28.988
00:22:49.368 : en:00:22:49.368
00:27:16.134 : en:00:27:16.134
00:34:32.654 : en:00:34:32.654
00:40:00.398 : en:00:40:00.398
00:46:51.600 : en:00:46:51.600
00:51:58.949 : en:00:51:58.949
00:58:57.242 : en:00:58:57.242
01:04:10.013 : en:01:04:10.013
01:09:56.400 : en:01:09:56.400
01:14:52.738 : en:01:14:52.738
01:20:44.214 : en:01:20:44.214
01:25:59.571 : en:01:25:59.571

Трейлер

-     - -

Theseus

Пост 14-Авг-2018 16:45

[Цитировать]

План побега 2 / Escape Plan 2: Hades -Год выхода: 2018
Страна: Китай, США
Жанр: боевик, триллер
Продолжительность: 01:33:37
Перевод: Профессиональный (полное дублирование) [iTunes]
Субтитры: Английские-Режиссер: Стивен С. Миллер-В ролях: Дэйв Батиста, Байли Каррен, Сильвестр Сталлоне, Джейми Кинг, Уэс Чэтэм, Титус Уэлливер, Джесси Меткалф, 50 Cent, Винсент Янг, Лидия Халл-О фильме: Новая, самая современная тюрьма, из которой не сбежать. Ему снова брошен вызов! Он вернулся, чтобы выручить напарника и доказать, что для него нет невозможного. Добро пожаловать в АиД!- -Качество: BDRip 1080p
Формат: MKV
Видео кодек: x.264
Аудио кодек: AC3
Видео: MPEG-4 AVC, 1920x804, 12 Mbit/s, 23.976 fps
Аудио #1: 48 kHz, AC3, 6 ch, 384 kbps | RUS
Аудио #2: 48 kHz, AC3, 6 ch, 640 kbps | ENG-

MI

General
Unique ID : 192144840151122615264475011673253371581 (0x908DC0089005310AA784EBA5A3EE5EBD)
Complete name : Escape.Plan.2.Hades.2018.BDRip.1080p.ExKinoRay.mkv
Format : Matroska
Format version : Version 4 / Version 2
File size : 8.51 GiB
Duration : 1 h 33 min
Overall bit rate : 13.0 Mb/s
Movie name : Escape Plan 2 Hades 2018 from ExKinoRay
Encoded date : UTC 2018-08-12 20:55:22
Writing application : mkvmerge v7.3.0 ('Nouages') 64bit built on Oct 22 2014 18:53:34
Writing library : libebml v1.3.0 + libmatroska v1.4.1
Video
ID : 1
Format : AVC
Format/Info : Advanced Video Codec
Format profile : High@L4.1
Format settings : CABAC / 5 Ref Frames
Format settings, CABAC : Yes
Format settings, ReFrames : 5 frames
Codec ID : V_MPEG4/ISO/AVC
Duration : 1 h 33 min
Bit rate : 12.0 Mb/s
Width : 1 920 pixels
Height : 804 pixels
Display aspect ratio : 2.40:1
Frame rate mode : Constant
Frame rate : 23.976 (24000/1001) FPS
Color space : YUV
Chroma subsampling : 4:2:0
Bit depth : 8 bits
Scan type : Progressive
Bits/(Pixel*Frame) : 0.324
Stream size : 7.84 GiB (92%)
Writing library : x264 core 148 r2705 3f5ed56
Encoding settings : cabac=1 / ref=5 / deblock=1:-2:-2 / analyse=0x3:0x133 / me=umh / subme=11 / psy=1 / psy_rd=1.20:0.20 / mixed_ref=1 / me_range=32 / chroma_me=1 / trellis=2 / 8x8dct=1 / cqm=0 / deadzone=21,11 / fast_pskip=0 / chroma_qp_offset=-3 / threads=12 / lookahead_threads=2 / sliced_threads=0 / nr=0 / decimate=0 / interlaced=0 / bluray_compat=0 / constrained_intra=0 / bframes=8 / b_pyramid=2 / b_adapt=2 / b_bias=0 / direct=3 / weightb=1 / open_gop=0 / weightp=2 / keyint=240 / keyint_min=23 / scenecut=40 / intra_refresh=0 / rc_lookahead=50 / rc=2pass / mbtree=0 / bitrate=12000 / ratetol=1.0 / qcomp=0.60 / qpmin=0 / qpmax=51 / qpstep=4 / cplxblur=20.0 / qblur=0.5 / vbv_maxrate=50000 / vbv_bufsize=62500 / nal_hrd=none / filler=0 / ip_ratio=1.40 / pb_ratio=1.30 / aq=3:0.80
Language : English
Default : Yes
Forced : No
Audio #1
ID : 2
Format : AC-3
Format/Info : Audio Coding 3
Commercial name : Dolby Digital
Codec ID : A_AC3
Duration : 1 h 33 min
Bit rate mode : Constant
Bit rate : 384 kb/s
Channel(s) : 6 channels
Channel positions : Front: L C R, Side: L R, LFE
Sampling rate : 48.0 kHz
Frame rate : 31.250 FPS (1536 SPF)
Bit depth : 16 bits
Compression mode : Lossy
Stream size : 257 MiB (3%)
Title : iTunes
Language : Russian
Service kind : Complete Main
Default : Yes
Forced : Yes
Audio #2
ID : 3
Format : AC-3
Format/Info : Audio Coding 3
Commercial name : Dolby Digital
Codec ID : A_AC3
Duration : 1 h 33 min
Bit rate mode : Constant
Bit rate : 640 kb/s
Channel(s) : 6 channels
Channel positions : Front: L C R, Side: L R, LFE
Sampling rate : 48.0 kHz
Frame rate : 31.250 FPS (1536 SPF)
Bit depth : 16 bits
Compression mode : Lossy
Stream size : 429 MiB (5%)
Title : Original
Language : English
Service kind : Complete Main
Default : No
Forced : No
Text #1
ID : 4
Format : UTF-8
Codec ID : S_TEXT/UTF8
Codec ID/Info : UTF-8 Plain Text
Duration : 1 h 24 min
Bit rate : 44 b/s
Count of elements : 846
Stream size : 27.4 KiB (0%)
Title : Full
Language : English
Default : No
Forced : No
Text #2
ID : 5
Format : UTF-8
Codec ID : S_TEXT/UTF8
Codec ID/Info : UTF-8 Plain Text
Duration : 1 h 24 min
Bit rate : 47 b/s
Count of elements : 939
Stream size : 29.7 KiB (0%)
Title : SDH
Language : English
Default : No
Forced : No
Menu
00:00:00.000 : en:00:00:00.000
00:05:48.890 : en:00:05:48.890
00:12:17.445 : en:00:12:17.445
00:16:28.988 : en:00:16:28.988
00:22:49.368 : en:00:22:49.368
00:27:16.134 : en:00:27:16.134
00:34:32.654 : en:00:34:32.654
00:40:00.398 : en:00:40:00.398
00:46:51.600 : en:00:46:51.600
00:51:58.949 : en:00:51:58.949
00:58:57.242 : en:00:58:57.242
01:04:10.013 : en:01:04:10.013
01:09:56.400 : en:01:09:56.400
01:14:52.738 : en:01:14:52.738
01:20:44.214 : en:01:20:44.214
01:25:59.571 : en:01:25:59.571

Трейлер

-     - -

Theseus

Пост 14-Авг-2018 16:35

[Цитировать]

План побега 2 / Escape Plan 2: Hades -Год выхода: 2018
Страна: Китай, США
Жанр: боевик, триллер
Продолжительность: 01:33:37
Перевод: Профессиональный (полное дублирование) [iTunes]
Субтитры: Английские-Режиссер: Стивен С. Миллер-В ролях: Дэйв Батиста, Байли Каррен, Сильвестр Сталлоне, Джейми Кинг, Уэс Чэтэм, Титус Уэлливер, Джесси Меткалф, 50 Cent, Винсент Янг, Лидия Халл-О фильме: Новая, самая современная тюрьма, из которой не сбежать. Ему снова брошен вызов! Он вернулся, чтобы выручить напарника и доказать, что для него нет невозможного. Добро пожаловать в АиД!- -Качество: BDRip 720p
Формат: MKV
Видео кодек: x.264
Аудио кодек: AC3
Видео: MPEG-4 AVC, 1280x536, 4834 Kbit/s, 23.976 fps
Аудио #1: 48 kHz, AC3, 6 ch, 384 kbps | RUS
Аудио #2: 48 kHz, AC3, 6 ch, 640 kbps | ENG-

MI

General
Unique ID : 224490403007842009229326421907836547476 (0xA8E347687BAECCB295D9B7CD1994B194)
Complete name : Escape.Plan.2.Hades.2018.D.BDRip.720p.ExKinoRay.mkv
Format : Matroska
Format version : Version 4 / Version 2
File size : 3.83 GiB
Duration : 1 h 33 min
Overall bit rate : 5 860 kb/s
Movie name : Escape Plan 2 Hades 2018 from ExKinoRay
Encoded date : UTC 2018-08-12 21:17:30
Writing application : mkvmerge v7.3.0 ('Nouages') 64bit built on Oct 22 2014 18:53:34
Writing library : libebml v1.3.0 + libmatroska v1.4.1
Video
ID : 1
Format : AVC
Format/Info : Advanced Video Codec
Format profile : High@L4.1
Format settings : CABAC / 12 Ref Frames
Format settings, CABAC : Yes
Format settings, ReFrames : 12 frames
Codec ID : V_MPEG4/ISO/AVC
Duration : 1 h 33 min
Bit rate : 4 834 kb/s
Width : 1 280 pixels
Height : 536 pixels
Display aspect ratio : 2.40:1
Frame rate mode : Constant
Frame rate : 23.976 (24000/1001) FPS
Color space : YUV
Chroma subsampling : 4:2:0
Bit depth : 8 bits
Scan type : Progressive
Bits/(Pixel*Frame) : 0.294
Stream size : 3.16 GiB (82%)
Writing library : x264 core 142 r2431+42 c69a006 tMod [8-bit@4:2:0 X86_64]
Encoding settings : cabac=1 / ref=12 / deblock=1:-3:-3 / analyse=0x3:0x113 / me=umh / subme=10 / psy=1 / fade_compensate=0.00 / psy_rd=1.00:0.05 / mixed_ref=1 / me_range=32 / chroma_me=1 / trellis=2 / 8x8dct=1 / cqm=0 / deadzone=21,11 / fast_pskip=0 / chroma_qp_offset=-2 / threads=48 / lookahead_threads=4 / sliced_threads=0 / nr=0 / decimate=1 / interlaced=0 / bluray_compat=0 / constrained_intra=0 / fgo=0 / bframes=8 / b_pyramid=2 / b_adapt=2 / b_bias=0 / direct=3 / weightb=1 / open_gop=0 / weightp=2 / keyint=250 / keyint_min=23 / scenecut=40 / intra_refresh=0 / rc=crf / mbtree=0 / crf=18.0000 / qcomp=0.60 / qpmin=0:0:0 / qpmax=69:69:69 / qpstep=4 / ip_ratio=1.40 / pb_ratio=1.30 / aq=3:0.80 / aq-sensitivity=10.00 / aq-factor=1.00:1.00:1.00 / aq2=0 / aq3=0
Language : English
Default : Yes
Forced : No
Color range : Limited
Matrix coefficients : BT.709
Audio #1
ID : 2
Format : AC-3
Format/Info : Audio Coding 3
Commercial name : Dolby Digital
Codec ID : A_AC3
Duration : 1 h 33 min
Bit rate mode : Constant
Bit rate : 384 kb/s
Channel(s) : 6 channels
Channel positions : Front: L C R, Side: L R, LFE
Sampling rate : 48.0 kHz
Frame rate : 31.250 FPS (1536 SPF)
Bit depth : 16 bits
Compression mode : Lossy
Stream size : 257 MiB (7%)
Title : iTunes
Language : Russian
Service kind : Complete Main
Default : Yes
Forced : Yes
Audio #2
ID : 3
Format : AC-3
Format/Info : Audio Coding 3
Commercial name : Dolby Digital
Codec ID : A_AC3
Duration : 1 h 33 min
Bit rate mode : Constant
Bit rate : 640 kb/s
Channel(s) : 6 channels
Channel positions : Front: L C R, Side: L R, LFE
Sampling rate : 48.0 kHz
Frame rate : 31.250 FPS (1536 SPF)
Bit depth : 16 bits
Compression mode : Lossy
Stream size : 429 MiB (11%)
Title : Original
Language : English
Service kind : Complete Main
Default : No
Forced : No
Text #1
ID : 4
Format : UTF-8
Codec ID : S_TEXT/UTF8
Codec ID/Info : UTF-8 Plain Text
Duration : 1 h 24 min
Bit rate : 44 b/s
Count of elements : 846
Stream size : 27.4 KiB (0%)
Title : Full
Language : English
Default : No
Forced : No
Text #2
ID : 5
Format : UTF-8
Codec ID : S_TEXT/UTF8
Codec ID/Info : UTF-8 Plain Text
Duration : 1 h 24 min
Bit rate : 47 b/s
Count of elements : 939
Stream size : 29.7 KiB (0%)
Title : SDH
Language : English
Default : No
Forced : No
Menu
00:00:00.000 : en:00:00:00.000
00:05:48.890 : en:00:05:48.890
00:12:17.445 : en:00:12:17.445
00:16:28.988 : en:00:16:28.988
00:22:49.368 : en:00:22:49.368
00:27:16.134 : en:00:27:16.134
00:34:32.654 : en:00:34:32.654
00:40:00.398 : en:00:40:00.398
00:46:51.600 : en:00:46:51.600
00:51:58.949 : en:00:51:58.949
00:58:57.242 : en:00:58:57.242
01:04:10.013 : en:01:04:10.013
01:09:56.400 : en:01:09:56.400
01:14:52.738 : en:01:14:52.738
01:20:44.214 : en:01:20:44.214
01:25:59.571 : en:01:25:59.571

Трейлер

-     - -

Theseus

Пост 14-Авг-2018 13:37

[Цитировать]

Русалка. Озеро мертвых -Год выхода: 2018
Страна: Россия
Жанр: Фэнтези, ужасы
Продолжительность: 01:23:19
Перевод: Не требуется | iTunes
Субтитры: Отсутствуют-Режиссер: Святослав Подгаевский-В ролях: Виктория Агалакова, Ефим Петрунин, Никита Еленев, Сесиль Плеже, Игорь Хрипунов, Софья Шидловская, Дарья Ярцева, Дмитрий Ярцев, Алла Артамонова, Эмиль Салес-О фильме: Встреча со странной девушкой на затерянном лесном озере и её поцелуй резко меняют жизнь Ромы. Об этой встрече он очень скоро пожалеет: неизвестный недуг высасывает из него все жизненные силы. Марина готова на всё, чтобы освободить жениха от мистического морока. Что окажется сильнее: проклятье прошлого или настоящая любовь?- -Качество: WEB-DL 1080p
Формат: MKV
Видео кодек: x.264
Аудио кодек: AC3
Видео: AVC, 1920x804 (2.40:1), 25.000 fps, 4 505 Kbps
Аудио: AC-3, 48.0 KHz, 6 ch, 384 Kbps-

MI

Код:
Общее
Уникальный идентификатор                 : 208302774393866202333808905651684825556 (0x9CB5A7B2B1BD5F8F9962A39E3ACED9D4)
Полное имя                               : RUSALKA_OZERO_MERTVYH_2018.WED-DL_1080p.mkv
Формат                                   : Matroska
Версия формата                           : Version 2
Размер файла                             : 2,85 Гбайт
Продолжительность                        : 1 ч. 23 м.
Общий поток                              : 4891 Кбит/сек
Дата кодирования                         : UTC 2018-08-13 18:16:22
Программа кодирования                    : mkvmerge v8.3.0 ('Over the Horizon') 64bit
Библиотека кодирования                   : libebml v1.3.1 + libmatroska v1.4.2
Видео
Идентификатор                            : 1
Формат                                   : AVC
Формат/Информация                        : Advanced Video Codec
Профиль формата                          : High@L4
Настройки формата                        : CABAC / 5 Ref Frames
Параметр CABAC формата                   : Да
Параметр RefFrames формата               : 5 кадров
Идентификатор кодека                     : V_MPEG4/ISO/AVC
Продолжительность                        : 1 ч. 23 м.
Битрейт                                  : 4505 Кбит/сек
Ширина                                   : 1920 пикселей
Высота                                   : 804 пикселя
Соотношение сторон                       : 2,40:1
Режим частоты кадров                     : Постоянный
Частота кадров                           : 25,000 кадров/сек
Цветовое пространство                    : YUV
Субдискретизация насыщенности            : 4:2:0
Битовая глубина                          : 8 бит
Тип развёртки                            : Прогрессивная
Бит/(Пиксели*Кадры)                      : 0.117
Размер потока                            : 2,62 Гбайт (92%)
Язык                                     : English
Default                                  : Да
Forced                                   : Нет
Цветовой диапазон                        : Limited
Основные цвета                           : BT.709
Характеристики трансфера                 : BT.709
Коэффициенты матрицы                     : BT.709
Аудио
Идентификатор                            : 2
Формат                                   : AC-3
Формат/Информация                        : Audio Coding 3
Идентификатор кодека                     : A_AC3
Продолжительность                        : 1 ч. 23 м.
Вид битрейта                             : Постоянный
Битрейт                                  : 384 Кбит/сек
Каналы                                   : 6 каналов
Расположение каналов                     : Front: L C R, Side: L R, LFE
Частота                                  : 48,0 КГц
Частота кадров                           : 31,250 кадров/сек (1536 SPF)
Битовая глубина                          : 16 бит
Метод сжатия                             : С потерями
Размер потока                            : 229 Мбайт (8%)
Язык                                     : Russian
ServiceKind/String                       : Complete Main
Default                                  : Да
Forced                                   : Нет
Меню
00:00:00.000                             : en:Глава 1
00:08:19.640                             : en:Глава 2
00:14:49.040                             : en:Глава 3
00:20:20.840                             : en:Глава 4
00:24:52.200                             : en:Глава 5
00:29:50.320                             : en:Глава 6
00:36:30.480                             : en:Глава 7
00:42:06.520                             : en:Глава 8
00:46:17.120                             : en:Глава 9
00:51:53.480                             : en:Глава 10
00:57:56.920                             : en:Глава 11
01:04:05.040                             : en:Глава 12
01:08:12.360                             : en:Глава 13
01:14:08.120                             : en:Глава 14

Трейлер

-     - -

Theseus

Пост 08-Авг-2018 11:52

[Цитировать]

Дэдпул 2 / Deadpool 2 -Год выхода: 2018
Страна: США
Жанр: фантастика, боевик, комедия, приключения
Продолжительность: 01:59:21
Перевод: Профессиональный (полное дублирование) | Звук с TS
Субтитры: Русские (полные), английские (SDH)-Режиссер: Дэвид Литч-В ролях: Джош Бролин, Райан Рейнольдс, Морена Баккарин, Зази Битц, Брианна Хилдебранд, Брэд Питт, Билл Скарсгард, ТиДжей Миллер, Терри Крюс, Роб Делани-О фильме: Единственный и неповторимый болтливый наемник — вернулся! Ещё более масштабный, ещё более разрушительный и даже ещё более голозадый, чем прежде! Когда в его жизнь врывается суперсолдат с убийственной миссией, Дэдпул вынужден задуматься о дружбе, семье и о том, что на самом деле значит быть героем, попутно надирая 50 оттенков задниц. Потому что иногда чтобы делать хорошие вещи, нужно использовать грязные приёмчики..- -Качество: WEB-DL 1080p (AMAZON Version)
Формат: MKV
Видео кодек: x.264
Аудио кодек: AC3
Видео: MPEG-4 AVC, 1920x1080, 23.976 fps, 10 Mbps
Аудио 1: AC-3, 48.0 KHz, 2 ch, 192 Kbps, CBR | RUS (DUB / TS)
Аудио 2: AC-3, 48.0 KHz, 2 ch, 192 Kbps, CBR | UKR (DUB / Line)
Аудио 3: E-AC-3, 48.0 KHz, 6 ch, 256 Kbps, CBR-Сэмпл-Рекламы нет !-

Media Info

General
Unique ID : 151343767349668299977286148782831739033 (0x71DBBFD4F9ED88BD20FE014E471CA099)
Complete name : Deadpool.2.2018.rus.ukr.AMZN.WEB-DL.1080p.mkv
Format : Matroska
Format version : Version 4 / Version 2
File size : 8.78 GiB
Duration : 1 h 59 min
Overall bit rate : 10.5 Mb/s
Encoded date : UTC 2018-08-07 20:37:25
Writing application : mkvmerge v23.0.0 ('The Bride Said No') 64-bit
Writing library : libebml v1.3.6 + libmatroska v1.4.9
Video
ID : 1
Format : AVC
Format/Info : Advanced Video Codec
Format profile : High@L4
Format settings : CABAC / 4 Ref Frames
Format settings, CABAC : Yes
Format settings, ReFrames : 4 frames
Codec ID : V_MPEG4/ISO/AVC
Duration : 1 h 59 min
Bit rate mode : Constant
Bit rate : 10 000 kb/s
Width : 1 920 pixels
Height : 1 080 pixels
Display aspect ratio : 16:9
Frame rate mode : Constant
Frame rate : 23.976 (24000/1001) FPS
Color space : YUV
Chroma subsampling : 4:2:0
Bit depth : 8 bits
Scan type : Progressive
Bits/(Pixel*Frame) : 0.201
Stream size : 8.24 GiB (94%)
Language : English
Default : Yes
Forced : No
Color range : Limited
Color primaries : BT.709
Transfer characteristics : BT.709
Matrix coefficients : BT.709
Audio #1
ID : 2
Format : AC-3
Format/Info : Audio Coding 3
Commercial name : Dolby Digital
Codec ID : A_AC3
Duration : 1 h 58 min
Bit rate mode : Constant
Bit rate : 192 kb/s
Channel(s) : 2 channels
Channel positions : Front: L R
Sampling rate : 48.0 kHz
Frame rate : 31.250 FPS (1536 SPF)
Bit depth : 16 bits
Compression mode : Lossy
Stream size : 163 MiB (2%)
Language : Russian
Service kind : Complete Main
Default : Yes
Forced : Yes
Audio #2
ID : 3
Format : AC-3
Format/Info : Audio Coding 3
Commercial name : Dolby Digital
Codec ID : A_AC3
Duration : 1 h 58 min
Bit rate mode : Constant
Bit rate : 192 kb/s
Channel(s) : 2 channels
Channel positions : Front: L R
Sampling rate : 48.0 kHz
Frame rate : 31.250 FPS (1536 SPF)
Bit depth : 16 bits
Compression mode : Lossy
Stream size : 163 MiB (2%)
Language : Ukrainian
Service kind : Complete Main
Default : No
Forced : No
Audio #3
ID : 4
Format : E-AC-3
Format/Info : Enhanced AC-3
Commercial name : Dolby Digital Plus
Codec ID : A_EAC3
Duration : 1 h 59 min
Bit rate mode : Constant
Bit rate : 256 kb/s
Channel(s) : 6 channels
Channel positions : Front: L C R, Side: L R, LFE
Sampling rate : 48.0 kHz
Frame rate : 31.250 FPS (1536 SPF)
Compression mode : Lossy
Stream size : 219 MiB (2%)
Language : English
Service kind : Complete Main
Default : No
Forced : No
Text #1
ID : 5
Format : UTF-8
Codec ID : S_TEXT/UTF8
Codec ID/Info : UTF-8 Plain Text
Duration : 1 h 51 min
Bit rate : 109 b/s
Count of elements : 1933
Stream size : 89.4 KiB (0%)
Language : Russian
Default : No
Forced : No
Text #2
ID : 6
Format : UTF-8
Codec ID : S_TEXT/UTF8
Codec ID/Info : UTF-8 Plain Text
Duration : 1 h 58 min
Bit rate : 68 b/s
Count of elements : 2153
Stream size : 59.3 KiB (0%)
Title : SDH
Language : English
Default : No
Forced : No
Menu
00:00:00.000 : en:Scene 1
00:02:35.000 : en:Scene 2
00:05:57.000 : en:Scene 3
00:08:15.000 : en:Scene 4
00:11:34.000 : en:Scene 5
00:14:56.000 : en:Scene 6
00:16:23.000 : en:Scene 7
00:20:28.000 : en:Scene 8
00:22:04.000 : en:Scene 9
00:26:38.000 : en:Scene 10
00:31:43.000 : en:Scene 11
00:35:20.000 : en:Scene 12
00:39:03.000 : en:Scene 13
00:41:53.000 : en:Scene 14
00:46:17.000 : en:Scene 15
00:50:33.000 : en:Scene 16
00:54:01.000 : en:Scene 17
00:56:31.000 : en:Scene 18
00:58:29.000 : en:Scene 19
01:00:29.000 : en:Scene 20
01:03:58.000 : en:Scene 21
01:07:56.000 : en:Scene 22
01:09:38.000 : en:Scene 23
01:13:31.000 : en:Scene 24
01:17:48.000 : en:Scene 25
01:20:59.000 : en:Scene 26
01:24:09.000 : en:Scene 27
01:26:26.000 : en:Scene 28
01:29:32.000 : en:Scene 29
01:31:44.000 : en:Scene 30
01:33:29.000 : en:Scene 31
01:35:26.000 : en:Scene 32
01:38:58.000 : en:Scene 33
01:42:19.000 : en:Scene 34
01:45:21.000 : en:Scene 35
01:49:34.000 : en:Scene 36

Трейлер

-     - -

Theseus

Пост 08-Авг-2018 11:52

[Цитировать]

Дэдпул 2 / Deadpool 2 -Год выхода: 2018
Страна: США
Жанр: фантастика, боевик, комедия, приключения
Продолжительность: 01:59:29
Перевод: Профессиональный (полное дублирование) | Звук с TS
Субтитры: Русские-Режиссер: Дэвид Литч-В ролях: Джош Бролин, Райан Рейнольдс, Морена Баккарин, Зази Битц, Брианна Хилдебранд, Брэд Питт, Билл Скарсгард, ТиДжей Миллер, Терри Крюс, Роб Делани-О фильме: Единственный и неповторимый болтливый наемник — вернулся! Ещё более масштабный, ещё более разрушительный и даже ещё более голозадый, чем прежде! Когда в его жизнь врывается суперсолдат с убийственной миссией, Дэдпул вынужден задуматься о дружбе, семье и о том, что на самом деле значит быть героем, попутно надирая 50 оттенков задниц. Потому что иногда чтобы делать хорошие вещи, нужно использовать грязные приёмчики..- -Качество: WEB-DL 1080p
Формат: MKV
Видео кодек: x.264
Аудио кодек: AC3
Видео: MPEG-4 AVC, 1920x804, 23.976 fps, 4408 Kbps
Аудио 1: AC-3, 48.0 KHz, 2 ch, 192 Kbps, CBR | RUS
Аудио 2: E-AC-3, 48.0 KHz, 6 ch, 384 Kbps, CBR | ENG-Рекламы нет !-

Media Info

Формат : Matroska
Версия формата : Version 2
Размер файла : 4,24 Гбайт
Продолжительность : 1 ч. 59 м.
Общий поток : 5085 Кбит/сек
Название фильма : Deadpool.2.2018.1080p.WEB-DL.by.zzZGVvv
Дата кодирования : UTC 2018-08-07 09:13:09
Программа кодирования : mkvmerge v5.8.0 ('No Sleep / Pillow') built on Sep 2 2012 15:37:04
Библиотека кодирования : libebml v1.2.3 + libmatroska v1.3.0
Attachements : cover.jpg
Видео
Идентификатор : 1
Формат : AVC
Формат/Информация : Advanced Video Codec
Профиль формата : High@L4
Параметр CABAC формата : Да
Параметр ReFrames формата : 5 кадров
Идентификатор кодека : V_MPEG4/ISO/AVC
Продолжительность : 1 ч. 59 м.
Битрейт : 4408 Кбит/сек
Ширина : 1920 пикселей
Высота : 804 пикселя
Соотношение сторон : 2,40:1
Режим частоты кадров : Постоянный
Частота кадров : 23,976 кадра/сек
Цветовое пространство : YUV
Субдискретизация насыщенности : 4:2:0
Битовая глубина : 8 бит
Тип развёртки : Прогрессивная
Бит/(Пиксели*Кадры) : 0.119
Размер потока : 3,68 Гбайт (87%)
Заголовок : Deadpool.2.2018.1080p.WEB-DL
Язык : English
Default : Да
Forced : Нет
Цветовой диапазон : Limited
Основные цвета : BT.709
Характеристики трансфера : BT.709
Коэффициенты матрицы : BT.709
Аудио #1
Идентификатор : 2
Формат : AC-3
Формат/Информация : Audio Coding 3
Расширение режима : CM (complete main)
Параметр Endianness формата : Big
Идентификатор кодека : A_AC3
Продолжительность : 1 ч. 59 м.
Вид битрейта : Постоянный
Битрейт : 192 Кбит/сек
Каналы : 2 канала
Расположение каналов : Front: L R
Частота : 48,0 КГц
Метод сжатия : С потерями
Размер потока : 164 Мбайт (4%)
Заголовок : Dub
Язык : Russian
Default : Да
Forced : Нет
Аудио #2
Идентификатор : 3
Формат : AC-3
Формат/Информация : Audio Coding 3
Расширение режима : CM (complete main)
Параметр Endianness формата : Big
Идентификатор кодека : A_AC3
Продолжительность : 1 ч. 59 м.
Вид битрейта : Постоянный
Битрейт : 384 Кбит/сек
Каналы : 6 каналов
Расположение каналов : Front: L C R, Side: L R, LFE
Частота : 48,0 КГц
Метод сжатия : С потерями
Размер потока : 328 Мбайт (8%)
Язык : English
Default : Нет
Forced : Нет
Текст
Идентификатор : 4
Формат : UTF-8
Идентификатор кодека : S_TEXT/UTF8
Идентификатор кодека/Информация : UTF-8 Plain Text
Язык : Russian
Default : Да
Forced : Нет
Меню
00:00:00.000 : en:Chapter 01
00:02:30.700 : en:Chapter 02
00:05:52.443 : en:Chapter 03
00:08:10.664 : en:Chapter 04
00:11:29.571 : en:Chapter 05
00:14:51.105 : en:Chapter 06
00:16:19.985 : en:Chapter 07
00:20:23.520 : en:Chapter 08
00:21:59.532 : en:Chapter 09
00:26:33.472 : en:Chapter 10
00:31:39.778 : en:Chapter 11
00:35:15.952 : en:Chapter 12
00:38:59.383 : en:Chapter 13
00:41:48.927 : en:Chapter 14
00:46:15.234 : en:Chapter 15
00:50:29.029 : en:Chapter 16
00:53:55.068 : en:Chapter 17
00:56:26.427 : en:Chapter 18
00:58:24.711 : en:Chapter 19
01:00:25.039 : en:Chapter 20
01:03:58.293 : en:Chapter 21
01:07:56.489 : en:Chapter 22
01:09:37.464 : en:Chapter 23
01:13:26.818 : en:Chapter 24
01:17:48.120 : en:Chapter 25
01:20:55.015 : en:Chapter 26
01:24:04.913 : en:Chapter 27
01:26:20.340 : en:Chapter 28
01:29:27.902 : en:Chapter 29
01:31:40.284 : en:Chapter 30
01:33:25.347 : en:Chapter 31
01:35:28.303 : en:Chapter 32
01:38:53.549 : en:Chapter 33
01:42:15.167 : en:Chapter 34
01:45:18.016 : en:Chapter 35
01:48:59.570 : en:Chapter 36

Трейлер

-    - -

Theseus

Пост 08-Авг-2018 11:51

[Цитировать]

Дэдпул 2 / Deadpool 2 -Год выхода: 2018
Страна: США
Жанр: фантастика, боевик, комедия, приключения
Продолжительность: 01:59:21
Перевод: Профессиональный (полное дублирование) | Звук с TS
Субтитры: Русские (полные), английские (SDH)-Режиссер: Дэвид Литч-В ролях: Джош Бролин, Райан Рейнольдс, Морена Баккарин, Зази Битц, Брианна Хилдебранд, Брэд Питт, Билл Скарсгард, ТиДжей Миллер, Терри Крюс, Роб Делани-О фильме: Единственный и неповторимый болтливый наемник — вернулся! Ещё более масштабный, ещё более разрушительный и даже ещё более голозадый, чем прежде! Когда в его жизнь врывается суперсолдат с убийственной миссией, Дэдпул вынужден задуматься о дружбе, семье и о том, что на самом деле значит быть героем, попутно надирая 50 оттенков задниц. Потому что иногда чтобы делать хорошие вещи, нужно использовать грязные приёмчики..- -Качество: WEB-DL 720p (AMAZON Version)
Формат: MKV
Видео кодек: x.264
Аудио кодек: AC3
Видео: MPEG-4 AVC, 1280x720, 23.976 fps, 6000 Kbps
Аудио 1: AC-3, 48.0 KHz, 2 ch, 192 Kbps, CBR | RUS
Аудио 2: E-AC-3, 48.0 KHz, 6 ch, 256 Kbps, CBR | ENG-Рекламы нет !-

Media Info

General
Unique ID : 231904109497984165596586528900487158532 (0xAE771B5BE38AF2015CC616D61DF99B04)
Complete name : Deadpool.2.2018.AMZN.WEB-DL.720p.mkv
Format : Matroska
Format version : Version 4 / Version 2
File size : 5.31 GiB
Duration : 1 h 59 min
Overall bit rate : 6 370 kb/s
Encoded date : UTC 2018-08-07 18:02:18
Writing application : mkvmerge v23.0.0 ('The Bride Said No') 64-bit
Writing library : libebml v1.3.6 + libmatroska v1.4.9
Video
ID : 1
Format : AVC
Format/Info : Advanced Video Codec
Format profile : High@L3.1
Format settings : CABAC / 4 Ref Frames
Format settings, CABAC : Yes
Format settings, ReFrames : 4 frames
Codec ID : V_MPEG4/ISO/AVC
Duration : 1 h 59 min
Bit rate mode : Constant
Bit rate : 6 000 kb/s
Width : 1 280 pixels
Height : 720 pixels
Display aspect ratio : 16:9
Frame rate mode : Constant
Frame rate : 23.976 (24000/1001) FPS
Color space : YUV
Chroma subsampling : 4:2:0
Bit depth : 8 bits
Scan type : Progressive
Bits/(Pixel*Frame) : 0.272
Stream size : 4.94 GiB (93%)
Language : English
Default : Yes
Forced : No
Color range : Limited
Color primaries : BT.709
Transfer characteristics : BT.709
Matrix coefficients : BT.709
Audio #1
ID : 2
Format : AC-3
Format/Info : Audio Coding 3
Commercial name : Dolby Digital
Codec ID : A_AC3
Duration : 1 h 58 min
Bit rate mode : Constant
Bit rate : 192 kb/s
Channel(s) : 2 channels
Channel positions : Front: L R
Sampling rate : 48.0 kHz
Frame rate : 31.250 FPS (1536 SPF)
Bit depth : 16 bits
Compression mode : Lossy
Stream size : 163 MiB (3%)
Language : Russian
Service kind : Complete Main
Default : Yes
Forced : Yes
Audio #2
ID : 3
Format : E-AC-3
Format/Info : Enhanced AC-3
Commercial name : Dolby Digital Plus
Codec ID : A_EAC3
Duration : 1 h 59 min
Bit rate mode : Constant
Bit rate : 256 kb/s
Channel(s) : 6 channels
Channel positions : Front: L C R, Side: L R, LFE
Sampling rate : 48.0 kHz
Frame rate : 31.250 FPS (1536 SPF)
Compression mode : Lossy
Stream size : 219 MiB (4%)
Language : English
Service kind : Complete Main
Default : No
Forced : No
Text #1
ID : 4
Format : UTF-8
Codec ID : S_TEXT/UTF8
Codec ID/Info : UTF-8 Plain Text
Duration : 1 h 51 min
Bit rate : 109 b/s
Count of elements : 1933
Stream size : 89.4 KiB (0%)
Language : Russian
Default : No
Forced : No
Text #2
ID : 5
Format : UTF-8
Codec ID : S_TEXT/UTF8
Codec ID/Info : UTF-8 Plain Text
Duration : 1 h 58 min
Bit rate : 68 b/s
Count of elements : 2153
Stream size : 59.3 KiB (0%)
Title : SDH
Language : English
Default : No
Forced : No
Menu
00:00:00.000 : en:Scene 1
00:02:35.000 : en:Scene 2
00:05:57.000 : en:Scene 3
00:08:15.000 : en:Scene 4
00:11:34.000 : en:Scene 5
00:14:56.000 : en:Scene 6
00:16:23.000 : en:Scene 7
00:20:28.000 : en:Scene 8
00:22:04.000 : en:Scene 9
00:26:38.000 : en:Scene 10
00:31:43.000 : en:Scene 11
00:35:20.000 : en:Scene 12
00:39:03.000 : en:Scene 13
00:41:53.000 : en:Scene 14
00:46:17.000 : en:Scene 15
00:50:33.000 : en:Scene 16
00:54:01.000 : en:Scene 17
00:56:31.000 : en:Scene 18
00:58:29.000 : en:Scene 19
01:00:29.000 : en:Scene 20
01:03:58.000 : en:Scene 21
01:07:56.000 : en:Scene 22
01:09:38.000 : en:Scene 23
01:13:31.000 : en:Scene 24
01:17:48.000 : en:Scene 25
01:20:59.000 : en:Scene 26
01:24:09.000 : en:Scene 27
01:26:26.000 : en:Scene 28
01:29:32.000 : en:Scene 29
01:31:44.000 : en:Scene 30
01:33:29.000 : en:Scene 31
01:35:26.000 : en:Scene 32
01:38:58.000 : en:Scene 33
01:42:19.000 : en:Scene 34
01:45:21.000 : en:Scene 35
01:49:34.000 : en:Scene 36

Трейлер

-     - -

Theseus

Пост 07-Авг-2018 13:32

[Цитировать]

Такси 5 / Taxi 5 -Год выхода: 2018
Страна: Франция
Жанр: боевик, комедия, криминал, приключения
Продолжительность: 01:41:53
Перевод: Профессиональный (полное дублирование) | iTunes
Субтитры: Отсутствуют-Режиссер: Франк Гастамбид-В ролях: Франк Гастамбид, Малик Бенталха, Бернар Фарси, Сальваторе Эспозито, Эдуард Монтут, Сабрина Уазани, Сэнд Ван Рой, Ануар Тубали, Месье Пуп, Сисси Дюпарк-О фильме: Экс-комиссар Жибер, ставший самым непутевым в истории города мэром Марселя, поручает переведенному из столицы новобранцу Сильвану Маро разобраться с неуловимой «бандой итальянцев» на Ferrari. Чтобы остановить их, Маро, суперкопу и суперводителю, приходится объединиться с племянником Даниэля. Парню досталось знаменитое белое такси дяди, но не его талант.- -Качество: BDRip 1080p
Формат: MKV
Видео кодек: x.264
Аудио кодек: AC3
Видео: MPEG-4 AVC, 1920x804, 9350 Kbit/s, 24.000 fps
Аудио 1: 48 kHz, AC3, 6 ch, 384 Kbps | iTunes | RUS
Аудио 2: 48 kHz, AC3, 6 ch, 640 Kbps | Оригинал | FRE-

MI

General
Unique ID : 186205183272725635196474845074869827471 (0x8C15D056EF11F92FB5751134FF65B78F)
Complete name : Taxi.5.2018.BDRip.1080p.ExKinoRay.mkv
Format : Matroska
Format version : Version 4 / Version 2
File size : 7.37 GiB
Duration : 1 h 41 min
Overall bit rate : 10.4 Mb/s
Movie name : Taxi 5 2018 from ExKinoRay
Encoded date : UTC 2018-08-12 19:06:00
Writing application : mkvmerge v7.3.0 ('Nouages') 64bit built on Oct 22 2014 18:53:34
Writing library : libebml v1.3.0 + libmatroska v1.4.1
Video
ID : 1
Format : AVC
Format/Info : Advanced Video Codec
Format profile : High@L4.1
Format settings : CABAC / 5 Ref Frames
Format settings, CABAC : Yes
Format settings, ReFrames : 5 frames
Codec ID : V_MPEG4/ISO/AVC
Duration : 1 h 41 min
Bit rate : 9 350 kb/s
Width : 1 920 pixels
Height : 804 pixels
Display aspect ratio : 2.40:1
Frame rate mode : Constant
Frame rate : 24.000 FPS
Color space : YUV
Chroma subsampling : 4:2:0
Bit depth : 8 bits
Scan type : Progressive
Bits/(Pixel*Frame) : 0.252
Stream size : 6.64 GiB (90%)
Writing library : x264 core 148 r2705 3f5ed56
Encoding settings : cabac=1 / ref=5 / deblock=1:-2:-2 / analyse=0x3:0x133 / me=umh / subme=11 / psy=1 / psy_rd=1.20:0.30 / mixed_ref=1 / me_range=48 / chroma_me=1 / trellis=2 / 8x8dct=1 / cqm=0 / deadzone=21,11 / fast_pskip=0 / chroma_qp_offset=-4 / threads=12 / lookahead_threads=2 / sliced_threads=0 / nr=0 / decimate=0 / interlaced=0 / bluray_compat=0 / constrained_intra=0 / bframes=8 / b_pyramid=2 / b_adapt=2 / b_bias=0 / direct=3 / weightb=1 / open_gop=0 / weightp=2 / keyint=240 / keyint_min=24 / scenecut=40 / intra_refresh=0 / rc_lookahead=50 / rc=2pass / mbtree=0 / bitrate=9350 / ratetol=1.0 / qcomp=0.60 / qpmin=0 / qpmax=51 / qpstep=4 / cplxblur=20.0 / qblur=0.5 / vbv_maxrate=50000 / vbv_bufsize=62500 / nal_hrd=none / filler=0 / ip_ratio=1.40 / pb_ratio=1.30 / aq=3:0.80
Language : English
Default : Yes
Forced : No
Audio #1
ID : 2
Format : AC-3
Format/Info : Audio Coding 3
Commercial name : Dolby Digital
Codec ID : A_AC3
Duration : 1 h 41 min
Bit rate mode : Constant
Bit rate : 384 kb/s
Channel(s) : 6 channels
Channel positions : Front: L C R, Side: L R, LFE
Sampling rate : 48.0 kHz
Frame rate : 31.250 FPS (1536 SPF)
Bit depth : 16 bits
Compression mode : Lossy
Stream size : 280 MiB (4%)
Title : iTunes
Language : Russian
Service kind : Complete Main
Default : Yes
Forced : Yes
Audio #2
ID : 3
Format : AC-3
Format/Info : Audio Coding 3
Commercial name : Dolby Digital
Codec ID : A_AC3
Duration : 1 h 41 min
Bit rate mode : Constant
Bit rate : 640 kb/s
Channel(s) : 6 channels
Channel positions : Front: L C R, Side: L R, LFE
Sampling rate : 48.0 kHz
Frame rate : 31.250 FPS (1536 SPF)
Bit depth : 16 bits
Compression mode : Lossy
Stream size : 466 MiB (6%)
Service kind : Complete Main
Default : No
Forced : No
Menu
00:00:00.000 : en:00:00:00.000
00:09:24.167 : en:00:09:24.167
00:17:19.417 : en:00:17:19.417
00:27:35.000 : en:00:27:35.000
00:34:09.750 : en:00:34:09.750
00:41:46.833 : en:00:41:46.833
00:50:04.125 : en:00:50:04.125
00:58:29.625 : en:00:58:29.625
01:06:05.708 : en:01:06:05.708
01:14:53.167 : en:01:14:53.167
01:23:59.333 : en:01:23:59.333
01:32:28.750 : en:01:32:28.750

Трейлер

-     - -

Theseus

Пост 07-Авг-2018 13:31

[Цитировать]

Такси 5 / Taxi 5 -Год выхода: 2018
Страна: Франция
Жанр: боевик, комедия, криминал, приключения
Продолжительность: 01:41:53
Перевод: Профессиональный (полное дублирование) | iTunes
Субтитры: Отсутствуют-Режиссер: Франк Гастамбид-В ролях: Франк Гастамбид, Малик Бенталха, Бернар Фарси, Сальваторе Эспозито, Эдуард Монтут, Сабрина Уазани, Сэнд Ван Рой, Ануар Тубали, Месье Пуп, Сисси Дюпарк-О фильме: Экс-комиссар Жибер, ставший самым непутевым в истории города мэром Марселя, поручает переведенному из столицы новобранцу Сильвану Маро разобраться с неуловимой «бандой итальянцев» на Ferrari. Чтобы остановить их, Маро, суперкопу и суперводителю, приходится объединиться с племянником Даниэля. Парню досталось знаменитое белое такси дяди, но не его талант.- -Качество: BDRip 720p
Формат: MKV
Видео кодек: x.264
Аудио кодек: AC3
Видео: MPEG-4 AVC, 1280x536, 4500 Kbit/s, 24.000 fps
Аудио 1: 48 kHz, AC3, 6 ch, 384 Kbps | iTunes | RUS
Аудио 2: 48 kHz, AC3, 6 ch, 640 Kbps | Оригинал | FRE-

MI

General
Unique ID : 220400892308801556759335865195465983080 (0xA5CFAAF6B11C5B93875DBE655226C468)
Complete name : Taxi.5.2018.BDRip.720p.ExKinoRay.mkv
Format : Matroska
Format version : Version 4 / Version 2
File size : 3.93 GiB
Duration : 1 h 41 min
Overall bit rate : 5 517 kb/s
Movie name : Taxi 5 2018 from ExKinoRay
Encoded date : UTC 2018-08-12 19:21:46
Writing application : mkvmerge v7.3.0 ('Nouages') 64bit built on Oct 22 2014 18:53:34
Writing library : libebml v1.3.0 + libmatroska v1.4.1
Video
ID : 1
Format : AVC
Format/Info : Advanced Video Codec
Format profile : High@L4.1
Format settings : CABAC / 12 Ref Frames
Format settings, CABAC : Yes
Format settings, ReFrames : 12 frames
Codec ID : V_MPEG4/ISO/AVC
Duration : 1 h 41 min
Bit rate : 4 500 kb/s
Width : 1 280 pixels
Height : 536 pixels
Display aspect ratio : 2.40:1
Frame rate mode : Constant
Frame rate : 24.000 FPS
Color space : YUV
Chroma subsampling : 4:2:0
Bit depth : 8 bits
Scan type : Progressive
Bits/(Pixel*Frame) : 0.273
Stream size : 3.20 GiB (81%)
Writing library : x264 core 148 r2705 3f5ed56
Encoding settings : cabac=1 / ref=12 / deblock=1:-2:-2 / analyse=0x3:0x133 / me=umh / subme=11 / psy=1 / psy_rd=1.20:0.30 / mixed_ref=1 / me_range=48 / chroma_me=1 / trellis=2 / 8x8dct=1 / cqm=0 / deadzone=21,11 / fast_pskip=0 / chroma_qp_offset=-4 / threads=12 / lookahead_threads=2 / sliced_threads=0 / nr=0 / decimate=0 / interlaced=0 / bluray_compat=0 / constrained_intra=0 / bframes=8 / b_pyramid=2 / b_adapt=2 / b_bias=0 / direct=3 / weightb=1 / open_gop=0 / weightp=2 / keyint=240 / keyint_min=24 / scenecut=40 / intra_refresh=0 / rc_lookahead=50 / rc=2pass / mbtree=0 / bitrate=4500 / ratetol=1.0 / qcomp=0.60 / qpmin=0 / qpmax=51 / qpstep=4 / cplxblur=20.0 / qblur=0.5 / vbv_maxrate=50000 / vbv_bufsize=62500 / nal_hrd=none / filler=0 / ip_ratio=1.40 / pb_ratio=1.30 / aq=3:0.80
Language : English
Default : Yes
Forced : No
Audio #1
ID : 2
Format : AC-3
Format/Info : Audio Coding 3
Commercial name : Dolby Digital
Codec ID : A_AC3
Duration : 1 h 41 min
Bit rate mode : Constant
Bit rate : 384 kb/s
Channel(s) : 6 channels
Channel positions : Front: L C R, Side: L R, LFE
Sampling rate : 48.0 kHz
Frame rate : 31.250 FPS (1536 SPF)
Bit depth : 16 bits
Compression mode : Lossy
Stream size : 280 MiB (7%)
Title : iTunes
Language : Russian
Service kind : Complete Main
Default : Yes
Forced : Yes
Audio #2
ID : 3
Format : AC-3
Format/Info : Audio Coding 3
Commercial name : Dolby Digital
Codec ID : A_AC3
Duration : 1 h 41 min
Bit rate mode : Constant
Bit rate : 640 kb/s
Channel(s) : 6 channels
Channel positions : Front: L C R, Side: L R, LFE
Sampling rate : 48.0 kHz
Frame rate : 31.250 FPS (1536 SPF)
Bit depth : 16 bits
Compression mode : Lossy
Stream size : 466 MiB (12%)
Title : Original
Language : French
Service kind : Complete Main
Default : No
Forced : No
Menu
00:00:00.000 : en:00:00:00.000
00:09:24.167 : en:00:09:24.167
00:17:19.417 : en:00:17:19.417
00:27:35.000 : en:00:27:35.000
00:34:09.750 : en:00:34:09.750
00:41:46.833 : en:00:41:46.833
00:50:04.125 : en:00:50:04.125
00:58:29.625 : en:00:58:29.625
01:06:05.708 : en:01:06:05.708
01:14:53.167 : en:01:14:53.167
01:23:59.333 : en:01:23:59.333
01:32:28.750 : en:01:32:28.750

Трейлер

-     - -

Theseus

Пост 06-Авг-2018 21:00

[Цитировать]

Черновик -Год выхода: 2018
Страна: Россия
Жанр: фантастика
Продолжительность: 01:55:33
Перевод: Не требуется
Субтитры: Отсутствуют-Режиссер: Сергей Мокрицкий-В ролях: Никита Волков, Евгений Ткачук, Ольга Боровская, Ирина Горбачёва, Юлия Пересильд, Северия Янушаускайте, Евгений Цыганов, Андрей Мерзликин, Никита Тарасов, Ирина Хакамада, Ирина Демидкина, Александр Плющев, Ёла Санько, Аня Пересильд, Дарья Слонская (Юрченко), Яна Чигир-О фильме: Молодой москвич Кирилл — талантливый дизайнер компьютерных игр. В один прекрасный день он оказывается напрочь стертым из памяти всех, кого он знал и любил. Кирилл узнает, что выбран для важной и таинственной миссии. Его предназначение — стать таможенником между параллельными мирами, коих во Вселенной десятки. Сможет ли Кирилл разгадать тайну этих таинственных миров и того, кто и зачем ими управляет? И действительно ли наша Земля — всего лишь воображаемый «черновик», параллельный мир, которого в Реальности не существует…- -Качество: WEB-DL 1080p
Формат: MKV
Видео кодек: x.264
Аудио кодек: AC3
Видео: MPEG-4 AVC, 1920x804, 24.000 fps, 5000 Kbps
Аудио: 48 kHz, AC3, 2 ch, 192 kbps-

Трейлер

-     - -

}{@R0N

Пост 05-Авг-2018 13:30

[Цитировать]

Звёздные войны: Последние джедаи / Star Wars: Episode VIII - The Last Jedi - Производство: США / Bad Robot, Lucasfilm Ltd., Truenorth Productions
Жанр: Фантастика, Фэнтези, Боевик, Приключения
Режиссер: Райан Джонсон
Актеры: Джон Бойега, Дэйзи Ридли, Оскар Айзек, Адам Драйвер, Донал Глисон, Марк Хэмилл, Макс фон Сюдов, Энди Серкис, Лупита Нионго, Энтони Дэниелс ...
Описание:
Новая история о противостоянии света и тьмы, добра и зла начинается после гибели Хана Соло. В Галактике, где Первый Орден и Сопротивление яростно сражаются друг с другом в войне, героиня Рей пробудила в себе Силу. Но что произойдет, когда она встретится с единственным оставшимся в живых рыцарем-джедаем — Люком Скайуокером?
Кайло Рен перешел на Темную сторону Силы и убил собственного отца, заняв высокую позицию в Первом Ордене. Но куда приведут его неуемные амбиции, подаренные по наследству грозным дедом Дартом Вейдером? Ситуация обострится еще больше, когда мать Кайло, лидер Сопротивления Лея, вместе с По, Финном и BB-8 приступит к новой миссии.

Возраст: 16+ (зрителям, достигшим 16 лет)
Рейтинг MPAA: PG-13 (детям до 13 лет просмотр нежелателен)
Дата мировой премьеры: 09.12.2017
Дата российской премьеры: 14.12.2017
Дата выхода DVD/Blu-ray релиза: 03.04.2018
Релиз от: Virvulpo
Продолжительность: 02:31:52
Качество видео: BDRip Сэмпл
Перевод: Дублированный
Субтитры: русские (full, SDH), английские (forced, full, SDH)
Видео: AVC/H.264, 1280x536, ~3540 kbps
Аудио: AC3, 6 ch, 576 kbps

Mediainfo:

General
Unique ID : 223460243197056100285133104284991160156 (0xA81CE09BAB5D667D93C8A60D29CEFF5C)
Complete name : D:\Movies\Star Wars. Ep.VIII - The Last Jedi [2017.BDRip.720p.Dub] Virvulpo.mkv
Format : Matroska
Format version : Version 2
File size : 4.37 GiB
Duration : 2h 31mn
Overall bit rate : 4 119 Kbps
Movie name : Star Wars: The Last Jedi (2017) / BDRip by Virvulpo
Encoded date : UTC 2018-08-01 20:17:08
Writing application : mkvmerge v7.8.0 ('River Man') 32bit built on Apr 3 2015 12:11:22
Writing library : libebml v1.3.1 + libmatroska v1.4.2
ARTIST : Virvulpo
COPYRIGHT : NoNaMe Club
RATING : 6.85
DESCRIPTION : Новая история о противостоянии света и тьмы, добра и зла начинается после гибели Хана Соло. В Галактике, где Первый Орден и Сопротивление яростно сражаются друг с другом в войне, героиня Рей пробудила в себе Силу. Но что произойдет, когда она встретится с единственным оставшимся в живых рыцарем-джедаем — Люком Скайуокером? / Кайло Рен перешел на Темную сторону Силы и убил собственного отца, заняв высокую позицию в Первом Ордене. Но куда приведут его неуемные амбиции, подаренные по наследству грозным дедом Дартом Вейдером? Ситуация обострится еще больше, когда мать Кайло, лидер Сопротивления Лея, вместе с По, Финном и BB-8 приступит к новой миссии.
Attachment : Yes
Video
ID : 1
Format : AVC
Format/Info : Advanced Video Codec
Format profile : [url=mailto:High@L4.1]High@L4.1[/url]
Format settings, CABAC : Yes
Format settings, ReFrames : 9 frames
Codec ID : V_MPEG4/ISO/AVC
Duration : 2h 31mn
Bit rate : 3 540 Kbps
Width : 1 280 pixels
Height : 536 pixels
Display aspect ratio : 2.40:1
Frame rate mode : Variable
Frame rate : 23.976 fps
Color space : YUV
Chroma subsampling : 4:2:0
Bit depth : 8 bits
Scan type : Progressive
Bits/(Pixel*Frame) : 0.215
Stream size : 3.67 GiB (84%)
Title : Звездные войны: Последние джедаи
Writing library : x264 core 155 r2901M 7d0ff22
Encoding settings : cabac=1 / ref=9 / deblock=1:-1:-1 / analyse=0x3:0x133 / me=umh / subme=11 / psy=1 / psy_rd=1.05:0.10 / mixed_ref=1 / me_range=48 / chroma_me=1 / trellis=2 / 8x8dct=1 / cqm=0 / deadzone=21,11 / fast_pskip=0 / chroma_qp_offset=-3 / threads=12 / lookahead_threads=2 / sliced_threads=0 / nr=0 / decimate=1 / interlaced=0 / bluray_compat=0 / constrained_intra=0 / bframes=8 / b_pyramid=2 / b_adapt=2 / b_bias=0 / direct=3 / weightb=1 / open_gop=0 / weightp=2 / keyint=240 / keyint_min=24 / scenecut=40 / intra_refresh=0 / rc_lookahead=240 / rc=2pass / mbtree=1 / bitrate=3540 / ratetol=1.0 / qcomp=0.70 / qpmin=3 / qpmax=69 / qpstep=4 / cplxblur=20.0 / qblur=0.5 / ip_ratio=1.40 / aq=2:1.00
Language : English
Default : Yes
Forced : No
Audio
ID : 2
Format : AC-3
Format/Info : Audio Coding 3
Mode extension : CM (complete main)
Format settings, Endianness : Big
Codec ID : A_AC3
Duration : 2h 31mn
Bit rate mode : Constant
Bit rate : 576 Kbps
Channel(s) : 6 channels
Channel positions : Front: L C R, Side: L R, LFE
Sampling rate : 48.0 KHz
Bit depth : 16 bits
Compression mode : Lossy
Stream size : 626 MiB (14%)
Title : Dubbed
Language : Russian
Default : Yes
Forced : No
Text #1
ID : 3
Format : UTF-8
Codec ID : S_TEXT/UTF8
Codec ID/Info : UTF-8 Plain Text
Title : Full [rus]
Language : Russian
Default : No
Forced : No
Text #2
ID : 4
Format : UTF-8
Codec ID : S_TEXT/UTF8
Codec ID/Info : UTF-8 Plain Text
Title : SDH [rus]
Language : Russian
Default : No
Forced : No
Text #3
ID : 5
Format : UTF-8
Codec ID : S_TEXT/UTF8
Codec ID/Info : UTF-8 Plain Text
Title : Forced [eng]
Language : English
Default : No
Forced : No
Text #4
ID : 6
Format : UTF-8
Codec ID : S_TEXT/UTF8
Codec ID/Info : UTF-8 Plain Text
Title : Full [eng]
Language : English
Default : No
Forced : No
Text #5
ID : 7
Format : UTF-8
Codec ID : S_TEXT/UTF8
Codec ID/Info : UTF-8 Plain Text
Title : SDH [eng]
Language : English
Default : No
Forced : No
Menu
00:00:00.000 : :Chapter 01
00:00:18.643 : :Chapter 02
00:01:45.730 : :Chapter 03
00:03:11.816 : :Chapter 04
00:07:43.296 : :Chapter 05
00:12:48.434 : :Chapter 06
00:13:44.573 : :Chapter 07
00:16:29.279 : :Chapter 08
00:19:59.281 : :Chapter 09
00:22:51.369 : :Chapter 10
00:26:04.980 : :Chapter 11
00:27:22.849 : :Chapter 12
00:31:24.757 : :Chapter 13
00:32:54.681 : :Chapter 14
00:35:27.667 : :Chapter 15
00:38:11.497 : :Chapter 16
00:41:53.427 : :Chapter 17
00:44:29.541 : :Chapter 18
00:46:51.475 : :Chapter 19
00:51:41.932 : :Chapter 20
00:53:50.060 : :Chapter 21
00:55:41.504 : :Chapter 22
00:57:39.581 : :Chapter 23
00:59:16.636 : :Chapter 24
01:02:05.847 : :Chapter 25
01:03:07.700 : :Chapter 26
01:05:41.729 : :Chapter 27
01:07:03.477 : :Chapter 28
01:10:25.721 : :Chapter 29
01:13:30.322 : :Chapter 30
01:17:43.450 : :Chapter 31
01:20:53.056 : :Chapter 32
01:24:17.969 : :Chapter 33
01:26:23.219 : :Chapter 34
01:27:59.524 : :Chapter 35
01:30:49.360 : :Chapter 36
01:32:54.568 : :Chapter 37
01:35:53.706 : :Chapter 38
01:37:10.616 : :Chapter 39
01:39:12.863 : :Chapter 40
01:42:07.663 : :Chapter 41
01:45:03.714 : :Chapter 42
01:49:35.694 : :Chapter 43
01:52:20.608 : :Chapter 44
01:56:04.749 : :Chapter 45
01:58:52.083 : :Chapter 46
02:03:11.133 : :Chapter 47
02:06:39.758 : :Chapter 48
02:11:43.604 : :Chapter 49
02:15:12.103 : :Chapter 50
02:20:16.699 : :Chapter 51
02:23:39.694 : :Chapter 52
02:31:51.352 : :Chapter 53
Скриншоты:
       

Дополнительные скриншоты:

       

Theseus

Пост 03-Авг-2018 14:14

[Цитировать]

-Мстители: Война бесконечности / Avengers: Infinity War -Год выхода: 2018
Страна: США
Жанр: фантастика, фэнтези, боевик, приключения
Продолжительность: 02:29:41
Перевод: Профессиональный (полное дублирование) | iTunes
Субтитры: Русские, английские, испанские, французские-Режиссер: Энтони Руссо, Джо Руссо-В ролях: Роберт Дауни мл., Крис Хемсворт, Марк Руффало, Крис Эванс, Скарлетт Йоханссон, Дон Чидл, Бенедикт Камбербэтч, Том Холланд, Чэдвик Боузмэн, Зои Салдана-О фильме: Пока Мстители и их союзники продолжают защищать мир от различных опасностей, с которыми не смог бы справиться один супергерой, новая угроза возникает из космоса: Танос. Межгалактический тиран преследует цель собрать все шесть Камней Бесконечности — артефакты невероятной силы, с помощью которых можно менять реальность по своему желанию. Всё, с чем Мстители сталкивались ранее, вело к этому моменту — судьба Земли никогда ещё не была столь неопределённой.- -Качество: Blu-Ray
Контейнер: BDMV
Видео кодек: H.264
Аудио кодек: AC3, DTS-HD
Видео: MPEG-4 AVC, 1920x1080, 24.7 Mbit/s, 23.976 fps
Аудио #1: English / DTS-HD Master Audio / 7.1 / 48 kHz / 4901 kbps / 24-bit (DTS Core: 5.1 / 48 kHz / 1509 kbps / 24-bit)
Аудио #2: English / Dolby Digital Audio / 2.0 / 48 kHz / 320 kbps
Аудио #3: French / Dolby Digital Audio / 5.1 / 48 kHz / 640 kbps
Аудио #4: Spanish / Dolby Digital Audio / 5.1 / 48 kHz / 640 kbps
Аудио #5: Russian / Dolby Digital Audio / 5.1 / 48 kHz / 384 kbps
Аудио #6: English / Dolby Digital Audio / 2.0 / 48 kHz / 192 kbps-

DISC INFO

Код:
DISC INFO:
Disc Title: Avengers.Infinity.War.2018.BluRay.1080p.IVA.ExKinoRay
Disc Size: 46,500,665,267 bytes
Protection: AACS
BD-Java: Yes
BDInfo: 0.5.8.7
PLAYLIST REPORT:
Name: 00800.MPLS
Length: 2:29:21.243 (h:m:s.ms)
Size: 38,242,050,048 bytes
Total Bitrate: 34.14 Mbps
VIDEO:
Codec Bitrate Deion
----- ------- -----------
MPEG-4 AVC Video 24725 kbps 1080p / 23.976 fps / 16:9 / High Profile 4.1 /
AUDIO:
Codec Language Bitrate Deion
----- -------- ------- -----------
DTS-HD Master Audio English 4901 kbps 7.1 / 48 kHz / 4901 kbps / 24-bit (DTS Core: 5.1 / 48 kHz / 1509 kbps / 24-bit)
Dolby Digital Audio English 320 kbps 2.0 / 48 kHz / 320 kbps
Dolby Digital Audio French 640 kbps 5.1 / 48 kHz / 640 kbps
Dolby Digital Audio Spanish 640 kbps 5.1 / 48 kHz / 640 kbps
Dolby Digital Audio Russian 384 kbps 5.1 / 48 kHz / 384 kbps
Dolby Digital Audio English 192 kbps 2.0 / 48 kHz / 192 kbps
SUBTITLES:
Codec Language Bitrate Deion
----- -------- ------- -----------
Presentation Graphics English 32.681 kbps
Presentation Graphics French 24.685 kbps
Presentation Graphics Spanish 24.218 kbps
Presentation Graphics Russian 25.972 kbps
Presentation Graphics English 79.135 kbps
Presentation Graphics French 66.643 kbps
Presentation Graphics Spanish 69.238 kbps
Presentation Graphics Russian 32.235 kbps
Presentation Graphics English 0.011 kbps
Presentation Graphics French 0.392 kbps
Presentation Graphics Spanish 0.113 kbps
Presentation Graphics Russian 0.175 kbps
FILES:
Name Time In Length Size Total Bitrate
---- ------- ------ ---- -------------
00801.M2TS 0:00:00.000 2:29:21.243 38,242,050,048 34,139 kbps
CHAPTERS:
Number Time In Length Avg Video Rate Max 1-Sec Rate Max 1-Sec Time Max 5-Sec Rate Max 5-Sec Time Max 10Sec Rate Max 10Sec
Time Avg Frame Size Max Frame Size Max Frame Time
------ ------- ------ -------------- -------------- -------------- -------------- -------------- --------------
-------------- -------------- -------------- --------------
1 0:00:00.000 0:11:28.729 25,916 kbps 43,937 kbps 0:00:39.330 36,750 kbps 0:00:39.372 36,437 kbps
0:00:39.372 135,118 bytes 640,369 bytes 0:10:38.971
2 0:11:28.729 0:06:45.155 25,516 kbps 37,452 kbps 0:13:07.203 36,055 kbps 0:13:07.203 33,415 kbps
0:13:11.665 133,031 bytes 564,718 bytes 0:11:28.729
3 0:18:13.884 0:09:09.923 26,081 kbps 39,012 kbps 0:22:37.606 34,573 kbps 0:22:38.565 32,896 kbps
0:24:34.514 135,976 bytes 625,110 bytes 0:21:51.518
4 0:27:23.807 0:08:25.006 25,814 kbps 36,591 kbps 0:27:39.366 34,652 kbps 0:27:40.909 31,442 kbps
0:27:40.408 134,586 bytes 460,915 bytes 0:30:46.678
5 0:35:48.813 0:06:34.728 26,072 kbps 36,779 kbps 0:39:22.735 33,353 kbps 0:39:25.905 30,570 kbps
0:39:26.363 135,916 bytes 588,223 bytes 0:39:48.761
6 0:42:23.541 0:11:49.331 26,279 kbps 37,453 kbps 0:51:53.819 34,599 kbps 0:54:00.403 33,893 kbps
0:54:06.159 137,017 bytes 639,699 bytes 0:54:08.787
7 0:54:12.873 0:05:23.866 25,511 kbps 36,606 kbps 0:58:41.184 34,610 kbps 0:58:41.184 32,199 kbps
0:58:44.270 133,007 bytes 639,112 bytes 0:59:08.294
8 0:59:36.739 0:05:30.413 25,408 kbps 34,984 kbps 1:03:04.238 33,122 kbps 1:03:04.238 31,664 kbps
1:03:06.199 132,466 bytes 516,792 bytes 1:00:33.963
9 1:05:07.152 0:05:46.514 25,900 kbps 34,477 kbps 1:05:12.867 33,503 kbps 1:05:12.867 30,911 kbps
1:05:17.538 135,036 bytes 470,486 bytes 1:05:50.404
10 1:10:53.666 0:06:13.287 25,917 kbps 35,197 kbps 1:10:56.210 32,564 kbps 1:11:00.381 31,687 kbps
1:11:03.676 135,122 bytes 527,953 bytes 1:11:33.664
11 1:17:06.954 0:07:07.802 25,903 kbps 37,979 kbps 1:18:50.517 34,533 kbps 1:18:32.499 32,348 kbps
1:18:37.629 135,049 bytes 529,692 bytes 1:22:48.588
12 1:24:14.756 0:06:53.246 25,824 kbps 38,186 kbps 1:30:13.324 34,413 kbps 1:30:08.861 33,244 kbps
1:30:13.324 134,635 bytes 556,469 bytes 1:30:05.983
13 1:31:08.003 0:10:52.401 25,902 kbps 40,383 kbps 1:31:28.608 36,197 kbps 1:37:39.853 35,167 kbps
1:37:43.857 135,043 bytes 619,659 bytes 1:32:34.966
14 1:42:00.404 0:03:57.404 25,870 kbps 37,898 kbps 1:45:57.517 35,601 kbps 1:44:47.197 34,131 kbps
1:44:48.573 134,876 bytes 520,919 bytes 1:44:23.173
15 1:45:57.809 0:07:06.259 25,946 kbps 38,665 kbps 1:49:00.867 34,275 kbps 1:48:31.796 32,304 kbps
1:48:32.881 135,270 bytes 596,404 bytes 1:46:49.152
16 1:53:04.068 0:05:48.849 25,770 kbps 38,786 kbps 1:53:14.162 35,021 kbps 1:56:14.759 31,889 kbps
1:57:21.367 134,354 bytes 640,204 bytes 1:58:48.496
17 1:58:52.917 0:05:05.262 25,881 kbps 37,402 kbps 1:59:48.806 36,119 kbps 1:59:49.432 32,314 kbps
1:59:50.349 134,936 bytes 442,025 bytes 1:59:49.307
18 2:03:58.180 0:07:15.101 25,833 kbps 38,924 kbps 2:10:32.908 34,743 kbps 2:07:57.795 33,383 kbps
2:05:40.157 134,683 bytes 638,301 bytes 2:10:32.908
19 2:11:13.282 0:06:18.000 25,776 kbps 38,704 kbps 2:14:12.002 36,098 kbps 2:14:12.002 35,367 kbps
2:14:12.252 134,388 bytes 640,705 bytes 2:16:13.331
20 2:17:31.282 0:11:49.960 11,312 kbps 37,367 kbps 2:28:48.461 35,330 kbps 2:28:49.462 32,712 kbps
2:28:53.215 58,998 bytes 638,755 bytes 2:25:31.764
STREAM DIAGNOSTICS:
File PID Type Codec Language Seconds Bitrate Bytes
Packets
---- --- ---- ----- -------- -------------- -------------- -------------
-----
00801.M2TS 4113 (0x1011) 0x1B AVC 8961.20 24725.1 27,695,859,423
150,645,314
00801.M2TS 4352 (0x1100) 0x86 DTS-HD MA eng (English) 8961.24 4900.99 5,489,872,840
31,237,140
00801.M2TS 4353 (0x1101) 0x81 AC3 eng (English) 8961.22 320 358,449,920
2,240,312
00801.M2TS 4354 (0x1102) 0x81 AC3 fra (French) 8961.22 640 716,899,840
4,200,585
00801.M2TS 4355 (0x1103) 0x81 AC3 spa (Spanish) 8961.22 640 716,899,840
4,200,585
00801.M2TS 4356 (0x1104) 0x81 AC3 rus (Russian) 8978.50 384 430,969,344
2,525,211
00801.M2TS 4357 (0x1105) 0x81 AC3 eng (English) 8961.22 192 215,069,952
1,400,195
00801.M2TS 4608 (0x1200) 0x90 PGS eng (English) 8961.20 32.681 36,607,561
213,381
00801.M2TS 4609 (0x1201) 0x90 PGS fra (French) 8961.20 24.685 27,651,132
161,422
00801.M2TS 4610 (0x1202) 0x90 PGS spa (Spanish) 8961.20 24.218 27,127,951
158,386
00801.M2TS 4611 (0x1203) 0x90 PGS rus (Russian) 8961.20 25.972 29,092,318
169,044
00801.M2TS 4612 (0x1204) 0x90 PGS eng (English) 8961.20 79.135 88,643,274
502,741
00801.M2TS 4613 (0x1205) 0x90 PGS fra (French) 8961.20 66.643 74,649,770
426,004
00801.M2TS 4614 (0x1206) 0x90 PGS spa (Spanish) 8961.20 69.238 77,556,895
441,618
00801.M2TS 4615 (0x1207) 0x90 PGS rus (Russian) 8961.20 32.235 36,108,089
210,587
00801.M2TS 4616 (0x1208) 0x90 PGS eng (English) 8961.20 0.011 12,156
73
00801.M2TS 4617 (0x1209) 0x90 PGS fra (French) 8961.20 0.392 439,417
2,630
00801.M2TS 4618 (0x120A) 0x90 PGS spa (Spanish) 8961.20 0.113 126,095
740
00801.M2TS 4619 (0x120B) 0x90 PGS rus (Russian) 8961.20 0.175 195,494
1,157

Скриншоты меню

    

Трейлер

-     - -

Theseus

Пост 03-Авг-2018 14:13

[Цитировать]

-Мстители: Война бесконечности / Avengers: Infinity War -Год выхода: 2018
Страна: США
Жанр: фантастика, фэнтези, боевик, приключения
Продолжительность: 02:29:41
Перевод: Профессиональный (полное дублирование) | iTunes
Субтитры: Русские (forced, full, SDH), английские-Режиссер: Энтони Руссо, Джо Руссо-В ролях: Роберт Дауни мл., Крис Хемсворт, Марк Руффало, Крис Эванс, Скарлетт Йоханссон, Дон Чидл, Бенедикт Камбербэтч, Том Холланд, Чэдвик Боузмэн, Зои Салдана-О фильме: Пока Мстители и их союзники продолжают защищать мир от различных опасностей, с которыми не смог бы справиться один супергерой, новая угроза возникает из космоса: Танос. Межгалактический тиран преследует цель собрать все шесть Камней Бесконечности — артефакты невероятной силы, с помощью которых можно менять реальность по своему желанию. Всё, с чем Мстители сталкивались ранее, вело к этому моменту — судьба Земли никогда ещё не была столь неопределённой.- -Качество: BDRemux
Контейнер: MKV
Видео кодек: H.264
Аудио кодек: AC3, DTS-HD
Видео: MPEG-4 AVC, 1920x1080, 24.7 Mbit/s, 23.976 fps
Аудио 1: 48 kHz, AC3, 6 ch, 384 kbps
Аудио 2: 48 kHz, DTS-HD MA, 8 ch, 4901 kbps-

MI

General
Unique ID : 181568335833905016132234143342435109786 (0x8898CA1C3F1B656CBFB96D682AEE0B9A)
Complete name : Avengers.Infinity.War.2018.BDREMUX.1080.ExKinoRay.mkv
Format : Matroska
Format version : Version 4 / Version 2
File size : 31.3 GiB
Duration : 2 h 29 min
Overall bit rate mode : Variable
Overall bit rate : 30.0 Mb/s
Movie name : Avengers Infinity War 2018 from ExKinoRay
Encoded date : UTC 2018-08-02 18:36:55
Writing application : mkvmerge v7.3.0 ('Nouages') 64bit built on Oct 22 2014 18:53:34
Writing library : libebml v1.3.0 + libmatroska v1.4.1
Video
ID : 1
Format : AVC
Format/Info : Advanced Video Codec
Format profile : High@L4.1
Format settings : CABAC / 4 Ref Frames
Format settings, CABAC : Yes
Format settings, ReFrames : 4 frames
Codec ID : V_MPEG4/ISO/AVC
Duration : 2 h 29 min
Bit rate mode : Variable
Bit rate : 24.7 Mb/s
Maximum bit rate : 36.0 Mb/s
Width : 1 920 pixels
Height : 1 080 pixels
Display aspect ratio : 16:9
Frame rate mode : Constant
Frame rate : 23.976 (24000/1001) FPS
Color space : YUV
Chroma subsampling : 4:2:0
Bit depth : 8 bits
Scan type : Progressive
Bits/(Pixel*Frame) : 0.497
Stream size : 25.8 GiB (82%)
Language : English
Default : Yes
Forced : No
Audio #1
ID : 2
Format : AC-3
Format/Info : Audio Coding 3
Codec ID : A_AC3
Duration : 2 h 29 min
Bit rate mode : Constant
Bit rate : 384 kb/s
Channel(s) : 6 channels
Channel positions : Front: L C R, Side: L R, LFE
Sampling rate : 48.0 kHz
Frame rate : 31.250 FPS (1536 SPF)
Bit depth : 16 bits
Compression mode : Lossy
Stream size : 411 MiB (1%)
Title : iTunes
Language : Russian
Service kind : Complete Main
Default : Yes
Forced : Yes
Audio #2
ID : 3
Format : DTS
Format/Info : Digital Theater Systems
Format profile : MA / Core
Codec ID : A_DTS
Duration : 2 h 29 min
Bit rate mode : Variable / Constant
Bit rate : 4 901 kb/s / 1 509 kb/s
Channel(s) : 8 channels / 6 channels
Channel positions : Front: L C R, Side: L R, Back: L R, LFE / Front: L C R, Side: L R, LFE
Sampling rate : 48.0 kHz
Frame rate : 93.750 FPS (512 SPF)
Bit depth : 24 bits
Compression mode : Lossless / Lossy
Stream size : 5.11 GiB (16%)
Title : Original
Language : English
Default : No
Forced : No
Text #1
ID : 4
Format : UTF-8
Codec ID : S_TEXT/UTF8
Codec ID/Info : UTF-8 Plain Text
Duration : 2 h 12 min
Bit rate : 0 b/s
Count of elements : 14
Stream size : 373 Bytes (0%)
Title : Forced
Language : Russian
Default : Yes
Forced : Yes
Text #2
ID : 5
Format : UTF-8
Codec ID : S_TEXT/UTF8
Codec ID/Info : UTF-8 Plain Text
Duration : 2 h 28 min
Bit rate : 64 b/s
Count of elements : 1596
Stream size : 70.4 KiB (0%)
Title : Full
Language : Russian
Default : No
Forced : No
Text #3
ID : 6
Format : UTF-8
Codec ID : S_TEXT/UTF8
Codec ID/Info : UTF-8 Plain Text
Duration : 2 h 28 min
Bit rate : 76 b/s
Count of elements : 2085
Stream size : 83.2 KiB (0%)
Title : SDH
Language : Russian
Default : No
Forced : No
Text #4
ID : 7
Format : UTF-8
Codec ID : S_TEXT/UTF8
Codec ID/Info : UTF-8 Plain Text
Duration : 2 h 28 min
Bit rate : 42 b/s
Count of elements : 1724
Stream size : 46.1 KiB (0%)
Title : Full
Language : English
Default : No
Forced : No
Text #5
ID : 8
Format : UTF-8
Codec ID : S_TEXT/UTF8
Codec ID/Info : UTF-8 Plain Text
Duration : 2 h 28 min
Bit rate : 49 b/s
Count of elements : 2067
Stream size : 53.9 KiB (0%)
Title : SDH
Language : English
Default : No
Forced : No
Text #6
ID : 9
Format : UTF-8
Codec ID : S_TEXT/UTF8
Codec ID/Info : UTF-8 Plain Text
Duration : 2 h 28 min
Bit rate : 70 b/s
Count of elements : 2067
Stream size : 76.5 KiB (0%)
Title : SDH Colored
Language : English
Default : No
Forced : No
Menu
00:00:00.000 : en:00:00:00.000
00:11:28.730 : en:00:11:28.730
00:18:13.884 : en:00:18:13.884
00:27:23.809 : en:00:27:23.809
00:35:48.813 : en:00:35:48.813
00:42:23.541 : en:00:42:23.541
00:54:12.875 : en:00:54:12.875
00:59:36.740 : en:00:59:36.740
01:05:07.153 : en:01:05:07.153
01:10:53.666 : en:01:10:53.666
01:17:06.956 : en:01:17:06.956
01:24:14.758 : en:01:24:14.758
01:31:08.004 : en:01:31:08.004
01:42:00.406 : en:01:42:00.406
01:45:57.810 : en:01:45:57.810
01:53:04.069 : en:01:53:04.069
01:58:52.917 : en:01:58:52.917
02:03:58.181 : en:02:03:58.181
02:11:13.282 : en:02:11:13.282
02:17:31.285 : en:02:17:31.285

Трейлер

-     - -

Theseus

Пост 03-Авг-2018 14:13

[Цитировать]

-Мстители: Война бесконечности / Avengers: Infinity War -Год выхода: 2018
Страна: США
Жанр: фантастика, фэнтези, боевик, приключения
Продолжительность: 02:29:41
Перевод: Профессиональный (полное дублирование) | iTunes
Субтитры: Русские (forced, full, SDH), английские-Режиссер: Энтони Руссо, Джо Руссо-В ролях: Роберт Дауни мл., Крис Хемсворт, Марк Руффало, Крис Эванс, Скарлетт Йоханссон, Дон Чидл, Бенедикт Камбербэтч, Том Холланд, Чэдвик Боузмэн, Зои Салдана-О фильме: Пока Мстители и их союзники продолжают защищать мир от различных опасностей, с которыми не смог бы справиться один супергерой, новая угроза возникает из космоса: Танос. Межгалактический тиран преследует цель собрать все шесть Камней Бесконечности — артефакты невероятной силы, с помощью которых можно менять реальность по своему желанию. Всё, с чем Мстители сталкивались ранее, вело к этому моменту — судьба Земли никогда ещё не была столь неопределённой.- -Качество: BDRip 1080p
Формат: MKV
Видео кодек: x.264
Аудио кодек: AC3, DTS
Видео: MPEG-4 AVC, 1920x804, 11.0 Mbit/s, 23.976 fps
Аудио 1: 48 kHz, AC3, 6 ch, 384 kbps
Аудио 2: 48 kHz, DTS, 6 ch, 1509 kbps-

MI

General
Unique ID : 247706366834981929220123898139828647970 (0xBA5A82CC53C554D192CD8A15A6617822)
Complete name : Avengers.Infinity.War.2018.BDRip.1080.ExKinoRay.mkv
Format : Matroska
Format version : Version 4 / Version 2
File size : 13.5 GiB
Duration : 2 h 29 min
Overall bit rate : 12.9 Mb/s
Movie name : Avengers Infinity War 2018 from ExKinoRay
Encoded date : UTC 2018-08-02 18:20:57
Writing application : mkvmerge v23.0.0 ('The Bride Said No') 64-bit
Writing library : libebml v1.3.6 + libmatroska v1.4.9
Video
ID : 1
Format : AVC
Format/Info : Advanced Video Codec
Format profile : High@L4.1
Format settings : CABAC / 5 Ref Frames
Format settings, CABAC : Yes
Format settings, ReFrames : 5 frames
Codec ID : V_MPEG4/ISO/AVC
Duration : 2 h 29 min
Bit rate : 11.0 Mb/s
Width : 1 920 pixels
Height : 804 pixels
Display aspect ratio : 2.40:1
Frame rate mode : Constant
Frame rate : 23.976 (24000/1001) FPS
Color space : YUV
Chroma subsampling : 4:2:0
Bit depth : 8 bits
Scan type : Progressive
Bits/(Pixel*Frame) : 0.297
Stream size : 11.5 GiB (85%)
Writing library : x264 core 148 r2705 3f5ed56
Encoding settings : cabac=1 / ref=5 / deblock=1:-2:-2 / analyse=0x3:0x133 / me=umh / subme=11 / psy=1 / psy_rd=1.15:0.40 / mixed_ref=1 / me_range=48 / chroma_me=1 / trellis=2 / 8x8dct=1 / cqm=0 / deadzone=21,11 / fast_pskip=0 / chroma_qp_offset=-4 / threads=12 / lookahead_threads=2 / sliced_threads=0 / nr=0 / decimate=0 / interlaced=0 / bluray_compat=0 / constrained_intra=0 / bframes=8 / b_pyramid=2 / b_adapt=2 / b_bias=0 / direct=3 / weightb=1 / open_gop=0 / weightp=2 / keyint=240 / keyint_min=23 / scenecut=40 / intra_refresh=0 / rc_lookahead=50 / rc=2pass / mbtree=0 / bitrate=11000 / ratetol=1.0 / qcomp=0.60 / qpmin=0 / qpmax=51 / qpstep=4 / cplxblur=20.0 / qblur=0.5 / vbv_maxrate=50000 / vbv_bufsize=62500 / nal_hrd=none / filler=0 / ip_ratio=1.40 / pb_ratio=1.30 / aq=3:0.80
Language : English
Default : Yes
Forced : No
Audio #1
ID : 2
Format : AC-3
Format/Info : Audio Coding 3
Codec ID : A_AC3
Duration : 2 h 29 min
Bit rate mode : Constant
Bit rate : 384 kb/s
Channel(s) : 6 channels
Channel positions : Front: L C R, Side: L R, LFE
Sampling rate : 48.0 kHz
Frame rate : 31.250 FPS (1536 SPF)
Bit depth : 16 bits
Compression mode : Lossy
Stream size : 411 MiB (3%)
Title : iTunes
Language : Russian
Service kind : Complete Main
Default : Yes
Forced : Yes
Audio #2
ID : 3
Format : DTS
Format/Info : Digital Theater Systems
Codec ID : A_DTS
Duration : 2 h 29 min
Bit rate mode : Constant
Bit rate : 1 509 kb/s
Channel(s) : 6 channels
Channel positions : Front: L C R, Side: L R, LFE
Sampling rate : 48.0 kHz
Frame rate : 93.750 FPS (512 SPF)
Bit depth : 24 bits
Compression mode : Lossy
Stream size : 1.57 GiB (12%)
Title : Original
Language : English
Default : No
Forced : No
Text #1
ID : 4
Format : UTF-8
Codec ID : S_TEXT/UTF8
Codec ID/Info : UTF-8 Plain Text
Duration : 2 h 12 min
Bit rate : 0 b/s
Count of elements : 14
Stream size : 373 Bytes (0%)
Title : Forced
Language : Russian
Default : Yes
Forced : Yes
Text #2
ID : 5
Format : UTF-8
Codec ID : S_TEXT/UTF8
Codec ID/Info : UTF-8 Plain Text
Duration : 2 h 28 min
Bit rate : 64 b/s
Count of elements : 1596
Stream size : 70.4 KiB (0%)
Title : Full
Language : Russian
Default : No
Forced : No
Text #3
ID : 6
Format : UTF-8
Codec ID : S_TEXT/UTF8
Codec ID/Info : UTF-8 Plain Text
Duration : 2 h 28 min
Bit rate : 76 b/s
Count of elements : 2085
Stream size : 83.2 KiB (0%)
Title : SDH
Language : Russian
Default : No
Forced : No
Text #4
ID : 7
Format : UTF-8
Codec ID : S_TEXT/UTF8
Codec ID/Info : UTF-8 Plain Text
Duration : 2 h 28 min
Bit rate : 42 b/s
Count of elements : 1724
Stream size : 46.1 KiB (0%)
Title : Full
Language : English
Default : No
Forced : No
Text #5
ID : 8
Format : UTF-8
Codec ID : S_TEXT/UTF8
Codec ID/Info : UTF-8 Plain Text
Duration : 2 h 28 min
Bit rate : 49 b/s
Count of elements : 2067
Stream size : 53.9 KiB (0%)
Title : SDH
Language : English
Default : No
Forced : No
Text #6
ID : 9
Format : UTF-8
Codec ID : S_TEXT/UTF8
Codec ID/Info : UTF-8 Plain Text
Duration : 2 h 28 min
Bit rate : 70 b/s
Count of elements : 2067
Stream size : 76.5 KiB (0%)
Title : SDH Colored
Language : English
Default : No
Forced : No
Menu
00:00:00.000 : en:00:00:00.000
00:11:28.730 : en:00:11:28.730
00:18:13.884 : en:00:18:13.884
00:27:23.809 : en:00:27:23.809
00:35:48.813 : en:00:35:48.813
00:42:23.541 : en:00:42:23.541
00:54:12.875 : en:00:54:12.875
00:59:36.740 : en:00:59:36.740
01:05:07.153 : en:01:05:07.153
01:10:53.666 : en:01:10:53.666
01:17:06.956 : en:01:17:06.956
01:24:14.758 : en:01:24:14.758
01:31:08.004 : en:01:31:08.004
01:42:00.406 : en:01:42:00.406
01:45:57.810 : en:01:45:57.810
01:53:04.069 : en:01:53:04.069
01:58:52.917 : en:01:58:52.917
02:03:58.181 : en:02:03:58.181
02:11:13.282 : en:02:11:13.282
02:17:31.285 : en:02:17:31.285

Трейлер

-     - -
 

Текущее время: Сегодня 06:14

Часовой пояс: GMT + 3