Сегодня идет свободное скачивание без начисления Download

Результатов поиска: 500

Автор Сообщение

Theseus

Пост 04-Июл-2018 16:30

[Цитировать]

Первому игроку приготовиться / Ready Player One -Год выхода: 2018
Страна: США
Жанр: Фантастика, боевик, приключения
Продолжительность: 02:19:58
Перевод: Профессиональный (полное дублирование) | iTunes
Субтитры: Русские, английские-Режиссер: Стивен Спилберг-В ролях: Тай Шеридан, Оливия Кук, Бен Мендельсон, Лина Уэйте, ТиДжей Миллер, Саймон Пегг, Марк Райлэнс, Филип Чжао, Уин Морисаки, Ханна Джон-Кэймен, Ралф Айнесон, Сьюзэн Линч, Клер Хиггинс, Лоуренс Спэллман, Пердита Викс, Джоэль МакКормэк, Кит Коннор, Лео Хеллер, Линн Уилморт-О фильме: Действие фильма происходит в 2045 году, мир погружается в хаос и находится на грани коллапса. Люди ищут спасения в игре OASIS — огромной вселенной виртуальной реальности. Ее создатель, гениальный и эксцентричный Джеймс Холлидэй, оставляет уникальное завещание. Все его колоссальное состояние получит игрок, первым обнаруживший цифровое «пасхальное яйцо», которое миллиардер спрятал где-то на просторах OASISа. Запущенный им квест охватывает весь мир. Совершенно негероический парень по имени Уэйд Уоттс решает принять участие в состязании, с головой бросаясь в головокружительную, искажающую реальность погоню за сокровищами по фантастической вселенной, полной загадок, открытий и опасностей.- -Качество: HDRip-AVC
Формат: MKV
Видео кодек: x.264
Аудио кодек: AC3
Видео: MPEG-4 AVC, 1024x428 (2.40:1), 23.976 fps, ~2174 kbps
Аудио 1: AC3, 48.0 KHz, 6 ch, 384 Kbps | RUS [DUB / iTunes]
Аудио 2: AC3, 48.0 KHz, 2 ch, 192 Kbps | UKR [DUB / Postmodern]
Аудио 3: AC3, 48.0 KHz, 6 ch, 384 Kbps | ENG-

MediaInfo

Код:
General
Unique ID : 220427831904323980162127065159881121513 (0xA5D4DB3030F286D6954581F842D2DEE9)
Complete name :Ready.Player.One.2018.HDRip.AVC.ExKinoRay.mkv
Format : Matroska
Format version : Version 2
File size : 3.07 GiB
Duration : 2 h 19 min
Overall bit rate : 3 136 kb/s
Movie name : Ready Player One 2018 from ExKinoRay
Encoded date : UTC 2018-07-04 11:15:56
Writing application : mkvmerge v5.6.0 ('Kenya Kane') built on May 27 2012 16:44:04
Writing library : libebml v1.2.3 + libmatroska v1.3.0
Video
ID : 1
Format : AVC
Format/Info : Advanced Video Codec
Format profile : High@L4.1
Format settings, CABAC : Yes
Format settings, ReFrames : 12 frames
Codec ID : V_MPEG4/ISO/AVC
Duration : 2 h 19 min
Bit rate : 2 174 kb/s
Width : 1 024 pixels
Height : 428 pixels
Display aspect ratio : 2.40:1
Frame rate mode : Constant
Frame rate : 23.976 (23976/1000) FPS
Color space : YUV
Chroma subsampling : 4:2:0
Bit depth : 8 bits
Scan type : Progressive
Bits/(Pixel*Frame) : 0.207
Stream size : 2.07 GiB (67%)
Title : Enigma
Writing library : x264 core 152 r2851 ba24899
Encoding settings : cabac=1 / ref=12 / deblock=1:-2:-2 / analyse=0x3:0x113 / me=umh / subme=10 / psy=1 / psy_rd=1.00:0.00 / mixed_ref=1 / me_range=32 / chroma_me=1 / trellis=2 / 8x8dct=1 / cqm=0 / deadzone=21,11 / fast_pskip=0 / chroma_qp_offset=-2 / threads=12 / lookahead_threads=3 / sliced_threads=0 / nr=0 / decimate=0 / interlaced=0 / bluray_compat=0 / constrained_intra=0 / bframes=11 / b_pyramid=2 / b_adapt=2 / b_bias=0 / direct=3 / weightb=1 / open_gop=0 / weightp=2 / keyint=240 / keyint_min=23 / scenecut=40 / intra_refresh=0 / rc_lookahead=40 / rc=2pass / mbtree=0 / bitrate=2174 / ratetol=1.0 / qcomp=0.60 / qpmin=0 / qpmax=51 / qpstep=4 / cplxblur=20.0 / qblur=0.5 / vbv_maxrate=50000 / vbv_bufsize=62500 / nal_hrd=none / filler=0 / ip_ratio=1.30 / pb_ratio=1.20 / aq=3:0.80
Language : English
Default : Yes
Forced : No
Color range : Limited
Color primaries : BT.709
Transfer characteristics : BT.709
Matrix coefficients : BT.709
Audio #1
ID : 2
Format : AC-3
Format/Info : Audio Coding 3
Mode extension : CM (complete main)
Format settings, Endianness : Big
Codec ID : A_AC3
Duration : 2 h 19 min
Bit rate mode : Constant
Bit rate : 384 kb/s
Channel(s) : 6 channels
Channel positions : Front: L C R, Side: L R, LFE
Sampling rate : 48.0 kHz
Frame rate : 31.250 FPS (1536 spf)
Compression mode : Lossy
Stream size : 384 MiB (12%)
Title : iTunes
Language : Russian
Default : Yes
Forced : Yes
Audio #2
ID : 3
Format : AC-3
Format/Info : Audio Coding 3
Mode extension : CM (complete main)
Format settings, Endianness : Big
Codec ID : A_AC3
Duration : 2 h 19 min
Bit rate mode : Constant
Bit rate : 192 kb/s
Channel(s) : 2 channels
Channel positions : Front: L R
Sampling rate : 48.0 kHz
Frame rate : 31.250 FPS (1536 spf)
Compression mode : Lossy
Stream size : 192 MiB (6%)
Title : Dub (Hurtom)
Language : Ukrainian
Default : No
Forced : No
Audio #3
ID : 4
Format : AC-3
Format/Info : Audio Coding 3
Mode extension : CM (complete main)
Format settings, Endianness : Big
Codec ID : A_AC3
Duration : 2 h 19 min
Bit rate mode : Constant
Bit rate : 384 kb/s
Channel(s) : 6 channels
Channel positions : Front: L C R, Side: L R, LFE
Sampling rate : 48.0 kHz
Frame rate : 31.250 FPS (1536 spf)
Compression mode : Lossy
Stream size : 384 MiB (12%)
Language : English
Default : No
Forced : No
Text #1
ID : 5
Format : UTF-8
Codec ID : S_TEXT/UTF8
Codec ID/Info : UTF-8 Plain Text
Title : Forced
Language : Russian
Default : Yes
Forced : Yes
Text #2
ID : 6
Format : UTF-8
Codec ID : S_TEXT/UTF8
Codec ID/Info : UTF-8 Plain Text
Title : Full
Language : Russian
Default : No
Forced : No
Text #3
ID : 7
Format : UTF-8
Codec ID : S_TEXT/UTF8
Codec ID/Info : UTF-8 Plain Text
Title : Full v.2
Language : Russian
Default : No
Forced : No
Text #4
ID : 8
Format : UTF-8
Codec ID : S_TEXT/UTF8
Codec ID/Info : UTF-8 Plain Text
Title : Full
Language : English
Default : No
Forced : No
Menu
00:00:00.000 : en:00:00:00.000
00:10:08.233 : en:00:10:08.233
00:20:18.259 : en:00:20:18.259
00:30:37.627 : en:00:30:37.627
00:40:38.269 : en:00:40:38.269
00:50:08.964 : en:00:50:08.964
01:03:01.778 : en:01:03:01.778
01:11:55.269 : en:01:11:55.269
01:20:14.727 : en:01:20:14.727
01:30:58.328 : en:01:30:58.328
01:43:26.742 : en:01:43:26.742
01:53:02.150 : en:01:53:02.150
02:04:20.161 : en:02:04:20.161
02:09:17.249 : en:02:09:17.249

Трейлер

-    - -

Theseus

Пост 04-Июл-2018 16:29

[Цитировать]

Первому игроку приготовиться / Ready Player One -Год выхода: 2018
Страна: США
Жанр: Фантастика, боевик, приключения
Продолжительность: 02:19:58
Перевод: Профессиональный (полное дублирование) | iTunes
Субтитры: Русские (форсированные) [внешние]-Режиссер: Стивен Спилберг-В ролях: Тай Шеридан, Оливия Кук, Бен Мендельсон, Лина Уэйте, ТиДжей Миллер, Саймон Пегг, Марк Райлэнс, Филип Чжао, Уин Морисаки, Ханна Джон-Кэймен, Ралф Айнесон, Сьюзэн Линч, Клер Хиггинс, Лоуренс Спэллман, Пердита Викс, Джоэль МакКормэк, Кит Коннор, Лео Хеллер, Линн Уилморт-О фильме: Действие фильма происходит в 2045 году, мир погружается в хаос и находится на грани коллапса. Люди ищут спасения в игре OASIS — огромной вселенной виртуальной реальности. Ее создатель, гениальный и эксцентричный Джеймс Холлидэй, оставляет уникальное завещание. Все его колоссальное состояние получит игрок, первым обнаруживший цифровое «пасхальное яйцо», которое миллиардер спрятал где-то на просторах OASISа. Запущенный им квест охватывает весь мир. Совершенно негероический парень по имени Уэйд Уоттс решает принять участие в состязании, с головой бросаясь в головокружительную, искажающую реальность погоню за сокровищами по фантастической вселенной, полной загадок, открытий и опасностей.- -Качество: HDRip
Формат: AVI
Видео кодек: XviD
Аудио кодек: AC3
Видео: XviD, 720x304, 23.976 fps, 1831 kbps
Аудио: AC3, 48.0 KHz, 6 ch, 384 kbps-

Трейлер

-     - -

Theseus

Пост 04-Июл-2018 16:29

[Цитировать]

Первому игроку приготовиться / Ready Player One -Год выхода: 2018
Страна: США
Жанр: Фантастика, боевик, приключения
Продолжительность: 02:19:58
Перевод: Профессиональный (полное дублирование) | iTunes
Субтитры: Русские (форсированные) [внешние]-Режиссер: Стивен Спилберг-В ролях: Тай Шеридан, Оливия Кук, Бен Мендельсон, Лина Уэйте, ТиДжей Миллер, Саймон Пегг, Марк Райлэнс, Филип Чжао, Уин Морисаки, Ханна Джон-Кэймен, Ралф Айнесон, Сьюзэн Линч, Клер Хиггинс, Лоуренс Спэллман, Пердита Викс, Джоэль МакКормэк, Кит Коннор, Лео Хеллер, Линн Уилморт-О фильме: Действие фильма происходит в 2045 году, мир погружается в хаос и находится на грани коллапса. Люди ищут спасения в игре OASIS — огромной вселенной виртуальной реальности. Ее создатель, гениальный и эксцентричный Джеймс Холлидэй, оставляет уникальное завещание. Все его колоссальное состояние получит игрок, первым обнаруживший цифровое «пасхальное яйцо», которое миллиардер спрятал где-то на просторах OASISа. Запущенный им квест охватывает весь мир. Совершенно негероический парень по имени Уэйд Уоттс решает принять участие в состязании, с головой бросаясь в головокружительную, искажающую реальность погоню за сокровищами по фантастической вселенной, полной загадок, открытий и опасностей.- -Качество: HDRip
Формат: AVI
Видео кодек: XviD
Аудио кодек: AC3
Видео: XviD, 720x304, 23.976 fps, 1189 kbps
Аудио: AC3, 48.0 KHz, 2 ch, 192 kbps-

Трейлер

-     - -

Theseus

Пост 26-Июн-2018 22:21

[Цитировать]

Операция «Шаровая молния» / Entebbe- Год выхода: 2018
Страна: Великобритания, США
Жанр: триллер, драма, криминал, история
Продолжительность: 01:47:00
Перевод: Профессиональный (полное дублирование) | iTunes
Субтитры: Отсутствуют-Режиссер: Жозе Падилья-В ролях: Розамунд Пайк, Даниэль Брюль, Эдди Марсан, Бен Шнетцер, Нонсо Анози, Марк Иванир, Дени Меноше, Хуан Пабло Раба, Анхель Бунани, Бронтис Ходоровски-О фильме: В 1976 году самолет, следовавший из Тель-Авива в Париж, был захвачен террористами и совершил вынужденную посадку в аэропорту Энтеббе в Уганде с целью обмена заложников на осужденных преступников. Дипломатического решения вопроса за 7 дней найти не удалось. Тогда был разработан весьма изобретательный и крайне смелый план спасения…- -Качество: BDRip
Формат: AVI
Видео кодек: XviD
Аудио кодек: AC3
Видео: XviD, 720x304, 23.976 fps, 1495 kbps
Аудио: AC3, 48.0 KHz, 6 ch, 384 Kbps, CBR-

Трейлер

-     - -

Theseus

Пост 23-Июн-2018 23:03

[Цитировать]

Операция «Шаровая молния» / Entebbe- Год выхода: 2018
Страна: Великобритания, США
Жанр: триллер, драма, криминал, история
Продолжительность: 01:57:50
Перевод: Mногоголосый, закадровый | HDrezka Studio
Субтитры: Отсутствуют-Режиссер: Жозе Падилья-В ролях: Розамунд Пайк, Даниэль Брюль, Эдди Марсан, Бен Шнетцер, Нонсо Анози, Марк Иванир, Дени Меноше, Хуан Пабло Раба, Анхель Бунани, Бронтис Ходоровски-О фильме: В 1976 году самолет, следовавший из Тель-Авива в Париж, был захвачен террористами и совершил вынужденную посадку в аэропорту Энтеббе в Уганде с целью обмена заложников на осужденных преступников. Дипломатического решения вопроса за 7 дней найти не удалось. Тогда был разработан весьма изобретательный и крайне смелый план спасения…- -Качество: HDRip
Формат: AVI
Видео кодек: XviD
Аудио кодек: AC3
Видео: XviD, 720x304, 23.976 fps, 1753 kbps
Аудио: AC3, 48.0 KHz, 2 ch, 192 Kbps, CBR-Рекламы нет !-

Трейлер

-    - -

Theseus

Пост 20-Июн-2018 16:42

[Цитировать]

Рэмпейдж / Rampage -Год выхода: 2018
Страна: США
Жанр: Фантастика, боевик, приключения
Продолжительность: 01:47:14
Перевод: Профессиональный (полное дублирование) | Чистый звук
Субтитры: Русские (Forced, Full), английские-Режиссер: Брэд Пейтон-В ролях: Дуэйн Джонсон, Джеффри Дин Морган, Малин Акерман, Джо Манганьелло, Марли Шелтон, Уилл Юн Ли, Наоми Харрис, Джек Куэйд, Джейк Лэси, Бриэнн Хилл-О фильме: Приматолог Дэвис Окойи предпочитает держаться подальше от людей и дружит с Джорджем, удивительно умным самцом гориллы, которого он воспитывал с самого рождения. Но вышедший из-под контроля генетический эксперимент превращает послушную обезьяну в яростного монстра. Более того, вскоре обнаруживается, что существуют и другие модифицированные хищники. Пока свежесозданные чудовища превращают в руины Северную Америку, стирая с лица Земли все, что попадается у них на пути, Окойи вместе с опальным генным инженером пытается изобрести антидот, прорываясь по бесконечному полю боя не только, чтобы предотвратить глобальную катастрофу, но и спасти бесстрашное существо, которое когда-то было его другом.- -Качество: WEB-DLRip-AVC
Формат: MKV
Видео кодек: x.264
Аудио кодек: AC3
Видео: MPEG-4 AVC, 1024x426 (2.40:1), 23.976 fps, ~2140 kbps avg, 0.205 bit/pixel
Звук 1: 48 kHz, AC3 Dolby Digital, 2/0 ch, ~384 kbps avg - Dub [русский (Line)]
Звук 2: 48 kHz, AC3 Dolby Digital, 2/0 ch, ~192 kbps avg - Dub [украинский (Hurtom)]
Звук 3: 48 kHz, AC3 Dolby Digital, 5/1 ch, ~384 kbps avg - Eng-Рекламы нет !-

Трейлер

-    - -

Theseus

Пост 20-Июн-2018 16:41

[Цитировать]

Рэмпейдж / Rampage -Год выхода: 2018
Страна: США
Жанр: Фантастика, боевик, приключения
Продолжительность: 01:47:16
Перевод: Профессиональный (полное дублирование) | iTunes
Субтитры: Русские форсированные (вшитые)-Режиссер: Брэд Пейтон-В ролях: Дуэйн Джонсон, Джеффри Дин Морган, Малин Акерман, Джо Манганьелло, Марли Шелтон, Уилл Юн Ли, Наоми Харрис, Джек Куэйд, Джейк Лэси, Бриэнн Хилл-О фильме: Приматолог Дэвис Окойи предпочитает держаться подальше от людей и дружит с Джорджем, удивительно умным самцом гориллы, которого он воспитывал с самого рождения. Но вышедший из-под контроля генетический эксперимент превращает послушную обезьяну в яростного монстра. Более того, вскоре обнаруживается, что существуют и другие модифицированные хищники. Пока свежесозданные чудовища превращают в руины Северную Америку, стирая с лица Земли все, что попадается у них на пути, Окойи вместе с опальным генным инженером пытается изобрести антидот, прорываясь по бесконечному полю боя не только, чтобы предотвратить глобальную катастрофу, но и спасти бесстрашное существо, которое когда-то было его другом.- -Качество: HDRip
Формат: AVI
Видео кодек: XviD
Аудио кодек: AC3
Видео: XviD, 720x304 (2.35:1), 23.976 fps, 1548 Kbps (0.295 bit/pixel)
Звук: AC-3, 48.0 KHz, 6 ch, 384 Kbps-

Трейлер

-     - -

Theseus

Пост 03-Июн-2018 15:38

[Цитировать]

Tomb Raider: Лара Крофт / Tomb Raider- Год выхода: 2018
Страна: Великобритания, США
Жанр: Боевик, Приключения
Продолжительность: 01:57:50
Перевод: Mногоголосый, закадровый | HDrezka Studio
Субтитры: Английские-Режиссер: Роар Утхауг-В ролях: Алисия Викандер, Доминик Уэст, Уолтон Гоггинс, Дэниэл Ву, Кристин Скотт Томас, Дерек Джекоби, Александр Виллауме, Тамер Барджаг, Эдриан Коллинз, Кинэн Эррисон-О фильме: Лара Крофт — весьма самостоятельная дочь эксцентричного искателя приключений, который пропал, едва она стала подростком. Теперь ей двадцать один, она бесцельно проживает свою жизнь, курьером рассекая на байке по забитым улицам восточного Лондона. Решительно настроенная пробиться сама, она отказывается брать на себя руководство глобальной империей отца, столь же категорично отвергая мысль о том, что он действительно пропал. Слыша советы о том, что ей нужно смириться с этим фактом и жить дальше после семи лет бесплодных поисков, Лара уже и сама не понимает, что же заставляет ее распутывать обстоятельства его таинственного исчезновения.- -Качество: BDRip-AVC
Формат: MKV
Видео кодек: x.264
Аудио кодек: AC3
Видео: 1024x426 (2.40:1), 23,976 fps, x264 ~2 063 kbps avg, 0.197 bit/pixel
Аудио #1: 48 kHz, AC3 Dolby Digital, 2 (L,R) ch, ~192.00 kbps avg | RUS (HDRezka)
Аудио #2: 48 kHz, AC3 Dolby Digital, 3/2 (L,C,R,l,r) + LFE ch, ~448.00 kbps avg | ENG-Рекламы нет !-

Трейлер

-     - -

Theseus

Пост 03-Июн-2018 15:37

[Цитировать]

Tomb Raider: Лара Крофт / Tomb Raider- Год выхода: 2018
Страна: Великобритания, США
Жанр: Боевик, Приключения
Продолжительность: 01:57:50
Перевод: Mногоголосый, закадровый | HDrezka Studio
Субтитры: Отсутствуют-Режиссер: Роар Утхауг-В ролях: Алисия Викандер, Доминик Уэст, Уолтон Гоггинс, Дэниэл Ву, Кристин Скотт Томас, Дерек Джекоби, Александр Виллауме, Тамер Барджаг, Эдриан Коллинз, Кинэн Эррисон-О фильме: Лара Крофт — весьма самостоятельная дочь эксцентричного искателя приключений, который пропал, едва она стала подростком. Теперь ей двадцать один, она бесцельно проживает свою жизнь, курьером рассекая на байке по забитым улицам восточного Лондона. Решительно настроенная пробиться сама, она отказывается брать на себя руководство глобальной империей отца, столь же категорично отвергая мысль о том, что он действительно пропал. Слыша советы о том, что ей нужно смириться с этим фактом и жить дальше после семи лет бесплодных поисков, Лара уже и сама не понимает, что же заставляет ее распутывать обстоятельства его таинственного исчезновения.- -Качество: HDRip-AVC
Формат: MKV
Видео кодек: x.264
Аудио кодек: AAC
Видео: MPEG-4 AVC, 768x320, ~ 807 kbps, 23.976 fps
Аудио: AAC-HE, 48.0 KHz, 2 ch, 76 Kbps-Рекламы нет !-

Трейлер

-     - -

Theseus

Пост 03-Июн-2018 15:35

[Цитировать]

Tomb Raider: Лара Крофт / Tomb Raider- Год выхода: 2018
Страна: Великобритания, США
Жанр: Боевик, Приключения
Продолжительность: 01:57:50
Перевод: Mногоголосый, закадровый | HDrezka Studio
Субтитры: Отсутствуют-Режиссер: Роар Утхауг-В ролях: Алисия Викандер, Доминик Уэст, Уолтон Гоггинс, Дэниэл Ву, Кристин Скотт Томас, Дерек Джекоби, Александр Виллауме, Тамер Барджаг, Эдриан Коллинз, Кинэн Эррисон-О фильме: Лара Крофт — весьма самостоятельная дочь эксцентричного искателя приключений, который пропал, едва она стала подростком. Теперь ей двадцать один, она бесцельно проживает свою жизнь, курьером рассекая на байке по забитым улицам восточного Лондона. Решительно настроенная пробиться сама, она отказывается брать на себя руководство глобальной империей отца, столь же категорично отвергая мысль о том, что он действительно пропал. Слыша советы о том, что ей нужно смириться с этим фактом и жить дальше после семи лет бесплодных поисков, Лара уже и сама не понимает, что же заставляет ее распутывать обстоятельства его таинственного исчезновения.- -Качество: HDRip
Формат: AVI
Видео кодек: XviD
Аудио кодек: AC3
Видео: 720x304 (2.37:1), 23.976 fps, XviD build 73 ~1572 kbps avg, 0.30 bit/pixel
Аудио: AC3, 48.0 KHz, 2 ch, 192 Kbps, CBR-> Сэмпл-Рекламы нет !-

Трейлер

-     - -

Theseus

Пост 31-Май-2018 21:27

[Цитировать]

Тихое место / A Quiet Place- Год выхода: 2018
Страна: США
Жанр: ужасы, фантастика, триллер, драма
Продолжительность: 01:30:21
Перевод: Профессиональный (многоголосый, закадровый) | HDrezka Studio
Субтитры: Корейские (вшитые) , русские (внешние)-Режиссер: Джон Красински-В ролях: Эмили Блант, Джон Красински, Милли Симмондс, Ноа Джуп, Кейд Вудворд, Леон Рассом, Дорис МакКарти, Рода Пелл-О фильме: Семья с двумя детьми живёт на отдалённой ферме. Казалось бы, жизнь этих людей совершенно не отличается от жизни других таких семей, но они живут в месте, которое наполнено ужасными монстрами, реагирующими на любой звук. Семейство разучило целый комплекс специальных жестов, которые помогают им общаться друг с другом, не издавая ни единого звука. Кроме того, каждый из членов семьи должен очень тихо передвигаться, чтобы опасные существа их не услышали. Однако дом, где живут дети, не может быть самым тихим местом на земле.- -Качество: WEBRip
Формат: AVI
Видео кодек: XviD
Аудио кодек: AC3
Видео: MPEG4, XviD, 720x304 (2.35:1), 29.970 fps, 1 974 Kbps (0.301 bit/pixel)
Аудио: AC-3, 48.0 KHz, 2 ch, 192 Kbps, CBR- - -

Трейлер

-     - -

Theseus

Пост 27-Май-2018 16:41

[Цитировать]

Жажда смерти / Death Wish- Год выпуска: 2018
Производство: США
Жанр: боевик, триллер, криминал
Продолжительность: 01:46:43
Перевод: Профессиональный (полное дублирование) | Чистый звук
Субтитры: Отсутствуют-Режиссер: Элай Рот-В ролях: Брюс Уиллис, Винсент Д'Онофрио, Элизабет Шу, Камила Морроне, Дин Норрис, Бо Напп, Кимберли Элиз, Лен Кариу, Джек Кеси, Ронни Джин Блевинс-Описание: Пол Керси — хирург, привыкший вытаскивать людей с того света после криминальных разборок. Но после того, как его жена и дочь становятся жертвами уличной банды, а полиция бездействует, он берет карающий меч правосудия в свои руки. Видео изобретательных убийств преступников покоряют интернет-топы, а среди жителей города расходятся слухи о неуловимом народном мстителе, которому теперь принадлежит весь город. Он мстит бодро, весело и со вкусом..- -Качество: HDRip-AVC
Формат: MKV
Видео кодек: x.264
Аудио кодек: AAC
Видео: AVC, 748x312, 23.976 fps, x.264 ~910 kbps
Аудио: AAC, 48.0 KHz, 2 ch, 64 Kbps, CBR
-

Трейлер

-     - -

Theseus

Пост 27-Май-2018 16:39

[Цитировать]

Жажда смерти / Death Wish- Год выпуска: 2018
Производство: США
Жанр: боевик, триллер, криминал
Продолжительность: 01:46:43
Перевод: Профессиональный (полное дублирование) | Чистый звук
Субтитры: Отсутствуют-Режиссер: Элай Рот-В ролях: Брюс Уиллис, Винсент Д'Онофрио, Элизабет Шу, Камила Морроне, Дин Норрис, Бо Напп, Кимберли Элиз, Лен Кариу, Джек Кеси, Ронни Джин Блевинс-Описание: Пол Керси — хирург, привыкший вытаскивать людей с того света после криминальных разборок. Но после того, как его жена и дочь становятся жертвами уличной банды, а полиция бездействует, он берет карающий меч правосудия в свои руки. Видео изобретательных убийств преступников покоряют интернет-топы, а среди жителей города расходятся слухи о неуловимом народном мстителе, которому теперь принадлежит весь город. Он мстит бодро, весело и со вкусом..- -Качество: BDRip
Формат: AVI
Видео кодек: XviD
Аудио кодек: AC3
Видео: MPEG4, XviD, 720x304 (2.35:1), 23.976 fps, 1 463 Kbps
Аудио: AC-3, 48.0 KHz, 6 ch, 384 Kbps, CBR | (Центральный канал Line / редакция WetY)- - -

MediaInfo

Общее
Полное имя : Death.Wish.2018.BDRip.avi
Формат : AVI
Формат/Информация : Audio Video Interleave
Размер файла : 1,39 Гбайт
Продолжительность : 1 ч. 46 м.
Общий поток : 1858 Кбит/сек
Библиотека кодирования : VirtualDub build 35491/release
Видео
Идентификатор : 0
Формат : MPEG-4 Visual
Профиль формата : Advanced Simple@L5
Настройки формата : BVOP2
Параметр BVOP формата : 2
Параметр QPel формата : Нет
Параметр GMC формата : Без точки перехода
Параметр матрицы формата : Default (H.263)
Режим смешивания : Сжатый битовый поток
Идентификатор кодека : XVID
Идентификатор кодека/Подсказка : XviD
Продолжительность : 1 ч. 46 м.
Битрейт : 1463 Кбит/сек
Ширина : 720 пикселей
Высота : 304 пикселя
Соотношение сторон : 2,35:1
Частота кадров : 23,976 (24000/1001) кадра/сек
Цветовое пространство : YUV
Субдискретизация насыщенности : 4:2:0
Битовая глубина : 8 бит
Тип развёртки : Прогрессивная
Метод сжатия : С потерями
Бит/(Пиксели*Кадры) : 0.279
Размер потока : 1,09 Гбайт (79%)
Библиотека кодирования : XviD 66
Аудио
Идентификатор : 1
Формат : AC-3
Формат/Информация : Audio Coding 3
Идентификатор кодека : 2000
Продолжительность : 1 ч. 46 м.
Вид битрейта : Постоянный
Битрейт : 384 Кбит/сек
Каналы : 6 каналов
Расположение каналов : Front: L C R, Side: L R, LFE
Частота : 48,0 КГц
Частота кадров : 31,250 кадров/сек (1536 SPF)
Битовая глубина : 16 бит
Метод сжатия : С потерями
Размер потока : 293 Мбайт (21%)
Выравнивание : Соединение по промежуткам
Продолжительность промежутка : 32 мс. (0,77 видеокадр)
Время предзагрузки промежутка : 512 мс.
ServiceKind/String : Complete Main

Трейлер

-    - -

Theseus

Пост 21-Май-2018 17:59

[Цитировать]

451 градус по Фаренгейту / Fahrenheit 451 -Год выхода: 2018
Страна: США
Жанр: фантастика, драма
Продолжительность: 01:40:14
Перевод: Профессиональный (многоголосый, закадровый) [Amedia]
Субтитры: Русские, английские-Режиссер: Рамин Бахрани-В ролях: Майкл Б. Джордан, София Бутелла, Майкл Шеннон, Кир Дуллеа, Кэнди Александр, Мартин Донован, Лилли Сингх, Мэйко Нгуйен, Джо Пинг, Грэйс Линн Кунг-О фильме: В некоем тоталитарном обществе история переписывается, книги безжалостно сжигаются, их чтение преследуется по закону, чтобы граждане не думали и были счастливы. Во время очередного рейда по наводке информаторши Клариссы «пожарные» находят невероятно большую библиотеку, и служащий Гай Монтэг из любопытства оставляет одну книгу себе. Немного почитав и подружившись с Клариссой, парень начинает сомневаться в правильности своей жизни.- -Качество: WEB-DLRip-AVC
Формат: MKV
Видео кодек: x.264
Аудио кодек: AC3
Видео: AVC, 1024x576 (16:9), 23.976 fps, 1 982 Kbps
Аудио #1: AC-3, 48.0 KHz, 2 ch, 192 Kbps, CBR (Russian)
Аудио #2: AC-3, 48.0 KHz, 6 ch, 448 Kbps, CBR (English)-Рекламы нет !-> Сэмпл-

Трейлер

-    - -

Theseus

Пост 21-Май-2018 17:57

[Цитировать]

451 градус по Фаренгейту / Fahrenheit 451 -Год выхода: 2018
Страна: США
Жанр: фантастика, драма
Продолжительность: 01:40:14
Перевод: Профессиональный (многоголосый, закадровый) [Amedia]
Субтитры: Отсутствуют-Режиссер: Рамин Бахрани-В ролях: Майкл Б. Джордан, София Бутелла, Майкл Шеннон, Кир Дуллеа, Кэнди Александр, Мартин Донован, Лилли Сингх, Мэйко Нгуйен, Джо Пинг, Грэйс Линн Кунг-О фильме: В некоем тоталитарном обществе история переписывается, книги безжалостно сжигаются, их чтение преследуется по закону, чтобы граждане не думали и были счастливы. Во время очередного рейда по наводке информаторши Клариссы «пожарные» находят невероятно большую библиотеку, и служащий Гай Монтэг из любопытства оставляет одну книгу себе. Немного почитав и подружившись с Клариссой, парень начинает сомневаться в правильности своей жизни.- -Качество: WEB-DLRip
Формат: AVI
Видео кодек: XviD
Аудио кодек: AC3
Видео: XviD, 704x400, 23.976 fps, 1888 kbps
Аудио: AC-3, 48.0 KHz, 2 ch, 192 Kbps, CBR-Рекламы нет !-

Трейлер

-     - -
 

Текущее время: Сегодня 23:18

Часовой пояс: GMT + 3