Сегодня идет свободное скачивание без начисления Download

Результатов поиска: 500

Автор Сообщение

Theseus

Пост 11-Ноя-2018 18:53

[Цитировать]

Хищник / The Predator- Год выхода: 2018
Страна: США, Канада
Жанр: ужасы, фантастика, боевик, триллер
Продолжительность: 01:46:48
Перевод: Профессиональный (полное дублирование) | Звук с TS
Субтитры: Корейские вшитые-Режиссер: Шейн Блэк-В ролях: Бойд Холбрук, Треванте Роудс, Джейкоб Тремблей, Кигэн-Майкл Ки, Оливия Манн, Стерлинг К. Браун, Томас Джейн, Алфи Аллен, Августо Агилера, Джейк Бьюзи-О фильме: Главный герой, бывший морпех, обнаруживает злобную инопланетную расу на Земле, но никто не верит ему, что эти твари существуют. Его сын-аутист, которого все обижают в школе, становится ключевой фигурой в схватке с Хищниками, поскольку мальчик умеет невероятно быстро учить языки и, судя по всему, сможет понять пришельцев.- -Качество: WEBRip 1080p
Формат: MKV
Видео кодек: x.264
Аудио кодек: AC3
Видео: AVC, 1920x800 (2.40:1), 30.000 fps, 4 519 Kbps
Аудио #1: AC-3, 48.0 KHz, 2 ch, 192 Kbps (Russian)
Аудио #2: AC-3, 48.0 KHz, 2 ch, 192 Kbps (English)-Сэмпл-Рекламы нет-

MediaInfo

Общее
Уникальный идентификатор : 234550109651822798359604075514830779596 (0xB074B53D1D2E974EACBC66F4D0FBF4CC)
Полное имя : The.Predator.2018.1080p.WEB.mkv
Формат : Matroska
Версия формата : Version 4 / Version 2
Размер файла : 3,63 Гбайт
Продолжительность : 1 ч. 46 м.
Общий поток : 4867 Кбит/сек
Название фильма : EVO
Дата кодирования : UTC 2018-11-11 14:33:39
Программа кодирования : mkvmerge v8.3.0 ('Over the Horizon') 64bit
Библиотека кодирования : libebml v1.3.1 + libmatroska v1.4.2
Видео
Идентификатор : 1
Формат : AVC
Формат/Информация : Advanced Video Codec
Профиль формата : High@L4.1
Параметр CABAC формата : Да
Параметр ReFrames формата : 4 кадра
Идентификатор кодека : V_MPEG4/ISO/AVC
Продолжительность : 1 ч. 46 м.
Битрейт : 4519 Кбит/сек
Ширина : 1920 пикселей
Высота : 800 пикселей
Соотношение сторон : 2,40:1
Режим частоты кадров : Постоянный
Частота кадров : 30,000 кадров/сек
Цветовое пространство : YUV
Субдискретизация насыщенности : 4:2:0
Битовая глубина : 8 бит
Тип развёртки : Прогрессивная
Бит/(Пиксели*Кадры) : 0.098
Размер потока : 3,34 Гбайт (92%)
Библиотека кодирования : x264 core 142 r2479 dd79a61
Настройки программы : cabac=1 / ref=1 / deblock=1:0:0 / analyse=0x3:0x113 / me=hex / subme=2 / psy=1 / psy_rd=1.00:0.00 / mixed_ref=0 / me_range=16 / chroma_me=1 / trellis=0 / 8x8dct=1 / cqm=0 / deadzone=21,11 / fast_pskip=1 / chroma_qp_offset=0 / threads=18 / lookahead_threads=6 / sliced_threads=0 / nr=0 / decimate=1 / interlaced=0 / bluray_compat=0 / constrained_intra=0 / bframes=3 / b_pyramid=2 / b_adapt=1 / b_bias=0 / direct=1 / weightb=1 / open_gop=0 / weightp=1 / keyint=300 / keyint_min=30 / scenecut=40 / intra_refresh=0 / rc_lookahead=10 / rc=abr / mbtree=1 / bitrate=4519 / ratetol=1.0 / qcomp=0.60 / qpmin=0 / qpmax=69 / qpstep=4 / vbv_maxrate=62500 / vbv_bufsize=78125 / nal_hrd=none / filler=0 / ip_ratio=1.40 / aq=1:1.00
Default : Да
Forced : Нет
Цветовой диапазон : Limited
Основные цвета : BT.709
Характеристики трансфера : BT.709
Коэффициенты матрицы : BT.709
Аудио #1
Идентификатор : 2
Формат : AC-3
Формат/Информация : Audio Coding 3
Расширение режима : CM (complete main)
Параметр Endianness формата : Big
Идентификатор кодека : A_AC3
Продолжительность : 1 ч. 46 м.
Вид битрейта : Постоянный
Битрейт : 192 Кбит/сек
Каналы : 2 канала
Расположение каналов : Front: L R
Частота : 48,0 КГц
Частота кадров : 31,250 кадров/сек (1536 spf)
Битовая глубина : 16 бит
Метод сжатия : С потерями
Размер потока : 147 Мбайт (4%)
Заголовок : DUB (TS)
Язык : Russian
Default : Да
Forced : Нет
Аудио #2
Идентификатор : 3
Формат : AC-3
Формат/Информация : Audio Coding 3
Расширение режима : CM (complete main)
Параметр Endianness формата : Big
Идентификатор кодека : A_AC3
Продолжительность : 1 ч. 46 м.
Вид битрейта : Постоянный
Битрейт : 192 Кбит/сек
Каналы : 2 канала
Расположение каналов : Front: L R
Частота : 48,0 КГц
Частота кадров : 31,250 кадров/сек (1536 spf)
Битовая глубина : 16 бит
Метод сжатия : С потерями
Размер потока : 147 Мбайт (4%)
Заголовок : Stereo
Язык : English
Default : Нет
Forced : Нет

Трейлер

-     - -

Theseus

Пост 11-Ноя-2018 18:51

[Цитировать]

Хищник / The Predator- Год выхода: 2018
Страна: США, Канада
Жанр: ужасы, фантастика, боевик, триллер
Продолжительность: 01:46:48
Перевод: Профессиональный (полное дублирование) | Звук с TS
Субтитры: Корейские вшитые-Режиссер: Шейн Блэк-В ролях: Бойд Холбрук, Треванте Роудс, Джейкоб Тремблей, Кигэн-Майкл Ки, Оливия Манн, Стерлинг К. Браун, Томас Джейн, Алфи Аллен, Августо Агилера, Джейк Бьюзи-О фильме: Главный герой, бывший морпех, обнаруживает злобную инопланетную расу на Земле, но никто не верит ему, что эти твари существуют. Его сын-аутист, которого все обижают в школе, становится ключевой фигурой в схватке с Хищниками, поскольку мальчик умеет невероятно быстро учить языки и, судя по всему, сможет понять пришельцев.- -Качество: WEBRip
Формат: AVI
Видео кодек: XviD
Аудио кодек: MP3
Видео: MPEG4, XviD, 720x304 (2.40:1), 30.000 fps, 1 600 Kbps
Аудио #1: MP3, 48.0 KHz, 2 ch, 192 Kbps (Russian)
Аудио #2: MP3, 48.0 KHz, 2 ch, 192 Kbps (English)-Сэмпл-Рекламы нет-

Трейлер

-     - -

Theseus

Пост 11-Ноя-2018 18:47

[Цитировать]

Кин / Kin- Год выхода: 2018
Страна: США
Жанр: Фантастика, боевик
Продолжительность: 01:42:54
Перевод: Профессиональный (полное дублирование) | iTunes
Субтитры: Отсутствуют-Режиссер: Джонатан Бэйкер, Джош Бэйкер-В ролях: Майлс Труитт, Джек Рейнор, Дэннис Куэйд, Зои Кравиц, Джеймс Франко, Кэрри Кун, Йен Мэтьюз, Гэвин Фокс, Стефан Гарно, Лукас Пенар-Описание: Обнаружив инопланетное оружие, об истинной мощи которого можно только догадываться, обычный школьник оказывается в эпицентре крупных проблем: охоту на него и его брата открывает армия пришельцев, спецслужбы и гангстеры.
Он не выбирал эту судьбу, но теперь только от него зависит — спасет загадочный артефакт наш мир или погубит…- -Качество: HDRip
Формат: AVI
Видео кодек: XviD
Аудио кодек: AC3
Видео: 720x304 (2.37:1), 23.976 fps, XviD build 67 ~1636 kbps
Аудио: АС3, 6 ch, 48 kHz, 384 Kbps-

MediaInfo

Код:
Общее
Полное имя                               : Kin_2018_HDRip_iT_by_Dalemake.avi
Формат                                   : AVI
Формат/Информация                        : Audio Video Interleave
Размер файла                             : 1,46 Гбайт
Продолжительность                        : 1 ч. 42 м.
Общий поток                              : 2029 Кбит/сек
Программа кодирования                    : VirtualDubMod 1.5.10.3 | www.virtualdub-fr.org || (build 2550/release)
Библиотека кодирования                   : VirtualDubMod build 2550/release
Видео
Идентификатор                            : 0
Формат                                   : MPEG-4 Visual
Профиль формата                          : Advanced Simple@L5
Параметр BVOP формата                    : 1
Параметр QPel формата                    : Нет
Параметр GMC формата                     : Без точки перехода
Параметр матрицы формата                 : Выборочная
Идентификатор кодека                     : XVID
Идентификатор кодека/Подсказка           : XviD
Продолжительность                        : 1 ч. 42 м.
Битрейт                                  : 1636 Кбит/сек
Ширина                                   : 720 пикселей
Высота                                   : 304 пикселя
Соотношение сторон                       : 2,35:1
Частота кадров                           : 23,976 кадра/сек
Цветовое пространство                    : YUV
Субдискретизация насыщенности            : 4:2:0
Битовая глубина                          : 8 бит
Тип развёртки                            : Прогрессивная
Метод сжатия                             : С потерями
Бит/(Пиксели*Кадры)                      : 0.312
Размер потока                            : 1,18 Гбайт (81%)
Библиотека кодирования                   : XviD 67
Аудио
Идентификатор                            : 1
Формат                                   : AC-3
Формат/Информация                        : Audio Coding 3
Расширение режима                        : CM (complete main)
Параметр Endianness формата              : Big
Идентификатор кодека                     : 2000
Продолжительность                        : 1 ч. 42 м.
Вид битрейта                             : Постоянный
Битрейт                                  : 384 Кбит/сек
Каналы                                   : 6 каналов
Расположение каналов                     : Front: L C R, Side: L R, LFE
Частота                                  : 48,0 КГц
Битовая глубина                          : 16 бит
Метод сжатия                             : С потерями
Размер потока                            : 282 Мбайт (19%)
Выравнивание                             : Разделение по промежуткам
Продолжительность промежутка             : 42  мс. (1,00 видеокадр)
Время предзагрузки промежутка            : 500  мс.

Трейлер

-     - -

Theseus

Пост 10-Ноя-2018 22:04

[Цитировать]

Миссия невыполнима: Последствия / Mission: Impossible - Fallout- Год выхода: 2018
Страна: США, Китай
Жанр: боевик, триллер, приключения
Продолжительность: 02:27:41
Перевод: Любительский (многоголосый закадровый)
Субтитры: Отсутствуют-Режиссер: Кристофер МакКуорри-В ролях: Том Круз, Ребекка Фергюсон, Генри Кавилл, Мишель Монахэн, Ванесса Кирби, Уэс Бентли, Саймон Пегг, Анджела Бассетт, Алек Болдуин, Винг Реймз-Описание: Итан Хант и его команда, а также недавно примкнувшие к ним союзники, вынуждены действовать наперегонки со временем, когда новая миссия идет не по плану.- -Качество: WEB-DLRip
Формат: AVI
Видео кодек: XviD
Аудио кодек: AC3
Видео: MPEG4, XviD, 720x400 (16:9), 23.976 fps, 1 795 Kbps
Аудио 1: AC-3, 48.0 KHz, 2 ch, 192 Kbps | RUS (MVO)
Аудио 2: AC-3, 48.0 KHz, 2 ch, 192 Kbps | UKR (DUB)-Сэмпл-Рекламы нет !-

Трейлер

-     - -

Theseus

Пост 05-Ноя-2018 22:28

[Цитировать]

Мег: Монстр глубины / The Meg- Год выхода: 2018
Страна: США, Китай
Жанр: ужасы, фантастика, боевик, триллер
Продолжительность: 01:53:13
Перевод: Профессиональный (полное дублирование) | iTunes
Субтитры: Русские (форсированные / внешние)-Режиссер: Джон Тёртлтауб-В ролях: Джейсон Стэйтем, Ли Бинбин, Рэйн Уилсон, Клифф Кёртис, Уинстон Чао, Шуя Софиа Цай, Руби Роуз, Пейдж Кеннеди, Роберт Тейлор, Оулавюр Дарри Оулафссон-О фильме: Глубоководный батискаф, осуществляющий наблюдение в рамках международной программы по изучению подводной жизни, был атакован огромным существом, которое все считали давно вымершим. Неисправный аппарат теперь лежит на дне глубочайшей впадины Тихого океана… с оказавшимся в ловушке экипажем. Их время на исходе. Китайский океанограф-новатор, несмотря на протесты его дочери Суинь, зовет спасателя-подводника Джонаса Тейлора, чтобы тот помог спасти команду и океан от невиданной угрозы — доисторической 23-метровой акулы, мегалодона. Никто и подумать не мог, что много лет назад Тейлор уже сталкивался с этим чудовищным созданием.- -Качество: HDRip
Формат: AVI
Видео кодек: XviD
Аудио кодек: AC3
Видео: 720x304 (2.37:1), 23.976 fps, XviD build 67 ~1463 kbps
Аудио: 48 kHz, AC3, 6 ch, 384 kbps-

Трейлер

-    - -

Theseus

Пост 05-Ноя-2018 21:11

[Цитировать]

Слендермен / Slender Man -Год выхода: 2018
Страна: США
Жанр: ужасы, триллер, детектив
Продолжительность: 01:33:09
Перевод: Профессиональный (полное дублирование) [iTunes]
Субтитры: Русские, английские-Режиссер: Сильвен Уайт-В ролях: Джои Кинг, Джулия Голден Теллес, Жасмин Сабино, Анналиса Бассо, Алекс Фитцалан, Тейлор Ричардсон, Хавьер Ботет, Джессика Бланк, Майкл Рейли Бурк, Кевин Чэпмен-О фильме: Слендермен — это худощавая безликая фигура в похоронном костюме. Ходят слухи, что если его вызвать, то он заберёт тебя в другой мир. Четыре подружки-старшеклассницы от нечего делать смотрят в интернете видео о том, как вызвать Слендермена, и через неделю одна из них пропадает без следа.- -Качество: BDRip-AVC
Формат: MKV
Видео кодек: x.264
Аудио кодек: AC3
Видео: AVC, 1024x428 (2.40:1), 23.976 fps, 1884 Kbps
Аудио 1: AC3, 48.0 KHz, 6 ch, 384 Kbps | RUS
Аудио 2: AC3, 48.0 KHz, 6 ch, 448 Kbps | ENG-

Трейлер

-    - -

Theseus

Пост 05-Ноя-2018 21:10

[Цитировать]

Слендермен / Slender Man -Год выхода: 2018
Страна: США
Жанр: ужасы, триллер, детектив
Продолжительность: 01:33:09
Перевод: Профессиональный (полное дублирование) [iTunes]
Субтитры: Русские, английские (внешние)-Режиссер: Сильвен Уайт-В ролях: Джои Кинг, Джулия Голден Теллес, Жасмин Сабино, Анналиса Бассо, Алекс Фитцалан, Тейлор Ричардсон, Хавьер Ботет, Джессика Бланк, Майкл Рейли Бурк, Кевин Чэпмен-О фильме: Слендермен — это худощавая безликая фигура в похоронном костюме. Ходят слухи, что если его вызвать, то он заберёт тебя в другой мир. Четыре подружки-старшеклассницы от нечего делать смотрят в интернете видео о том, как вызвать Слендермена, и через неделю одна из них пропадает без следа.- -Качество: BDRip
Формат: AVI
Видео кодек: XviD
Аудио кодек: AC3
Видео: MPEG4, XviD, 720x304 (2.35:1), 23.976 fps, 1 335Kbps
Аудио 1: AC-3, 48.0 KHz, 6 ch, 384 Kbps | RUS
Аудио 2: AC-3, 48.0 KHz, 6 ch, 448 Kbps | ENG-

Трейлер

-    - -

Theseus

Пост 05-Ноя-2018 21:09

[Цитировать]

Слендермен / Slender Man -Год выхода: 2018
Страна: США
Жанр: ужасы, триллер, детектив
Продолжительность: 01:33:09
Перевод: Профессиональный (полное дублирование) [iTunes]
Субтитры: Отсутствуют-Режиссер: Сильвен Уайт-В ролях: Джои Кинг, Джулия Голден Теллес, Жасмин Сабино, Анналиса Бассо, Алекс Фитцалан, Тейлор Ричардсон, Хавьер Ботет, Джессика Бланк, Майкл Рейли Бурк, Кевин Чэпмен-О фильме: Слендермен — это худощавая безликая фигура в похоронном костюме. Ходят слухи, что если его вызвать, то он заберёт тебя в другой мир. Четыре подружки-старшеклассницы от нечего делать смотрят в интернете видео о том, как вызвать Слендермена, и через неделю одна из них пропадает без следа.- -Качество: BDRip-AVC
Формат: MKV
Видео кодек: x.264
Аудио кодек: AAC
Видео: AVC, 812x340 (2.40:1), 23.976 fps, 1054 Kbps
Аудио: AAC, 48.0 KHz, 2 ch, 64 Kbps-

Трейлер

-   - -

Theseus

Пост 05-Ноя-2018 21:09

[Цитировать]

Слендермен / Slender Man -Год выхода: 2018
Страна: США
Жанр: ужасы, триллер, детектив
Продолжительность: 01:33:09
Перевод: Профессиональный (полное дублирование) [iTunes]
Субтитры: Русские, английские (внешние)-Режиссер: Сильвен Уайт-В ролях: Джои Кинг, Джулия Голден Теллес, Жасмин Сабино, Анналиса Бассо, Алекс Фитцалан, Тейлор Ричардсон, Хавьер Ботет, Джессика Бланк, Майкл Рейли Бурк, Кевин Чэпмен-О фильме: Слендермен — это худощавая безликая фигура в похоронном костюме. Ходят слухи, что если его вызвать, то он заберёт тебя в другой мир. Четыре подружки-старшеклассницы от нечего делать смотрят в интернете видео о том, как вызвать Слендермена, и через неделю одна из них пропадает без следа.- -Качество: BDRip
Формат: AVI
Видео кодек: XviD
Аудио кодек: MP3
Видео: MPEG4, XviD, 688x288 (2.40:1), 23.976 fps, 977 Kbps
Аудио: MP3, 48.0 KHz, 2 ch, 128 Kbps-

Трейлер

-   - -

Theseus

Пост 04-Ноя-2018 13:21

[Цитировать]

Слендермен / Slender Man -Год выхода: 2018
Страна: США
Жанр: ужасы, триллер, детектив
Продолжительность: 01:33:11
Перевод: Профессиональный (полное дублирование) [Чистый звук]
Субтитры: Отсутствуют-Режиссер: Сильвен Уайт-В ролях: Джои Кинг, Джулия Голден Теллес, Жасмин Сабино, Анналиса Бассо, Алекс Фитцалан, Тейлор Ричардсон, Хавьер Ботет, Джессика Бланк, Майкл Рейли Бурк, Кевин Чэпмен-О фильме: Слендермен — это худощавая безликая фигура в похоронном костюме. Ходят слухи, что если его вызвать, то он заберёт тебя в другой мир. Четыре подружки-старшеклассницы от нечего делать смотрят в интернете видео о том, как вызвать Слендермена, и через неделю одна из них пропадает без следа.- -Качество: BDRip
Формат: AVI
Видео кодек: XviD
Аудио кодек: AC3
Видео: MPEG4, XviD, 720x304 (2.35:1), 23.976 fps, 1 296 Kbps
Аудио 1: AC-3, 48.0 KHz, 2 ch, 192 Kbps, CBR | RUS
Аудио 2: AC-3, 48.0 KHz, 6 ch, 448 Kbps, CBR | ENG-Сэмпл-Рекламы нет-

Трейлер

-    - -

Theseus

Пост 03-Ноя-2018 00:35

[Цитировать]

Сингулярность / Singularity -Год выхода: 2017
Страна: Швейцария, США
Жанр: фантастика, мелодрама
Продолжительность: 01:28:17
Перевод: Профессиональный (полное дублирование) [Чистый звук]
Субтитры: Отсутствуют-Режиссер: Роберт Коуба-В ролях: Джулиан Шаффнер, Джон Кьюсак, Кармен Ардженциано, Эйлин Грубба, Джаннин Вакер, Павел Бубряк, Пол Америкэн, Дэвид Крисман, Хрнцир Куба, Элиза Дворакова-О фильме: В 2020 году глава компании VA Industries, крупнейшей в области робототехники, представляет миру своё последнее изобретение — компьютер «Кронос», который должен положить конец войнам во всём мире. «Кронос» быстро понимает, что главная угроза миру на Земле — сами люди, и запускает программу по уничтожению человечества. 97 лет спустя небольшая группа выживших людей всё ещё скрывается от армии роботов. Подростки Эндрю и Калия объединяются в поисках нового мира, где, по слухам, люди живут, не опасаясь роботов.- -Качество: HDRip
Формат: AVI
Видео кодек: XviD
Аудио кодек: AC3
Видео: MPEG4, XviD, 720x304 (2.35:1), 23.976 fps, 1 727 Kbps
Аудио: AC-3, 48.0 KHz, 2 ch, 448 Kbps-Сэмпл-Присутствует аудио и текстовая реклама, видеоролики с рекламой вырезаны-

MediaInfo

Общее
Полное имя : Singularity.2017.D.HDRip.avi
Формат : AVI
Формат/Информация : Audio Video Interleave
Размер файла : 1,35 Гбайт
Продолжительность : 1 ч. 28 м.
Общий поток : 2185 Кбит/сек
Библиотека кодирования : VirtualDub build 35491/release
Видео
Идентификатор : 0
Формат : MPEG-4 Visual
Профиль формата : Advanced Simple@L5
Параметр BVOP формата : Да
Параметр QPel формата : Нет
Параметр GMC формата : Без точки перехода
Параметр матрицы формата : Default (MPEG)
Идентификатор кодека : XVID
Идентификатор кодека/Подсказка : XviD
Продолжительность : 1 ч. 28 м.
Битрейт : 1727 Кбит/сек
Ширина : 720 пикселей
Высота : 304 пикселя
Соотношение сторон : 2,35:1
Частота кадров : 23,976 (24000/1001) кадра/сек
Цветовое пространство : YUV
Субдискретизация насыщенности : 4:2:0
Битовая глубина : 8 бит
Тип развёртки : Прогрессивная
Метод сжатия : С потерями
Бит/(Пиксели*Кадры) : 0.329
Размер потока : 1,07 Гбайт (79%)
Библиотека кодирования : XviD 1.2.1 (UTC 2008-12-04)
Аудио
Идентификатор : 1
Формат : AC-3
Формат/Информация : Audio Coding 3
Расширение режима : CM (complete main)
Параметр Endianness формата : Big
Идентификатор кодека : 2000
Продолжительность : 1 ч. 28 м.
Вид битрейта : Постоянный
Битрейт : 448 Кбит/сек
Каналы : 2 канала
Расположение каналов : Front: L R
Частота : 48,0 КГц
Частота кадров : 31,250 кадров/сек (1536 spf)
Битовая глубина : 16 бит
Метод сжатия : С потерями
Задержка видео : 16 мс.
Размер потока : 283 Мбайт (21%)
Выравнивание : Разделение по промежуткам
Продолжительность промежутка : 42 мс. (1,00 видеокадр)
Время предзагрузки промежутка : 500 мс.

Трейлер (Eng)

-     - -

Theseus

Пост 30-Окт-2018 23:14

[Цитировать]

Великий уравнитель 2 / The Equalizer 2- Год выхода: 2018
Страна: США
Жанр: боевик, триллер, криминал
Продолжительность: 02:01:12
Перевод: Профессиональный (полное дублирование) | iTunes
Субтитры: Русские (форсированные | внешние)-Режиссер: Антуан Фукуа-В ролях: Дензел Вашингтон, Педро Паскаль, Билл Пуллман, Мелисса Лео, Джонатан Скарф, Сакина Джэффри, Кэролайн Дэй, Орсон Бин, Хайди Гарроу, Эштон Сандерс-О фильме: Продолжение истории Роберта Маккола, бывшего агента ЦРУ, который самостоятельно вершит правосудие.- -Качество: WEB-DLRip
Формат: AVI
Видео кодек: XviD
Аудио кодек: AC3
Видео: MPEG4, XviD, 720x304 (2.35:1), 23.976 fps, 1 240 Kbps
Аудио: AC-3, 48.0 KHz, 6 ch, 384 Kbps-Сэмпл-

MediaInfo

Общее
Полное имя : The.Equalizer.2.2018.WEB-DLRip.avi
Формат : AVI
Формат/Информация : Audio Video Interleave
Размер файла : 1,38 Гбайт
Продолжительность : 2 ч. 1 м.
Общий поток : 1632 Кбит/сек
Библиотека кодирования : VirtualDub build 35491/release
Видео
Идентификатор : 0
Формат : MPEG-4 Visual
Профиль формата : Advanced Simple@L5
Параметр BVOP формата : Да
Параметр QPel формата : Нет
Параметр GMC формата : Без точки перехода
Параметр матрицы формата : Default (H.263)
Идентификатор кодека : XVID
Идентификатор кодека/Подсказка : XviD
Продолжительность : 2 ч. 1 м.
Битрейт : 1240 Кбит/сек
Ширина : 720 пикселей
Высота : 304 пикселя
Соотношение сторон : 2,35:1
Частота кадров : 23,976 (24000/1001) кадра/сек
Цветовое пространство : YUV
Субдискретизация насыщенности : 4:2:0
Битовая глубина : 8 бит
Тип развёртки : Прогрессивная
Метод сжатия : С потерями
Бит/(Пиксели*Кадры) : 0.236
Размер потока : 1,05 Гбайт (76%)
Библиотека кодирования : XviD 67
Аудио
Идентификатор : 1
Формат : AC-3
Формат/Информация : Audio Coding 3
Расширение режима : CM (complete main)
Параметр Endianness формата : Big
Идентификатор кодека : 2000
Продолжительность : 2 ч. 0 м.
Вид битрейта : Постоянный
Битрейт : 384 Кбит/сек
Каналы : 6 каналов
Расположение каналов : Front: L C R, Side: L R, LFE
Частота : 48,0 КГц
Частота кадров : 31,250 кадров/сек (1536 spf)
Битовая глубина : 16 бит
Метод сжатия : С потерями
Размер потока : 332 Мбайт (23%)
Выравнивание : Соединение по промежуткам
Продолжительность промежутка : 42 мс. (1,00 видеокадр)
Время предзагрузки промежутка : 512 мс.

Трейлер

-    - -

Theseus

Пост 30-Окт-2018 17:41

[Цитировать]

Планета зверей / Dong wu shi jie -Год выхода: 2018
Страна: Китай
Жанр: драма, боевик, фантастика
Продолжительность: 02:10:19
Перевод: Профессиональный (многоголосый, закадровый) [HDRezka Studio]
Субтитры: Отсутствуют-Режиссер: Хань Янь-В ролях: Ли Ифэн, Чжоу Дунъюй, Майкл Дуглас, Цао Бинкунь, Эрик Хейз, Альберто Ланселлотти, Ли Ицзюань, Archibald C. McColl IV, Кит Шиллито, Ван Гэ-О фильме: Оказавшись по уши в долгах, главный герой решается на отчаянный шаг — принять участие в загадочных играх «Число судьбы», где главная ставка — жизнь!- -Качество: WEB-DLRip
Формат: AVI
Видео кодек: XviD
Аудио кодек: AC3
Видео: MPEG4, XviD, 720x272 (2.647), 24.000 fps, 1 304 Kbps
Аудио: 48 kHz, AC3, 2 ch, 192 kbps-Сэмпл-Рекламы нет-

MediaInfo

Общее
Полное имя : Animal.World.2018.P.WEB-DLRip.avi
Формат : AVI
Формат/Информация : Audio Video Interleave
Размер файла : 1,37 Гбайт
Продолжительность : 2 ч. 10 м.
Общий поток : 1505 Кбит/сек
Библиотека кодирования : VirtualDub build 35491/release
Видео
Идентификатор : 0
Формат : MPEG-4 Visual
Профиль формата : Advanced Simple@L5
Параметр BVOP формата : Да
Параметр QPel формата : Нет
Параметр GMC формата : Без точки перехода
Параметр матрицы формата : Выборочная
Идентификатор кодека : XVID
Идентификатор кодека/Подсказка : XviD
Продолжительность : 2 ч. 10 м.
Битрейт : 1304 Кбит/сек
Ширина : 720 пикселей
Высота : 272 пикселя
Соотношение сторон : 2,647
Частота кадров : 24,000 кадра/сек
Цветовое пространство : YUV
Субдискретизация насыщенности : 4:2:0
Битовая глубина : 8 бит
Тип развёртки : Прогрессивная
Метод сжатия : С потерями
Бит/(Пиксели*Кадры) : 0.277
Размер потока : 1,19 Гбайт (87%)
Библиотека кодирования : XviD 1.2.1 (UTC 2008-12-04)
Аудио
Идентификатор : 1
Формат : AC-3
Формат/Информация : Audio Coding 3
Расширение режима : CM (complete main)
Параметр Endianness формата : Big
Идентификатор кодека : 2000
Продолжительность : 2 ч. 10 м.
Вид битрейта : Постоянный
Битрейт : 192 Кбит/сек
Каналы : 2 канала
Расположение каналов : Front: L R
Частота : 48,0 КГц
Частота кадров : 31,250 кадров/сек (1536 spf)
Битовая глубина : 16 бит
Метод сжатия : С потерями
Размер потока : 179 Мбайт (13%)
Выравнивание : Разделение по промежуткам
Продолжительность промежутка : 42 мс. (1,00 видеокадр)
Время предзагрузки промежутка : 500 мс.

Трейлер

-    - -

Theseus

Пост 30-Окт-2018 17:37

[Цитировать]

Галвестон / Galveston -Год выхода: 2018
Страна: США
Жанр: боевик, триллер, драма, криминал
Продолжительность: 01:33:21
Перевод: Профессиональный (многоголосый, закадровый) [HDRezka Studio]
Субтитры: Отсутствуют-Режиссер: Мелани Лоран-В ролях: Эль Фаннинг, Бен Фостер, Джеффри Гроувер, Кристофер Амитрано, Марк Хикс, Мария Вальверде, Бо Бриджес, Майкл Рэй Эскамиллья, Дж. Питер Кинг, Джимми Ли Сессомс-О фильме: История о бывшем приспешнике мафиози Рое Кэди, который имел неосторожность перейти дорогу своему влиятельному боссу. Став мишенью наёмных убийц, Кэди пускается в бега и по стечению обстоятельств берёт ответственность за жизнь ещё и своей неожиданной спутницы — совсем молоденькой проститутки.- -Качество: WEB-DLRip
Формат: AVI
Видео кодек: XviD
Аудио кодек: AC3
Видео: MPEG4, XviD, 720x304 (2.35:1), 23.976 fps, 2 019 Kbps
Аудио: AC-3, 48.0 KHz, 2 ch, 192 Kbps-Сэмпл-Рекламы нет-

MediaInfo

Общее
Полное имя : Galveston.2018.P.WEB-DLRip.avi
Формат : AVI
Формат/Информация : Audio Video Interleave
Размер файла : 1,45 Гбайт
Продолжительность : 1 ч. 33 м.
Общий поток : 2220 Кбит/сек
Библиотека кодирования : VirtualDub build 35491/release
Видео
Идентификатор : 0
Формат : MPEG-4 Visual
Профиль формата : Advanced Simple@L5
Параметр BVOP формата : Да
Параметр QPel формата : Нет
Параметр GMC формата : Без точки перехода
Параметр матрицы формата : Выборочная
Идентификатор кодека : XVID
Идентификатор кодека/Подсказка : XviD
Продолжительность : 1 ч. 33 м.
Битрейт : 2019 Кбит/сек
Ширина : 720 пикселей
Высота : 304 пикселя
Соотношение сторон : 2,35:1
Частота кадров : 23,976 (24000/1001) кадра/сек
Цветовое пространство : YUV
Субдискретизация насыщенности : 4:2:0
Битовая глубина : 8 бит
Тип развёртки : Прогрессивная
Метод сжатия : С потерями
Бит/(Пиксели*Кадры) : 0.385
Размер потока : 1,32 Гбайт (91%)
Библиотека кодирования : XviD 73
Аудио
Идентификатор : 1
Формат : AC-3
Формат/Информация : Audio Coding 3
Расширение режима : CM (complete main)
Параметр Endianness формата : Big
Идентификатор кодека : 2000
Продолжительность : 1 ч. 33 м.
Вид битрейта : Постоянный
Битрейт : 192 Кбит/сек
Каналы : 2 канала
Расположение каналов : Front: L R
Частота : 48,0 КГц
Частота кадров : 31,250 кадров/сек (1536 spf)
Битовая глубина : 16 бит
Метод сжатия : С потерями
Размер потока : 128 Мбайт (9%)
Выравнивание : Разделение по промежуткам
Продолжительность промежутка : 42 мс. (1,00 видеокадр)
Время предзагрузки промежутка : 500 мс.

Трейлер

-    - -

Theseus

Пост 30-Окт-2018 15:19

[Цитировать]

Галвестон / Galveston -Год выхода: 2018
Страна: США
Жанр: боевик, триллер, драма, криминал
Продолжительность: 01:33:20
Перевод: Профессиональный (полное дублирование) [Чистый звук]
Субтитры: Отсутствуют-Режиссер: Мелани Лоран-В ролях: Эль Фаннинг, Бен Фостер, Джеффри Гроувер, Кристофер Амитрано, Марк Хикс, Мария Вальверде, Бо Бриджес, Майкл Рэй Эскамиллья, Дж. Питер Кинг, Джимми Ли Сессомс-О фильме: История о бывшем приспешнике мафиози Рое Кэди, который имел неосторожность перейти дорогу своему влиятельному боссу. Став мишенью наёмных убийц, Кэди пускается в бега и по стечению обстоятельств берёт ответственность за жизнь ещё и своей неожиданной спутницы — совсем молоденькой проститутки.- -Качество: WEB-DLRip
Формат: AVI
Видео кодек: XviD
Аудио кодек: AC3
Видео: MPEG4, XviD, 720x304 (2.35:1), 23.976 fps, 1 586 Kbps
Аудио: AC-3, 48.0 KHz, 2 ch, 384 Kbps-Сэмпл-Присутствует аудио и текстовая реклама, видеоролики с рекламой вырезаны-

MediaInfo

Общее
Полное имя : Galveston.2018.D.WEB-DLRip.avi
Формат : AVI
Формат/Информация : Audio Video Interleave
Размер файла : 1,29 Гбайт
Продолжительность : 1 ч. 33 м.
Общий поток : 1980 Кбит/сек
Библиотека кодирования : VirtualDub build 35491/release
Видео
Идентификатор : 0
Формат : MPEG-4 Visual
Профиль формата : Advanced Simple@L5
Параметр BVOP формата : Да
Параметр QPel формата : Нет
Параметр GMC формата : Без точки перехода
Параметр матрицы формата : Выборочная
Идентификатор кодека : XVID
Идентификатор кодека/Подсказка : XviD
Продолжительность : 1 ч. 33 м.
Битрейт : 1586 Кбит/сек
Ширина : 720 пикселей
Высота : 304 пикселя
Соотношение сторон : 2,35:1
Частота кадров : 23,976 (24000/1001) кадра/сек
Цветовое пространство : YUV
Субдискретизация насыщенности : 4:2:0
Битовая глубина : 8 бит
Тип развёртки : Прогрессивная
Метод сжатия : С потерями
Бит/(Пиксели*Кадры) : 0.302
Размер потока : 1,03 Гбайт (80%)
Библиотека кодирования : XviD 1.2.1 (UTC 2008-12-04)
Аудио
Идентификатор : 1
Формат : AC-3
Формат/Информация : Audio Coding 3
Расширение режима : CM (complete main)
Параметр Endianness формата : Big
Идентификатор кодека : 2000
Продолжительность : 1 ч. 33 м.
Вид битрейта : Постоянный
Битрейт : 384 Кбит/сек
Каналы : 2 канала
Расположение каналов : Front: L R
Частота : 48,0 КГц
Частота кадров : 31,250 кадров/сек (1536 spf)
Битовая глубина : 16 бит
Метод сжатия : С потерями
Размер потока : 256 Мбайт (19%)
Выравнивание : Разделение по промежуткам
Продолжительность промежутка : 42 мс. (1,00 видеокадр)
Время предзагрузки промежутка : 500 мс.

Трейлер

-    - -
 

Текущее время: Сегодня 11:36

Часовой пояс: GMT + 3