Сегодня идет свободное скачивание без начисления Download

Результатов поиска: 72

Автор Сообщение

Theseus

Пост 09-Фев-2018 22:54

[Цитировать]

MrPRO157, Бубляж , ну да , записанный камерой с кинотеатра Сарказм
Картинка терпима, звук не очень - полный TS в раздаче, ждём хотя бы Line ("Чистый звук")

MrPRO157

Пост 09-Фев-2018 15:10

[Цитировать]

Уважаемый Theseus. Укажите, что перевод ещё и закадровый)))))

Theseus

Пост 08-Фев-2018 18:01

[Цитировать]

Бегущий в лабиринте: Лекарство от смерти / Maze Runner: The Death Cure- Год выпуска: 2018
Производство: США
Жанр: фантастика, боевик, триллер
Продолжительность: 02:22:31
Перевод: Профессиональный (полное дублирование)
Режиссер: Уэс Болл-В ролях: Роза Салазар, Томас Сэнгстер, Дилан О Брайен, Кая Скоделарио, Уолтон Гоггинс, Кэтрин МакНамара, Эйдан Гиллен, Натали Эммануэль, Патришия Кларксон, Джанкарло Эспозито-Описание: Томас возглавляет отряд выживших глейдеров, чтобы выполнить последнюю и самую опасную миссию. Ради спасения своих друзей они должны проникнуть в легендарный Последний город, смертоносный лабиринт, контролируемый ПОРОКом. Каждый, кто выживет там, наконец-то получит ответы на все вопросы, которые мучили глейдеров с момента попадания в лабиринт.- -Качество: TS
Формат: AVI
Видео кодек: XviD
Аудио кодек: AC3
Видео: 7720x304 (2.37:1), 23.976 fps, XviD build 50 ~1171 kbps avg, 0.22 bit/pixel
Аудио: AC-3, 48.0 KHz, 2 ch, 192 Kbps, CBR-
-

Трейлер

-   - -

Theseus

Пост 08-Фев-2018 18:04

[Цитировать]

Бегущий в лабиринте: Лекарство от смерти / Maze Runner: The Death Cure- Год выпуска: 2018
Производство: США
Жанр: фантастика, боевик, триллер
Продолжительность: 02:22:31
Перевод: Профессиональный (полное дублирование)
Режиссер: Уэс Болл-В ролях: Роза Салазар, Томас Сэнгстер, Дилан О Брайен, Кая Скоделарио, Уолтон Гоггинс, Кэтрин МакНамара, Эйдан Гиллен, Натали Эммануэль, Патришия Кларксон, Джанкарло Эспозито-Описание: Томас возглавляет отряд выживших глейдеров, чтобы выполнить последнюю и самую опасную миссию. Ради спасения своих друзей они должны проникнуть в легендарный Последний город, смертоносный лабиринт, контролируемый ПОРОКом. Каждый, кто выживет там, наконец-то получит ответы на все вопросы, которые мучили глейдеров с момента попадания в лабиринт.- -Качество: TS 720p
Формат: MKV
Видео кодек: x.264
Аудио кодек: AC3
Видео: AVC, 1264x544, 23.976 fps, 3231 Кбит/с
Аудио: AC-3, 48.0 KHz, 2 ch, 384 Kbps, CBR-
-

Трейлер

-   - -

Theseus

Пост 08-Фев-2018 18:03

[Цитировать]

Бегущий в лабиринте: Лекарство от смерти / Maze Runner: The Death Cure- Год выпуска: 2018
Производство: США
Жанр: фантастика, боевик, триллер
Продолжительность: 02:22:31
Перевод: Профессиональный (полное дублирование)
Режиссер: Уэс Болл-В ролях: Роза Салазар, Томас Сэнгстер, Дилан О Брайен, Кая Скоделарио, Уолтон Гоггинс, Кэтрин МакНамара, Эйдан Гиллен, Натали Эммануэль, Патришия Кларксон, Джанкарло Эспозито-Описание: Томас возглавляет отряд выживших глейдеров, чтобы выполнить последнюю и самую опасную миссию. Ради спасения своих друзей они должны проникнуть в легендарный Последний город, смертоносный лабиринт, контролируемый ПОРОКом. Каждый, кто выживет там, наконец-то получит ответы на все вопросы, которые мучили глейдеров с момента попадания в лабиринт.- -Качество: TS
Формат: AVI
Видео кодек: XviD
Аудио кодек: AC3
Видео: 720x304 (2.37:1), 23.976 fps, XviD build 50 ~1671 kbps avg, 0.32 bit/pixel
Аудио: AC-3, 48.0 KHz, 2 ch, 384 Kbps, CBR-
-

Трейлер

-   - -

Theseus

Пост 14-Янв-2018 22:18

[Цитировать]

Звёздные войны: Последние джедаи / Star Wars: The Last Jedi- Год выпуска: 2017
Производство: Франция
Жанр: фантастика, фэнтези, боевик, приключения
Продолжительность: 02:25:07
Перевод: Профессиональный (полное дублирование) | Звук с TS
Субтитры: Корейские (вшитые)-Режиссер: Райан Джонсон-В ролях: Марк Хэмилл, Кэрри Фишер, Адам Драйвер, Дэйзи Ридли, Джон Бойега, Оскар Айзек, Энди Серкис, Лупита Нионго, Донал Глисон, Энтони Дэниелс-Описание: Новая история о противостоянии света и тьмы, добра и зла начинается после гибели Хана Соло. В Галактике, где Первый Орден и Сопротивление яростно сражаются друг с другом в войне, героиня Рей пробудила в себе Силу. Но что произойдет, когда она встретится с единственным оставшимся в живых рыцарем-джедаем — Люком Скайуокером?
Кайло Рен перешел на Темную сторону Силы и убил собственного отца, заняв высокую позицию в Первом Ордене. Но куда приведут его неуемные амбиции, подаренные по наследству грозным дедом Дартом Вейдером? Ситуация обострится еще больше, когда мать Кайло, лидер Сопротивления Лея, вместе с По, Финном и BB-8 приступит к новой миссии.- -Качество: Telecine
Формат: AVI
Видео кодек: XviD
Аудио кодек: AC3
Видео: MPEG4, XviD, 720x336 (2.143), 23.976 fps, 1 236 Kbps (0.213 bit/pixel)
Аудио: AC-3, 48.0 KHz, 2 ch, 192 Kbps, CBR-Примечание: присутствует реклама
-

Трейлер

-     - -

Theseus

Пост 14-Янв-2018 22:16

[Цитировать]

Звёздные войны: Последние джедаи / Star Wars: The Last Jedi- Год выпуска: 2017
Производство: Франция
Жанр: фантастика, фэнтези, боевик, приключения
Продолжительность: 02:25:07
Перевод: Профессиональный (полное дублирование) | Звук с TS
Субтитры: Корейские (вшитые)-Режиссер: Райан Джонсон-В ролях: Марк Хэмилл, Кэрри Фишер, Адам Драйвер, Дэйзи Ридли, Джон Бойега, Оскар Айзек, Энди Серкис, Лупита Нионго, Донал Глисон, Энтони Дэниелс-Описание: Новая история о противостоянии света и тьмы, добра и зла начинается после гибели Хана Соло. В Галактике, где Первый Орден и Сопротивление яростно сражаются друг с другом в войне, героиня Рей пробудила в себе Силу. Но что произойдет, когда она встретится с единственным оставшимся в живых рыцарем-джедаем — Люком Скайуокером?
Кайло Рен перешел на Темную сторону Силы и убил собственного отца, заняв высокую позицию в Первом Ордене. Но куда приведут его неуемные амбиции, подаренные по наследству грозным дедом Дартом Вейдером? Ситуация обострится еще больше, когда мать Кайло, лидер Сопротивления Лея, вместе с По, Финном и BB-8 приступит к новой миссии.- -Качество: Telecine
Формат: AVI
Видео кодек: XviD
Аудио кодек: AC3
Видео: MPEG4, XviD, 720x336 (2.143), 23.976 fps, 1 757 Kbps (0.303 bit/pixel)
Аудио: AC-3, 48.0 KHz, 2 ch, 384 Kbps, CBR-Примечание: присутствует реклама
-

Трейлер

-     - -

Theseus

Пост 14-Янв-2018 22:14

[Цитировать]

Звёздные войны: Последние джедаи / Star Wars: The Last Jedi- Год выпуска: 2017
Производство: США
Жанр: фантастика, фэнтези, боевик, приключения
Продолжительность: 02:25:07
Перевод: Профессиональный (полное дублирование) | Звук с TS
Субтитры: Корейские (вшитые)-Режиссер: Райан Джонсон-В ролях: Марк Хэмилл, Кэрри Фишер, Адам Драйвер, Дэйзи Ридли, Джон Бойега, Оскар Айзек, Энди Серкис, Лупита Нионго, Донал Глисон, Энтони Дэниелс-Описание: Новая история о противостоянии света и тьмы, добра и зла начинается после гибели Хана Соло. В Галактике, где Первый Орден и Сопротивление яростно сражаются друг с другом в войне, героиня Рей пробудила в себе Силу. Но что произойдет, когда она встретится с единственным оставшимся в живых рыцарем-джедаем — Люком Скайуокером?
Кайло Рен перешел на Темную сторону Силы и убил собственного отца, заняв высокую позицию в Первом Ордене. Но куда приведут его неуемные амбиции, подаренные по наследству грозным дедом Дартом Вейдером? Ситуация обострится еще больше, когда мать Кайло, лидер Сопротивления Лея, вместе с По, Финном и BB-8 приступит к новой миссии.- -Качество: Telecine 720p
Формат: MKV
Видео кодек: x.264
Аудио кодек: AC3
Видео: AVC, 1264x584 (2.2:1), 23.976 fps, 3 670 Kbps (0.207 bit/pixel)
Аудио: AC-3, 48.0 KHz, 2 ch, 384 Kbps, CBR-Примечание: присутствует реклама
-

MI

Общее
Уникальный идентификатор : 208540865189201229742921457708525924809 (0x9CE3827B0505D6BBAC3669C3A233B1C9)
Полное имя : S.W.VIII.2O17.D.Telecine.72Op_KOSHARA.mkv
Формат : Matroska
Версия формата : Version 2
Размер файла : 4,11 Гбайт
Продолжительность : 2 ч. 25 м.
Режим общего битрейта : Переменный
Общий поток : 4056 Кбит/сек
Дата кодирования : UTC 2018-01-14 11:52:52
Программа кодирования : mkvmerge v8.3.0 ('Over the Horizon') 64bit
Библиотека кодирования : libebml v1.3.1 + libmatroska v1.4.2
Видео
Идентификатор : 1
Формат : AVC
Формат/Информация : Advanced Video Codec
Профиль формата : High@L4.1
Параметр CABAC формата : Да
Параметр ReFrames формата : 11 кадров
Идентификатор кодека : V_MPEG4/ISO/AVC
Продолжительность : 2 ч. 25 м.
Вид битрейта : Переменный
Битрейт : 3670 Кбит/сек
Максимальный битрейт : 4000 Кбит/сек
Ширина : 1264 пикселя
Высота : 584 пикселя
Соотношение сторон : 2,2:1
Режим частоты кадров : Постоянный
Частота кадров : 23,976 (24000/1001) кадра/сек
Стандарт вещания : Component
Цветовое пространство : YUV
Субдискретизация насыщенности : 4:2:0
Битовая глубина : 8 бит
Тип развёртки : Прогрессивная
Бит/(Пиксели*Кадры) : 0.207
Размер потока : 3,72 Гбайт (90%)
Default : Да
Forced : Нет
Цветовой диапазон : Limited
Основные цвета : BT.709
Характеристики трансфера : BT.709
Коэффициенты матрицы : BT.709
Аудио
Идентификатор : 2
Формат : AC-3
Формат/Информация : Audio Coding 3
Параметр Endianness формата : Big
Идентификатор кодека : A_AC3
Продолжительность : 2 ч. 25 м.
Вид битрейта : Постоянный
Битрейт : 384 Кбит/сек
Каналы : 2 канала
Расположение каналов : Front: L R
Частота : 48,0 КГц
Частота кадров : 31,250 кадров/сек (1536 spf)
Битовая глубина : 16 бит
Метод сжатия : С потерями
Размер потока : 399 Мбайт (9%)
ServiceKind/String : Complete Main
Default : Да
Forced : Нет

Трейлер

-     - -

Theseus

Пост 04-Янв-2018 17:04

[Цитировать]

Джуманджи: Зов джунглей / Jumanji: Welcome to the Jungle- Год выпуска: 2017
Производство: США
Жанр: фэнтези, боевик, комедия, приключения, семейный
Продолжительность: 01:49:11
Перевод: Профессиональный (полное дублирование)
Режиссер: Джейк Кэздан-В ролях: Дуэйн Джонсон, Кевин Харт, Джек Блэк, Карен Гиллан, Риз Дэрби, Бобби Каннавале, Ник Джонас, Алекс Вулф, Сер’Дариус Блэйн, Мэдисон Исман-Описание: Четверо подростков оказываются внутри игры «Джуманджи». Их ждет схватка с носорогами, черными мамбами, а на каждом шагу будет подстерегать бесконечная череда ловушек и головоломок. Чтобы пройти игру и остаться в живых, им придется перевоплотиться в персонажей игры: робкий и застенчивый Спенсер превращается в отважного и сильного исследователя, здоровяк Фридж — в коротышку, модница и красавица Беттани — в профессора, а неуклюжая и нескладная Марта становится бесстрашной и ловкой амазонкой. Друзьям придется привыкнуть к совершенно новым и таким непривычным для себя ролям и найти дорогу домой.- -Качество: TS-AVC
Формат: MKV
Видео кодек: x.264
Аудио кодек: AC3
Видео: AVC, 720x304 (2.35:1), 2000 kbps, 23,976 fps, 0,381 bpp
Аудио: AC-3, 48.0 KHz, 2 ch, 192 Kbps, CBR-
-

Трейлер

-     - -

Theseus

Пост 04-Янв-2018 17:03

[Цитировать]

Джуманджи: Зов джунглей / Jumanji: Welcome to the Jungle- Год выпуска: 2017
Производство: США
Жанр: фэнтези, боевик, комедия, приключения, семейный
Продолжительность: 01:51:02
Перевод: Профессиональный (полное дублирование)
Режиссер: Джейк Кэздан-В ролях: Дуэйн Джонсон, Кевин Харт, Джек Блэк, Карен Гиллан, Риз Дэрби, Бобби Каннавале, Ник Джонас, Алекс Вулф, Сер’Дариус Блэйн, Мэдисон Исман-Описание: Четверо подростков оказываются внутри игры «Джуманджи». Их ждет схватка с носорогами, черными мамбами, а на каждом шагу будет подстерегать бесконечная череда ловушек и головоломок. Чтобы пройти игру и остаться в живых, им придется перевоплотиться в персонажей игры: робкий и застенчивый Спенсер превращается в отважного и сильного исследователя, здоровяк Фридж — в коротышку, модница и красавица Беттани — в профессора, а неуклюжая и нескладная Марта становится бесстрашной и ловкой амазонкой. Друзьям придется привыкнуть к совершенно новым и таким непривычным для себя ролям и найти дорогу домой.- -Качество: TS
Формат: AVI
Видео кодек: XviD
Аудио кодек: AC3
Видео: 720x304 (2.37:1), 23.976 fps, XviD build 50 ~1677 kbps avg, 0.32 bit/pixel
Аудио: AC-3, 48.0 KHz, 2 ch, 192 Kbps, CBR-
-

Трейлер

-   - -

Theseus

Пост 04-Янв-2018 17:02

[Цитировать]

Джуманджи: Зов джунглей / Jumanji: Welcome to the Jungle- Год выпуска: 2017
Производство: США
Жанр: фэнтези, боевик, комедия, приключения, семейный
Продолжительность: 01:51:02
Перевод: Профессиональный (полное дублирование)
Режиссер: Джейк Кэздан-В ролях: Дуэйн Джонсон, Кевин Харт, Джек Блэк, Карен Гиллан, Риз Дэрби, Бобби Каннавале, Ник Джонас, Алекс Вулф, Сер’Дариус Блэйн, Мэдисон Исман-Описание: Четверо подростков оказываются внутри игры «Джуманджи». Их ждет схватка с носорогами, черными мамбами, а на каждом шагу будет подстерегать бесконечная череда ловушек и головоломок. Чтобы пройти игру и остаться в живых, им придется перевоплотиться в персонажей игры: робкий и застенчивый Спенсер превращается в отважного и сильного исследователя, здоровяк Фридж — в коротышку, модница и красавица Беттани — в профессора, а неуклюжая и нескладная Марта становится бесстрашной и ловкой амазонкой. Друзьям придется привыкнуть к совершенно новым и таким непривычным для себя ролям и найти дорогу домой.- -Качество: TS 720p
Формат: MKV
Видео кодек: x.264
Аудио кодек: AC3
Видео: AVC, 1280x536, 23.976 fps, 3753 Кбит/с
Аудио: AC-3, 48.0 KHz, 2 ch, 384 Kbps, CBR-
-

Трейлер

-   - -

Theseus

Пост 18-Дек-2017 18:38

[Цитировать]

Звёздные войны: Последние джедаи / Star Wars: The Last Jedi- Год выпуска: 2017
Производство: Франция
Жанр: фантастика, фэнтези, боевик, приключения
Продолжительность: 02:24:13
Перевод: Профессиональный (полное дублирование)
Режиссер: Райан Джонсон-В ролях: Марк Хэмилл, Кэрри Фишер, Адам Драйвер, Дэйзи Ридли, Джон Бойега, Оскар Айзек, Энди Серкис, Лупита Нионго, Донал Глисон, Энтони Дэниелс-Описание: Новая история о противостоянии света и тьмы, добра и зла начинается после гибели Хана Соло. В Галактике, где Первый Орден и Сопротивление яростно сражаются друг с другом в войне, героиня Рей пробудила в себе Силу. Но что произойдет, когда она встретится с единственным оставшимся в живых рыцарем-джедаем — Люком Скайуокером?
Кайло Рен перешел на Темную сторону Силы и убил собственного отца, заняв высокую позицию в Первом Ордене. Но куда приведут его неуемные амбиции, подаренные по наследству грозным дедом Дартом Вейдером? Ситуация обострится еще больше, когда мать Кайло, лидер Сопротивления Лея, вместе с По, Финном и BB-8 приступит к новой миссии.- -Качество: TS (Proper)
Формат: AVI
Видео кодек: XviD
Аудио кодек: AC3
Видео: XviD, 720x304, 23.976 fps, 1244 Кбит/с
Аудио: AC-3, 48.0 KHz, 2 ch, 192 Kbps, CBR-Примечание: присутствует реклама
-
   - -

Theseus

Пост 18-Дек-2017 18:36

[Цитировать]

Звёздные войны: Последние джедаи / Star Wars: The Last Jedi- Год выпуска: 2017
Производство: Франция
Жанр: фантастика, фэнтези, боевик, приключения
Продолжительность: 02:24:13
Перевод: Профессиональный (полное дублирование)
Режиссер: Райан Джонсон-В ролях: Марк Хэмилл, Кэрри Фишер, Адам Драйвер, Дэйзи Ридли, Джон Бойега, Оскар Айзек, Энди Серкис, Лупита Нионго, Донал Глисон, Энтони Дэниелс-Описание: Новая история о противостоянии света и тьмы, добра и зла начинается после гибели Хана Соло. В Галактике, где Первый Орден и Сопротивление яростно сражаются друг с другом в войне, героиня Рей пробудила в себе Силу. Но что произойдет, когда она встретится с единственным оставшимся в живых рыцарем-джедаем — Люком Скайуокером?
Кайло Рен перешел на Темную сторону Силы и убил собственного отца, заняв высокую позицию в Первом Ордене. Но куда приведут его неуемные амбиции, подаренные по наследству грозным дедом Дартом Вейдером? Ситуация обострится еще больше, когда мать Кайло, лидер Сопротивления Лея, вместе с По, Финном и BB-8 приступит к новой миссии.- -Качество: TS (Proper)
Формат: AVI
Видео кодек: XviD
Аудио кодек: AC3
Видео: XviD, 720x304, 23.976 fps, 1774 Кбит/с
Аудио: AC-3, 48.0 KHz, 2 ch, 384 Kbps, CBR-Примечание: присутствует реклама
-
   - -

Theseus

Пост 18-Дек-2017 18:24

[Цитировать]

Звёздные войны: Последние джедаи / Star Wars: The Last Jedi- Год выпуска: 2017
Производство: Франция
Жанр: фантастика, фэнтези, боевик, приключения
Продолжительность: 02:24:13
Перевод: Профессиональный (полное дублирование)
Режиссер: Райан Джонсон-В ролях: Марк Хэмилл, Кэрри Фишер, Адам Драйвер, Дэйзи Ридли, Джон Бойега, Оскар Айзек, Энди Серкис, Лупита Нионго, Донал Глисон, Энтони Дэниелс-Описание: Новая история о противостоянии света и тьмы, добра и зла начинается после гибели Хана Соло. В Галактике, где Первый Орден и Сопротивление яростно сражаются друг с другом в войне, героиня Рей пробудила в себе Силу. Но что произойдет, когда она встретится с единственным оставшимся в живых рыцарем-джедаем — Люком Скайуокером?
Кайло Рен перешел на Темную сторону Силы и убил собственного отца, заняв высокую позицию в Первом Ордене. Но куда приведут его неуемные амбиции, подаренные по наследству грозным дедом Дартом Вейдером? Ситуация обострится еще больше, когда мать Кайло, лидер Сопротивления Лея, вместе с По, Финном и BB-8 приступит к новой миссии.- -Качество: TS 720p (Proper)
Формат: MKV
Видео кодек: x.264
Аудио кодек: AC3
Видео: AVC, 1280x522 (2.452), 23.976 fps, 3 770 Kbps (0.235 bit/pixel)
Аудио: AC-3, 48.0 KHz, 2 ch, 384 Kbps, CBR-Примечание: присутствует реклама
-

MI

Общее
Уникальный идентификатор : 242789838684930850182861193295557894494 (0xB6A79F3EC67BE03493E04B31C305215E)
Полное имя : Zvezdovoayna.VIII.2O17.D.TS.PROPER.72OP_KOSHARA.mkv
Формат : Matroska
Версия формата : Version 2
Размер файла : 4,19 Гбайт
Продолжительность : 2 ч. 24 м.
Режим общего битрейта : Переменный
Общий поток : 4156 Кбит/сек
Дата кодирования : UTC 2017-12-16 05:53:42
Программа кодирования : mkvmerge v8.3.0 ('Over the Horizon') 64bit
Библиотека кодирования : libebml v1.3.1 + libmatroska v1.4.2
Видео
Идентификатор : 1
Формат : AVC
Формат/Информация : Advanced Video Codec
Профиль формата : High@L4.1
Параметр CABAC формата : Да
Параметр ReFrames формата : 12 кадров
Идентификатор кодека : V_MPEG4/ISO/AVC
Продолжительность : 2 ч. 24 м.
Вид битрейта : Переменный
Битрейт : 3770 Кбит/сек
Максимальный битрейт : 4000 Кбит/сек
Ширина : 1280 пикселей
Высота : 522 пикселя
Соотношение сторон : 2,452
Режим частоты кадров : Постоянный
Частота кадров : 23,976 (24000/1001) кадра/сек
Стандарт вещания : Component
Цветовое пространство : YUV
Субдискретизация насыщенности : 4:2:0
Битовая глубина : 8 бит
Тип развёртки : Прогрессивная
Бит/(Пиксели*Кадры) : 0.235
Размер потока : 3,80 Гбайт (91%)
Default : Да
Forced : Нет
Цветовой диапазон : Limited
Основные цвета : BT.709
Характеристики трансфера : BT.709
Коэффициенты матрицы : BT.709
Аудио
Идентификатор : 2
Формат : AC-3
Формат/Информация : Audio Coding 3
Параметр Endianness формата : Big
Идентификатор кодека : A_AC3
Продолжительность : 2 ч. 24 м.
Вид битрейта : Постоянный
Битрейт : 384 Кбит/сек
Каналы : 2 канала
Расположение каналов : Front: L R
Частота : 48,0 КГц
Частота кадров : 31,250 кадров/сек (1536 spf)
Битовая глубина : 16 бит
Метод сжатия : С потерями
Размер потока : 396 Мбайт (9%)
ServiceKind/String : Complete Main
Default : Да
Forced : Нет
-     - -

Theseus

Пост 30-Окт-2017 22:52

[Цитировать]

- Тор: Рагнарёк / Thor: Ragnarok-Год выхода: 2017
Страна: США
Жанр: фантастика, боевик, комедия, приключения
Продолжительность: 02:00:45
Перевод: Любительский (многоголосый) | КОЛОБОК
Субтитры: Отсутствуют-Режиссер: Тайка Вайтити-В ролях: Крис Хемсворт, Том Хиддлстон, Идрис Эльба, Энтони Хопкинс, Кейт Бланшетт, Тесса Томпсон, Джефф Голдблюм, Карл Урбан, Марк Руффало, Бенедикт Камбербэтч-О фильме: Вернувшись в Асгард в поисках таинственного врага, ведущего охоту на Камни Бесконечности, Тор обнаруживает, что действия его брата Локи, захватившего трон Асгарда, привели к приближению наиболее страшного события — Рагнарёка. По легенде, это ознаменует последнюю битву Асгарда, последствием которой станет его полное уничтожение. В попытке предотвратить это событие, Тору предстоит прибегнуть к помощи своего товарища из Мстителей — Халка. Вместе, им предстоит столкнуться лицом к лицу со злейшим врагом всех девяти миров — огненным демоном Суртуром, целью которого является исполнение пророчества о Рагнарёке и уничтожение девяти миров.- -Качество: TS 720p
Формат: MKV
Видео кодек: x.264
Аудио кодек: AC3
Видео: AVC, 1280x580 (2.2:1), 23.976 fps, 3 729 Kbps (0.209 bit/pixel)
Аудио: AC-3, 48.0 KHz, 2 ch, 384 Kbps, CBR- - -

Трейлер

-     - -
 

Текущее время: Сегодня 00:37

Часовой пояс: GMT + 3