Сегодня идет свободное скачивание без начисления Download

Результатов поиска: 80

Автор Сообщение

Theseus

Пост 03-Июн-2018 20:28

[Цитировать]

Дэдпул 2 / Deadpool 2 -Год выхода: 2018
Страна: США
Жанр: фантастика, боевик, комедия, приключения
Продолжительность: 01:53:23
Перевод: Профессиональный (полное дублирование)
Субтитры: Отсутствуют-Режиссер: Дэвид Литч-В ролях: Джош Бролин, Райан Рейнольдс, Морена Баккарин, Зази Битц, Брианна Хилдебранд, Брэд Питт, Билл Скарсгард, ТиДжей Миллер, Терри Крюс, Роб Делани-О фильме: Единственный и неповторимый болтливый наемник — вернулся! Ещё более масштабный, ещё более разрушительный и даже ещё более голозадый, чем прежде! Когда в его жизнь врывается суперсолдат с убийственной миссией, Дэдпул вынужден задуматься о дружбе, семье и о том, что на самом деле значит быть героем, попутно надирая 50 оттенков задниц. Потому что иногда чтобы делать хорошие вещи, нужно использовать грязные приёмчики..- -Качество: TS *PROPER*
Формат: AVI
Видео кодек: XviD
Аудио кодек: AC3
Видео: MPEG4, XviD, 720x304 (2.35:1), 30.000 fps, 1 531 Kbps (0.233 bit/pixel)
Аудио: AC-3, 48.0 KHz, 2 ch, 192 Kbps, CBR-Сэмпл-Рекламы нет !-

MediaInfo

Общее
Полное имя : Deadpool.2.2018.TS.avi
Формат : AVI
Формат/Информация : Audio Video Interleave
Размер файла : 1,37 Гбайт
Продолжительность : 1 ч. 53 м.
Общий поток : 1735 Кбит/сек
Библиотека кодирования : VirtualDub build 35491/release
Видео
Идентификатор : 0
Формат : MPEG-4 Visual
Профиль формата : Advanced Simple@L4
Настройки формата : BVOP2
Параметр BVOP формата : 2
Параметр QPel формата : Нет
Параметр GMC формата : Без точки перехода
Параметр матрицы формата : Default (H.263)
Режим смешивания : Сжатый битовый поток
Идентификатор кодека : XVID
Идентификатор кодека/Подсказка : XviD
Продолжительность : 1 ч. 53 м.
Битрейт : 1531 Кбит/сек
Ширина : 720 пикселей
Высота : 304 пикселя
Соотношение сторон : 2,35:1
Частота кадров : 30,000 кадров/сек
Цветовое пространство : YUV
Субдискретизация насыщенности : 4:2:0
Битовая глубина : 8 бит
Тип развёртки : Прогрессивная
Метод сжатия : С потерями
Бит/(Пиксели*Кадры) : 0.233
Размер потока : 1,21 Гбайт (88%)
Библиотека кодирования : XviD 67
Аудио
Идентификатор : 1
Формат : AC-3
Формат/Информация : Audio Coding 3
Идентификатор кодека : 2000
Продолжительность : 1 ч. 53 м.
Вид битрейта : Постоянный
Битрейт : 192 Кбит/сек
Каналы : 2 канала
Расположение каналов : Front: L R
Частота : 48,0 КГц
Частота кадров : 31,250 кадров/сек (1536 SPF)
Битовая глубина : 16 бит
Метод сжатия : С потерями
Размер потока : 156 Мбайт (11%)
Выравнивание : Соединение по промежуткам
Продолжительность промежутка : 32 мс. (0,96 видеокадр)
Время предзагрузки промежутка : 512 мс.
ServiceKind/String : Complete Main

Трейлер

-     - -

XP1971

Пост 03-Июн-2018 10:03

[Цитировать]

maxkiller,
со скринами чего то намудрили

maxkiller

Пост 03-Июн-2018 01:18

[Цитировать]

Дэдпул 2/ Deadpool 2
Год выпуска: 2018
Страна: США
Жанр: фантастика, боевик, комедия, приключения
Продолжительность: 01:53:10
Перевод: Дублированный
•Доп.информация:: За звуковую дорожку большое спасибо Artdos! Монтаж дорожки - and77200!
Режиссер: Дэвид Литч
В ролях: Джош Бролин, Райан Рейнольдс, Морена Баккарин, Зази Битц, Брианна Хилдебранд, Брэд Питт, Билл Скарсгард, ТиДжей Миллер, Терри Крюс, Роб Делани Единственный и неповторимый болтливый наемник — вернулся! Ещё более масштабный, ещё более разрушительный и даже ещё более голозадый, чем прежде! Когда в его жизнь врывается суперсолдат с убийственной миссией, Дэдпул вынужден задуматься о дружбе, семье и о том, что на самом деле значит быть героем, попутно надирая 50 оттенков задниц. Потому что иногда чтобы делать хорошие вещи, нужно использовать грязные приёмчики.

Качество: TC 720p
Формат видео: MKV
Видео кодек: AVC
Аудио кодек: AC3
Видео: 1280x448 (2.857), 3 000 kbps, 23,976 fps, 0,174 bpp
Аудио: Русский / AC3 / 2.0 / 48 kHz / 192 kbps / 16 bit
Аудио: Английский / AC3 / 2.0 / 48 kHz / 192 kbps / 16 bit
•Рип:

MI

General
Unique ID : 91193793848343212833452594406212893617 (0x449B492C407B10D52417DAA46989FBB1)
Complete name : E:\Deadpool.2.2018.TC.720p.mkv
Format : Matroska
Format version : Version 4 / Version 2
File size : 2.67 GiB
Duration : 1 h 53 min
Overall bit rate mode : Variable
Overall bit rate : 3 357 kb/s
Movie name : Deadpool 2
Encoded date : UTC 2018-06-02 20:55:05
Writing application : mkvmerge v20.0.0 ('I Am The Sun') 64-bit
Writing library : libebml v1.3.5 + libmatroska v1.4.8
Video
ID : 1
Format : AVC
Format/Info : Advanced Video Codec
Format profile : High@L4.2
Format settings, CABAC : Yes
Format settings, ReFrames : 6 frames
Codec ID : V_MPEG4/ISO/AVC
Duration : 1 h 53 min
Bit rate mode : Variable
Bit rate : 3 000 kb/s
Maximum bit rate : 62.5 Mb/s
Width : 1 280 pixels
Height : 448 pixels
Display aspect ratio : 2.857
Frame rate mode : Constant
Frame rate : 30.000 FPS
Color space : YUV
Chroma subsampling : 4:2:0
Bit depth : 8 bits
Scan type : Progressive
Bits/(Pixel*Frame) : 0.174
Stream size : 2.36 GiB (89%)
Writing library : x264 core 148 r2638 7599210
Encoding settings : cabac=1 / ref=7 / deblock=1:-1:-1 / analyse=0x3:0x133 / me=umh / subme=9 / psy=1 / psy_rd=1.00:0.15 / mixed_ref=1 / me_range=18 / chroma_me=1 / trellis=2 / 8x8dct=1 / cqm=0 / deadzone=21,11 / fast_pskip=0 / chroma_qp_offset=-3 / threads=16 / lookahead_threads=1 / sliced_threads=0 / slices=4 / nr=0 / decimate=1 / interlaced=0 / bluray_compat=0 / constrained_intra=0 / bframes=3 / b_pyramid=1 / b_adapt=2 / b_bias=0 / direct=3 / weightb=1 / open_gop=0 / weightp=0 / keyint=300 / keyint_min=30 / scenecut=40 / intra_refresh=0 / rc_lookahead=40 / rc=abr / mbtree=1 / bitrate=3000 / ratetol=1.0 / qcomp=0.60 / qpmin=10 / qpmax=51 / qpstep=4 / vbv_maxrate=62500 / vbv_bufsize=78125 / nal_hrd=vbr / filler=0 / ip_ratio=1.40 / aq=1:1.00
Language : English
Default : Yes
Forced : No
Color range : Full
Color primaries : BT.709
Transfer characteristics : BT.709
Matrix coefficients : BT.709
Audio #1
ID : 2
Format : AC-3
Format/Info : Audio Coding 3
Mode extension : CM (complete main)
Format settings, Endianness : Big
Codec ID : A_AC3
Duration : 1 h 53 min
Bit rate mode : Constant
Bit rate : 192 kb/s
Channel(s) : 2 channels
Channel positions : Front: L R
Sampling rate : 48.0 kHz
Frame rate : 31.250 FPS (1536 spf)
Bit depth : 16 bits
Compression mode : Lossy
Stream size : 156 MiB (6%)
Title : Монтаж дорожки - and77200
Language : Russian
Default : Yes
Forced : No
Audio #2
ID : 3
Format : AC-3
Format/Info : Audio Coding 3
Mode extension : CM (complete main)
Format settings, Endianness : Big
Codec ID : A_AC3
Duration : 1 h 53 min
Bit rate mode : Constant
Bit rate : 192 kb/s
Channel(s) : 2 channels
Channel positions : Front: L R
Sampling rate : 48.0 kHz
Frame rate : 31.250 FPS (1536 spf)
Bit depth : 16 bits
Compression mode : Lossy
Delay relative to video : 4 ms
Stream size : 155 MiB (6%)
Language : English
Default : No
Forced : No

Скриншоты

 
   

}{@R0N

Пост 27-Май-2018 21:14

[Цитировать]

Черновик - Производство: Россия
Жанр: Фантастика
Режиссер: Сергей Мокрицкий
Актеры: Никита Волков, Евгений Ткачук, Ольга Боровская, Юлия Пересильд, Северия Янушаускайте, Евгений Цыганов, Елена Яковлева, Ирина Демидкина, Андрей Мерзликин, Андрей Руденский
Описание:
Молодой москвич Кирилл — талантливый дизайнер компьютерных игр. В один прекрасный день он оказывается напрочь стертым из памяти всех, кого он знал и любил. Кирилл узнает, что выбран для важной и таинственной миссии. Его предназначение — стать таможенником между параллельными мирами, коих во Вселенной десятки. Сможет ли Кирилл разгадать тайну этих таинственных миров и того, кто и зачем ими управляет? И действительно ли наша Земля — всего лишь воображаемый «черновик», параллельный мир, которого в Реальности не существует…

Возраст: 12+ (зрителям, достигшим 12 лет)
Дата мировой премьеры: 31 мая 2018
Дата российской премьеры: 25 мая 2018, «WDSSPR»
Продолжительность: 01:44:47
Качество видео: TS
Перевод: Не требуется (Русский)
Субтитры: Отсутствуют
Реклама: Присутствуют вставки видео и аудио рекламы
Видео: AVC/H.264, 1280х536, ~3643 kbps
Аудио: AC3, 2 ch, 384 kbps

Mediainfo:

Общее
Уникальный идентификатор : 248832208338223556758530859079259833609 (0xBB335711E2A65CBE8FD978F3D1AAC509)
Полное имя : D:Торренты\Черновик.2018.O.TS.72Op.mkv
Формат : Matroska
Версия формата : Version 2
Размер файла : 2,95 Гбайт
Продолжительность : 1 ч. 44 м.
Режим общего битрейта : Переменный
Общий поток : 4029 Кбит/сек
Дата кодирования : UTC 2018-05-27 07:25:25
Программа кодирования : mkvmerge v8.3.0 ('Over the Horizon') 64bit
Библиотека кодирования : libebml v1.3.1 + libmatroska v1.4.2
Видео
Идентификатор : 1
Формат : AVC
Формат/Информация : Advanced Video Codec
Профиль формата : [url=mailto:High@L4.1]High@L4.1[/url]
Настройки формата : CABAC / 4 Ref Frames
Параметр CABAC формата : Да
Параметр RefFrames формата : 4 кадра
Идентификатор кодека : V_MPEG4/ISO/AVC
Продолжительность : 1 ч. 44 м.
Вид битрейта : Переменный
Битрейт : 3643 Кбит/сек
Максимальный битрейт : 4000 Кбит/сек
Ширина : 1280 пикселей
Высота : 536 пикселей
Соотношение сторон : 2,40:1
Режим частоты кадров : Постоянный
Частота кадров : 23,976 (24000/1001) кадра/сек
Стандарт вещания : Component
Цветовое пространство : YUV
Субдискретизация насыщенности : 4:2:0
Битовая глубина : 8 бит
Тип развёртки : Прогрессивная
Бит/(Пиксели*Кадры) : 0.221
Размер потока : 2,67 Гбайт (90%)
Default : Да
Forced : Нет
Цветовой диапазон : Limited
Основные цвета : BT.709
Характеристики трансфера : BT.709
Коэффициенты матрицы : BT.709
Аудио
Идентификатор : 2
Формат : AC-3
Формат/Информация : Audio Coding 3
Идентификатор кодека : A_AC3
Продолжительность : 1 ч. 44 м.
Вид битрейта : Постоянный
Битрейт : 384 Кбит/сек
Каналы : 2 канала
Расположение каналов : Front: L R
Частота : 48,0 КГц
Частота кадров : 31,250 кадров/сек (1536 SPF)
Битовая глубина : 16 бит
Метод сжатия : С потерями
Размер потока : 288 Мбайт (10%)
ServiceKind/String : Complete Main
Default : Да
Forced : Нет
Скриншоты:
       

Theseus

Пост 22-Май-2018 14:03

[Цитировать]

Мстители: Война бесконечности / Avengers: Infinity War -Год выхода: 2018
Страна: США
Жанр: фантастика, фэнтези, боевик, приключения
Продолжительность: 02:29:18
Перевод: Профессиональный (полное дублирование)
Субтитры: Отсутствуют-Режиссер: Энтони Руссо, Джо Руссо-В ролях: Роберт Дауни мл., Крис Хемсворт, Марк Руффало, Крис Эванс, Скарлетт Йоханссон, Дон Чидл, Бенедикт Камбербэтч, Том Холланд, Чэдвик Боузмэн, Зои Салдана-О фильме: Пока Мстители и их союзники продолжают защищать мир от различных опасностей, с которыми не смог бы справиться один супергерой, новая угроза возникает из космоса: Танос. Межгалактический тиран преследует цель собрать все шесть Камней Бесконечности — артефакты невероятной силы, с помощью которых можно менять реальность по своему желанию. Всё, с чем Мстители сталкивались ранее, вело к этому моменту — судьба Земли никогда ещё не была столь неопределённой.- -Качество: TS
Формат: AVI
Видео кодек: XviD
Аудио кодек: AC3
Видео: MPEG4, XviD, 704x288 (2.40:1), 23.976 fps, 1 236 Kbps (0.254 bit/pixel)
Аудио: AC-3, 48.0 KHz, 2 ch, 192 Kbps, CBR-Сэмпл-Рекламы нет !-

Трейлер

-    - -

Theseus

Пост 22-Май-2018 14:02

[Цитировать]

Мстители: Война бесконечности / Avengers: Infinity War -Год выхода: 2018
Страна: США
Жанр: фантастика, фэнтези, боевик, приключения
Продолжительность: 02:29:18
Перевод: Профессиональный (полное дублирование)
Субтитры: Русские, Английские-Режиссер: Энтони Руссо, Джо Руссо-В ролях: Роберт Дауни мл., Крис Хемсворт, Марк Руффало, Крис Эванс, Скарлетт Йоханссон, Дон Чидл, Бенедикт Камбербэтч, Том Холланд, Чэдвик Боузмэн, Зои Салдана-О фильме: Пока Мстители и их союзники продолжают защищать мир от различных опасностей, с которыми не смог бы справиться один супергерой, новая угроза возникает из космоса: Танос. Межгалактический тиран преследует цель собрать все шесть Камней Бесконечности — артефакты невероятной силы, с помощью которых можно менять реальность по своему желанию. Всё, с чем Мстители сталкивались ранее, вело к этому моменту — судьба Земли никогда ещё не была столь неопределённой.- -Качество: TS-AVC
Формат: MKV
Видео кодек: x.264
Аудио кодек: AC3
Видео: AVC, 1040x430 (2.40:1), 30.000 fps, 2 300 Kbps (0.171 bit/pixel)
Аудио #1: AC-3, 48.0 KHz, 2 ch, 320 Kbps, CBR (Russian)
Аудио #2: AC-3, 48.0 KHz, 2 ch, 320 Kbps, CBR (English)-Сэмпл-Рекламы нет !-

Трейлер

-    - -

Theseus

Пост 23-Мар-2018 21:49

[Цитировать]

Тихоокеанский рубеж 2 / Pacific Rim Uprising- Год выпуска: 2018
Производство: Китай, США
Жанр: фантастика, боевик, приключения
Продолжительность: 01:42:16
Перевод: Профессиональный (полное дублирование)
Субтитры: Отсутствуют-Режиссер: Стивен С. ДеНайт-В ролях: Джон Бойега, Скотт Иствуд, Кэйли Спэни, Берн Горман, Чарли Дэй, Цзин Тянь, Макс Чжан, Адриа Архона, Ринко Кикути, Каран Брэр-Описание: Команда пилотируемых роботов-защитников остановила вторжение гигантских инопланетных монстров. Великая битва за Тихоокеанский рубеж ознаменовала новую главу в истории человечества. Однако война только начинается…
Пришло время нового поколения отстаивать своё право на Землю..- -Качество: TS 720p
Формат: MKV
Видео кодек: x.264
Аудио кодек: AC3
Видео: MPEG4-AVC, 1280x500, 23.976 fps, ~3248 kbps avg
Аудио: AC-3, 48.0 KHz, 2 ch, 192 Kbps, CBR-Присутствует реклама !-

Трейлер

-   - -

Theseus

Пост 23-Мар-2018 21:47

[Цитировать]

Тихоокеанский рубеж 2 / Pacific Rim Uprising- Год выпуска: 2018
Производство: Китай, США
Жанр: фантастика, боевик, приключения
Продолжительность: 01:42:16
Перевод: Профессиональный (полное дублирование)
Субтитры: Отсутствуют-Режиссер: Стивен С. ДеНайт-В ролях: Джон Бойега, Скотт Иствуд, Кэйли Спэни, Берн Горман, Чарли Дэй, Цзин Тянь, Макс Чжан, Адриа Архона, Ринко Кикути, Каран Брэр-Описание: Команда пилотируемых роботов-защитников остановила вторжение гигантских инопланетных монстров. Великая битва за Тихоокеанский рубеж ознаменовала новую главу в истории человечества. Однако война только начинается…
Пришло время нового поколения отстаивать своё право на Землю..- -Качество: TS
Формат: AVI
Видео кодек: XviD
Аудио кодек: AC3
Видео: 720x288 (2.50:1), 23.976 fps, XviD build 50 ~1711 kbps avg, 0.34 bit/pixell
Аудио: AC-3, 48.0 KHz, 2 ch, 192 Kbps, CBR-Присутствует реклама !-

Трейлер

-   - -

Theseus

Пост 09-Фев-2018 22:54

[Цитировать]

MrPRO157, Бубляж , ну да , записанный камерой с кинотеатра Сарказм
Картинка терпима, звук не очень - полный TS в раздаче, ждём хотя бы Line ("Чистый звук")

MrPRO157

Пост 09-Фев-2018 15:10

[Цитировать]

Уважаемый Theseus. Укажите, что перевод ещё и закадровый)))))

Theseus

Пост 08-Фев-2018 18:01

[Цитировать]

Бегущий в лабиринте: Лекарство от смерти / Maze Runner: The Death Cure- Год выпуска: 2018
Производство: США
Жанр: фантастика, боевик, триллер
Продолжительность: 02:22:31
Перевод: Профессиональный (полное дублирование)
Режиссер: Уэс Болл-В ролях: Роза Салазар, Томас Сэнгстер, Дилан О Брайен, Кая Скоделарио, Уолтон Гоггинс, Кэтрин МакНамара, Эйдан Гиллен, Натали Эммануэль, Патришия Кларксон, Джанкарло Эспозито-Описание: Томас возглавляет отряд выживших глейдеров, чтобы выполнить последнюю и самую опасную миссию. Ради спасения своих друзей они должны проникнуть в легендарный Последний город, смертоносный лабиринт, контролируемый ПОРОКом. Каждый, кто выживет там, наконец-то получит ответы на все вопросы, которые мучили глейдеров с момента попадания в лабиринт.- -Качество: TS
Формат: AVI
Видео кодек: XviD
Аудио кодек: AC3
Видео: 7720x304 (2.37:1), 23.976 fps, XviD build 50 ~1171 kbps avg, 0.22 bit/pixel
Аудио: AC-3, 48.0 KHz, 2 ch, 192 Kbps, CBR-
-

Трейлер

-   - -

Theseus

Пост 08-Фев-2018 18:04

[Цитировать]

Бегущий в лабиринте: Лекарство от смерти / Maze Runner: The Death Cure- Год выпуска: 2018
Производство: США
Жанр: фантастика, боевик, триллер
Продолжительность: 02:22:31
Перевод: Профессиональный (полное дублирование)
Режиссер: Уэс Болл-В ролях: Роза Салазар, Томас Сэнгстер, Дилан О Брайен, Кая Скоделарио, Уолтон Гоггинс, Кэтрин МакНамара, Эйдан Гиллен, Натали Эммануэль, Патришия Кларксон, Джанкарло Эспозито-Описание: Томас возглавляет отряд выживших глейдеров, чтобы выполнить последнюю и самую опасную миссию. Ради спасения своих друзей они должны проникнуть в легендарный Последний город, смертоносный лабиринт, контролируемый ПОРОКом. Каждый, кто выживет там, наконец-то получит ответы на все вопросы, которые мучили глейдеров с момента попадания в лабиринт.- -Качество: TS 720p
Формат: MKV
Видео кодек: x.264
Аудио кодек: AC3
Видео: AVC, 1264x544, 23.976 fps, 3231 Кбит/с
Аудио: AC-3, 48.0 KHz, 2 ch, 384 Kbps, CBR-
-

Трейлер

-   - -

Theseus

Пост 08-Фев-2018 18:03

[Цитировать]

Бегущий в лабиринте: Лекарство от смерти / Maze Runner: The Death Cure- Год выпуска: 2018
Производство: США
Жанр: фантастика, боевик, триллер
Продолжительность: 02:22:31
Перевод: Профессиональный (полное дублирование)
Режиссер: Уэс Болл-В ролях: Роза Салазар, Томас Сэнгстер, Дилан О Брайен, Кая Скоделарио, Уолтон Гоггинс, Кэтрин МакНамара, Эйдан Гиллен, Натали Эммануэль, Патришия Кларксон, Джанкарло Эспозито-Описание: Томас возглавляет отряд выживших глейдеров, чтобы выполнить последнюю и самую опасную миссию. Ради спасения своих друзей они должны проникнуть в легендарный Последний город, смертоносный лабиринт, контролируемый ПОРОКом. Каждый, кто выживет там, наконец-то получит ответы на все вопросы, которые мучили глейдеров с момента попадания в лабиринт.- -Качество: TS
Формат: AVI
Видео кодек: XviD
Аудио кодек: AC3
Видео: 720x304 (2.37:1), 23.976 fps, XviD build 50 ~1671 kbps avg, 0.32 bit/pixel
Аудио: AC-3, 48.0 KHz, 2 ch, 384 Kbps, CBR-
-

Трейлер

-   - -

Theseus

Пост 14-Янв-2018 22:18

[Цитировать]

Звёздные войны: Последние джедаи / Star Wars: The Last Jedi- Год выпуска: 2017
Производство: Франция
Жанр: фантастика, фэнтези, боевик, приключения
Продолжительность: 02:26:11
Перевод: Профессиональный (полное дублирование) | Чистый звук
Субтитры: Корейские (вшитые)-Режиссер: Райан Джонсон-В ролях: Марк Хэмилл, Кэрри Фишер, Адам Драйвер, Дэйзи Ридли, Джон Бойега, Оскар Айзек, Энди Серкис, Лупита Нионго, Донал Глисон, Энтони Дэниелс-Описание: Новая история о противостоянии света и тьмы, добра и зла начинается после гибели Хана Соло. В Галактике, где Первый Орден и Сопротивление яростно сражаются друг с другом в войне, героиня Рей пробудила в себе Силу. Но что произойдет, когда она встретится с единственным оставшимся в живых рыцарем-джедаем — Люком Скайуокером?
Кайло Рен перешел на Темную сторону Силы и убил собственного отца, заняв высокую позицию в Первом Ордене. Но куда приведут его неуемные амбиции, подаренные по наследству грозным дедом Дартом Вейдером? Ситуация обострится еще больше, когда мать Кайло, лидер Сопротивления Лея, вместе с По, Финном и BB-8 приступит к новой миссии.- -Качество: Telecine
Формат: AVI
Видео кодек: XviD
Аудио кодек: AC3
Видео: 720x336 (2.14:1), 23.976 fps, XviD build 50 ~1225 kbps avg, 0.21 bit/pixel
Аудио: AC-3, 48.0 KHz, 2 ch, 192 Kbps, CBR-Примечание: присутствует реклама
-

Трейлер

-     - -

Theseus

Пост 14-Янв-2018 22:16

[Цитировать]

Звёздные войны: Последние джедаи / Star Wars: The Last Jedi- Год выпуска: 2017
Производство: Франция
Жанр: фантастика, фэнтези, боевик, приключения
Продолжительность: 02:25:07
Перевод: Профессиональный (полное дублирование) | Чистый звук
Субтитры: Корейские (вшитые)-Режиссер: Райан Джонсон-В ролях: Марк Хэмилл, Кэрри Фишер, Адам Драйвер, Дэйзи Ридли, Джон Бойега, Оскар Айзек, Энди Серкис, Лупита Нионго, Донал Глисон, Энтони Дэниелс-Описание: Новая история о противостоянии света и тьмы, добра и зла начинается после гибели Хана Соло. В Галактике, где Первый Орден и Сопротивление яростно сражаются друг с другом в войне, героиня Рей пробудила в себе Силу. Но что произойдет, когда она встретится с единственным оставшимся в живых рыцарем-джедаем — Люком Скайуокером?
Кайло Рен перешел на Темную сторону Силы и убил собственного отца, заняв высокую позицию в Первом Ордене. Но куда приведут его неуемные амбиции, подаренные по наследству грозным дедом Дартом Вейдером? Ситуация обострится еще больше, когда мать Кайло, лидер Сопротивления Лея, вместе с По, Финном и BB-8 приступит к новой миссии.- -Качество: Telecine
Формат: AVI
Видео кодек: XviD
Аудио кодек: AC3
Видео: 720x336 (2.14:1), 23.976 fps, XviD build 50 ~1745 kbps avg, 0.30 bit/pixel
Аудио: AC-3, 48.0 KHz, 2 ch, 384 Kbps, CBR-Примечание: присутствует реклама
-

Трейлер

-     - -
 

Текущее время: Сегодня 23:44

Часовой пояс: GMT + 3