Today is a free download without charge Download

Search found 8 matches

Author Message

XP1971

Post 16-Apr-2017 09:53

[Quote]

-Она единственная

Shes the One
-- Страна: USA
Режиссер: Bishop
Год выпуска: 2012 г.
Студия: Wicked Pictures
Продолжительность: 02:30:41
Жанр: Teens, Dogging, Feature
Оригинальный аудиопоток: английский
Перевод: Профессиональный (двухголосый, закадровый)-В ролях:
Brooklyn Lee, Carolyn Reese, Kaylani Lei, Lexi Belle, Misty Stone, Alec Knight, Ryan McLane, Xander Corvus, Kris Slater-Оригинальное описание:
For the last several months, Ryan (Xander Corvus) has been coming inot the diner where Rachel (Lexi Belle) works. Is it the food, or does he want something that's not on the menu? Their attraction is obvious to everyone. When Ryan finally steps up to ask Rachel out, he finds her in the arms of another man (Kris Slater) and backs off. Looks can be deceiving however, and the other man is actually Rachel's visiting brother who eventually teams up with Rachel's best friend (Brooklyn Lee) to help track Ryan down and make sure the pair have another chance at love...-Описание на русском:
Тормоз Райан несколько месяцев ходил в ресторан, где работала симпатичная официантка Рейчел. Действительно ресторан так хорош, или молодому ловеласу захотелось распробовать того, чего нет в меню – обольстительную Рейчел? Взаимная симпатия молодых людей давно перестала кого-либо удивлять, но когда Райан решился наконец-то поговорить с красоткой, та ответила, что у нее уже есть молодой человек. А в это время все вокруг трахаются, трахаются... А эти двое всё разговаривают...
А что же в итоге? Райан всё-же вскарабкался на Рейчел аки насильнег, ибо на жену уже не стоит квартал как, а у голодной сучки Рейчел на самом деле уже давно не было глубоких подкожных инъекций толстого розового шприца.-
Контейнер: MKV
Аудио кодек: AC3
Видео кодек: XviD
Cубтитры: отсутствуют
Качество видео: DVDRip
Аудио: Audio Coding 3 | 48.0 KHz | 2 ch | 192.0 Kbps
Видео: MPEG-4 Visual | 624х352 | 1130 Кbps | 23.976 fps | 0.215 bit/pixel

Media Info

Код:
Общее
Уникальный идентификатор : 246303185934038313965658811827718039988 (0xB94C44A36F981518B2368DFBA889A9B4)
Полное имя : She's the One (Она единственная)_[pirat.ca].mkv
Формат : Matroska
Версия формата : Version 2
Размер файла : 1,42 Гбайт
Продолжительность : 2 ч. 30 м.
Общий поток : 1349 Кбит/сек
Дата кодирования : UTC 2016-08-15 15:11:40
Программа кодирования : mkvmerge v4.9.1 ('Ich will') сборка от Jul 11 2011 23:53:15
Библиотека кодирования : libebml v1.2.1 + libmatroska v1.1.1
Видео
Идентификатор : 1
Формат : MPEG-4 Visual
Профиль формата : Advanced [email protected]/*  */
Параметр BVOP формата : Нет
Параметр QPel формата : Нет
Параметр GMC формата : Без точки перехода
Параметр матрицы формата : Default (MPEG)
Идентификатор кодека : V_MS/VFW/FOURCC / XVID
Идентификатор кодека/Подсказка : XviD
Продолжительность : 2 ч. 30 м.
Битрейт : 1130 Кбит/сек
Ширина : 624 пикселя
Высота : 352 пикселя
Соотношение сторон : 16:9
Режим частоты кадров : Постоянный
Частота кадров : 23,976 (24000/1001) кадра/сек
Цветовое пространство : YUV
Субдискретизация насыщенности : 4:2:0
Битовая глубина : 8 бит
Тип развёртки : Прогрессивная
Метод сжатия : С потерями
Бит/(Пиксели*Кадры) : 0.215
Размер потока : 1,19 Гбайт (84%)
Библиотека кодирования : XviD 64
Default : Да
Forced : Нет
Аудио
Идентификатор : 2
Формат : AC-3
Формат/Информация : Audio Coding 3
Параметр Endianness формата : Big
Режим смешивания : Header stripping
Идентификатор кодека : A_AC3
Продолжительность : 2 ч. 30 м.
Вид битрейта : Постоянный
Битрейт : 192 Кбит/сек
Каналы : 2 канала
Расположение каналов : Front: L R
Частота : 48,0 КГц
Частота кадров : 31,250 кадров/сек (1536 spf)
Битовая глубина : 16 бит
Метод сжатия : С потерями
Размер потока : 207 Мбайт (14%)
ServiceKind/String : Complete Main
Default : Да
Forced : Нет

Скринлист

Скриншоты

                                         
-Спасибо Дядя Витя за создание этого релиза.-

XP1971

Post 28-Jan-2017 11:52

[Quote]

-Остров Сокровищ

Selen the Girl of Treasure Island

Selen nell'Isola del Tesoro
-- Страна: ITALY
Студия: In-X-Cess
Год выпуска: 1998 г.
Режиссер: Joe D'Amato
Продолжительность: 01:34:18
Оригинальный аудиопоток: английский
Жанр: Feature, European, Anal, DP, DPP, Costumes
Перевод: Профессиональный (одноголосый, SP Company)-В ролях:
Selen, Deborah Valentine as Gabriella Vincze, Sheila Stanton as Csilla Kalnay, Judith Kostner as Judith Weller, Katalyn Hoffner, Karli Sweet as Hajny, Cyndy as Hildiko Buckly, Jay Lassiter as Horst Kallinger, Zenza Raggi, Remigio Zampa as Remigio, Chris Charming, Davide Gladio-Оригинальное описание:
Joanna is the niece of an old pirate named Flint, who was the right-hand man of the famous Captain Ahab. Jack spends the night with her in the hope of discovering the whereabouts of a map that reveals the secret location of Ahab's treasure. When she discovers his true intent, Joanna decides to search for the treasure herself. Her initial attempt yields little success. She embarks on a series of exciting adventures, getting involved with a sultan's harem and a band of female pirates along the way. Finally, Joanna and her pirate friends overcome their enemies, and with Ahab's treasure in their hands create a new nation "Paradise Island."-Описание на русском:
Джоанна - племянница старого пирата по имени Флинт, который был правой рукой знаменитого капитана Ахэба. Джек проводит ночь с нею в надежде узнать, где находится карта, указывающая секретное местоположение сокровищ Ахэба. Когда Джоанна узнает о его истинных намерениях, она решает искать сокровище сама. Ее начальная попытка приводит к небольшому успеху. Она попадает в целый ряд захватывающих приключений, связанных с гаремом султана и бандой женщин-пиратов. Наконец, Джоанна и ее друзья-пираты побеждают своих врагов, и с сокровищем Ахэба в руках создают новую нацию "Райский Остров".
Прекрасные женщины, роскошные костюмы, красивые интерьеры, горячий секс и приключения - вот рецепт хорошего фильма для взрослых от Джо Д'Амато!-
Контейнер: AVI
Аудио кодек: AC3
Видео кодек: XviD
Cубтитры: отсутствуют
Качество видео: DVDRip
Стандарт разрешения: 480p
Аудио: Audio Coding 3 | 48.0 KHz | 2 ch | 192.0 Kbps
Видео: AVC | 640х480 | 1299 Кbps | 25.0 fps | 0.169 bit/pixel

Media Info

Код:
Общее
Полное имя : Ostrov_sokrovish_[...].avi
Формат : AVI
Формат/Информация : Audio Video Interleave
Размер файла : 1013 Мбайт
Продолжительность : 1 ч. 34 м.
Общий поток : 1502 Кбит/сек
Программа кодирования : Lavf54.63.104
Видео
Идентификатор : 0
Формат : xvid
Идентификатор кодека : xvid
Продолжительность : 1 ч. 34 м.
Битрейт : 1299 Кбит/сек
Ширина : 640 пикселей
Высота : 480 пикселей
Соотношение сторон : 4:3
Частота кадров : 25,000 кадров/сек
Бит/(Пиксели*Кадры) : 0.169
Размер потока : 876 Мбайт (86%)
Аудио
Идентификатор : 1
Формат : AC-3
Формат/Информация : Audio Coding 3
Расширение режима : CM (complete main)
Параметр Endianness формата : Big
Идентификатор кодека : 2000
Продолжительность : 1 ч. 34 м.
Вид битрейта : Постоянный
Битрейт : 192 Кбит/сек
Каналы : 2 канала
Расположение каналов : Front: L R
Частота : 48,0 КГц
Битовая глубина : 16 бит
Метод сжатия : С потерями
Размер потока : 130 Мбайт (13%)
Выравнивание : Соединение по промежуткам
Продолжительность промежутка : 32 мс. (0,80 видеокадр)

Обложка

Скринлист

Скриншоты

                                                       

XP1971

Post 28-Jan-2017 11:48

[Quote]

-Служебный Роман

Office Encounters

Страна: USA
Год выпуска: 2011 г.
Студия: Wicked Pictures
Режиссер: Brad Armstrong
Продолжительность: 01:41:51
Жанр: Feature, Dogging, Oral Sex
Оригинальный аудиопоток: английский
Перевод: Профессиональный (одноголосый, закадровый)-В ролях:
India Summer, Jack Lawrence, Jessica Drake, Asa Akira, Johnny Castle, Lexi Swallows, Rocco Reed, Tommy Gunn-Оригинальное описание:
Have you ever fantasized about making love to a co-worker... or maybe even fallen in love with one? Linda (jessica drake) and Jim (Rocco Reed) are trying to keep their office affair a secret so they don't risk breaking company rules. But they're not the only ones taking part in the occasional afternoon desk clearing session. Secret rendezvous, after hour "meetings", and closed door sessions are all part of the sexy fun.-Описание на русском:
Ты когда-нибудь хотел потрахаться с коллегой на работе? Линда и Джим пытаются держать их служебный роман в секрете с тем, чтобы не нарушать правила компании, поэтому трахаются молча и по-бырому.
Но они не единственные, кто держит такого рода секрет. Когда же их тайна будет раскрыта, они должны будут принять решение: объявить всем, что они типа по любви или начать с кем-нить другой, новый “Служебный роман”. Вопчем, все перетрахались.-
Контейнер: MKV
Аудио кодек: AC3
Видео кодек: XviD
Cубтитры: отсутствуют
Качество видео: DVDRip
Аудио: Audio Coding 3 | 44.1 KHz | 2 ch | 192.0 Kbps
Видео: XviD | 720х404 | 1948 Кbps | 23.976 fps | 0.279 bit/pixel

Media Info

Код:
Общее
Уникальный идентификатор : 239600990768710487974761930050741328084 (0xB44178E783B6454D9C379F5188F9D8D4)
Полное имя : Office Encounters_[....].mkv
Формат : Matroska
Версия формата : Version 2
Размер файла : 1,55 Гбайт
Продолжительность : 1 ч. 41 м.
Общий поток : 2184 Кбит/сек
Дата кодирования : UTC 2016-08-17 12:06:30
Программа кодирования : mkvmerge v4.9.1 ('Ich will') сборка от Jul 11 2011 23:53:15
Библиотека кодирования : libebml v1.2.1 + libmatroska v1.1.1
Видео
Идентификатор : 1
Формат : xvid
Идентификатор кодека : V_MS/VFW/FOURCC / xvid
Продолжительность : 1 ч. 41 м.
Битрейт : 1948 Кбит/сек
Ширина : 720 пикселей
Высота : 404 пикселя
Соотношение сторон : 16:9
Режим частоты кадров : Постоянный
Частота кадров : 23,976 кадра/сек
Бит/(Пиксели*Кадры) : 0.279
Размер потока : 1,39 Гбайт (89%)
Default : Да
Forced : Нет
Аудио
Идентификатор : 2
Формат : AC-3
Формат/Информация : Audio Coding 3
Расширение режима : CM (complete main)
Параметр Endianness формата : Big
Режим смешивания : Header stripping
Идентификатор кодека : A_AC3
Продолжительность : 1 ч. 41 м.
Вид битрейта : Постоянный
Битрейт : 192 Кбит/сек
Каналы : 2 канала
Расположение каналов : Front: L R
Частота : 44,1 КГц
Битовая глубина : 16 бит
Метод сжатия : С потерями
Размер потока : 140 Мбайт (9%)
Default : Да
Forced : Нет

Скринлист

Скриншоты

                 

XP1971

Post 23-Jan-2017 19:49

[Quote]

-Клонирование

Clonazione / La Poupеe qui dit oui
-- Страна: ITALY
Режиссер: Pink'o
Год выпуска: 2001 г.
Студия: Marcus Dolby
Продолжительность: 02:05:44
Жанр: Feature, Anal, DP, Threesome
Оригинальный аудиопоток: английский
Перевод: Профессиональный (одноголосый) [SP Company]-В ролях:
Anais Aphrodite, Eva Falk, Fanny Bravo, Maria Loren, Paola Valle, Andrea Monti, Andrea Nobili, Benito Boldi, Max Cortes, Philippe Dean, Remigio Zampa, Roberto Malone-Оригинальное описание:
The topic of cloning is a difficult and dangerous its unexplored nature, and that Professor Sork decided to clone his ex-daughter. And it seems like everything is in place for clone - Tits, pussy, ass, ears and other parts, but here something not so. And while the Professor is studying another urine test at the same time fucking in the ass nurse, daughter-clone gives everyone the right and left, gives a soulful, even in the two guns in her fucking high. Poor dad...-Описание на русском:
Тема клонирования трудна и опасна своей неизученной природой, вот и профессор Шорк решил клонировать свою отъехавшую дочь. И вроде как всё на месте у клона - сиськи, писька, жопа, уши и прочие запчасти, но вот что-то типа не так. И пока профессор изучает очередной анализ мочи одновременно трахая раком медсестру, доча-клон даёт всем желающим направо и налево, даёт душевно, даже в два ствола ей в офигенный кайф. Бедный папа...-
Контейнер: AVI
Аудио кодек: MP3
Видео кодек: XviD
Cубтитры: отсутствуют
Качество видео: DVDRip
Аудио: MPEG Audio | 48.0 KHz | 2 ch | 128.0 Kbps
Видео: MPEG-4 Visual | 688х448 | 1763 Кbps | 25.0 fps | 0.229 bit/pixel

Media Info

Код:
Общее
Полное имя : Clonazione_[pirat.ca].avi
Формат : AVI
Формат/Информация : Audio Video Interleave
Размер файла : 1,67 Гбайт
Продолжительность : 2 ч. 5 м.
Общий поток : 1900 Кбит/сек
Библиотека кодирования : VirtualDub build 35491/release
Видео
Идентификатор : 0
Формат : MPEG-4 Visual
Профиль формата : Advanced [email protected]/*  */
Параметр BVOP формата : Нет
Параметр QPel формата : Нет
Параметр GMC формата : Без точки перехода
Параметр матрицы формата : Выборочная
Идентификатор кодека : XVID
Идентификатор кодека/Подсказка : XviD
Продолжительность : 2 ч. 5 м.
Битрейт : 1763 Кбит/сек
Ширина : 688 пикселей
Высота : 448 пикселей
Соотношение сторон : 3:2
Частота кадров : 25,000 кадров/сек
Цветовое пространство : YUV
Субдискретизация насыщенности : 4:2:0
Битовая глубина : 8 бит
Тип развёртки : Прогрессивная
Метод сжатия : С потерями
Бит/(Пиксели*Кадры) : 0.229
Размер потока : 1,55 Гбайт (93%)
Библиотека кодирования : XviD 64
Аудио
Идентификатор : 1
Формат : MPEG Audio
Версия формата : Version 1
Профиль формата : Layer 3
Режим : Joint stereo
Идентификатор кодека : 55
Идентификатор кодека/Подсказка : MP3
Продолжительность : 2 ч. 5 м.
Вид битрейта : Постоянный
Битрейт : 128 Кбит/сек
Каналы : 2 канала
Частота : 48,0 КГц
Метод сжатия : С потерями
Размер потока : 115 Мбайт (7%)
Выравнивание : Разделение по промежуткам
Продолжительность промежутка : 40 мс. (1,00 видеокадр)
Время предзагрузки промежутка : 500 мс.

Обложка

Скринлист

Скриншоты

                                               

XP1971

Post 14-Jan-2017 01:12

[Quote]

-Замужняя Женщина. Зов Страсти
(русский перевод)

Married Woman: The Call Of Lust
43 Ans Les Nuits D'une Femme Mariee
-- Страна: France
Студия: Marc Dorcel
Режиссер: Gazzman
Год выпуска: 2015 г.
Жанр: Feature, Anal Sex, DP
Продолжительность: 01:43:37
Оригинальный аудиопоток: английский
Перевод: Профессиональный (одноголосый, закадровый)-В ролях: Rebecca More, Alexa Tomas, Honey Demon, Aida Sweet, Satin Bloom, Martina Gold, George Uhl, Juan Lucho-Оригинальное описание:
Come and discover how these gorgeous married women spend their daily lives and quench their insatiable thirst for orgasms. 40 year old Rebecca is married and has a great pair of breasts; she is about to discover new horizons of pleasure with her rich girlfriends. Having been in relationships for many years, these women start to collect virile lovers and passing stallions, thus embarking on incredible moments of debauchery and pleasure.-Описание на русском:
Разоблачив своего мужа в неверности, Ребекка решила взять свою судьбу в собственные руки и позволить себе управлять своими желаниями. Совместно с подругами она решает создать совершенно особый “клуб” для богатых замужних женщин с реальной целью соблазнения зрелых мужчин.-
Контейнер: MKV
Аудио кодек: AC3
Видео кодек: AVC
Cубтитры: отсутствуют
Качество видео: DVDRip
Аудио: Audio Coding 3 | 48.0 KHz | 2 ch | 192.0 Kbps
Видео: AVC | 704х390 | 1270 Кbps | 29.97 fps | 0.154 bit/pixel

Media Info

Код:
Общее
Уникальный идентификатор : 207074813642499762911121989100275994954 (0x9BC9288F0413017C9F075869F487914A)
Полное имя : Married Woman.The Call Of Lust_[pirat.ca].mkv
Формат : Matroska
Версия формата : Version 2
Размер файла : 1,08 Гбайт
Продолжительность : 1 ч. 43 м.
Общий поток : 1491 Кбит/сек
Дата кодирования : UTC 2016-11-25 12:38:05
Программа кодирования : mkvmerge v4.9.1 ('Ich will') сборка от Jul 11 2011 23:53:15
Библиотека кодирования : libebml v1.2.1 + libmatroska v1.1.1
Видео
Идентификатор : 1
Формат : AVC
Формат/Информация : Advanced Video Codec
Профиль формата : [email protected]/*  */
Параметр CABAC формата : Да
Параметр ReFrames формата : 5 кадров
Режим смешивания : Header stripping
Идентификатор кодека : V_MPEG4/ISO/AVC
Продолжительность : 1 ч. 43 м.
Битрейт : 1270 Кбит/сек
Ширина : 704 пикселя
Высота : 390 пикселей
Соотношение сторон : 16:9
Режим частоты кадров : Постоянный
Частота кадров : 29,970 кадров/сек
Цветовое пространство : YUV
Субдискретизация насыщенности : 4:2:0
Битовая глубина : 8 бит
Тип развёртки : Прогрессивная
Бит/(Пиксели*Кадры) : 0.154
Размер потока : 941 Мбайт (85%)
Библиотека кодирования : x264 core 148 r2579 73ae2d1
Настройки программы : cabac=1 / ref=5 / deblock=1:-1:-1 / analyse=0x3:0x133 / me=umh / subme=8 / psy=1 / psy_rd=1.00:0.15 / mixed_ref=1 / me_range=16 / chroma_me=1 / trellis=1 / 8x8dct=1 / cqm=0 / deadzone=21,11 / fast_pskip=0 / chroma_qp_offset=-3 / threads=6 / lookahead_threads=1 / sliced_threads=0 / nr=0 / decimate=1 / interlaced=0 / bluray_compat=0 / constrained_intra=0 / bframes=3 / b_pyramid=2 / b_adapt=2 / b_bias=0 / direct=3 / weightb=1 / open_gop=0 / weightp=2 / keyint=300 / keyint_min=29 / scenecut=40 / intra_refresh=0 / rc_lookahead=50 / rc=crf / mbtree=1 / crf=19.0 / qcomp=0.60 / qpmin=0 / qpmax=69 / qpstep=4 / vbv_maxrate=17500 / vbv_bufsize=17500 / crf_max=0.0 / nal_hrd=none / filler=0 / ip_ratio=1.40 / aq=1:1.00
Default : Да
Forced : Нет
Аудио
Идентификатор : 2
Формат : AC-3
Формат/Информация : Audio Coding 3
Расширение режима : CM (complete main)
Параметр Endianness формата : Big
Режим смешивания : Header stripping
Идентификатор кодека : A_AC3
Продолжительность : 1 ч. 43 м.
Вид битрейта : Постоянный
Битрейт : 192 Кбит/сек
Каналы : 2 канала
Расположение каналов : Front: L R
Частота : 48,0 КГц
Битовая глубина : 16 бит
Метод сжатия : С потерями
Размер потока : 142 Мбайт (13%)
Default : Да
Forced : Нет

Скринлист

Скриншоты

                                                           

XP1971

Post 26-Dec-2016 20:45

[Quote]

-По дороге в рай

Almost Heaven
-- Страна: USA
Год выпуска: 2010 г.
Режиссер: Eddie Powell
Студия: New Sensations
Продолжительность: 01:46:04
Жанр: Feature, Dogging, Blowjob
Оригинальный аудиопоток: английский
Перевод: Профессиональный (двухголосый, закадровый)-В ролях:
Allie Haze, Brooke Lee Adams, Chris Johnson, Danny Mountain, Kiara Diane, Rocco Reed, Seth Gamble, Victoria White, Xander Corvus-Оригинальное описание:
Angie has just passed away. Now she must choose one memory from her life to take into the next world. Angie chooses to remember her husband, Jake, but has trouble singling out a memory. With the help of Michael and Sara, Angie must rediscover the love that made her marriage so special-Описание на русском:
По дороге в рай необходимо выбрать самый запоминающийся момент своей жизни. Для Киары это задание оказывается нелёгким… Не то чтобы память её стала уже не та, просто если вспоминать все трахи с её мужиками - никакой памяти не хватит на все те члены, их вкусы и запахи.-
Контейнер: MKV
Аудио кодек: AC3
Видео кодек: AVC
Cубтитры: отсутствуют
Качество видео: DVDRip
Аудио: Audio Coding 3 | 48.0 KHz | 2 ch | 192.0 Kbps
Видео: AVC | 720х400 | 2000 Кbps | 29.97 fps | 0.040 bit/pixel

Media Info

Код:
Общее
Уникальный идентификатор : 226057292792659717493215533143826939196 (0xAA110D09FCD764ABAE2E9A18AFD4BD3C)
Полное имя : Almost Heaven_[pirat.ca].mkv
Формат : Matroska
Версия формата : Version 2
Размер файла : 1,62 Гбайт
Продолжительность : 1 ч. 46 м.
Общий поток : 2192 Кбит/сек
Дата кодирования : UTC 2016-08-15 12:56:37
Программа кодирования : mkvmerge v4.9.1 ('Ich will') сборка от Jul 11 2011 23:53:15
Библиотека кодирования : libebml v1.2.1 + libmatroska v1.1.1
Видео
Идентификатор : 1
Формат : AVC
Формат/Информация : Advanced Video Codec
Профиль формата : [email protected]/*  */
Параметр CABAC формата : Да
Параметр ReFrames формата : 4 кадра
Режим смешивания : Header stripping
Идентификатор кодека : V_MPEG4/ISO/AVC
Битрейт : 2000 Кбит/сек
Ширина : 720 пикселей
Высота : 400 пикселей
Соотношение сторон : 16:9
Режим частоты кадров : Переменный
Цветовое пространство : YUV
Субдискретизация насыщенности : 4:2:0
Битовая глубина : 8 бит
Тип развёртки : Прогрессивная
Библиотека кодирования : x264 core 112
Настройки программы : cabac=1 / ref=2 / deblock=1:0:0 / analyse=0x1:0x111 / me=hex / subme=6 / psy=1 / psy_rd=1.00:0.00 / mixed_ref=0 / me_range=16 / chroma_me=1 / trellis=0 / 8x8dct=0 / cqm=0 / deadzone=21,11 / fast_pskip=1 / chroma_qp_offset=-2 / threads=3 / sliced_threads=0 / nr=0 / decimate=1 / interlaced=0 / constrained_intra=0 / bframes=2 / b_pyramid=2 / b_adapt=1 / b_bias=0 / direct=1 / weightb=0 / open_gop=0 / weightp=2 / keyint=240 / keyint_min=23 / scenecut=40 / intra_refresh=0 / rc_lookahead=40 / rc=2pass / mbtree=1 / bitrate=2000 / ratetol=1.0 / qcomp=0.60 / qpmin=3 / qpmax=51 / qpstep=4 / cplxblur=20.0 / qblur=0.5 / ip_ratio=1.40 / aq=1:1.10
Язык : English
Default : Да
Forced : Нет
Цветовой диапазон : Limited
Основные цвета : BT.601 NTSC
Характеристики трансфера : BT.709
Коэффициенты матрицы : BT.601
Аудио
Идентификатор : 2
Формат : AC-3
Формат/Информация : Audio Coding 3
Расширение режима : CM (complete main)
Параметр Endianness формата : Big
Режим смешивания : Header stripping
Идентификатор кодека : A_AC3
Продолжительность : 1 ч. 46 м.
Вид битрейта : Постоянный
Битрейт : 192 Кбит/сек
Каналы : 2 канала
Расположение каналов : Front: L R
Частота : 48,0 КГц
Битовая глубина : 16 бит
Метод сжатия : С потерями
Размер потока : 146 Мбайт (9%)
Default : Да
Forced : Нет

Скринлист

Скриншоты

                 

XP1971

Post 22-Nov-2016 14:17

[Quote]

- Клитор-террорист

Terrors From The Clit
-- Страна: USA
Режиссер: Rob Black
Год выпуска: 1998 г.
Качество: Далеко не айс
Студия: Extreme Associates
Продолжительность: 01:28:36
Оригинальный аудиопоток: английский
Жанр: DP, Hardcore, Parody/Spoof, Feature, Gonzo
Перевод: Профессиональный (двухголосый, закадровый)-В ролях:
Elle Devyne, Erika Lockett, Intrusion, Kelly Dean, Lizzy Borden, Nikki Love, Porsha, Byron Long, Chris Cannon, Michael Stefano, Tom Byron, Tony Eveready, Van Damage-Актёры по сценам:
* Scene 1. Elle Devyne, Van Damage
* Scene 2. Kelly Dean, Michael Stefano, Van Damage
* Scene 3. Erika Lockett, Lizzy Borden, 2 guys
* Scene 4. Intrusion, Porsha, guy
* Scene 5. Nikki Love, Byron Long, Tony Eveready-Описание на русском:
Пять жутких историй про ведьм, вампиров и зомби, рассказанных на ночь. Нечистая тоже, оказывается, может, хочет и умеет! Нормальные люди, конечно, шарахаются от всех этих воскресших мертвецов и вурдалаков. Но это только сначала!
Внешний вид, видите ли, у них странный:)
Зато трахаются они не хуже других!-
Контейнер: AVI
Аудио кодек: AC3
Видео кодек: XviD
Cубтитры: отсутствуют
Качество видео: DVDRip
Аудио: Audio Coding 3 | 48.0 KHz | 2 ch | 192.0 Kbps
Видео: MPEG-4 Visual | 704х528 | 1956 Кbps | 25.0 fps | 0.210 bit/pixel

Media Info

Общее
Полное имя : Terrors_From_The_Clit_[pirat.ca].avi
Формат : AVI
Формат/Информация : Audio Video Interleave
Размер файла : 1,34 Гбайт
Продолжительность : 1 ч. 28 м.
Общий поток : 2158 Кбит/сек
Программа кодирования : VirtualDubModRus 1.5.10.2 (build 2542/release)
Видео
Идентификатор : 0
Формат : MPEG-4 Visual
Профиль формата : Advanced [email protected]/* */
Параметр BVOP формата : 1
Параметр QPel формата : Нет
Параметр GMC формата : Без точки перехода
Параметр матрицы формата : Default (H.263)
Режим смешивания : Сжатый битовый поток
Идентификатор кодека : XVID
Идентификатор кодека/Подсказка : XviD
Продолжительность : 1 ч. 28 м.
Битрейт : 1956 Кбит/сек
Ширина : 704 пикселя
Высота : 528 пикселей
Соотношение сторон : 4:3
Частота кадров : 25,000 кадров/сек
Цветовое пространство : YUV
Субдискретизация насыщенности : 4:2:0
Битовая глубина : 8 бит
Тип развёртки : Прогрессивная
Метод сжатия : С потерями
Бит/(Пиксели*Кадры) : 0.210
Размер потока : 1,21 Гбайт (91%)
Библиотека кодирования : XviD 1.2.1 (UTC 2008-12-04)
Аудио
Идентификатор : 1
Формат : AC-3
Формат/Информация : Audio Coding 3
Расширение режима : CM (complete main)
Параметр Endianness формата : Big
Идентификатор кодека : 2000
Продолжительность : 1 ч. 28 м.
Вид битрейта : Постоянный
Битрейт : 192 Кбит/сек
Каналы : 2 канала
Расположение каналов : Front: L R
Частота : 48,0 КГц
Битовая глубина : 16 бит
Метод сжатия : С потерями
Размер потока : 122 Мбайт (9%)
Выравнивание : Разделение по промежуткам
Продолжительность промежутка : 40 мс. (1,00 видеокадр)
Время предзагрузки промежутка : 500 мс.

Скринлист

XP1971

Post 09-Nov-2016 11:35

[Quote]

-Без Предела 1 / No Limits 1-- Страна: USA
Студия: Sineplex
Год выпуска: 2002 г.
Режиссер: Nacho Vidal
Жанр: DP, Anal Sex, Gonzo
Оригинальный аудиопоток: английский
Продолжительность: 02:11:34 + 00:11:57
Перевод: Профессиональный (одноголосый, закадровый)-В ролях:
Belladonna, Alexa May as Alexandria, Electra Angel,
Natalya, Ann Kiray as Anjoy, Nacho Vidal, Juliano Ferraz-Оригинальное описание:
Nacho Vidal takes these lusty young ladies to new sexual peaks and beyond. Furious hardcore action will have you begging for more and the girls begging for mercy! This is aggressive sex at its best! So enjoy some of the greatest fucking scenes and check out Bella Donna's acrobatic body.-Описание на русском:
Начо Видал поднимает этих юных похотливых барышень к новым сексуальным вершинам. Жесткое сексуальное действие заставит вас желать большего, а девушек - молить о пощаде! Это агрессивный секс в лучшем виде! Так что наслаждайтесь несколькими потрясающими секс-сценами и акробатическим телом шлюшки Белладонны. Одна тёлочка решила подмыться в бассейне, одев спасательный круг на пузо. Так её и драли, с одетым надувным кругом. Другая своё доброе утро начала с чистки зубного состава - отодрали в рот вместе с зубной пастой. А у третьей праздник на душе с утра - поздравили её свечкой в жопу и двойным проникновением. Только хардкор, только позитив! Дарите женщинам улыбки.-
Контейнер: MKV
Аудио кодек: AC3
Видео кодек: AVC
Cубтитры: отсутствуют
Качество видео: DVDRip
Аудио: Audio Coding 3 | 48.0 KHz | 2 ch | 192.0 Kbps
Видео: AVC | 720х544 | 2000 Кbps | 29.97 fps | 0.170 bit/pixel

Media Info

Main scene

Общее
Уникальный идентификатор : 175068039947272603973019715755371237420 (0x83B4E0C77D3ADF118D4B0C57A555902C)
Полное имя : No_Limits_[pirat.ca]\No Limits 1.mkv
Формат : Matroska
Версия формата : Version 2
Размер файла : 2,25 Гбайт
Продолжительность : 2 ч. 11 м.
Общий поток : 2447 Кбит/сек
Дата кодирования : UTC 2015-10-13 09:16:31
Программа кодирования : mkvmerge v4.9.1 ('Ich will') сборка от Jul 11 2011 23:53:15
Библиотека кодирования : libebml v1.2.1 + libmatroska v1.1.1
Видео
Идентификатор : 1
Формат : AVC
Формат/Информация : Advanced Video Codec
Профиль формата : [email protected]/* */
Параметр CABAC формата : Да
Параметр ReFrames формата : 4 кадра
Режим смешивания : Header stripping
Идентификатор кодека : V_MPEG4/ISO/AVC
Продолжительность : 2 ч. 11 м.
Битрейт : 2000 Кбит/сек
Ширина : 720 пикселей
Высота : 544 пикселя
Соотношение сторон : 4:3
Режим частоты кадров : Постоянный
Частота кадров : 29,970 кадров/сек
Цветовое пространство : YUV
Субдискретизация насыщенности : 4:2:0
Битовая глубина : 8 бит
Тип развёртки : Прогрессивная
Бит/(Пиксели*Кадры) : 0.170
Размер потока : 1,79 Гбайт (80%)
Библиотека кодирования : x264 core 112
Настройки программы : cabac=1 / ref=3 / deblock=1:0:0 / analyse=0x3:0x113 / me=hex / subme=7 / psy=1 / psy_rd=1.00:0.00 / mixed_ref=1 / me_range=16 / chroma_me=1 / trellis=1 / 8x8dct=1 / cqm=0 / deadzone=21,11 / fast_pskip=1 / chroma_qp_offset=-2 / threads=6 / sliced_threads=0 / nr=0 / decimate=1 / interlaced=0 / constrained_intra=0 / bframes=3 / b_pyramid=2 / b_adapt=1 / b_bias=0 / direct=1 / weightb=1 / open_gop=0 / weightp=2 / keyint=300 / keyint_min=29 / scenecut=40 / intra_refresh=0 / rc_lookahead=40 / rc=abr / mbtree=1 / bitrate=2000 / ratetol=1.0 / qcomp=0.60 / qpmin=3 / qpmax=51 / qpstep=4 / ip_ratio=1.40 / aq=1:1.00
Язык : English
Default : Да
Forced : Нет
Цветовой диапазон : Limited
Основные цвета : BT.601 NTSC
Характеристики трансфера : BT.709
Коэффициенты матрицы : BT.601
Аудио
Идентификатор : 2
Формат : AC-3
Формат/Информация : Audio Coding 3
Расширение режима : CM (complete main)
Параметр Endianness формата : Big
Режим смешивания : Header stripping
Идентификатор кодека : A_AC3
Продолжительность : 2 ч. 11 м.
Вид битрейта : Постоянный
Битрейт : 192 Кбит/сек
Каналы : 2 канала
Расположение каналов : Front: L R
Частота : 48,0 КГц
Битовая глубина : 16 бит
Метод сжатия : С потерями
Размер потока : 181 Мбайт (8%)
Язык : Russian
Default : Да
Forced : Да

Bonus scene

Код:
Общее
Уникальный идентификатор : 199707681930728274540296026507262549230 (0x963E4CEBF59D07DE0E55AA7E7FABDCEE)
Полное имя : No Limits 1_Bonus Scene.mkv
Формат : Matroska
Версия формата : Version 2
Размер файла : 192 Мбайт
Продолжительность : 11 м.
Общий поток : 2241 Кбит/сек
Программа кодирования : HandBrake 0.9.5
Библиотека кодирования : libmkv 0.6.4.1
Видео
Идентификатор : 1
Формат : AVC
Формат/Информация : Advanced Video Codec
Профиль формата : [email protected]/*  */
Параметр CABAC формата : Да
Параметр ReFrames формата : 4 кадра
Идентификатор кодека : V_MPEG4/ISO/AVC
Продолжительность : 11 м.
Битрейт : 2000 Кбит/сек
Ширина : 720 пикселей
Высота : 544 пикселя
Соотношение сторон : 4:3
Режим частоты кадров : Постоянный
Частота кадров : 29,970 кадров/сек
Цветовое пространство : YUV
Субдискретизация насыщенности : 4:2:0
Битовая глубина : 8 бит
Тип развёртки : Прогрессивная
Бит/(Пиксели*Кадры) : 0.170
Размер потока : 169 Мбайт (88%)
Библиотека кодирования : x264 core 112
Настройки программы : cabac=1 / ref=3 / deblock=1:0:0 / analyse=0x3:0x113 / me=hex / subme=7 / psy=1 / psy_rd=1.00:0.00 / mixed_ref=1 / me_range=16 / chroma_me=1 / trellis=1 / 8x8dct=1 / cqm=0 / deadzone=21,11 / fast_pskip=1 / chroma_qp_offset=-2 / threads=6 / sliced_threads=0 / nr=0 / decimate=1 / interlaced=0 / constrained_intra=0 / bframes=3 / b_pyramid=2 / b_adapt=1 / b_bias=0 / direct=1 / weightb=1 / open_gop=0 / weightp=2 / keyint=300 / keyint_min=29 / scenecut=40 / intra_refresh=0 / rc_lookahead=40 / rc=abr / mbtree=1 / bitrate=2000 / ratetol=1.0 / qcomp=0.60 / qpmin=3 / qpmax=51 / qpstep=4 / ip_ratio=1.40 / aq=1:1.00
Язык : English
Default : Да
Forced : Нет
Цветовой диапазон : Limited
Основные цвета : BT.601 NTSC
Характеристики трансфера : BT.709
Коэффициенты матрицы : BT.601
Аудио
Идентификатор : 2
Формат : AC-3
Формат/Информация : Audio Coding 3
Расширение режима : CM (complete main)
Параметр Endianness формата : Big
Идентификатор кодека : A_AC3
Продолжительность : 11 м.
Вид битрейта : Постоянный
Битрейт : 224 Кбит/сек
Каналы : 1 канал
Расположение каналов : Front: C
Частота : 48,0 КГц
Битовая глубина : 16 бит
Метод сжатия : С потерями
Размер потока : 19,1 Мбайт (10%)
Default : Да
Forced : Нет

Обложка

Скринлист

Main scene

Bonus scene

Скриншоты

                                       
 

The time now is: Today 18:00

All times are GMT + 3 Hours